osu file format v14

[General]
AudioFilename: Gate- Jieitai Kanochi nite, Kaku Tatakaeri Season 2 OP - Opening.mp3
AudioLeadIn: 0
PreviewTime: 51417
Countdown: 0
SampleSet: Soft
StackLeniency: 0.7
Mode: 0
LetterboxInBreaks: 0
WidescreenStoryboard: 0

[Editor]
Bookmarks: 51417
DistanceSpacing: 1.4
BeatDivisor: 4
GridSize: 4
TimelineZoom: 2.7

[Metadata]
Title:GATE II: Sekai wo Koete
TitleUnicode:GATE Ⅱ ~世界を超えて~
Artist:KISIDA KYODAN & THE AKEBOSI ROCKETS
ArtistUnicode:岸田教団 & THE 明星ロケッツ チャリティー
Creator:Wou
Version:Easy
Source:GATE(ゲート)自衛隊 彼の地にて、斯く戦えり
Tags:Gate: Jieitai Kanochi nite, Kaku Tatakaeri Season 2 Opening
BeatmapID:895844
BeatmapSetID:402986

[Difficulty]
HPDrainRate:2
CircleSize:2
OverallDifficulty:2
ApproachRate:3
SliderMultiplier:0.7
SliderTickRate:1

[Events]
//Background and Video events
Video,0,"gateop.avi"
0,0,"bg.jpg",0,0
//Break Periods
//Storyboard Layer 0 (Background)
//Storyboard Layer 1 (Fail)
//Storyboard Layer 2 (Pass)
//Storyboard Layer 3 (Foreground)
//Storyboard Sound Samples

[TimingPoints]
72,291.26213592233,4,2,1,60,1,0
72,-100,4,2,1,80,0,0
654,-100,4,2,1,80,0,0
1237,-100,4,2,1,70,0,0
1819,-100,4,2,1,60,0,0
2402,-100,4,2,1,50,0,0
2984,-100,4,2,1,40,0,0
3567,-100,4,2,1,70,0,0
4149,-100,4,2,1,55,0,0
5314,-100,4,2,1,70,0,0
14635,-100,4,2,1,60,0,0
21479,-100,4,2,1,60,0,0
23081,-100,4,2,2,60,0,0
24101,-100,4,2,1,80,0,0
49586,-100,4,2,1,60,0,0
49877,-100,4,2,1,50,0,0
50169,-100,4,2,1,40,0,0
50460,-100,4,2,1,30,0,0
50751,-100,4,2,1,20,0,0
51042,-100,4,2,1,10,0,0
51916,-100,4,2,1,80,0,1
61237,-100,4,2,1,80,0,0
70557,-100,4,2,1,80,0,1
78712,-100,4,2,1,70,0,0

[Colours]
Combo1 : 255,255,0
Combo2 : 255,255,255
Combo3 : 128,0,128
Combo4 : 0,255,255

[HitObjects]
256,192,72,12,4,4149,0:0:0:0:
144,244,5314,6,0,P|152:200|200:156,1,105
265,246,6042,2,0,P|297:202|297:150,1,105,0|6,0:0|0:0,0:0:0:0:
428,68,6916,1,8,0:0:0:0:
504,140,7207,2,0,P|452:172|396:164,1,105,0|6,0:0|0:0,0:0:0:0:
272,100,8081,5,8,0:0:0:0:
176,60,8372,2,0,P|168:104|192:168,1,105,0|6,0:0|0:0,0:0:0:0:
268,232,9101,1,6,0:0:0:0:
328,144,9392,2,0,P|372:96|452:88,1,140,2|6,0:0|0:0,0:0:0:0:
449,238,10411,5,8,0:0:0:0:
396,320,10703,2,0,P|352:268|352:224,1,105,2|6,0:0|0:0,0:0:0:0:
317,94,11576,1,8,0:0:0:0:
225,66,11868,2,0,P|221:118|253:166,1,105,2|6,0:0|0:0,0:0:0:0:
341,274,12741,5,8,0:0:0:0:
437,282,13033,2,0,P|429:238|381:190,1,105,8|2,0:0|0:1,0:0:0:0:
301,150,13761,2,0,P|329:118|353:102,2,70,2|2|2,0:1|0:1|0:1,0:0:0:0:
216,192,14635,6,0,P|248:228|392:184,1,210,6|0,0:0|0:0,0:0:0:0:
301,150,15800,2,0,P|265:114|121:166,1,210
37,174,16965,2,0,P|53:206|213:206,1,210,2|0,0:1|0:0,0:0:0:0:
221,118,18130,2,0,P|269:134|277:278,1,210
205,334,19295,6,0,L|129:138,1,210,2|0,0:1|0:0,0:0:0:0:
37,174,20460,2,0,L|101:342,1,175
189,298,21479,2,0,P|229:266|289:246,1,105
329,162,22207,2,0,P|369:198|377:222,2,70,0|0|2,0:0|0:0|0:1,0:0:0:0:
197,98,23227,2,0,L|181:166,1,70,8|8,0:0|0:0,0:0:0:0:
256,292,23955,6,0,L|260:188,1,105,6|8,0:0|0:0,0:0:0:0:
200,108,24683,2,0,P|232:88|304:96,2,105,0|0|8,0:0|0:0|0:0,0:0:0:0:
120,232,25994,1,0,0:0:0:0:
160,324,26285,2,0,P|196:292|211:198,1,140
156,124,27159,1,0,0:0:0:0:
252,108,27450,2,0,P|288:132|320:200,1,105,0|8,0:0|0:0,0:0:0:0:
369,270,28178,2,0,P|405:238|413:178,2,105,0|6|8,0:0|0:1|0:0,0:0:0:0:
277,302,29343,6,0,L|161:294,1,105
129,206,30071,2,0,L|193:158,1,70
233,78,30654,1,0,0:0:0:0:
309,142,30945,2,0,P|333:102|325:46,2,105,0|8|0,0:0|0:0|0:0,0:0:0:0:
217,174,32110,2,0,P|249:222|305:238,2,105,6|8|0,0:1|0:0|0:0,0:0:0:0:
173,86,33275,6,0,L|97:110,1,70,6|0,0:0|0:0,0:0:0:0:
77,202,33858,2,0,B|88:252|136:296,1,105,0|8,0:0|0:0,0:0:0:0:
229,266,34586,2,0,P|253:214|297:178,1,105
317,90,35314,2,0,P|361:118|373:142,1,70
377,230,35897,6,0,L|333:302,2,70
461,182,36771,2,0,P|429:146|361:138,1,105,0|8,0:0|0:0,0:0:0:0:
277,122,37499,2,0,L|161:122,1,105,0|6,0:0|0:0,0:0:0:0:
209,314,38518,6,0,P|225:262|293:198,1,140
285,106,39392,2,0,P|333:118|357:138,2,70
185,110,40266,1,6,0:0:0:0:
113,178,40557,1,0,0:0:0:0:
289,266,41139,2,0,P|328:224|339:175,1,105
209,110,42013,2,0,P|173:118|129:110,2,70,4|6|4,0:0|0:0|0:0,0:0:0:0:
353,130,43033,5,8,0:0:0:0:
385,223,43324,2,0,L|285:267,1,105
193,290,44052,2,0,P|205:222|213:214,2,70,8|0|0,0:0|0:0|0:0,0:0:0:0:
225,382,44926,2,0,L|365:366,1,140,6|0,0:0|0:0,0:0:0:0:
381,270,45800,1,0,0:0:0:0:
385,174,46091,6,0,L|301:166,2,70,0|8|0,0:0|0:0|0:0,0:0:0:0:
485,178,46965,1,0,0:0:0:0:
485,274,47256,2,0,L|333:274,1,140,6|0,0:0|0:0,0:0:0:0:
249,266,48130,2,0,P|265:214|309:190,1,105
353,106,48858,2,0,L|245:106,1,105
256,192,49586,12,0,51479,0:0:0:0:
192,176,51916,6,0,P|240:144|300:144,1,105,6|8,0:0|0:0,0:0:0:0:
352,68,52644,2,0,P|384:112|384:164,1,105
300,284,53518,2,0,P|256:264|152:248,1,140,8|8,0:0|0:0,0:0:0:0:
72,216,54392,1,0,0:0:0:0:
88,120,54683,2,0,P|136:132|156:168,2,87.5,8|0|0,0:0|0:0|0:0,0:0:0:0:
124,264,55848,2,0,P|168:268|236:240,1,105,8|0,0:0|0:0,0:0:0:0:
312,204,56576,2,0,P|320:152|364:88,2,122.5,6|0|8,0:0|0:0|0:0,0:0:0:0:
276,296,57887,1,0,0:0:0:0:
180,288,58178,2,0,P|200:236|236:216,2,87.5,8|0|6,0:0|0:0|0:0,0:0:0:0:
72,188,59343,6,0,L|72:48,1,140,8|8,0:0|0:0,0:0:0:0:
172,52,60217,1,0,0:0:0:0:
176,148,60508,2,0,L|272:148,2,87.5,0|0|6,0:0|0:0|0:0,0:0:0:0:
115,280,61673,6,0,P|79:224|71:184,1,105,8|0,0:0|0:0,0:0:0:0:
92,92,62402,2,0,P|132:60|188:48,1,105,0|8,0:0|0:0,0:0:0:0:
280,72,63130,2,0,P|296:160|312:220,1,140
308,308,64004,2,0,L|232:284,1,70,8|0,0:0|0:0,0:0:0:0:
152,252,64586,2,0,L|152:172,1,70,8|0,0:0|0:0,0:0:0:0:
196,92,65169,1,8,0:0:0:0:
284,132,65460,2,0,P|328:148|392:128,2,105,0|6|8,0:0|0:0|0:0,0:0:0:0:
196,92,66625,5,0,0:0:0:0:
100,96,66916,2,0,P|104:140|184:188,1,140,8|8,0:0|0:0,0:0:0:0:
268,228,67790,1,0,0:0:0:0:
284,132,68081,2,0,P|316:140|360:240,1,140,8|8,0:0|0:0,0:0:0:0:
360,328,68955,2,0,L|284:328,1,70,8|8,0:0|0:0,0:0:0:0:
204,376,69538,2,0,P|196:332|224:260,2,122.5,0|0|6,0:0|0:0|0:0,0:0:0:0:
108,364,70848,6,0,L|112:216,1,140
120,128,71722,2,0,L|200:128,1,70
288,120,72305,2,0,P|280:168|216:212,2,122.5,0|6|0,0:0|0:0|0:0,0:0:0:0:
360,52,73615,2,0,L|460:52,2,87.5,0|2|0,0:0|0:0|0:0,0:0:0:0:
264,40,74635,2,0,P|268:80|332:140,1,122.5,0|6,0:0|0:0,0:0:0:0:
356,256,75508,6,0,P|404:236|444:172,1,122.5
448,56,76382,2,0,P|392:72|352:116,1,105,6|0,0:0|0:0,0:0:0:0:
312,188,77110,2,0,P|288:176|272:96,1,105
172,84,77838,2,0,L|128:156,1,70
108,240,78421,1,0,0:0:0:0:
152,328,78712,2,0,P|196:292|240:264,1,105,6|8,0:0|0:0,0:0:0:0:
320,212,79440,1,8,0:0:0:0:
312,116,79732,6,0,L|200:120,2,105
412,112,80897,2,0,L|432:212,2,87.5,8|0|0,0:0|0:0|0:0,0:0:0:0:
336,48,81916,2,0,L|256:48,1,70,6|6,0:0|0:0,0:0:0:0:
120,48,82644,6,0,P|132:120|200:172,1,157.5,8|8,0:0|0:0,0:0:0:0:
248,280,83664,2,0,P|288:256|308:188,2,105,0|6|6,0:0|0:0|0:0,0:0:0:0:
100,292,84974,2,0,L|100:212,1,70,8|0,0:0|0:0,0:0:0:0:
112,124,85557,2,0,P|148:124|192:200,2,122.5,8|0|6,0:0|0:0|0:0,0:0:0:0:
148,32,86868,6,0,L|264:32,1,105,6|8,0:0|0:0,0:0:0:0:
352,24,87596,2,0,L|352:108,1,70,0|8,0:0|0:0,0:0:0:0:
332,188,88178,2,0,P|288:172|260:116,1,105,0|6,0:0|0:0,0:0:0:0:
228,36,88906,1,6,0:0:0:0:
