osu file format v14

[General]
AudioFilename: audio.mp3
AudioLeadIn: 0
PreviewTime: 58254
Countdown: 0
SampleSet: Soft
StackLeniency: 0.7
Mode: 0
LetterboxInBreaks: 0
WidescreenStoryboard: 0

[Editor]
DistanceSpacing: 1.4
BeatDivisor: 4
GridSize: 32
TimelineZoom: 2.699999

[Metadata]
Title:CircleEnd
TitleUnicode:CircleEnd
Artist:KISIDA KYODAN & THE AKEBOSI ROCKETS
ArtistUnicode:岸田教団&THE明星ロケッツ
Creator:SMOKELIND
Version:Kowari's Hard
Source:
Tags:kishida and akeboshi ichigo female vocalist japanese jp j-rock rock kowari reform kujinn
BeatmapID:1982343
BeatmapSetID:949314

[Difficulty]
HPDrainRate:4.5
CircleSize:3.5
OverallDifficulty:7
ApproachRate:8
SliderMultiplier:1.37
SliderTickRate:1

[Events]
//Background and Video events
0,0,"ZelqLoli.jpg",0,0
//Break Periods
//Storyboard Layer 0 (Background)
//Storyboard Layer 1 (Fail)
//Storyboard Layer 2 (Pass)
//Storyboard Layer 3 (Foreground)
//Storyboard Sound Samples

[TimingPoints]
1352,326.086956521739,4,2,7,57,1,0
6569,-114.942528735632,4,2,7,57,0,0
11786,-93.4579439252339,4,2,7,77,0,0
28091,-129.87012987013,4,2,7,57,0,0
32493,-129.87012987013,4,2,7,77,0,0
33308,-129.87012987013,4,2,7,57,0,0
35101,-114.942528735632,4,2,7,77,0,0
38525,-129.87012987013,4,2,7,57,0,0
45699,-103.092783505155,4,2,7,77,0,0
47982,-114.942528735632,4,2,7,77,0,0
48308,-114.942528735632,4,2,7,77,0,0
58743,-85.4700854700855,4,2,7,87,0,0
69188,326.086956521739,4,2,7,87,1,0
69188,-85.4700854700855,4,2,7,87,0,0
77992,-85.4700854700855,4,2,7,77,0,0
79622,-93.4579439252336,4,2,7,77,0,0
91361,-93.4579439252336,4,2,7,57,0,0
92666,-93.4579439252336,4,2,7,57,0,0
95275,-93.4579439252336,4,2,7,47,0,0
97883,-93.4579439252336,4,2,7,27,0,0
99188,-93.4579439252336,4,2,7,17,0,0
100166,-93.4579439252336,4,2,7,7,0,0

[Colours]
Combo1 : 255,255,170
Combo2 : 255,140,79
Combo3 : 255,200,170
Combo4 : 255,255,79

[HitObjects]
31,76,6569,6,0,L|162:68,1,119.190001000282,6|0,1:0|1:0,0:0:0:0:
191,159,7058,1,2,0:0:0:0:
191,159,7221,2,0,L|118:166,1,59.5950005001411,0|0,1:0|0:0,0:0:0:0:
45,172,7547,2,0,L|52:245,1,59.5950005001411,2|0,1:0|0:0,0:0:0:0:
53,318,7873,2,0,L|126:311,1,59.5950005001411,0|2,1:0|0:0,0:0:0:0:
199,305,8199,2,0,L|192:232,1,59.5950005001411,0|2,1:0|0:0,0:0:0:0:
191,159,8525,2,0,L|250:153,1,59.5950005001411,2|2,1:0|0:0,0:0:0:0:
336,145,8851,1,2,1:0:0:0:
410,282,9178,6,0,L|276:296,1,119.190001000282,2|0,1:0|1:0,0:0:0:0:
199,305,9667,1,2,0:0:0:0:
199,305,9830,2,0,L|192:232,1,59.5950005001411,0|0,1:0|0:0,0:0:0:0:
191,159,10156,2,0,L|118:166,1,59.5950005001411,2|0,1:0|0:0,0:0:0:0:
44,172,10482,2,0,L|57:302,1,119.190001000282,4|4,0:0|0:0,0:0:0:0:
199,305,11134,2,0,L|194:253,3,29.7975002500706,8|0|0|0,0:0|3:0|3:0|3:0,0:0:0:0:
236,331,11460,2,0,L|240:382,3,29.7975002500706,8|0|0|0,0:0|3:0|3:0|3:0,0:0:0:0:
267,302,11786,6,0,L|356:291,1,73.2949977632142,6|0,1:0|1:0,0:0:0:0:
425,278,12112,1,10,0:0:0:0:
425,278,12275,2,0,L|404:113,1,146.589995526428,2|2,1:0|1:0,0:0:0:0:
394,45,12765,2,0,L|305:56,1,73.2949977632142,10|2,0:0|1:0,0:0:0:0:
236,69,13091,1,0,0:0:0:0:
236,69,13254,2,0,L|256:233,1,146.589995526428,2|2,1:0|0:0,0:0:0:0:
269,303,13743,2,0,L|188:317,1,73.2949977632142,2|0,1:0|1:0,0:0:0:0:
129,248,14069,2,0,L|56:260,1,73.2949977632142,10|0,0:0|0:0,0:0:0:0:
9,180,14395,5,6,1:0:0:0:
9,180,14558,1,2,1:0:0:0:
110,163,14721,2,0,L|182:150,1,73.2949977632142,10|0,0:0|1:0,0:0:0:0:
258,207,15047,2,0,L|330:194,1,73.2949977632142,2|2,0:0|1:0,0:0:0:0:
422,180,15373,1,10,0:0:0:0:
422,180,15536,6,0,L|392:27,1,146.589995526428,2|2,1:0|1:0,0:0:0:0:
303,59,16025,2,0,L|220:73,1,73.2949977632142,10|0,0:0|1:0,0:0:0:0:
219,168,16351,2,0,L|136:182,1,73.2949977632142,10|0,0:0|1:0,0:0:0:0:
122,278,16678,2,0,L|39:292,1,73.2949977632142,10|0,0:0|1:0,0:0:0:0:
142,367,17004,6,0,L|214:354,1,73.2949977632142,6|0,1:0|1:0,0:0:0:0:
303,332,17330,1,10,0:0:0:0:
303,332,17493,2,0,L|275:169,1,146.589995526428,2|2,1:0|1:0,0:0:0:0:
252,93,17982,2,0,L|83:121,1,146.589995526428,10|2,0:0|0:0,0:0:0:0:
125,211,18471,1,0,1:0:0:0:
125,211,18634,2,0,L|141:306,1,73.2949977632142,10|2,0:0|0:0,0:0:0:0:
236,327,18960,2,0,L|223:254,1,73.2949977632142,2|2,1:0|1:0,0:0:0:0:
302,177,19286,2,0,L|318:272,1,73.2949977632142,10|2,0:0|0:0,0:0:0:0:
335,350,19612,6,0,L|407:337,1,73.2949977632142,6|0,1:0|1:0,0:0:0:0:
494,310,19938,1,10,0:0:0:0:
494,310,20020,1,0,3:0:0:0:
494,310,20101,2,0,L|468:161,1,146.589995526428,2|2,1:0|1:0,0:0:0:0:
447,81,20591,2,0,L|374:93,1,73.2949977632142,10|0,0:0|3:0,0:0:0:0:
299,28,20917,2,0,L|226:40,1,73.2949977632142,2|0,1:0|3:0,0:0:0:0:
198,46,21161,1,8,0:0:0:0:
198,46,21243,2,0,L|210:118,1,73.2949977632142,8|0,0:0|3:0,0:0:0:0:
231,213,21569,2,0,L|242:269,3,36.6474988816071,10|8|10|0,3:0|3:0|3:0|1:0,0:0:0:0:
242,280,21895,2,0,L|169:292,1,73.2949977632142,10|2,0:0|0:0,0:0:0:0:
72,312,22221,6,0,L|46:163,1,146.589995526428,6|8,1:0|0:0,0:0:0:0:
26,78,22710,1,2,1:0:0:0:
26,78,22873,2,0,L|98:65,1,73.2949977632142,8|2,0:0|1:0,0:0:0:0:
159,142,23199,2,0,L|231:129,1,73.2949977632142,10|2,0:0|1:0,0:0:0:0:
298,200,23525,2,0,L|370:187,1,73.2949977632142,10|2,0:0|1:0,0:0:0:0:
433,263,23851,2,0,L|505:250,1,73.2949977632142,8|2,0:0|1:0,0:0:0:0:
442,173,24178,2,0,L|370:186,1,73.2949977632142,10|2,0:0|1:0,0:0:0:0:
303,115,24504,2,0,L|231:128,1,73.2949977632142,10|2,0:0|1:0,0:0:0:0:
140,146,24830,6,0,L|153:218,1,73.2949977632142,10|2,0:0|1:0,0:0:0:0:
173,321,25156,2,0,L|245:308,1,73.2949977632142,14|0,0:0|1:0,0:0:0:0:
336,284,25482,1,0,1:0:0:0:
336,284,25645,2,0,L|323:212,1,73.2949977632142,14|0,0:0|1:0,0:0:0:0:
303,115,25971,1,0,1:0:0:0:
303,115,26134,6,0,L|231:128,1,73.2949977632142,10|0,3:0|1:0,0:0:0:0:
140,146,26460,1,0,1:0:0:0:
140,146,26623,2,0,L|68:159,1,73.2949977632142,10|0,3:0|1:0,0:0:0:0:
35,258,26949,2,0,L|107:245,1,73.2949977632142,0|8,1:0|3:0,0:0:0:0:
195,224,27275,1,6,1:0:0:0:
216,383,27601,5,6,1:0:0:0:
216,383,27765,1,6,1:0:0:0:
322,264,28091,2,0,L|387:260,1,52.7449989537277,2|0,1:0|0:0,0:0:0:0:
460,253,28417,2,0,L|525:249,1,52.7449989537277,2|0,1:0|0:0,0:0:0:0:
509,158,28743,2,0,L|505:118,2,26.3724994768639,2|0|0,1:0|0:0|0:0,0:0:0:0:
499,49,29069,1,2,1:0:0:0:
499,49,29232,2,0,L|447:53,1,52.7449989537277,2|0,0:0|1:0,0:0:0:0:
358,56,29558,2,0,L|239:63,1,105.489997907455,2|6,0:0|1:0,0:0:0:0:
81,73,30210,5,0,1:0:0:0:
81,73,30373,2,0,L|86:129,1,52.7449989537277,4|0,1:0|0:0,0:0:0:0:
97,214,30699,2,0,L|102:270,1,52.7449989537277,10|8,0:0|3:0,0:0:0:0:
112,360,31025,2,0,L|115:389,6,26.3724994768639,2|0|10|8|0|0|0,1:0|3:0|0:0|0:0|1:0|3:0|3:0,0:0:0:0:
198,353,31678,1,10,0:0:0:0:
198,353,31841,2,0,L|310:343,2,105.489997907455,14|6|6,0:0|1:0|1:0,0:0:0:0:
177,189,32819,5,0,1:0:0:0:
177,189,32982,2,0,L|233:184,1,52.7449989537277,0|0,1:0|0:0,0:0:0:0:
321,175,33308,2,0,L|377:170,1,52.7449989537277,2|0,1:0|0:0,0:0:0:0:
414,261,33634,2,0,L|358:266,1,52.7449989537277,2|0,1:0|0:0,0:0:0:0:
270,275,33960,2,0,L|214:280,1,52.7449989537277,2|0,1:0|0:0,0:0:0:0:
126,289,34286,1,2,1:0:0:0:
126,289,34449,2,0,L|121:233,1,52.7449989537277,2|0,0:0|1:0,0:0:0:0:
113,142,34775,2,0,L|102:22,1,105.489997907455,2|6,0:0|1:0,0:0:0:0:
268,23,35428,5,8,0:0:0:0:
268,23,35591,2,0,L|274:83,1,59.5950005001411,8|10,0:0|0:0,0:0:0:0:
286,172,35917,2,0,L|298:308,1,119.190001000282,2|2,1:0|1:0,0:0:0:0:
393,335,36406,2,0,L|383:217,1,119.190001000282,6|0,1:0|1:0,0:0:0:0:
371,121,36895,1,10,0:0:0:0:
371,121,37058,2,0,L|365:61,1,59.5950005001411,2|8,1:0|3:0,0:0:0:0:
271,73,37384,2,0,L|211:79,1,59.5950005001411,10|10,3:0|0:0,0:0:0:0:
128,91,37710,6,0,L|138:209,1,119.190001000282,4|0,1:0|1:0,0:0:0:0:
149,305,38199,1,8,0:0:0:0:
308,293,38525,2,0,L|364:288,1,52.7449989537277,2|0,1:0|1:0,0:0:0:0:
451,278,38851,2,0,L|507:273,1,52.7449989537277,10|0,0:0|0:0,0:0:0:0:
510,171,39178,2,0,L|390:182,1,105.489997907455,2|10,1:0|0:0,0:0:0:0:
310,189,39667,2,0,L|257:193,1,52.7449989537277,2|0,0:0|1:0,0:0:0:0:
165,203,39993,1,2,1:0:0:0:
48,69,40319,6,0,L|153:59,1,105.489997907455,6|0,1:0|1:0,0:0:0:0:
247,47,40808,1,8,0:0:0:0:
348,39,40971,1,2,0:0:0:0:
348,39,41134,2,0,L|343:95,1,52.7449989537277,2|0,1:0|1:0,0:0:0:0:
333,182,41460,1,10,0:0:0:0:
333,182,41623,2,0,L|323:287,1,105.489997907455,2|0,0:0|1:0,0:0:0:0:
229,333,42112,1,10,0:0:0:0:
229,333,42275,2,0,L|238:227,2,105.489997907455,2|2|4,1:0|1:0|1:0,0:0:0:0:
72,346,43254,5,0,1:0:0:0:
72,346,43417,2,0,L|76:293,1,52.7449989537277,8|0,0:0|0:0,0:0:0:0:
86,196,43743,2,0,L|95:90,1,105.489997907455,2|10,1:0|0:0,0:0:0:0:
253,42,44395,2,0,L|244:148,1,105.489997907455,2|10,1:0|0:0,0:0:0:0:
233,239,44884,2,0,L|285:243,1,52.7449989537277,2|0,0:0|1:0,0:0:0:0:
382,257,45210,2,0,L|434:261,1,52.7449989537277,10|0,0:0|1:0,0:0:0:0:
485,177,45536,5,10,0:0:0:0:
485,177,45618,1,8,0:0:0:0:
485,177,45699,2,0,L|408:170,1,66.4450015714989,4|0,1:0|1:0,0:0:0:0:
322,159,46025,2,0,L|245:152,1,66.4450015714989,8|0,0:0|1:0,0:0:0:0:
337,71,46351,2,0,L|260:64,1,66.4450015714989,10|0,0:0|1:0,0:0:0:0:
174,53,46677,2,0,L|97:46,1,66.4450015714989,10|2,0:0|1:0,0:0:0:0:
35,135,47004,6,0,L|179:149,1,132.890003142998,8|10,0:0|0:0,0:0:0:0:
264,160,47493,1,2,1:0:0:0:
264,160,47574,1,0,1:0:0:0:
264,160,47656,2,0,L|257:236,1,66.4450015714989,8|2,0:0|1:0,0:0:0:0:
248,323,47982,1,8,3:0:0:0:
403,367,48308,6,0,L|415:241,1,119.190001000282,4|0,1:0|0:0,0:0:0:0:
426,154,48797,1,0,1:0:0:0:
426,154,48960,2,0,L|438:28,1,119.190001000282,10|2,0:0|0:0,0:0:0:0:
345,25,49449,2,0,L|219:12,1,119.190001000282,0|0,1:0|1:0,0:0:0:0:
129,5,49938,1,0,1:0:0:0:
48,159,50265,1,10,0:0:0:0:
48,159,50428,1,0,1:0:0:0:
141,172,50591,2,0,L|217:179,1,59.5950005001411,10|0,0:0|0:0,0:0:0:0:
304,190,50917,6,0,L|292:308,1,119.190001000282,4|0,1:0|0:0,0:0:0:0:
378,362,51406,1,2,1:0:0:0:
378,362,51569,2,0,L|390:244,1,119.190001000282,10|2,0:0|0:0,0:0:0:0:
404,147,52058,2,0,L|416:29,1,119.190001000282,2|0,1:0|1:0,0:0:0:0:
323,21,52547,1,2,1:0:0:0:
323,21,52710,2,0,L|205:9,1,119.190001000282,2|0,0:0|1:0,0:0:0:0:
108,0,53199,1,10,0:0:0:0:
88,163,53525,6,0,L|76:281,1,119.190001000282,4|0,1:0|0:0,0:0:0:0:
63,372,54015,1,0,1:0:0:0:
63,372,54178,2,0,L|139:379,1,59.5950005001411,10|8,0:0|0:0,0:0:0:0:
210,384,54504,1,6,1:0:0:0:
210,384,54667,1,4,1:0:0:0:
221,221,54993,5,0,1:0:0:0:
221,221,55156,2,0,L|297:228,1,59.5950005001411,8|2,0:0|1:0,0:0:0:0:
328,142,55482,2,0,L|268:136,1,59.5950005001411,10|2,0:0|1:0,0:0:0:0:
240,47,55808,2,0,L|299:52,1,59.5950005001411,10|0,0:0|0:0,0:0:0:0:
415,65,56134,6,0,L|409:124,1,59.5950005001411,4|0,1:0|0:0,0:0:0:0:
413,147,56379,1,8,0:0:0:0:
413,147,56460,2,0,L|407:206,1,59.5950005001411,8|2,0:0|0:0,0:0:0:0:
390,308,56786,2,0,L|331:302,1,59.5950005001411,10|0,0:0|3:0,0:0:0:0:
310,300,57031,1,8,0:0:0:0:
310,300,57112,2,0,B|239:290,1,59.5950005001411,2|0,1:0|0:0,0:0:0:0:
154,275,57438,5,8,0:0:0:0:
154,275,57601,1,8,0:0:0:0:
204,199,57765,1,10,0:0:0:0:
204,199,57928,1,10,0:0:0:0:
147,122,58091,5,8,0:0:0:0:
392,30,58743,5,6,1:0:0:0:
392,30,58906,2,0,L|388:126,1,80.1450003057289,2|8,0:0|0:0,0:0:0:0:
388,210,59232,1,2,0:0:0:0:
388,210,59395,2,0,L|384:306,1,80.1450003057289,2|0,1:0|0:0,0:0:0:0:
376,384,59721,2,0,L|280:380,1,80.1450003057289,10|2,0:0|0:0,0:0:0:0:
206,384,60047,5,2,1:0:0:0:
206,384,60210,2,0,L|210:288,1,80.1450003057289,2|8,0:0|0:0,0:0:0:0:
210,204,60536,1,2,0:0:0:0:
210,204,60699,2,0,L|214:108,1,80.1450003057289,2|2,1:0|0:0,0:0:0:0:
220,27,61025,1,10,0:0:0:0:
56,14,61351,6,0,L|48:183,1,160.290000611458,6|10,1:0|0:0,0:0:0:0:
143,117,61841,2,0,L|135:286,1,160.290000611458,2|2,0:0|0:0,0:0:0:0:
132,366,62330,2,0,L|228:370,1,80.1450003057289,10|2,0:0|0:0,0:0:0:0:
303,376,62656,2,0,L|399:380,1,80.1450003057289,2|2,1:0|0:0,0:0:0:0:
476,384,62982,1,10,0:0:0:0:
484,221,63308,2,0,L|488:125,1,80.1450003057289,2|2,1:0|0:0,0:0:0:0:
490,42,63634,1,10,0:0:0:0:
333,15,63960,6,0,L|325:184,1,160.290000611458,6|10,1:0|0:0,0:0:0:0:
316,266,64449,1,2,3:0:0:0:
316,266,64612,2,0,L|313:312,3,40.0725001528645,2|0|8|8,1:0|3:0|3:0|3:0,0:0:0:0:
314,327,64938,1,10,0:0:0:0:
224,316,65101,2,0,L|128:312,1,80.1450003057289,6|0,1:0|0:0,0:0:0:0:
89,223,65428,2,0,L|169:226,1,80.1450003057289,6|8,1:0|0:0,0:0:0:0:
216,141,65754,2,0,L|55:134,1,160.290000611458,2|2,1:0|1:0,0:0:0:0:
86,42,66243,2,0,L|166:45,1,80.1450003057289,8|2,0:0|0:0,0:0:0:0:
262,50,66569,6,0,L|422:56,1,160.290000611458,4|8,1:0|0:0,0:0:0:0:
510,65,67058,1,0,0:0:0:0:
512,161,67221,2,0,L|351:154,1,160.290000611458,0|8,1:0|0:0,0:0:0:0:
150,268,67873,6,0,L|154:317,3,40.0725001528645,8|0|0|0,3:2|3:0|3:0|3:0,0:0:0:0:
186,271,68199,2,0,L|190:320,3,40.0725001528645,8|0|0|0,3:2|3:0|3:0|3:0,0:0:0:0:
223,272,68525,2,0,L|227:321,3,40.0725001528645,8|0|8|8,0:0|3:0|3:0|3:0,0:0:0:0:
257,272,68851,2,0,L|261:321,3,40.0725001528645,10|8|8|8,3:0|3:0|3:0|3:0,0:0:0:0:
288,270,69188,6,0,L|380:274,1,80.1450003057289,6|2,1:0|0:0,0:0:0:0:
419,190,69514,2,0,L|338:186,1,80.1450003057289,10|2,0:0|0:0,0:0:0:0:
244,177,69840,2,0,L|71:169,1,160.290000611458,2|10,1:0|0:0,0:0:0:0:
35,73,70329,2,0,L|115:76,1,80.1450003057289,2|0,0:0|1:0,0:0:0:0:
214,82,70655,1,2,0:0:0:0:
214,82,70818,2,0,L|294:85,1,80.1450003057289,10|0,0:0|0:0,0:0:0:0:
389,93,71144,2,0,L|385:173,1,80.1450003057289,2|2,1:0|0:0,0:0:0:0:
380,271,71470,1,10,0:0:0:0:
246,367,71796,6,0,L|253:188,1,160.290000611458,6|10,1:0|0:0,0:0:0:0:
157,261,72285,2,0,L|164:82,1,160.290000611458,2|2,0:0|0:0,0:0:0:0:
170,0,72775,2,0,L|250:3,1,80.1450003057289,10|0,0:0|0:0,0:0:0:0:
341,12,73101,2,0,L|421:15,1,80.1450003057289,2|2,1:0|0:0,0:0:0:0:
415,116,73427,2,0,L|334:112,1,80.1450003057289,10|2,0:0|0:0,0:0:0:0:
244,104,73753,2,0,L|163:100,1,80.1450003057289,2|2,1:0|0:0,0:0:0:0:
66,92,74079,1,10,0:0:0:0:
53,255,74405,6,0,L|231:262,1,160.290000611458,6|10,1:0|0:0,0:0:0:0:
309,268,74894,1,0,0:0:0:0:
309,268,75057,2,0,L|389:271,1,80.1450003057289,2|8,1:0|3:0,0:0:0:0:
480,276,75383,1,10,0:0:0:0:
480,276,75546,2,0,L|487:97,1,160.290000611458,6|2,1:0|1:0,0:0:0:0:
489,19,76035,1,8,0:0:0:0:
399,6,76198,2,0,L|392:166,1,160.290000611458,6|2,1:0|1:0,0:0:0:0:
388,262,76688,2,0,L|384:342,1,80.1450003057289,8|2,0:0|1:0,0:0:0:0:
288,334,77014,6,0,L|207:330,1,80.1450003057289,10|0,0:0|1:0,0:0:0:0:
114,326,77340,1,0,1:0:0:0:
193,239,77503,2,0,L|112:235,1,80.1450003057289,10|0,0:0|1:0,0:0:0:0:
19,231,77829,1,0,1:0:0:0:
0,130,77992,2,0,L|160:136,1,160.290000611458,14|0,0:0|0:0,0:0:0:0:
332,148,78644,1,0,0:0:0:0:
457,39,78970,6,0,L|452:-7,3,40.0725001528645,10|0|0|0,0:0|3:0|3:0|3:0,0:0:0:0:
433,69,79296,2,0,L|439:116,3,40.0725001528645,10|8|8|8,0:0|3:2|3:2|3:2,0:0:0:0:
386,59,79622,6,0,L|300:65,1,73.2949977632142,6|0,1:0|1:0,0:0:0:0:
217,70,79948,1,10,0:0:0:0:
217,70,80111,2,0,L|63:80,1,146.589995526428,2|2,1:0|1:0,0:0:0:0:
29,185,80601,2,0,L|115:179,1,73.2949977632142,10|2,0:0|1:0,0:0:0:0:
198,174,80927,1,2,0:0:0:0:
198,174,81090,2,0,L|351:163,1,146.589995526428,2|0,1:0|0:0,0:0:0:0:
437,147,81579,2,0,L|443:233,1,73.2949977632142,2|2,1:0|1:0,0:0:0:0:
452,311,81905,2,0,L|458:397,1,73.2949977632142,10|0,0:0|0:0,0:0:0:0:
362,384,82231,6,0,L|351:237,1,146.589995526428,6|8,1:0|0:0,0:0:0:0:
340,146,82720,2,0,L|329:0,1,146.589995526428,2|0,1:0|1:0,0:0:0:0:
234,13,83209,1,10,0:0:0:0:
234,13,83372,2,0,L|87:23,1,146.589995526428,2|2,1:0|1:0,0:0:0:0:
0,27,83861,2,0,L|6:113,1,73.2949977632142,10|0,0:0|1:0,0:0:0:0:
10,124,84106,1,0,3:0:0:0:
10,124,84188,2,0,L|16:210,1,73.2949977632142,10|2,0:0|1:0,0:0:0:0:
24,298,84514,2,0,L|30:384,1,73.2949977632142,10|2,0:0|0:0,0:0:0:0:
121,378,84840,6,0,L|194:372,1,73.2949977632142,6|0,1:0|0:0,0:0:0:0:
294,364,85166,1,8,0:0:0:0:
294,364,85329,2,0,L|440:353,1,146.589995526428,2|2,1:0|1:0,0:0:0:0:
479,256,85818,2,0,L|405:261,1,73.2949977632142,10|2,0:0|1:0,0:0:0:0:
306,270,86144,1,2,0:0:0:0:
306,270,86307,2,0,L|159:280,1,146.589995526428,2|2,1:0|0:0,0:0:0:0:
68,294,86796,2,0,L|62:220,1,73.2949977632142,2|2,1:0|1:0,0:0:0:0:
53,125,87122,2,0,L|47:51,1,73.2949977632142,10|0,0:0|0:0,0:0:0:0:
140,13,87448,6,0,L|146:87,1,73.2949977632142,6|0,0:0|1:0,0:0:0:0:
155,182,87775,1,8,0:0:0:0:
155,182,87938,2,0,L|169:359,1,146.589995526428,2|2,1:0|1:0,0:0:0:0:
268,360,88427,2,0,L|262:286,1,73.2949977632142,10|0,0:0|1:0,0:0:0:0:
253,191,88754,1,2,0:0:0:0:
253,191,88917,2,0,L|238:13,1,146.589995526428,2|0,1:0|0:0,0:0:0:0:
334,25,89405,5,10,0:0:0:0:
346,126,89568,1,10,0:0:0:0:
356,228,89731,1,10,0:0:0:0:
366,330,89894,1,14,0:0:0:0:
256,192,90057,12,0,100166,0:0:0:0:
