osu file format v14

[General]
AudioFilename: audio.mp3
AudioLeadIn: 0
PreviewTime: 58254
Countdown: 0
SampleSet: Soft
StackLeniency: 0.7
Mode: 0
LetterboxInBreaks: 0
WidescreenStoryboard: 0

[Editor]
DistanceSpacing: 0.9
BeatDivisor: 4
GridSize: 32
TimelineZoom: 1.9

[Metadata]
Title:CircleEnd
TitleUnicode:CircleEnd
Artist:KISIDA KYODAN & THE AKEBOSI ROCKETS
ArtistUnicode:岸田教団&THE明星ロケッツ
Creator:SMOKELIND
Version:End
Source:
Tags:kishida and akeboshi ichigo female vocalist japanese jp j-rock rock kowari reform kujinn
BeatmapID:1982341
BeatmapSetID:949314

[Difficulty]
HPDrainRate:5.2
CircleSize:4
OverallDifficulty:9.2
ApproachRate:9.4
SliderMultiplier:1.77
SliderTickRate:1

[Events]
//Background and Video events
0,0,"ZelqLoli.jpg",0,0
//Break Periods
//Storyboard Layer 0 (Background)
//Storyboard Layer 1 (Fail)
//Storyboard Layer 2 (Pass)
//Storyboard Layer 3 (Foreground)
//Storyboard Sound Samples

[TimingPoints]
1352,326.086956521739,4,2,7,57,1,0
6569,-114.942528735632,4,2,7,57,0,0
11786,-93.4579439252339,4,2,7,77,0,0
28091,-129.87012987013,4,2,7,57,0,0
32493,-114.942528735632,4,2,7,77,0,0
33308,-129.87012987013,4,2,7,57,0,0
35101,-114.942528735632,4,2,7,77,0,0
38525,-129.87012987013,4,2,7,57,0,0
45699,-103.092783505155,4,2,7,77,0,0
47982,-114.942528735632,4,2,7,77,0,0
48308,-114.942528735632,4,2,7,77,0,0
58743,-85.4700854700855,4,2,7,87,0,0
69188,326.086956521739,4,2,7,87,1,0
69188,-85.4700854700855,4,2,7,87,0,0
77992,-93.4579439252336,4,2,7,77,0,0
89894,-1000,4,2,7,77,0,0
89976,-1000,4,2,7,5,0,0

[Colours]
Combo1 : 255,255,170
Combo2 : 255,140,79
Combo3 : 255,200,170
Combo4 : 255,255,79

[HitObjects]
185,50,6080,5,0,1:0:0:0:
185,50,6161,1,0,1:0:0:0:
185,50,6243,1,8,0:0:0:0:
185,50,6569,6,0,P|195:95|200:153,1,76.9950006461678,6|0,1:0|0:0,0:0:0:0:
171,303,6895,1,0,1:0:0:0:
340,184,7058,2,0,P|345:145|354:108,1,76.9950006461678,2|0,0:0|1:0,0:0:0:0:
183,256,7384,1,0,0:0:0:0:
360,365,7547,2,0,P|405:361|441:337,1,76.9950006461678,2|0,1:0|0:0,0:0:0:0:
340,184,7873,5,0,1:0:0:0:
193,353,8036,2,0,P|148:349|111:325,1,76.9950006461678,2|0,0:0|1:0,0:0:0:0:
248,174,8362,1,2,0:0:0:0:
343,337,8525,1,2,1:0:0:0:
419,135,8688,1,2,0:0:0:0:
297,254,8851,1,2,1:0:0:0:
297,254,9015,1,2,0:0:0:0:
189,85,9178,6,0,P|155:67|99:64,1,76.9950006461678,2|0,1:0|0:0,0:0:0:0:
273,218,9504,1,0,1:0:0:0:
137,163,9667,2,0,P|98:160|46:180,1,76.9950006461678,2|0,0:0|1:0,0:0:0:0:
258,250,9993,1,0,0:0:0:0:
111,255,10156,2,0,P|74:268|34:307,1,76.9950006461678,2|0,1:0|0:0,0:0:0:0:
213,372,10482,5,4,0:0:0:0:
217,357,10808,1,4,0:0:0:0:
224,338,11134,5,8,0:0:0:0:
240,316,11215,1,0,3:0:0:0:
262,302,11297,1,0,3:0:0:0:
289,296,11378,1,0,3:0:0:0:
315,299,11460,2,0,P|346:309|384:313,1,38.4975003230839,8|0,0:0|3:0,0:0:0:0:
464,145,11623,2,0,P|445:149|427:155,1,38.4975003230839,0|0,3:0|3:0,0:0:0:0:
262,302,11786,6,0,P|260:255|248:200,1,94.694997110138,6|0,1:0|1:0,0:0:0:0:
132,27,12112,1,10,0:0:0:0:
289,128,12275,2,0,P|342:131|388:114,1,94.694997110138,2|0,1:0|0:0,0:0:0:0:
223,3,12601,1,2,1:0:0:0:
99,204,12765,1,10,0:0:0:0:
176,14,12928,6,0,P|180:64|185:126,1,94.694997110138,2|0,1:0|0:0,0:0:0:0:
373,213,13254,2,0,P|376:165|381:118,1,94.694997110138,2|8,1:0|0:0,0:0:0:0:
200,207,13580,1,2,0:0:0:0:
328,46,13743,2,0,P|399:29|451:56,1,94.694997110138,2|0,1:0|1:0,0:0:0:0:
232,202,14069,2,0,P|185:207|141:190,1,94.694997110138,10|0,0:0|0:0,0:0:0:0:
310,22,14395,5,6,1:0:0:0:
400,214,14558,1,2,1:0:0:0:
202,119,14721,2,0,P|209:65|212:17,1,94.694997110138,10|0,0:0|1:0,0:0:0:0:
364,134,15047,1,2,0:0:0:0:
198,233,15210,1,2,1:0:0:0:
337,80,15373,1,10,0:0:0:0:
227,274,15536,6,0,P|220:318|216:380,1,94.694997110138,2|0,1:0|0:0,0:0:0:0:
385,175,15862,1,2,1:0:0:0:
84,71,16025,5,10,0:0:0:0:
337,80,16188,1,0,1:0:0:0:
116,328,16351,5,10,0:0:0:0:
234,75,16515,1,0,1:0:0:0:
349,374,16678,1,10,0:0:0:0:
196,150,16841,5,0,1:0:0:0:
196,150,16922,1,0,1:0:0:0:
196,150,17004,2,0,P|149:145|96:168,1,94.694997110138,6|0,1:0|1:0,0:0:0:0:
334,339,17330,1,10,0:0:0:0:
423,126,17493,2,0,P|413:175|404:234,1,94.694997110138,2|0,1:0|0:0,0:0:0:0:
285,0,17819,1,2,1:0:0:0:
175,210,17982,2,0,P|184:259|193:318,1,94.694997110138,10|0,0:0|1:0,0:0:0:0:
374,132,18308,6,0,P|364:178|357:225,1,94.694997110138,2|0,0:0|1:0,0:0:0:0:
186,38,18634,1,10,0:0:0:0:
333,108,18797,1,2,0:0:0:0:
177,265,18960,1,2,1:0:0:0:
207,74,19123,1,2,1:0:0:0:
409,276,19286,1,10,0:0:0:0:
253,159,19449,1,2,0:0:0:0:
504,74,19612,6,0,P|457:57|385:52,1,94.694997110138,6|0,1:0|1:0,0:0:0:0:
219,190,19938,1,10,0:0:0:0:
451,150,20101,2,0,P|401:153|333:178,1,94.694997110138,2|0,1:0|0:0,0:0:0:0:
244,370,20428,1,2,1:0:0:0:
210,84,20591,1,10,0:0:0:0:
303,265,20754,5,0,3:0:0:0:
303,265,20835,1,0,3:0:0:0:
303,265,20917,2,0,P|309:207|318:155,1,94.694997110138,2|0,1:0|3:0,0:0:0:0:
320,138,21161,1,8,0:0:0:0:
320,138,21243,1,8,0:0:0:0:
138,224,21406,1,0,3:0:0:0:
138,224,21487,1,0,3:0:0:0:
138,224,21569,2,0,P|113:232|68:235,1,47.347498555069,10|8,3:0|3:0,0:0:0:0:
189,32,21732,2,0,P|212:35|234:43,1,47.347498555069,10|0,3:0|1:0,0:0:0:0:
93,149,21895,1,10,0:0:0:0:
261,66,22058,1,2,0:0:0:0:
373,286,22221,6,0,B|358:181|429:212|403:83,1,189.389994220276,6|8,1:0|0:0,0:0:0:0:
238,307,22710,1,2,1:0:0:0:
164,20,22873,5,8,0:0:0:0:
99,322,23036,1,2,1:0:0:0:
408,101,23199,5,10,0:0:0:0:
127,187,23362,1,2,1:0:0:0:
487,300,23525,5,10,0:0:0:0:
156,178,23688,1,2,1:0:0:0:
510,67,23851,5,8,0:0:0:0:
351,311,24015,1,2,1:0:0:0:
164,20,24178,5,10,0:0:0:0:
379,197,24341,1,2,1:0:0:0:
43,264,24504,5,10,0:0:0:0:
314,130,24667,1,2,1:0:0:0:
0,72,24830,5,10,0:0:0:0:
281,148,24993,1,2,1:0:0:0:
9,118,25156,2,0,P|16:163|21:219,1,94.694997110138,14|0,0:0|1:0,0:0:0:0:
199,10,25482,1,0,1:0:0:0:
327,257,25645,2,0,P|331:209|339:163,1,94.694997110138,14|0,0:0|1:0,0:0:0:0:
146,323,25971,1,0,1:0:0:0:
252,115,26134,5,10,3:0:0:0:
438,323,26297,1,0,1:0:0:0:
188,242,26460,1,0,1:0:0:0:
498,98,26623,5,10,3:0:0:0:
328,288,26786,1,0,1:0:0:0:
291,24,26949,1,0,1:0:0:0:
464,242,27112,1,8,3:0:0:0:
249,97,27275,6,0,P|191:85|103:81,1,142.042495665207,6|0,1:0|0:0,0:0:0:0:
28,103,27601,1,6,1:0:0:0:
199,344,27765,1,6,1:0:0:0:
199,344,28091,6,0,P|210:306|220:257,1,68.1449986482468,2|0,1:0|0:0,0:0:0:0:
266,122,28417,2,0,P|273:155|283:187,1,68.1449986482468,2|0,1:0|0:0,0:0:0:0:
379,321,28743,6,0,P|390:283|400:234,1,68.1449986482468,2|0,1:0|0:0,0:0:0:0:
386,223,28987,1,0,0:0:0:0:
386,223,29069,1,2,1:0:0:0:
266,122,29232,2,0,P|235:108|188:107,1,68.1449986482468,2|0,0:0|1:0,0:0:0:0:
101,210,29558,1,2,0:0:0:0:
308,154,29721,1,8,0:0:0:0:
157,287,29884,6,0,P|126:301|79:302,1,68.1449986482468,6|0,1:0|0:0,0:0:0:0:
222,128,30210,1,0,1:0:0:0:
314,304,30373,2,0,P|345:318|392:319,1,68.1449986482468,4|0,1:0|0:0,0:0:0:0:
469,142,30699,1,10,0:0:0:0:
459,109,30780,1,0,3:0:0:0:
436,84,30862,2,0,P|419:68|393:55,1,34.0724993241234,8|8,3:0|3:0,0:0:0:0:
261,155,31025,2,0,P|289:158|322:168,1,34.0724993241234,2|0,1:0|3:0,0:0:0:0:
465,235,31188,2,0,P|436:238|403:248,1,34.0724993241234,10|8,0:0|0:0,0:0:0:0:
252,330,31351,6,0,P|268:331|285:334,3,34.0724993241234,0|0|0|0,1:0|3:0|3:0|3:0,0:0:0:0:
374,377,31678,1,10,0:0:0:0:
374,377,31759,1,8,0:0:0:0:
374,377,31841,1,14,0:0:0:0:
181,34,32167,1,6,1:0:0:0:
181,34,32330,1,2,0:0:0:0:
52,200,32493,6,0,P|61:234|70:288,1,76.9950006461678,6|0,1:0|0:0,0:0:0:0:
181,80,32819,1,0,1:0:0:0:
303,247,32982,1,0,1:0:0:0:
303,247,33308,6,0,P|300:209|291:164,1,68.1449986482468,2|0,1:0|0:0,0:0:0:0:
337,25,33634,2,0,P|331:58|328:92,1,68.1449986482468,2|0,1:0|0:0,0:0:0:0:
395,223,33960,6,0,P|428:236|462:240,1,68.1449986482468,2|0,1:0|0:0,0:0:0:0:
346,108,34286,1,2,1:0:0:0:
229,189,34449,2,0,P|219:222|215:258,1,68.1449986482468,2|0,0:0|1:0,0:0:0:0:
73,381,34775,1,2,0:0:0:0:
303,286,34938,1,8,0:0:0:0:
72,198,35101,6,0,P|86:265|95:356,1,153.990001292336,6|8,1:0|0:0,0:0:0:0:
232,96,35591,1,8,0:0:0:0:
116,294,35754,1,10,0:0:0:0:
271,176,35917,2,0,P|317:163|363:168,1,76.9950006461678,2|8,1:0|0:0,0:0:0:0:
146,269,36243,1,2,1:0:0:0:
323,364,36406,6,0,P|369:376|415:371,1,76.9950006461678,6|0,1:0|0:0,0:0:0:0:
246,201,36732,1,0,1:0:0:0:
484,104,36895,1,10,0:0:0:0:
281,25,37058,2,0,P|244:24|205:36,1,76.9950006461678,2|8,1:0|3:0,0:0:0:0:
82,196,37384,1,10,3:0:0:0:
269,113,37547,1,10,0:0:0:0:
228,358,37710,6,0,P|222:310|213:261,1,76.9950006461678,4|0,1:0|0:0,0:0:0:0:
308,98,38036,1,0,1:0:0:0:
393,289,38199,2,0,P|398:241|408:192,1,76.9950006461678,8|0,0:0|0:0,0:0:0:0:
308,98,38525,2,0,P|268:85|228:84,1,68.1449986482468,2|0,1:0|1:0,0:0:0:0:
130,243,38851,2,0,P|163:239|195:228,1,68.1449986482468,10|0,0:0|0:0,0:0:0:0:
321,71,39178,6,0,P|281:58|241:57,1,68.1449986482468,2|0,1:0|1:0,0:0:0:0:
195,228,39504,1,10,0:0:0:0:
300,125,39667,2,0,P|260:112|220:111,1,68.1449986482468,2|0,0:0|1:0,0:0:0:0:
319,285,39993,2,0,P|352:281|384:270,1,68.1449986482468,2|8,1:0|0:0,0:0:0:0:
466,77,40319,5,6,1:0:0:0:
401,253,40482,1,0,0:0:0:0:
242,82,40645,2,0,P|225:44|216:-5,1,68.1449986482468,0|8,1:0|0:0,0:0:0:0:
386,124,40971,1,2,0:0:0:0:
232,211,41134,2,0,P|199:202|168:187,1,68.1449986482468,2|0,1:0|1:0,0:0:0:0:
347,104,41460,1,10,0:0:0:0:
219,168,41623,1,2,0:0:0:0:
379,286,41786,6,0,P|394:321|398:363,1,68.1449986482468,0|0,1:0|1:0,0:0:0:0:
266,182,42112,1,10,0:0:0:0:
166,338,42275,2,0,P|171:304|185:273,1,68.1449986482468,2|0,1:0|0:0,0:0:0:0:
306,144,42601,1,2,1:0:0:0:
114,185,42765,1,10,0:0:0:0:
303,315,42928,6,0,P|339:325|377:325,1,68.1449986482468,4|0,1:0|0:0,0:0:0:0:
219,168,43254,1,0,1:0:0:0:
378,54,43417,2,0,P|414:44|452:44,1,68.1449986482468,8|0,0:0|0:0,0:0:0:0:
354,228,43743,2,0,P|344:187|343:155,1,68.1449986482468,2|0,1:0|1:0,0:0:0:0:
216,269,44069,2,0,P|213:302|204:335,1,68.1449986482468,10|0,0:0|0:0,0:0:0:0:
80,206,44395,6,0,P|71:172|68:139,1,68.1449986482468,2|0,1:0|1:0,0:0:0:0:
205,24,44721,1,10,0:0:0:0:
279,149,44884,1,2,0:0:0:0:
178,47,45047,1,0,1:0:0:0:
178,47,45129,1,0,3:0:0:0:
178,47,45210,2,0,L|171:94,1,34.0724993241234,10|8,0:0|0:0,0:0:0:0:
253,227,45373,2,0,L|247:193,1,34.0724993241234,0|0,1:0|3:0,0:0:0:0:
373,37,45536,5,10,0:0:0:0:
373,37,45618,1,8,0:0:0:0:
373,37,45699,2,0,P|431:29|458:39,1,85.8450020303307,4|0,1:0|1:0,0:0:0:0:
352,320,46025,5,8,0:0:0:0:
415,104,46188,1,0,1:0:0:0:
116,256,46351,5,10,0:0:0:0:
402,156,46515,1,0,1:0:0:0:
76,56,46678,5,10,0:0:0:0:
326,187,46841,1,2,1:0:0:0:
0,293,47004,5,8,0:0:0:0:
194,75,47167,1,0,1:0:0:0:
364,353,47330,5,10,0:0:0:0:
134,251,47493,1,2,1:0:0:0:
134,251,47574,1,0,1:0:0:0:
134,251,47656,1,8,0:0:0:0:
359,175,47819,1,2,1:0:0:0:
139,163,47982,2,0,P|101:170|46:238,1,115.492500969252,8|0,3:0|0:0,0:0:0:0:
74,317,48308,6,0,B|170:326|124:263|247:269,1,153.990001292336,4|0,1:0|0:0,0:0:0:0:
366,335,48797,1,0,1:0:0:0:
304,193,48960,2,0,P|298:228|292:275,1,76.9950006461678,10|0,0:0|0:0,0:0:0:0:
450,161,49286,1,2,0:0:0:0:
257,206,49449,6,0,P|218:195|159:190,1,76.9950006461678,0|0,1:0|0:0,0:0:0:0:
332,308,49775,2,0,P|370:302|407:292,2,76.9950006461678,0|0|0,1:0|1:0|1:0,0:0:0:0:
252,175,50265,2,0,P|230:136|227:83,1,76.9950006461678,10|0,0:0|1:0,0:0:0:0:
370,1,50591,2,0,P|391:39|394:92,1,76.9950006461678,10|0,0:0|0:0,0:0:0:0:
240,204,50917,6,0,P|174:179|86:166,1,153.990001292336,4|0,1:0|0:0,0:0:0:0:
98,266,51406,1,2,1:0:0:0:
181,133,51569,2,0,P|194:93|201:48,1,76.9950006461678,10|0,0:0|0:0,0:0:0:0:
275,187,51895,1,2,0:0:0:0:
346,63,52058,6,0,P|389:33|487:79,1,153.990001292336,2|0,1:0|1:0,0:0:0:0:
294,149,52547,1,2,1:0:0:0:
424,231,52710,2,0,P|416:281|413:328,1,76.9950006461678,2|8,0:0|0:0,0:0:0:0:
412,118,53036,1,0,1:0:0:0:
255,230,53199,1,10,0:0:0:0:
355,130,53362,1,2,0:0:0:0:
178,40,53525,6,0,B|96:32|140:89|12:70,1,153.990001292336,4|0,1:0|0:0,0:0:0:0:
170,138,54015,1,0,1:0:0:0:
332,22,54178,1,10,0:0:0:0:
165,186,54341,1,8,0:0:0:0:
294,67,54504,5,6,1:0:0:0:
381,213,54667,2,0,P|362:266|354:302,1,76.9950006461678,4|0,1:0|0:0,0:0:0:0:
256,102,54993,1,0,1:0:0:0:
293,330,55156,5,8,0:0:0:0:
146,164,55319,1,2,1:0:0:0:
419,182,55482,5,10,0:0:0:0:
176,196,55645,1,2,1:0:0:0:
358,30,55808,5,10,0:0:0:0:
225,190,55971,1,0,0:0:0:0:
409,132,56134,6,0,L|390:242,1,76.9950006461678,4|0,1:0|0:0,0:0:0:0:
390,234,56379,1,8,0:0:0:0:
390,234,56460,2,0,P|341:207|288:208,1,76.9950006461678,8|2,0:0|0:0,0:0:0:0:
294,212,56705,1,8,0:0:0:0:
294,212,56786,2,0,P|279:187|266:149,1,38.4975003230839,10|0,0:0|3:0,0:0:0:0:
216,20,56949,2,0,P|207:37|197:53,1,38.4975003230839,0|8,3:0|0:0,0:0:0:0:
45,199,57112,1,2,1:0:0:0:
196,139,57275,1,2,0:0:0:0:
275,384,57438,5,8,0:0:0:0:
146,158,57601,1,8,0:0:0:0:
506,203,57765,1,10,0:0:0:0:
200,250,57928,1,10,0:0:0:0:
449,0,58091,1,8,0:0:0:0:
105,311,58743,6,0,P|101:257|93:203,1,103.545000394993,6|2,1:0|0:0,0:0:0:0:
243,11,59069,1,8,0:0:0:0:
69,105,59232,1,2,0:0:0:0:
288,247,59395,2,0,P|341:258|391:243,1,103.545000394993,2|0,1:0|0:0,0:0:0:0:
266,38,59721,1,10,0:0:0:0:
166,257,59884,1,2,0:0:0:0:
359,78,60047,5,2,1:0:0:0:
180,219,60210,2,0,P|129:216|72:184,1,103.545000394993,2|8,0:0|0:0,0:0:0:0:
312,62,60536,1,2,0:0:0:0:
358,323,60699,1,2,1:0:0:0:
276,166,60862,1,2,0:0:0:0:
141,383,61025,2,0,P|150:322|159:253,1,103.545000394993,10|0,0:0|0:0,0:0:0:0:
224,27,61351,6,0,P|235:104|242:192,1,155.317500592489,6|0,1:0|0:0,0:0:0:0:
236,270,61678,1,10,0:0:0:0:
359,80,61841,2,0,P|422:50|470:49,1,103.545000394993,2|0,0:0|1:0,0:0:0:0:
335,253,62167,1,2,0:0:0:0:
243,8,62330,1,10,0:0:0:0:
314,199,62493,1,2,0:0:0:0:
48,135,62656,5,2,1:0:0:0:
228,97,62819,1,2,0:0:0:0:
88,269,62982,2,0,P|78:323|67:396,1,103.545000394993,10|0,0:0|0:0,0:0:0:0:
221,143,63308,1,2,1:0:0:0:
319,317,63471,1,2,0:0:0:0:
452,105,63634,2,0,P|443:53|434:2,1,103.545000394993,10|0,0:0|0:0,0:0:0:0:
263,225,63960,6,0,P|199:233|156:211,1,103.545000394993,6|0,1:0|0:0,0:0:0:0:
355,69,64286,1,10,0:0:0:0:
440,224,64449,1,2,3:0:0:0:
440,224,64531,1,0,3:0:0:0:
440,224,64612,2,0,P|434:253|430:290,1,51.7725001974964,2|0,1:0|3:0,0:0:0:0:
301,133,64775,2,0,P|297:107|292:82,1,51.7725001974964,8|8,3:0|3:0,0:0:0:0:
194,292,64938,5,10,0:0:0:0:
194,292,65020,1,8,0:0:0:0:
194,292,65101,2,0,P|96:278|85:213,1,155.317500592489,6|0,1:0|0:0,0:0:0:0:
105,149,65428,2,0,P|154:178|219:187,1,103.545000394993,6|8,1:0|0:0,0:0:0:0:
402,313,65754,2,0,P|351:324|307:351,1,103.545000394993,2|0,1:0|0:0,0:0:0:0:
91,195,66080,2,0,P|140:224|205:233,1,103.545000394993,2|8,1:0|0:0,0:0:0:0:
363,174,66406,1,2,0:0:0:0:
121,109,66569,5,4,1:0:0:0:
279,43,66732,1,2,0:0:0:0:
326,278,66895,2,0,P|375:305|427:308,1,103.545000394993,8|0,0:0|0:0,0:0:0:0:
511,108,67221,2,0,P|466:82|415:77,1,103.545000394993,0|0,1:0|0:0,0:0:0:0:
305,293,67547,2,0,P|354:320|406:323,1,103.545000394993,8|0,0:0|0:0,0:0:0:0:
316,88,67873,5,8,3:2:0:0:
276,82,67954,1,0,3:0:0:0:
237,93,68036,1,0,3:0:0:0:
208,119,68117,1,0,3:0:0:0:
191,153,68199,5,8,3:2:0:0:
172,189,68281,1,0,3:0:0:0:
143,214,68362,1,0,3:0:0:0:
104,224,68444,1,0,3:0:0:0:
66,219,68525,5,8,0:0:0:0:
88,177,68607,1,0,3:0:0:0:
134,176,68688,1,8,3:0:0:0:
164,211,68770,1,8,3:0:0:0:
175,255,68851,2,0,P|179:286|183:325,1,51.7725001974964,10|8,3:0|3:0,0:0:0:0:
309,140,69015,2,0,P|312:112|316:83,1,51.7725001974964,8|8,3:0|3:0,0:0:0:0:
425,309,69188,5,6,1:0:0:0:
236,197,69351,1,2,0:0:0:0:
453,38,69514,1,10,0:0:0:0:
364,227,69677,1,2,0:0:0:0:
223,25,69840,2,0,P|160:12|122:21,1,103.545000394993,2|0,1:0|0:0,0:0:0:0:
162,257,70166,1,10,0:0:0:0:
330,120,70329,6,0,P|343:57|334:19,1,103.545000394993,2|0,0:0|1:0,0:0:0:0:
176,168,70655,1,2,0:0:0:0:
379,279,70818,2,0,P|442:292|480:283,1,103.545000394993,10|0,0:0|0:0,0:0:0:0:
288,98,71144,1,2,1:0:0:0:
154,308,71307,1,2,0:0:0:0:
213,47,71470,2,0,P|222:91|230:160,1,103.545000394993,10|0,0:0|0:0,0:0:0:0:
120,343,71796,6,0,P|169:301|253:317,1,155.317500592489,6|0,1:0|0:0,0:0:0:0:
305,384,72122,1,10,0:0:0:0:
432,197,72285,2,0,P|441:141|448:87,1,103.545000394993,2|0,0:0|1:0,0:0:0:0:
354,308,72611,1,2,0:0:0:0:
194,156,72775,2,0,P|184:100|178:46,1,103.545000394993,10|0,0:0|0:0,0:0:0:0:
418,227,73101,5,2,1:0:0:0:
214,259,73264,1,2,0:0:0:0:
427,124,73427,1,10,0:0:0:0:
321,301,73590,1,2,0:0:0:0:
233,47,73753,1,2,1:0:0:0:
334,198,73916,1,2,0:0:0:0:
107,185,74079,2,0,P|58:167|7:155,1,103.545000394993,10|0,0:0|0:0,0:0:0:0:
192,347,74405,6,0,P|221:297|232:243,1,103.545000394993,6|0,1:0|0:0,0:0:0:0:
233,47,74731,2,0,P|245:97|272:141,1,103.545000394993,10|0,0:0|0:0,0:0:0:0:
422,295,75057,1,2,1:0:0:0:
449,272,75138,1,0,3:0:0:0:
463,239,75220,1,8,3:0:0:0:
459,203,75301,1,8,3:0:0:0:
440,173,75383,2,0,P|414:162|377:156,1,51.7725001974964,10|8,0:0|0:0,0:0:0:0:
267,300,75546,6,0,P|292:294|343:227,1,103.545000394993,6|0,1:0|0:0,0:0:0:0:
257,16,75872,1,2,1:0:0:0:
162,256,76035,1,8,0:0:0:0:
296,31,76198,2,0,L|317:188,1,155.317500592489,6|0,1:0|0:0,0:0:0:0:
329,267,76525,2,0,P|270:218|199:205,1,103.545000394993,2|8,1:0|0:0,0:0:0:0:
56,302,76851,1,2,1:0:0:0:
203,92,77014,6,0,P|274:65|308:60,1,103.545000394993,10|0,0:0|1:0,0:0:0:0:
106,191,77340,1,0,1:0:0:0:
306,328,77503,2,0,P|353:348|403:359,1,103.545000394993,10|0,0:0|1:0,0:0:0:0:
206,225,77829,1,0,1:0:0:0:
479,110,77992,6,0,B|375:95|429:171|283:163,1,189.389994220276,14|0,0:0|0:0,0:0:0:0:
52,36,78644,1,0,0:0:0:0:
52,36,78807,1,2,0:0:0:0:
152,224,78970,1,10,0:0:0:0:
181,245,79051,1,0,3:0:0:0:
215,252,79133,1,0,3:0:0:0:
250,245,79214,1,0,3:0:0:0:
279,227,79296,5,10,0:0:0:0:
309,202,79378,1,8,3:2:0:0:
347,195,79460,1,8,3:2:0:0:
384,202,79541,1,8,3:2:0:0:
410,230,79622,6,0,P|394:285|386:344,1,94.694997110138,6|0,1:0|1:0,0:0:0:0:
201,153,79948,1,10,0:0:0:0:
281,372,80111,2,0,P|272:325|258:280,1,94.694997110138,2|0,1:0|0:0,0:0:0:0:
165,70,80438,1,2,1:0:0:0:
384,202,80601,1,10,0:0:0:0:
163,252,80764,6,0,P|117:252|58:220,1,94.694997110138,2|2,1:0|0:0,0:0:0:0:
285,78,81090,1,2,1:0:0:0:
346,292,81253,2,0,P|396:293|450:260,1,94.694997110138,10|0,0:0|0:0,0:0:0:0:
259,113,81579,1,2,1:0:0:0:
227,325,81742,1,2,1:0:0:0:
395,149,81905,2,0,P|410:84|417:28,1,94.694997110138,10|0,0:0|0:0,0:0:0:0:
294,266,82231,5,6,1:0:0:0:
163,119,82394,2,0,P|104:99|68:105,1,94.694997110138,2|8,1:0|0:0,0:0:0:0:
285,141,82720,1,2,1:0:0:0:
154,288,82883,2,0,P|95:308|59:302,1,94.694997110138,2|0,0:0|1:0,0:0:0:0:
291,233,83209,1,10,0:0:0:0:
160,81,83372,6,0,P|101:61|65:67,1,94.694997110138,2|0,1:0|0:0,0:0:0:0:
170,247,83698,1,2,1:0:0:0:
269,27,83861,5,10,0:0:0:0:
297,275,84025,1,0,1:0:0:0:
379,0,84188,5,10,0:0:0:0:
291,233,84352,1,2,1:0:0:0:
115,44,84514,5,10,0:0:0:0:
325,131,84677,1,2,0:0:0:0:
108,88,84840,6,0,P|118:131|127:192,1,94.694997110138,6|0,1:0|0:0,0:0:0:0:
285,21,85166,1,8,0:0:0:0:
381,249,85329,2,0,P|370:292|362:353,1,94.694997110138,2|0,1:0|0:0,0:0:0:0:
231,106,85655,1,2,1:0:0:0:
122,292,85818,2,0,P|114:245|104:199,1,94.694997110138,10|2,0:0|1:0,0:0:0:0:
312,182,86144,5,2,0:0:0:0:
157,32,86307,1,2,1:0:0:0:
209,255,86470,1,8,0:0:0:0:
191,64,86633,1,2,0:0:0:0:
393,124,86796,1,2,1:0:0:0:
221,96,86959,1,2,1:0:0:0:
389,249,87122,2,0,P|446:241|480:210,1,94.694997110138,10|0,0:0|0:0,0:0:0:0:
474,183,87367,5,2,0:0:0:0:
474,183,87448,2,0,P|481:125|498:68,1,94.694997110138,6|0,0:0|1:0,0:0:0:0:
300,252,87775,1,8,0:0:0:0:
210,82,87938,2,0,P|150:52|107:57,1,94.694997110138,2|0,1:0|0:0,0:0:0:0:
266,228,88264,1,2,1:0:0:0:
88,141,88427,2,0,P|25:164|0:199,1,94.694997110138,10|0,0:0|1:0,0:0:0:0:
174,315,88753,5,2,0:0:0:0:
107,99,88916,1,2,1:0:0:0:
299,247,89079,2,0,P|377:237|415:186,1,142.042495665207,8|0,0:0|0:0,0:0:0:0:
411,101,89405,1,10,0:0:0:0:
235,368,89568,1,10,0:0:0:0:
173,39,89731,1,10,0:0:0:0:
438,346,89894,6,0,B|80:352|367:75|35:53,1,557.55,14|0,0:0|0:0,0:0:0:0:
