osu file format v14

[General]
AudioFilename: audio.mp3
AudioLeadIn: 0
PreviewTime: 193200
Countdown: 0
SampleSet: None
StackLeniency: 0.7
Mode: 0
LetterboxInBreaks: 1
WidescreenStoryboard: 0

[Editor]
Bookmarks: 59539,68111
DistanceSpacing: 1.7
BeatDivisor: 2
GridSize: 8
TimelineZoom: 2.400002

[Metadata]
Title:Blood on the EDGE
TitleUnicode:Blood on the EDGE
Artist:KISIDA KYODAN & THE AKEBOSI ROCKETS
ArtistUnicode:岸田教団&THE明星ロケッツ
Creator:october
Version:Thirst
Source:
Tags:
BeatmapID:1521115
BeatmapSetID:720466

[Difficulty]
HPDrainRate:6
CircleSize:4
OverallDifficulty:8.6
ApproachRate:9.6
SliderMultiplier:2
SliderTickRate:1

[Events]
//Background and Video events
0,0,"bg.png",0,0
//Break Periods
2,13533,14968
//Storyboard Layer 0 (Background)
//Storyboard Layer 1 (Fail)
//Storyboard Layer 2 (Pass)
//Storyboard Layer 3 (Foreground)
//Storyboard Sound Samples

[TimingPoints]
611,267.857142857143,4,1,0,90,1,0
15343,-100,4,3,0,90,0,0
21972,-100,4,1,0,90,0,0
52039,-83.3333333333333,4,1,0,90,0,1
73468,-100,4,1,0,90,0,0

[Colours]
Combo1 : 255,0,128
Combo2 : 206,6,41

[HitObjects]
144,280,3825,1,0,0:0:0:0:
312,192,3959,1,0,0:0:0:0:
152,96,4093,1,0,0:0:0:0:
240,264,4227,6,0,L|312:352,1,100
456,232,4494,1,0,0:0:0:0:
296,128,4628,1,0,0:0:0:0:
376,296,4762,2,0,L|488:352,1,100
296,256,5030,5,0,0:0:0:0:
296,256,5164,2,0,L|384:160,1,100
256,56,5432,1,0,0:0:0:0:
200,216,5566,1,0,0:0:0:0:
360,80,5700,2,0,L|464:128,1,100
408,264,5968,1,0,0:0:0:0:
304,160,6102,1,0,0:0:0:0:
480,200,6236,1,0,0:0:0:0:
376,336,6369,5,0,0:0:0:0:
376,336,6503,2,0,L|248:240,1,100
176,152,6771,1,0,0:0:0:0:
176,152,6905,2,0,L|88:240,1,100
248,320,7173,5,0,0:0:0:0:
360,192,7307,1,0,0:0:0:0:
192,232,7441,1,0,0:0:0:0:
352,296,7575,1,0,0:0:0:0:
264,152,7709,1,0,0:0:0:0:
264,152,7843,2,0,L|344:56,1,100
472,168,8111,6,0,L|328:192,1,100
208,216,8378,1,0,0:0:0:0:
208,216,8512,2,0,L|64:96,1,100
264,40,8780,2,0,L|256:152,1,100
248,312,9048,6,0,P|368:280|408:208,1,200
376,128,9450,2,0,P|432:120|488:184,1,100
456,312,9718,1,0,0:0:0:0:
320,208,9852,2,0,L|264:112,1,100
120,200,10119,1,0,0:0:0:0:
120,200,10253,2,0,L|192:64,1,100
232,272,10521,5,0,0:0:0:0:
360,160,10655,1,0,0:0:0:0:
360,160,10722,1,0,0:0:0:0:
360,160,10789,2,0,L|464:264,1,100
312,344,11057,2,0,L|312:208,1,100
312,72,11325,2,0,L|144:192,1,200
208,328,11727,5,0,0:0:0:0:
328,232,11861,1,0,0:0:0:0:
176,152,11994,2,0,L|240:240,1,100
344,360,12262,1,0,0:0:0:0:
344,360,12396,2,0,L|416:272,1,100
288,160,12664,1,0,0:0:0:0:
288,160,12798,2,0,L|408:200,1,100
240,280,13066,2,0,L|24:216,1,200,0|4,0:0|0:0,0:0:0:0:
280,240,15477,5,0,0:0:0:0:
280,240,15544,1,0,0:0:0:0:
280,240,15611,2,0,L|392:168,1,100
472,136,15878,1,0,0:0:0:0:
376,64,16012,2,0,L|288:120,1,100
184,168,16280,2,0,L|272:272,1,100
352,184,16548,1,0,0:0:0:0:
368,56,16682,6,0,L|248:104,1,100
144,136,16950,5,8,0:0:0:0:
256,216,17084,1,4,0:0:0:0:
136,288,17218,1,8,0:0:0:0:
256,360,17352,1,4,0:0:0:0:
192,240,17486,5,8,0:0:0:0:
320,288,17619,1,4,0:0:0:0:
320,288,17753,2,0,L|408:192,1,100
280,128,18021,2,0,L|392:112,1,100
472,224,18289,5,0,0:0:0:0:
472,224,18423,2,0,L|472:96,1,100
360,40,18691,2,0,L|240:56,1,100
144,136,18959,1,0,0:0:0:0:
240,240,19093,2,0,L|448:128,1,200
376,280,19494,5,0,0:0:0:0:
304,160,19628,1,0,0:0:0:0:
240,280,19762,2,0,L|96:208,1,100
56,128,20030,1,0,0:0:0:0:
56,128,20164,2,0,L|56:256,1,100
128,312,20432,2,0,P|0:312|-16:288,1,100
136,232,20700,5,0,0:0:0:0:
192,360,20834,1,0,0:0:0:0:
280,248,20968,1,0,0:0:0:0:
192,136,21102,2,0,P|288:104|336:120,1,100
416,136,21369,5,0,0:0:0:0:
368,264,21503,2,0,L|448:224,1,50
288,200,21637,2,0,L|224:144,1,50
261,294,21771,2,0,L|224:328,1,50
184,232,21905,5,0,0:0:0:0:
184,232,21972,2,0,P|104:192|24:248,1,150
112,328,22307,2,0,L|240:328,1,100,4|8,0:0|0:0,0:0:0:0:
328,272,22575,2,0,L|240:168,1,100,4|8,0:0|0:0,0:0:0:0:
192,88,22843,5,8,0:0:0:0:
320,88,22977,1,8,0:0:0:0:
392,192,23111,2,0,P|304:288|272:296,1,100,4|0,0:0|0:0,0:0:0:0:
216,320,23378,2,0,P|248:224|272:208,1,100,4|0,0:0|0:0,0:0:0:0:
144,144,23646,5,8,0:0:0:0:
248,80,23780,1,8,0:0:0:0:
352,136,23914,1,8,0:0:0:0:
384,240,24048,2,0,L|288:288,1,100
200,248,24316,1,8,0:0:0:0:
200,248,24450,2,0,P|232:200|280:184,1,100,8|0,0:0|0:0,0:0:0:0:
392,160,24718,5,8,0:0:0:0:
312,72,24852,1,8,0:0:0:0:
200,112,24986,2,0,L|88:64,1,100,4|0,0:0|0:0,0:0:0:0:
120,192,25253,5,8,0:0:0:0:
240,200,25387,1,0,0:0:0:0:
184,304,25521,1,8,0:0:0:0:
304,296,25655,2,0,L|424:184,1,100,8|0,0:0|0:0,0:0:0:0:
320,120,25923,2,4,L|440:136,1,100,0|4,0:0|0:0,0:0:0:0:
176,136,26459,5,0,0:0:0:0:
176,136,26526,1,0,0:0:0:0:
176,136,26593,2,0,L|256:200,1,100
400,216,26861,6,0,L|312:312,1,100
192,312,27128,1,0,0:0:0:0:
288,208,27262,2,0,L|176:120,1,100
112,72,27530,5,8,0:0:0:0:
48,176,27664,1,8,0:0:0:0:
160,224,27798,2,0,L|256:104,1,100
296,64,28066,5,8,0:0:0:0:
400,96,28200,1,8,0:0:0:0:
408,208,28334,2,0,L|312:272,1,100,4|0,0:0|0:0,0:0:0:0:
216,248,28602,5,0,0:0:0:0:
280,160,28736,1,0,0:0:0:0:
176,128,28869,1,4,0:0:0:0:
256,48,29003,1,8,0:0:0:0:
360,88,29137,2,0,L|432:184,1,100,12|0,0:0|0:0,0:0:0:0:
352,256,29405,5,8,0:0:0:0:
280,160,29539,1,8,0:0:0:0:
176,192,29673,2,0,L|80:272,1,100,8|0,0:0|0:0,0:0:0:0:
176,336,29941,5,8,0:0:0:0:
272,280,30075,1,8,0:0:0:0:
304,176,30209,1,8,0:0:0:0:
384,248,30343,1,8,0:0:0:0:
464,168,30477,2,0,B|396:94|396:94|320:104|272:48,1,200,12|0,0:0|0:0,0:0:0:0:
192,72,30878,5,0,0:0:0:0:
192,72,31012,2,0,L|224:176,1,100
120,208,31280,2,0,L|152:312,1,100
256,288,31548,1,0,0:0:0:0:
256,288,31682,2,0,L|352:200,1,100
304,128,31950,2,0,P|415:196|415:254,1,200
336,328,32352,5,8,0:0:0:0:
224,312,32486,1,8,0:0:0:0:
192,208,32619,2,4,L|248:112,1,100,0|0,0:0|0:0,0:0:0:0:
352,128,32887,5,0,0:0:0:0:
352,128,33021,2,0,L|296:232,1,100
200,192,33289,1,0,0:0:0:0:
240,88,33423,2,0,L|360:56,1,100
413,161,33691,1,0,0:0:0:0:
413,161,33758,1,0,0:0:0:0:
413,161,33825,5,8,0:0:0:0:
208,311,33959,1,0,0:0:0:0:
286,69,34093,1,8,0:0:0:0:
365,311,34227,1,0,0:0:0:0:
161,162,34361,1,8,0:0:0:0:
419,158,34494,1,8,0:0:0:0:
205,315,34628,1,8,0:0:0:0:
296,64,34762,2,0,L|392:160,1,100,4|0,0:0|0:0,0:0:0:0:
214,139,35030,5,0,0:0:0:0:
344,149,35164,1,8,0:0:0:0:
272,260,35298,1,8,0:0:0:0:
405,251,35432,6,0,L|395:382,1,100,4|0,0:0|0:0,0:0:0:0:
511,286,35700,1,8,0:0:0:0:
477,157,35834,2,0,L|355:142,1,100,4|0,0:0|0:0,0:0:0:0:
250,184,36102,2,0,L|339:246,1,100,4|0,0:0|0:0,0:0:0:0:
297,115,36369,2,0,L|218:47,1,100,4|0,0:0|0:0,0:0:0:0:
141,157,36637,1,8,0:0:0:0:
386,77,36771,1,8,0:0:0:0:
296,280,36905,1,0,0:0:0:0:
256,80,37039,2,0,L|400:104,1,100
464,200,37307,5,0,0:0:0:0:
352,256,37441,1,0,0:0:0:0:
363,120,37575,1,0,0:0:0:0:
245,174,37709,1,0,0:0:0:0:
211,45,37843,2,0,L|112:114,1,100
149,235,38111,1,8,0:0:0:0:
359,186,38244,1,8,0:0:0:0:
219,73,38378,2,0,L|120:142,1,100,4|0,0:0|0:0,0:0:0:0:
48,184,38646,5,8,0:0:0:0:
120,336,38780,1,8,0:0:0:0:
208,192,38914,1,8,0:0:0:0:
296,336,39048,2,0,L|400:240,1,100,4|0,0:0|0:0,0:0:0:0:
480,216,39316,5,0,0:0:0:0:
480,216,39450,2,0,P|373:152|345:160,1,100
240,152,39718,5,0,0:0:0:0:
240,152,39852,2,0,L|328:80,1,100
264,248,40119,2,0,L|360:208,1,100
488,352,40387,2,0,L|368:280,1,100
480,232,40655,2,8,L|480:112,1,100,8|0,0:0|0:0,0:0:0:0:
312,96,40923,2,0,L|400:152,1,100,8|0,0:0|0:0,0:0:0:0:
224,168,41191,2,0,L|408:288,1,200,4|0,0:0|0:0,0:0:0:0:
216,288,41593,5,0,0:0:0:0:
216,288,41727,2,0,L|184:184,1,100
352,144,41994,2,0,L|264:232,1,100
232,128,42262,2,0,P|120:144|104:168,1,100
284,331,42530,2,0,P|196:283|196:171,1,200
104,184,42932,5,8,0:0:0:0:
184,112,43066,1,8,0:0:0:0:
296,104,43200,1,8,0:0:0:0:
400,144,43334,2,0,P|440:184|368:296,1,200,12|0,0:0|0:0,0:0:0:0:
280,248,43736,6,0,L|392:208,1,100
288,144,44003,1,8,0:0:0:0:
192,200,44137,1,8,0:0:0:0:
192,312,44271,1,8,0:0:0:0:
296,352,44405,2,0,L|480:240,1,200,12|0,0:0|0:0,0:0:0:0:
456,136,44807,5,0,0:0:0:0:
360,192,44941,1,0,0:0:0:0:
360,80,45075,2,8,L|240:96,1,100
184,168,45343,1,8,0:0:0:0:
288,248,45477,2,0,P|136:288|80:248,1,200,4|0,0:0|0:0,0:0:0:0:
48,176,45878,2,0,L|128:72,1,100
288,128,46146,2,8,L|208:24,1,100,12|8,0:0|0:0,0:0:0:0:
336,48,46414,1,8,0:0:0:0:
336,48,46548,2,0,P|432:152|344:240,1,200,12|0,0:0|0:0,0:0:0:0:
328,288,46950,5,0,0:0:0:0:
248,184,47084,1,0,0:0:0:0:
368,128,47218,2,0,L|472:96,1,100,0|8,0:0|0:0,0:0:0:0:
344,48,47486,1,12,0:0:0:0:
344,48,47619,2,0,L|136:104,1,200
248,184,48021,6,0,L|352:152,1,100
464,208,48289,2,0,L|464:320,1,100
360,256,48557,6,0,L|432:128,1,100
321,295,48825,2,0,L|442:211,1,100,4|0,0:0|0:0,0:0:0:0:
250,313,49093,2,0,L|397:314,1,100,4|0,0:0|0:0,0:0:0:0:
272,208,49361,6,8,L|192:96,1,100,12|8,0:0|0:0,0:0:0:0:
320,48,49628,1,8,0:0:0:0:
416,136,49762,1,4,0:0:0:0:
160,272,50834,5,8,0:0:0:0:
256,96,51102,1,8,0:0:0:0:
392,248,51369,1,8,0:0:0:0:
160,176,51771,5,4,0:0:0:0:
160,176,52039,6,0,L|264:80,1,119.999996337891,8|0,0:0|0:0,0:0:0:0:
368,152,52307,1,8,0:0:0:0:
288,256,52441,1,8,0:0:0:0:
336,360,52575,2,0,P|400:296|376:224,1,119.999996337891,4|0,0:0|0:0,0:0:0:0:
352,152,52843,5,8,0:0:0:0:
256,256,52977,2,0,L|152:184,1,119.999996337891
264,112,53244,2,8,L|152:32,1,119.999996337891
56,160,53512,2,0,B|104:216|104:288|104:288|216:360,1,239.999992675781,4|0,0:0|0:0,0:0:0:0:
312,272,53914,6,0,L|216:192,1,119.999996337891
128,104,54182,2,0,P|256:80|287:104,1,119.999996337891
352,120,54450,5,0,0:0:0:0:
264,200,54584,1,0,0:0:0:0:
352,280,54718,1,0,0:0:0:0:
248,344,54852,2,0,P|144:280|144:256,1,119.999996337891
72,224,55119,2,0,P|224:240|232:264,1,119.999996337891,4|0,0:0|0:0,0:0:0:0:
288,256,55387,1,8,0:0:0:0:
384,184,55521,1,8,0:0:0:0:
432,288,55655,2,0,P|496:176|432:88,1,239.999992675781,4|0,0:0|0:0,0:0:0:0:
320,96,56057,6,0,L|224:208,1,119.999996337891
208,304,56325,2,0,P|144:264|144:176,1,119.999996337891
168,112,56593,1,0,0:0:0:0:
56,144,56727,1,0,0:0:0:0:
104,48,56861,2,0,P|160:32|264:80,1,119.999996337891
312,120,57128,5,8,0:0:0:0:
232,208,57262,1,0,0:0:0:0:
168,80,57396,1,0,0:0:0:0:
352,216,57530,1,8,0:0:0:0:
152,296,57664,1,8,0:0:0:0:
152,296,57798,2,0,L|64:184,1,119.999996337891,4|0,0:0|0:0,0:0:0:0:
200,160,58066,5,0,0:0:0:0:
200,160,58200,2,0,L|304:88,1,119.999996337891
410,155,58468,2,0,L|312:224,1,119.999996337891
200,296,58736,5,0,0:0:0:0:
312,368,58869,1,0,0:0:0:0:
224,184,59003,1,0,0:0:0:0:
88,320,59137,5,0,0:0:0:0:
312,256,59271,1,0,0:0:0:0:
88,176,59405,2,0,L|192:96,1,119.999996337891
232,240,59673,2,0,L|152:392,1,119.999996337891
352,184,59941,5,0,0:0:0:0:
448,352,60075,1,0,0:0:0:0:
496,176,60209,1,8,0:0:0:0:
224,280,60343,1,8,0:0:0:0:
496,176,60477,5,8,0:0:0:0:
248,48,60611,2,0,L|24:176,1,239.999992675781,4|0,0:0|0:0,0:0:0:0:
136,240,61012,2,0,L|248:168,1,119.999996337891
336,104,61280,1,0,0:0:0:0:
384,216,61414,1,0,0:0:0:0:
264,264,61548,2,0,L|352:352,1,119.999996337891
456,288,61816,1,8,0:0:0:0:
384,168,61950,1,8,0:0:0:0:
504,144,62084,2,0,L|424:32,1,119.999996337891,4|0,0:0|0:0,0:0:0:0:
320,88,62352,5,0,0:0:0:0:
320,88,62486,2,0,L|216:184,1,119.999996337891
120,192,62753,2,0,P|216:280|256:280,1,119.999996337891
320,280,63021,1,0,0:0:0:0:
240,376,63155,1,0,0:0:0:0:
280,192,63289,5,8,0:0:0:0:
440,312,63423,1,8,0:0:0:0:
448,120,63557,2,0,P|328:80|288:96,1,119.999996337891,4|0,0:0|0:0,0:0:0:0:
328,272,63825,6,8,L|376:144,1,119.999996337891
264,184,64093,2,8,L|184:80,1,119.999996337891
184,224,64361,2,4,L|256:320,1,119.999996337891
96,248,64628,6,0,P|144:147|186:135,1,119.999996337891,8|0,0:0|0:0,0:0:0:0:
176,40,64896,2,0,L|280:120,1,119.999996337891,4|0,0:0|0:0,0:0:0:0:
376,208,65164,1,8,0:0:0:0:
432,72,65298,1,0,0:0:0:0:
256,224,65432,1,8,0:0:0:0:
488,208,65566,1,8,0:0:0:0:
256,192,65700,1,8,0:0:0:0:
464,344,65834,2,0,L|280:208,1,119.999996337891,4|0,0:0|0:0,0:0:0:0:
256,352,66102,5,8,0:0:0:0:
400,192,66236,1,8,0:0:0:0:
400,192,66369,2,0,L|272:104,1,119.999996337891,4|0,0:0|0:0,0:0:0:0:
200,184,66637,1,8,0:0:0:0:
200,184,66771,2,0,L|312:264,1,119.999996337891,8|0,0:0|0:0,0:0:0:0:
400,320,67039,6,0,P|504:224|496:192,1,119.999996337891,8|0,0:0|0:0,0:0:0:0:
368,144,67307,1,8,0:0:0:0:
416,232,67441,1,8,0:0:0:0:
480,160,67575,1,0,0:0:0:0:
480,160,67709,2,0,L|480:32,1,119.999996337891,8|0,0:0|0:0,0:0:0:0:
376,64,67977,2,0,P|296:112|296:168,1,119.999996337891,8|0,0:0|0:0,0:0:0:0:
352,240,68244,5,0,0:0:0:0:
216,96,68378,1,8,0:0:0:0:
468,197,68512,1,8,0:0:0:0:
204,263,68646,1,8,0:0:0:0:
379,55,68780,1,8,0:0:0:0:
360,326,68914,5,8,0:0:0:0:
216,96,69048,1,8,0:0:0:0:
112,288,69182,2,0,P|248:336|312:264,1,239.999992675781,4|0,0:0|0:0,0:0:0:0:
248,192,69584,1,0,0:0:0:0:
248,192,69718,2,0,P|384:224|392:264,1,119.999996337891
424,296,69986,6,0,L|496:176,1,119.999996337891
408,120,70253,2,0,L|320:32,1,119.999996337891
272,144,70521,6,0,L|144:144,1,119.999996337891
72,232,70789,1,0,0:0:0:0:
152,320,70923,1,0,0:0:0:0:
232,232,71057,2,0,L|328:320,1,119.999996337891
344,192,71325,6,0,L|432:96,1,119.999996337891,4|0,0:0|0:0,0:0:0:0:
264,48,71593,1,0,0:0:0:0:
144,208,71727,1,0,0:0:0:0:
344,192,71861,1,8,0:0:0:0:
128,64,71994,1,8,0:0:0:0:
248,288,72128,2,0,L|248:160,1,119.999996337891,4|0,0:0|0:0,0:0:0:0:
352,56,72396,5,8,0:0:0:0:
464,208,72530,1,8,0:0:0:0:
248,184,72664,1,8,0:0:0:0:
472,88,72798,2,0,L|360:168,1,119.999996337891,4|0,0:0|0:0,0:0:0:0:
192,288,73066,1,8,0:0:0:0:
160,64,73200,2,8,L|280:184,1,119.999996337891
400,328,73468,1,4,0:0:0:0:
256,192,73602,12,4,75611,0:0:0:0:
