osu file format v14

[General]
AudioFilename: audio.mp3
AudioLeadIn: 0
PreviewTime: 51787
Countdown: 0
SampleSet: Soft
StackLeniency: 0.7
Mode: 0
LetterboxInBreaks: 0
WidescreenStoryboard: 0

[Editor]
Bookmarks: 91562
DistanceSpacing: 1.3
BeatDivisor: 4
GridSize: 32
TimelineZoom: 2.000006

[Metadata]
Title:Blood on the EDGE (TV Size)
TitleUnicode:Blood on the EDGE (TV Size)
Artist:KISIDA KYODAN & THE AKEBOSI ROCKETS
ArtistUnicode:岸田教団&THE明星ロケッツ
Creator:SMOKELIND
Version:INSANE
Source:ストライク・ザ・ブラッド Ⅱ
Tags:japanese jp anime rock j-rock Kishida kyoudan and Akeboshi Strike opening ova Xenon- Xehn Xen
BeatmapID:2064452
BeatmapSetID:986865

[Difficulty]
HPDrainRate:4.4
CircleSize:3.4
OverallDifficulty:8
ApproachRate:9
SliderMultiplier:1.47
SliderTickRate:1

[Events]
//Background and Video events
0,0,"uwu.png",0,0
//Break Periods
//Storyboard Layer 0 (Background)
//Storyboard Layer 1 (Fail)
//Storyboard Layer 2 (Pass)
//Storyboard Layer 3 (Foreground)
//Storyboard Layer 4 (Overlay)
//Storyboard Sound Samples

[TimingPoints]
761,267.857142857143,4,2,7,47,1,0
3975,-114.942528735632,4,2,7,67,0,0
4912,-103.092783505155,4,2,7,77,0,0
13484,-114.942528735633,4,2,7,67,0,0
17769,-129.87012987013,4,2,7,57,0,0
21653,-114.942528735633,4,2,7,67,0,0
25805,-129.87012987013,4,2,7,57,0,0
30627,-114.942528735633,4,2,7,67,0,0
34911,-129.87012987013,4,2,7,67,0,0
43483,-175.438596491229,4,2,7,67,0,0
47769,-129.87012987013,4,2,7,67,0,0
49911,-212.76595744681,4,2,7,77,0,0
52121,-212.76595744681,4,2,7,7,0,0
52188,-93.4579439252339,4,2,7,87,0,0
73349,-175.438596491228,4,2,7,87,0,0
73550,-175.438596491228,4,2,7,7,0,0
73617,-370.370370370374,4,2,7,77,0,0
73885,-370.370370370374,4,2,7,7,0,0
74688,-370.370370370374,4,2,7,7,0,0
75625,-114.942528735633,4,2,7,67,0,0
75742,-114.942528735633,4,2,7,67,0,0
77767,-103.092783505155,4,2,7,77,0,0
86338,-588.235294117647,4,2,7,77,0,0
86472,-588.235294117647,4,2,7,7,0,0

[Colours]
Combo1 : 255,255,121
Combo2 : 255,188,121
Combo3 : 121,121,255
Combo4 : 255,121,188

[HitObjects]
56,178,3975,6,0,P|78:205|90:250,1,63.9450005366478,14|0,0:0|1:0,0:0:0:0:
159,335,4243,1,2,1:0:0:0:
159,335,4377,2,0,P|170:305|190:280,1,63.9450005366478,10|0,0:0|1:0,0:0:0:0:
367,227,4644,2,0,P|318:212|287:174,1,95.9175008049717,10|0,0:0|0:0,0:0:0:0:
275,153,4912,6,0,P|312:79|328:9,1,142.590003372414,6|0,1:0|1:0,0:0:0:0:
421,142,5314,1,10,0:0:0:0:
421,142,5448,2,0,P|392:117|358:106,1,71.2950016862069,2|0,0:0|1:0,0:0:0:0:
206,91,5716,1,2,1:0:0:0:
206,91,5850,2,0,P|177:116|143:127,1,71.2950016862069,10|0,0:0|1:0,0:0:0:0:
34,74,6118,5,2,0:0:0:0:
34,74,6252,2,0,P|14:130|4:169,1,71.2950016862069,2|8,1:0|0:0,0:0:0:0:
105,246,6519,1,2,0:0:0:0:
105,246,6653,2,0,P|125:302|135:341,1,71.2950016862069,2|0,1:0|1:0,0:0:0:0:
239,228,6921,1,10,0:0:0:0:
239,228,7055,1,2,0:0:0:0:
326,370,7189,6,0,P|349:314|403:227,1,142.590003372414,6|10,1:0|0:0,0:0:0:0:
478,111,7591,2,0,P|451:132|408:144,1,71.2950016862069,2|0,0:0|1:0,0:0:0:0:
284,87,7859,1,2,1:0:0:0:
284,87,7993,2,0,P|305:118|316:158,1,71.2950016862069,8|0,0:0|1:0,0:0:0:0:
254,286,8261,2,0,B|180:260|229:220|131:201,1,142.590003372414,14|0,0:0|1:0,0:0:0:0:
79,337,8662,2,0,P|116:313|134:275,1,71.2950016862069,10|0,0:0|1:0,0:0:0:0:
50,166,8930,2,0,P|71:132|152:107,1,106.94250252931,10|0,0:0|0:0,0:0:0:0:
155,137,9198,6,0,P|184:174|287:167,1,142.590003372414,6|0,1:0|1:0,0:0:0:0:
392,90,9600,1,10,0:0:0:0:
392,90,9734,2,0,P|376:126|366:172,1,71.2950016862069,2|0,0:0|1:0,0:0:0:0:
420,280,10002,1,2,1:0:0:0:
420,280,10136,2,0,P|387:262|348:257,1,71.2950016862069,10|0,0:0|1:0,0:0:0:0:
243,331,10403,5,2,0:0:0:0:
243,331,10537,2,0,P|210:349|171:354,1,71.2950016862069,2|8,1:0|0:0,0:0:0:0:
100,233,10805,1,2,0:0:0:0:
100,233,10939,2,0,P|135:238|166:255,1,71.2950016862069,2|0,1:0|1:0,0:0:0:0:
270,352,11207,1,10,0:0:0:0:
270,352,11341,1,2,0:0:0:0:
381,233,11475,6,0,P|334:200|245:230,1,142.590003372414,6|10,1:0|0:0,0:0:0:0:
381,343,11877,2,0,P|388:304|403:260,1,71.2950016862069,2|0,0:0|1:0,0:0:0:0:
454,114,12144,1,2,1:0:0:0:
454,114,12278,2,0,P|421:130|381:136,1,71.2950016862069,10|0,0:0|1:0,0:0:0:0:
226,26,12546,6,0,P|252:68|274:159,1,142.590003372414,10|2,0:0|1:0,0:0:0:0:
146,271,12948,2,0,P|166:229|177:177,1,71.2950016862069,10|0,0:0|1:0,0:0:0:0:
204,26,13216,2,0,P|230:68|251:151,1,106.94250252931,10|0,0:0|0:0,0:0:0:0:
273,157,13484,6,0,B|346:128|303:100|374:75,1,127.890001073296,6|0,1:0|1:0,0:0:0:0:
511,202,13886,2,0,P|447:169|373:163,1,127.890001073296,8|0,0:0|1:0,0:0:0:0:
332,294,14287,2,0,P|348:328|358:372,2,63.9450005366478,8|0|0,0:0|0:0|1:0,0:0:0:0:
299,272,14622,5,0,1:0:0:0:
299,272,14689,2,0,P|259:297|235:302,1,63.9450005366478,8|0,0:0|1:0,0:0:0:0:
127,199,14957,2,0,P|167:224|191:229,1,63.9450005366478,8|0,0:0|0:0,0:0:0:0:
292,142,15225,1,0,1:0:0:0:
292,142,15359,1,8,0:0:0:0:
170,70,15493,2,0,P|130:95|106:100,1,63.9450005366478,0|8,1:0|0:0,0:0:0:0:
68,83,15694,5,8,0:0:0:0:
68,83,15761,2,0,P|57:122|41:160,1,63.9450005366478,8|8,0:0|0:0,0:0:0:0:
134,276,16028,1,8,0:0:0:0:
134,276,16162,2,0,P|175:256|249:240,1,95.9175008049717,0|0,1:0|0:0,0:0:0:0:
250,267,16430,2,0,P|286:281|337:290,1,63.9450005366478,0|0,1:0|0:0,0:0:0:0:
483,193,16698,5,0,1:0:0:0:
400,278,16832,2,0,P|390:247|373:220,1,63.9450005366478,10|0,0:0|1:0,0:0:0:0:
263,141,17100,1,8,0:0:0:0:
428,129,17234,1,8,0:0:0:0:
262,167,17368,1,8,0:0:0:0:
428,105,17502,1,8,0:0:0:0:
236,44,17636,5,8,0:0:0:0:
236,44,17769,2,0,B|178:60|217:85|121:100,1,113.189997754715,6|0,1:0|1:0,0:0:0:0:
23,44,18171,2,0,P|53:71|67:93,1,56.5949988773575,10|0,0:0|0:0,0:0:0:0:
83,206,18439,1,2,0:0:0:0:
83,206,18573,2,0,P|94:180|111:157,1,56.5949988773575,2|8,0:0|0:0,0:0:0:0:
224,110,18841,2,0,P|250:125|285:137,1,56.5949988773575,2|0,0:0|0:0,0:0:0:0:
348,217,19109,2,0,P|321:227|297:241,1,56.5949988773575,2|8,0:0|0:0,0:0:0:0:
224,131,19377,2,0,P|250:146|285:158,1,56.5949988773575,0|2,0:0|0:0,0:0:0:0:
348,238,19644,2,0,P|321:248|297:262,1,56.5949988773575,2|8,0:0|0:0,0:0:0:0:
166,337,19912,6,0,P|194:286|207:208,1,113.189997754715,6|0,1:0|1:0,0:0:0:0:
92,147,20314,2,0,P|115:163|163:178,1,56.5949988773575,10|0,0:0|0:0,0:0:0:0:
222,91,20582,1,2,0:0:0:0:
222,91,20716,2,0,P|245:74|271:64,1,56.5949988773575,2|8,0:0|0:0,0:0:0:0:
376,176,20984,2,0,P|349:165|326:149,1,56.5949988773575,2|0,0:0|0:0,0:0:0:0:
421,38,21252,2,0,P|394:48|371:64,1,56.5949988773575,2|8,0:0|0:0,0:0:0:0:
414,171,21519,1,2,0:0:0:0:
319,255,21653,2,0,P|303:246|282:240,5,31.9725002683239,8|8|10|8|8|8,0:0|0:0|0:0|0:0|0:0|0:0,0:0:0:0:
207,215,22122,6,0,P|181:241|103:266,1,95.9175008049717,6|0,1:0|1:0,0:0:0:0:
0,185,22457,2,0,P|24:212|34:255,1,63.9450005366478,8|0,0:0|0:0,0:0:0:0:
72,91,22725,1,0,1:0:0:0:
72,91,22859,1,0,1:0:0:0:
178,188,22993,2,0,P|189:158|210:135,1,63.9450005366478,8|0,0:0|1:0,0:0:0:0:
272,274,23261,1,0,0:0:0:0:
272,274,23394,1,0,1:0:0:0:
377,160,23528,2,0,P|329:191|298:277,1,127.890001073296,8|0,0:0|1:0,0:0:0:0:
181,354,23930,1,2,1:0:0:0:
181,354,24064,1,8,0:0:0:0:
53,199,24198,6,0,B|120:222|74:253|159:278,1,127.890001073296,6|0,1:0|1:0,0:0:0:0:
248,158,24600,2,0,P|207:166|176:180,1,63.9450005366478,8|0,0:0|0:0,0:0:0:0:
332,240,24868,1,0,1:0:0:0:
332,240,25002,1,0,1:0:0:0:
407,139,25136,2,0,P|448:147|494:224,1,127.890001073296,8|8,0:0|3:0,0:0:0:0:
424,338,25537,1,8,3:0:0:0:
424,338,25671,1,8,0:0:0:0:
354,211,25805,5,4,1:0:0:0:
325,201,26073,1,4,1:0:0:0:
68,309,26609,5,0,1:0:0:0:
68,309,26676,1,0,1:0:0:0:
68,309,26743,2,0,P|94:277|106:238,1,56.5949988773575,10|0,0:0|0:0,0:0:0:0:
50,143,27011,1,2,1:0:0:0:
50,143,27144,2,0,P|82:169|121:181,1,56.5949988773575,2|8,0:0|0:0,0:0:0:0:
222,242,27412,2,0,P|242:222|267:209,1,56.5949988773575,2|0,0:0|1:0,0:0:0:0:
389,151,27680,2,0,P|363:137|343:118,1,56.5949988773575,2|8,0:0|0:0,0:0:0:0:
219,215,27948,2,0,P|239:195|264:182,1,56.5949988773575,2|0,1:0|0:0,0:0:0:0:
386,124,28216,2,0,P|360:110|340:91,1,56.5949988773575,2|8,1:0|0:0,0:0:0:0:
212,0,28484,6,0,P|237:32|262:108,1,113.189997754715,2|0,1:0|1:0,0:0:0:0:
131,102,28886,1,10,0:0:0:0:
131,102,29019,1,2,0:0:0:0:
198,243,29153,1,2,1:0:0:0:
198,243,29287,2,0,P|185:273|172:321,1,56.5949988773575,2|8,1:0|0:0,0:0:0:0:
312,368,29555,2,0,P|301:341|292:315,1,56.5949988773575,2|0,0:0|1:0,0:0:0:0:
307,198,29823,2,0,P|336:213|373:220,1,56.5949988773575,2|8,1:0|0:0,0:0:0:0:
476,111,30091,2,0,P|447:126|410:133,1,56.5949988773575,2|0,0:0|1:0,0:0:0:0:
315,12,30359,1,2,1:0:0:0:
315,12,30493,1,8,0:0:0:0:
278,191,30627,6,0,B|189:165|246:131|135:116,1,127.890001073296,6|0,1:0|1:0,0:0:0:0:
112,270,31028,2,0,P|134:244|148:205,1,63.9450005366478,8|0,0:0|0:0,0:0:0:0:
26,149,31296,1,0,1:0:0:0:
26,149,31430,2,0,P|38:178|59:202,1,63.9450005366478,0|8,1:0|0:0,0:0:0:0:
172,331,31698,2,0,P|203:313|306:286,1,127.890001073296,0|0,0:0|1:0,0:0:0:0:
452,362,32100,2,0,P|416:349|380:255,1,127.890001073296,8|0,0:0|1:0,0:0:0:0:
473,158,32502,1,2,1:0:0:0:
473,158,32636,1,10,0:0:0:0:
331,61,32769,6,0,P|289:72|257:148,1,127.890001073296,6|0,1:0|1:0,0:0:0:0:
298,285,33171,2,0,P|247:253|219:245,1,63.9450005366478,8|0,0:0|0:0,0:0:0:0:
116,230,33439,1,0,1:0:0:0:
116,230,33573,2,0,P|144:216|170:196,1,63.9450005366478,0|8,1:0|0:0,0:0:0:0:
163,56,33841,5,8,0:0:0:0:
163,56,33908,1,8,0:0:0:0:
163,56,33975,2,0,P|194:75|239:86,1,63.9450005366478,8|8,0:0|0:0,0:0:0:0:
359,33,34243,1,8,0:0:0:0:
359,33,34377,1,8,0:0:0:0:
338,183,34511,1,10,0:0:0:0:
338,183,34644,1,10,0:0:0:0:
270,14,34778,5,10,0:0:0:0:
436,1,34912,2,0,P|459:59|471:114,1,113.189997754715,6|2,1:0|1:0,0:0:0:0:
433,217,35314,2,0,P|451:247|461:275,1,56.5949988773575,10|10,0:0|3:0,0:0:0:0:
450,296,35515,1,8,3:0:0:0:
450,296,35582,2,0,P|431:326|421:354,1,56.5949988773575,10|10,3:0|3:0,0:0:0:0:
273,354,35850,5,8,0:0:0:0:
256,331,35984,2,0,P|217:307|140:293,1,113.189997754715,6|2,1:0|1:0,0:0:0:0:
5,352,36386,2,0,P|34:335|59:309,1,56.5949988773575,8|10,0:0|3:0,0:0:0:0:
62,287,36586,1,8,3:0:0:0:
62,287,36653,2,0,P|44:247|38:213,1,56.5949988773575,8|10,3:0|3:0,0:0:0:0:
102,102,36921,5,10,0:0:0:0:
115,126,37055,2,0,P|146:143|231:141,1,113.189997754715,6|0,1:0|1:0,0:0:0:0:
331,43,37457,2,0,P|316:69|308:100,1,56.5949988773575,10|10,0:0|3:0,0:0:0:0:
324,125,37658,1,8,3:0:0:0:
324,125,37725,2,0,P|339:151|347:182,1,56.5949988773575,8|0,3:0|3:0,0:0:0:0:
226,315,37993,5,8,0:0:0:0:
242,292,38127,2,0,P|275:261|355:269,1,113.189997754715,4|0,1:0|1:0,0:0:0:0:
437,356,38528,1,8,0:0:0:0:
437,356,38662,1,0,1:0:0:0:
369,249,38796,1,10,0:0:0:0:
369,249,38930,1,2,1:0:0:0:
487,146,39064,5,8,0:0:0:0:
464,162,39198,2,0,B|401:153|437:124|355:114,1,113.189997754715,6|2,1:0|1:0,0:0:0:0:
249,200,39600,2,0,P|219:213|185:219,1,56.5949988773575,10|0,0:0|0:0,0:0:0:0:
88,122,39868,2,0,P|115:128|141:140,1,56.5949988773575,2|0,1:0|1:0,0:0:0:0:
57,298,40136,5,10,0:0:0:0:
75,276,40269,2,0,P|116:254|191:251,1,113.189997754715,6|2,1:0|1:0,0:0:0:0:
309,352,40671,1,8,0:0:0:0:
288,332,40805,2,0,P|274:298|271:268,1,56.5949988773575,2|0,0:0|1:0,0:0:0:0:
377,195,41073,2,0,P|388:169|393:141,1,56.5949988773575,2|8,1:0|0:0,0:0:0:0:
265,44,41341,6,0,P|232:81|156:106,1,113.189997754715,6|0,1:0|1:0,0:0:0:0:
56,28,41743,2,0,P|76:60|84:96,1,56.5949988773575,8|0,0:0|0:0,0:0:0:0:
8,219,42011,1,0,1:0:0:0:
8,219,42144,1,0,1:0:0:0:
126,96,42278,2,0,P|108:130|92:210,1,113.189997754715,8|0,0:0|1:0,0:0:0:0:
148,309,42680,1,8,0:0:0:0:
161,283,42814,2,0,P|194:260|222:254,1,56.5949988773575,2|0,0:0|0:0,0:0:0:0:
329,349,43082,2,0,P|302:339|280:321,1,56.5949988773575,10|8,0:0|3:0,0:0:0:0:
338,185,43350,5,10,3:0:0:0:
358,163,43484,2,0,P|395:184|488:170,1,125.684998465759,6|2,1:0|1:0,0:0:0:0:
475,177,44153,2,0,P|477:154|483:132,1,41.8949994885864,10|0,0:0|0:0,0:0:0:0:
401,16,44421,1,2,1:0:0:0:
372,40,44555,2,0,P|337:58|288:60,1,83.7899989771729,2|8,1:0|0:0,0:0:0:0:
162,19,44957,1,2,1:0:0:0:
162,19,45091,1,2,1:0:0:0:
273,90,45225,1,10,0:0:0:0:
273,90,45359,2,0,P|264:114|256:148,1,41.8949994885864,0|8,1:0|0:0,0:0:0:0:
133,47,45627,6,0,P|155:84|185:177,1,125.684998465759,6|2,1:0|1:0,0:0:0:0:
182,161,46296,2,0,P|160:166|137:174,1,41.8949994885864,10|0,0:0|0:0,0:0:0:0:
63,277,46564,1,2,1:0:0:0:
84,246,46698,2,0,P|103:252|124:257,1,41.8949994885864,2|0,1:0|0:0,0:0:0:0:
240,351,46966,1,8,0:0:0:0:
219,320,47100,2,0,P|199:326|178:331,1,41.8949994885864,2|0,1:0|1:0,0:0:0:0:
278,229,47368,2,0,P|297:235|318:240,1,41.8949994885864,10|0,0:0|1:0,0:0:0:0:
450,171,47636,5,10,0:0:0:0:
432,195,47769,2,0,P|412:249|397:309,1,113.189997754715,6|0,1:0|0:0,0:0:0:0:
389,331,48171,2,0,P|361:338|274:364,2,113.189997754715,2|2|2,1:0|1:0|1:0,0:0:0:0:
234,215,48975,2,0,P|179:198|125:184,2,113.189997754715,2|2|2,1:0|1:0|1:0,0:0:0:0:
403,137,49778,1,2,1:0:0:0:
374,119,49912,1,10,0:0:0:0:
178,164,50984,5,10,0:0:0:0:
123,287,51252,1,10,0:0:0:0:
46,179,51519,1,10,0:0:0:0:
46,179,52189,6,0,P|73:136|118:113,1,78.6449975999451,6|0,1:0|0:0,0:0:0:0:
270,139,52457,1,10,0:0:0:0:
200,227,52591,2,0,P|161:220|129:199,1,78.6449975999451,2|0,0:0|1:0,0:0:0:0:
220,35,52859,2,0,P|256:22|295:25,1,78.6449975999451,2|8,1:0|0:0,0:0:0:0:
431,153,53127,2,0,P|413:184|396:231,1,78.6449975999451,2|0,1:0|0:0,0:0:0:0:
237,325,53394,2,0,P|223:288|203:254,1,78.6449975999451,2|8,1:0|0:0,0:0:0:0:
53,166,53662,2,0,P|34:224|29:337,1,157.28999519989,2|0,1:0|1:0,0:0:0:0:
135,193,54064,2,0,P|177:170|220:164,1,78.6449975999451,10|0,0:0|0:0,0:0:0:0:
396,334,54332,6,0,P|355:292|334:195,1,157.28999519989,6|10,1:0|0:0,0:0:0:0:
485,55,54734,2,0,P|455:79|408:91,1,78.6449975999451,2|0,0:0|1:0,0:0:0:0:
218,33,55002,2,0,P|255:44|286:68,1,78.6449975999451,2|8,1:0|0:0,0:0:0:0:
488,79,55269,2,0,P|458:103|411:115,1,78.6449975999451,2|0,1:0|0:0,0:0:0:0:
221,57,55537,2,0,P|258:68|289:92,1,78.6449975999451,2|8,1:0|0:0,0:0:0:0:
342,276,55805,2,0,B|254:272|302:345|170:348,1,157.28999519989,2|0,1:0|1:0,0:0:0:0:
34,304,56207,2,0,P|55:334|68:375,1,78.6449975999451,10|0,0:0|0:0,0:0:0:0:
204,245,56475,6,0,P|215:207|237:175,1,78.6449975999451,6|0,1:0|0:0,0:0:0:0:
82,36,56743,1,10,0:0:0:0:
186,98,56877,2,0,P|223:80|267:71,1,78.6449975999451,2|0,0:0|1:0,0:0:0:0:
409,187,57144,2,0,P|370:178|335:160,1,78.6449975999451,2|8,1:0|0:0,0:0:0:0:
489,16,57412,2,0,P|468:45|452:89,1,78.6449975999451,2|0,1:0|0:0,0:0:0:0:
311,189,57680,2,0,P|333:221|347:257,1,78.6449975999451,2|8,1:0|0:0,0:0:0:0:
201,368,57948,2,0,P|163:330|47:279,1,157.28999519989,2|0,1:0|1:0,0:0:0:0:
41,73,58350,2,0,P|54:117|62:178,1,78.6449975999451,10|0,0:0|0:0,0:0:0:0:
140,293,58618,6,0,P|179:274|217:270,1,78.6449975999451,6|0,1:0|0:0,0:0:0:0:
431,269,58886,1,10,0:0:0:0:
361,376,59019,2,0,P|327:355|303:324,1,78.6449975999451,2|0,0:0|1:0,0:0:0:0:
333,145,59287,2,0,P|323:182|301:215,1,78.6449975999451,2|8,1:0|0:0,0:0:0:0:
171,363,59555,2,0,P|161:325|139:292,1,78.6449975999451,2|0,1:0|0:0,0:0:0:0:
8,160,59823,2,0,P|40:184|87:190,1,78.6449975999451,2|8,1:0|0:0,0:0:0:0:
239,223,60091,1,2,0:0:0:0:
115,116,60225,1,10,0:0:0:0:
158,265,60359,1,10,0:0:0:0:
217,73,60493,1,10,0:0:0:0:
139,292,60627,5,10,0:0:0:0:
234,193,60761,2,0,P|285:165|391:154,1,157.28999519989,4|10,1:0|0:0,0:0:0:0:
426,378,61162,2,0,P|402:341|384:299,1,78.6449975999451,2|0,0:0|1:0,0:0:0:0:
448,121,61430,2,0,P|431:156|409:189,1,78.6449975999451,2|8,1:0|0:0,0:0:0:0:
253,295,61698,2,0,P|218:273|177:258,1,78.6449975999451,2|0,1:0|0:0,0:0:0:0:
70,91,61966,2,0,P|106:76|139:55,1,78.6449975999451,2|8,1:0|0:0,0:0:0:0:
370,17,62234,2,0,P|343:57|302:166,1,157.28999519989,2|0,1:0|1:0,0:0:0:0:
314,321,62636,2,0,P|297:264|278:238,1,78.6449975999451,10|0,0:0|0:0,0:0:0:0:
103,98,62903,6,0,B|184:125|137:170|229:194,1,157.28999519989,6|10,1:0|0:0,0:0:0:0:
364,50,63305,2,0,P|407:32|442:34,1,78.6449975999451,2|0,0:0|1:0,0:0:0:0:
449,230,63573,2,0,P|409:229|374:213,1,78.6449975999451,2|8,1:0|0:0,0:0:0:0:
228,73,63841,1,2,0:0:0:0:
324,132,63975,2,0,P|342:173|349:217,1,78.6449975999451,4|2,1:0|0:0,0:0:0:0:
143,321,64243,1,8,0:0:0:0:
235,353,64377,2,0,P|253:312|259:188,1,157.28999519989,2|0,0:0|1:0,0:0:0:0:
78,201,64778,2,0,P|124:200|166:171,1,78.6449975999451,8|0,0:0|0:0,0:0:0:0:
301,39,65046,6,0,P|271:98|248:190,1,157.28999519989,6|8,1:0|0:0,0:0:0:0:
371,347,65448,2,0,P|355:307|350:257,1,78.6449975999451,2|0,0:0|1:0,0:0:0:0:
333,80,65716,2,0,P|314:118|305:168,1,78.6449975999451,2|8,1:0|0:0,0:0:0:0:
245,354,65984,2,0,P|211:374|164:381,1,78.6449975999451,2|0,1:0|0:0,0:0:0:0:
297,201,66252,2,0,P|263:181|224:173,1,78.6449975999451,2|8,1:0|0:0,0:0:0:0:
64,362,66519,2,0,P|53:285|29:192,1,157.28999519989,2|0,0:0|1:0,0:0:0:0:
167,99,66921,2,0,P|154:143|149:209,1,78.6449975999451,10|0,0:0|0:0,0:0:0:0:
262,359,67189,6,0,B|350:334|304:288|403:263,1,157.28999519989,6|8,1:0|0:0,0:0:0:0:
481,95,67591,2,0,P|465:130|454:183,1,78.6449975999451,2|0,0:0|1:0,0:0:0:0:
254,274,67859,2,0,P|244:235|228:199,1,78.6449975999451,2|8,1:0|0:0,0:0:0:0:
333,56,68127,1,2,1:0:0:0:
244,167,68261,2,0,P|209:147|167:135,1,78.6449975999451,8|2,0:0|1:0,0:0:0:0:
26,160,68528,2,0,P|48:152|69:141,3,39.3224987999726,8|8|10|8,0:0|3:0|3:0|3:0,0:0:0:0:
65,51,68796,2,0,P|103:27|149:21,1,78.6449975999451,8|0,3:0|1:0,0:0:0:0:
284,32,69064,2,0,P|302:40|321:47,3,39.3224987999726,10|8|8|8,3:0|3:0|3:0|3:0,0:0:0:0:
407,50,69332,6,0,P|390:91|378:135,1,78.6449975999451,14|0,0:0|0:0,0:0:0:0:
251,309,69600,2,0,P|239:271|224:235,1,78.6449975999451,0|0,1:0|1:0,0:0:0:0:
381,47,69868,2,0,P|364:88|352:132,1,78.6449975999451,8|0,0:0|1:0,0:0:0:0:
225,309,70136,2,0,P|213:271|198:235,1,78.6449975999451,8|0,0:0|1:0,0:0:0:0:
39,100,70403,6,0,P|68:129|120:137,1,78.6449975999451,8|0,0:0|1:0,0:0:0:0:
285,44,70671,1,10,0:0:0:0:
285,44,70805,1,0,1:0:0:0:
149,189,70939,1,10,0:0:0:0:
149,189,71073,1,0,1:0:0:0:
192,34,71207,1,10,0:0:0:0:
192,34,71341,1,0,1:0:0:0:
289,219,71475,6,0,P|337:191|372:181,1,78.6449975999451,14|0,0:0|1:0,0:0:0:0:
166,360,71743,1,0,1:0:0:0:
128,290,71877,2,0,P|80:262|45:252,1,78.6449975999451,10|0,0:0|1:0,0:0:0:0:
269,317,72144,1,0,1:0:0:0:
307,247,72278,2,0,P|355:219|390:209,1,78.6449975999451,10|0,0:0|1:0,0:0:0:0:
137,262,72546,2,0,P|89:234|54:224,1,78.6449975999451,14|0,0:0|1:0,0:0:0:0:
223,67,72814,1,0,1:0:0:0:
244,142,72948,2,0,P|227:179|214:230,1,78.6449975999451,10|0,3:0|1:0,0:0:0:0:
86,26,73216,1,0,1:0:0:0:
65,101,73350,2,0,P|82:138|93:176,1,62.8424992328796,10|0,0:0|0:0,0:0:0:0:
79,191,73618,6,0,B|234:231|99:330|303:355,1,297.675007267456,6|0,1:0|1:0,0:0:0:0:
323,329,75694,1,0,1:0:0:0:
323,329,75761,2,0,P|334:286|355:241,1,63.9450005366478,8|0,0:0|1:0,0:0:0:0:
459,143,76028,1,0,1:0:0:0:
439,168,76162,2,0,P|403:184|363:185,1,63.9450005366478,8|0,0:0|1:0,0:0:0:0:
237,68,76430,1,0,1:0:0:0:
257,93,76564,2,0,P|293:109|333:110,1,63.9450005366478,8|0,0:0|1:0,0:0:0:0:
152,232,76832,2,0,P|116:248|76:249,1,63.9450005366478,8|0,0:0|1:0,0:0:0:0:
1,96,77100,6,0,P|37:112|77:113,1,63.9450005366478,10|0,0:0|1:0,0:0:0:0:
237,153,77368,1,10,0:0:0:0:
237,153,77502,1,2,1:0:0:0:
237,153,77769,6,0,P|200:79|184:9,1,142.590003372414,6|0,1:0|1:0,0:0:0:0:
77,141,78171,1,10,0:0:0:0:
77,141,78305,2,0,P|106:116|140:105,1,71.2950016862069,2|0,0:0|1:0,0:0:0:0:
324,124,78573,1,2,1:0:0:0:
324,124,78707,2,0,P|353:149|387:160,1,71.2950016862069,10|0,0:0|1:0,0:0:0:0:
478,74,78975,5,2,0:0:0:0:
478,74,79109,2,0,P|498:130|508:169,1,71.2950016862069,2|8,1:0|0:0,0:0:0:0:
402,276,79377,1,2,0:0:0:0:
402,276,79511,2,0,P|382:332|372:371,1,71.2950016862069,2|0,1:0|1:0,0:0:0:0:
265,222,79778,1,10,0:0:0:0:
265,222,79912,1,2,0:0:0:0:
183,370,80046,6,0,P|162:308|106:227,1,142.590003372414,6|10,1:0|0:0,0:0:0:0:
26,117,80448,2,0,P|53:138|96:150,1,71.2950016862069,2|0,0:0|1:0,0:0:0:0:
212,88,80716,1,2,1:0:0:0:
212,88,80850,2,0,P|191:119|180:159,1,71.2950016862069,10|0,0:0|1:0,0:0:0:0:
262,296,81118,2,0,B|336:270|287:230|385:211,1,142.590003372414,14|2,0:0|1:0,0:0:0:0:
431,352,81519,2,0,P|394:328|376:290,1,71.2950016862069,10|0,0:0|1:0,0:0:0:0:
471,164,81787,2,0,P|450:130|376:93,1,106.94250252931,10|0,0:0|0:0,0:0:0:0:
362,134,82055,6,0,P|333:171|230:164,1,142.590003372414,6|0,1:0|1:0,0:0:0:0:
114,86,82457,1,10,0:0:0:0:
114,86,82591,2,0,P|130:122|140:168,1,71.2950016862069,2|0,0:0|1:0,0:0:0:0:
82,311,82859,1,2,1:0:0:0:
82,311,82993,2,0,P|115:293|154:288,1,71.2950016862069,10|0,0:0|1:0,0:0:0:0:
271,361,83261,5,2,0:0:0:0:
271,361,83394,2,0,P|304:379|343:384,1,71.2950016862069,2|8,1:0|0:0,0:0:0:0:
402,217,83662,1,2,0:0:0:0:
402,217,83796,2,0,P|367:222|336:239,1,71.2950016862069,2|0,1:0|1:0,0:0:0:0:
242,352,84064,1,10,0:0:0:0:
242,352,84198,1,0,1:0:0:0:
131,233,84332,6,0,P|178:200|267:230,1,142.590003372414,10|10,0:0|0:0,0:0:0:0:
384,366,84734,2,0,P|390:324|404:287,1,71.2950016862069,0|10,1:0|0:0,0:0:0:0:
499,142,85002,1,0,1:0:0:0:
322,177,85136,1,10,0:0:0:0:
470,120,85269,1,0,1:0:0:0:
270,75,85403,6,0,P|262:95|255:132,5,35.6475008431034,14|8|8|8|10|8,0:0|3:0|3:0|3:0|0:0|3:0,0:0:0:0:
216,174,85805,2,0,P|242:222|253:260,1,71.2950016862069,6|8,1:0|0:0,0:0:0:0:
231,272,86006,1,8,3:0:0:0:
231,272,86073,2,0,P|183:295|162:313,1,71.2950016862069,8|8,3:0|0:0,0:0:0:0:
41,146,86341,6,0,B|321:98|120:354|470:268,1,487.305002974274,6|0,0:0|0:0,0:0:0:0:
