osu file format v14

[General]
AudioFilename: audio.mp3
AudioLeadIn: 0
PreviewTime: 51787
Countdown: 0
SampleSet: Soft
StackLeniency: 0.7
Mode: 0
LetterboxInBreaks: 0
WidescreenStoryboard: 0

[Editor]
Bookmarks: 91562
DistanceSpacing: 2.1
BeatDivisor: 8
GridSize: 32
TimelineZoom: 1.600006

[Metadata]
Title:Blood on the EDGE (TV Size)
TitleUnicode:Blood on the EDGE (TV Size)
Artist:KISIDA KYODAN & THE AKEBOSI ROCKETS
ArtistUnicode:岸田教団&THE明星ロケッツ
Creator:SMOKELIND
Version:EXTREME
Source:ストライク・ザ・ブラッド Ⅱ
Tags:japanese jp anime rock j-rock Kishida kyoudan and Akeboshi Strike opening ova Xenon- Xehn Xen
BeatmapID:2064450
BeatmapSetID:986865

[Difficulty]
HPDrainRate:5.5
CircleSize:3.7
OverallDifficulty:9.5
ApproachRate:9.5
SliderMultiplier:2.07
SliderTickRate:1

[Events]
//Background and Video events
0,0,"uwu.png",0,0
//Break Periods
//Storyboard Layer 0 (Background)
//Storyboard Layer 1 (Fail)
//Storyboard Layer 2 (Pass)
//Storyboard Layer 3 (Foreground)
//Storyboard Layer 4 (Overlay)
//Storyboard Sound Samples

[TimingPoints]
761,267.857142857143,4,2,7,47,1,0
3975,-114.942528735632,4,2,7,67,0,0
4912,-103.092783505155,4,2,7,77,0,0
13484,-114.942528735633,4,2,7,67,0,0
17769,-129.87012987013,4,2,7,57,0,0
21653,-114.942528735633,4,2,7,67,0,0
22458,-114.942528735633,4,2,7,67,0,0
25805,-129.87012987013,4,2,7,57,0,0
30627,-114.942528735633,4,2,7,67,0,0
34911,-129.87012987013,4,2,7,67,0,0
43483,-175.438596491229,4,2,7,67,0,0
47769,-129.87012987013,4,2,7,67,0,0
49911,-212.76595744681,4,2,7,77,0,0
52121,-212.76595744681,4,2,7,7,0,0
52188,-93.4579439252339,4,2,7,87,0,0
73349,-175.438596491228,4,2,7,87,0,0
73550,-175.438596491228,4,2,7,7,0,0
73617,-370.370370370374,4,2,7,77,0,0
73885,-370.370370370374,4,2,7,7,0,0
75625,-114.942528735633,4,2,7,67,0,0
77769,-103.092783505155,4,2,7,77,0,0
86338,-588.235294117647,4,2,7,77,0,0
86472,-588.235294117647,4,2,7,7,0,0

[Colours]
Combo1 : 255,255,121
Combo2 : 255,188,121
Combo3 : 121,121,255
Combo4 : 255,121,188

[HitObjects]
44,290,3908,5,0,1:0:0:0:
44,290,3975,2,0,P|85:320|146:331,1,90.0450007556877,14|0,0:0|1:0,0:0:0:0:
234,162,4243,1,2,1:0:0:0:
51,316,4377,2,0,P|92:346|153:357,1,90.0450007556877,10|0,0:0|1:0,0:0:0:0:
24,155,4644,2,0,P|65:125|126:114,1,90.0450007556877,10|0,0:0|0:0,0:0:0:0:
307,250,4912,6,0,P|226:278|141:190,1,200.790004748909,6|0,1:0|1:0,0:0:0:0:
343,115,5314,1,10,0:0:0:0:
434,325,5448,2,0,P|446:266|466:205,1,100.395002374455,2|0,0:0|1:0,0:0:0:0:
319,90,5716,1,2,1:0:0:0:
226,302,5850,2,0,P|213:243|194:182,1,100.395002374455,10|0,0:0|1:0,0:0:0:0:
240,17,6118,5,2,0:0:0:0:
107,176,6252,2,0,P|49:159|2:116,1,100.395002374455,2|8,1:0|0:0,0:0:0:0:
217,42,6519,1,2,0:0:0:0:
350,201,6653,2,0,P|408:184|454:141,1,100.395002374455,2|0,1:0|1:0,0:0:0:0:
203,62,6921,1,10,0:0:0:0:
243,269,7055,1,2,0:0:0:0:
319,35,7189,6,0,P|303:81|286:161,1,100.395002374455,6|0,1:0|0:0,0:0:0:0:
399,297,7457,1,10,0:0:0:0:
191,163,7591,2,0,P|207:209|224:289,1,100.395002374455,2|0,0:0|1:0,0:0:0:0:
68,134,7859,1,2,1:0:0:0:
67,352,7993,2,0,P|78:300|96:251,1,100.395002374455,8|0,0:0|1:0,0:0:0:0:
287,78,8261,6,0,P|352:56|404:63,1,100.395002374455,14|0,0:0|1:0,0:0:0:0:
171,182,8528,1,0,1:0:0:0:
420,143,8662,2,0,P|480:175|510:218,1,100.395002374455,10|0,0:0|1:0,0:0:0:0:
320,352,8930,2,0,P|367:330|402:291,1,100.395002374455,10|0,0:0|0:0,0:0:0:0:
248,57,9198,6,0,P|284:131|317:255,1,200.790004748909,6|0,1:0|1:0,0:0:0:0:
350,25,9600,1,10,0:0:0:0:
200,212,9734,2,0,P|151:248|85:256,1,100.395002374455,2|0,0:0|1:0,0:0:0:0:
158,17,10002,1,2,1:0:0:0:
308,204,10136,2,0,P|357:240|423:248,1,100.395002374455,10|0,0:0|1:0,0:0:0:0:
250,22,10403,5,2,0:0:0:0:
199,235,10537,2,0,P|222:291|235:346,1,100.395002374455,2|8,1:0|0:0,0:0:0:0:
314,70,10805,1,2,0:0:0:0:
365,283,10939,2,0,P|342:339|329:394,1,100.395002374455,2|0,1:0|1:0,0:0:0:0:
225,130,11207,1,10,0:0:0:0:
399,249,11341,1,2,0:0:0:0:
148,328,11475,6,0,B|34:283|122:240|2:188,1,200.790004748909,6|10,1:0|0:0,0:0:0:0:
277,205,11877,2,0,P|227:224|159:218,1,100.395002374455,2|0,0:0|1:0,0:0:0:0:
167,53,12144,1,2,1:0:0:0:
302,229,12278,2,0,P|351:248|419:242,1,100.395002374455,10|0,0:0|1:0,0:0:0:0:
488,20,12546,6,0,P|460:69|445:119,1,100.395002374455,10|0,0:0|1:0,0:0:0:0:
471,323,12814,1,2,1:0:0:0:
290,116,12948,2,0,P|318:165|333:215,1,100.395002374455,10|0,0:0|1:0,0:0:0:0:
123,350,13216,2,0,P|138:302|164:259,1,100.395002374455,10|0,0:0|0:0,0:0:0:0:
303,88,13484,6,0,P|225:138|115:148,1,180.090001511375,6|0,1:0|1:0,0:0:0:0:
0,287,13886,2,0,P|88:300|163:349,1,180.090001511375,8|0,0:0|1:0,0:0:0:0:
245,151,14287,2,0,P|192:171|144:175,1,90.0450007556877,8|0,0:0|0:0,0:0:0:0:
76,327,14555,1,0,1:0:0:0:
76,327,14622,1,0,1:0:0:0:
76,327,14689,2,0,P|116:346|150:375,1,90.0450007556877,8|0,0:0|1:0,0:0:0:0:
332,275,14957,2,0,P|291:294|257:323,1,90.0450007556877,8|0,0:0|0:0,0:0:0:0:
150,206,15225,1,0,1:0:0:0:
382,190,15359,1,8,0:0:0:0:
183,224,15493,1,0,1:0:0:0:
334,44,15627,5,8,0:0:0:0:
334,44,15694,1,8,0:0:0:0:
334,44,15761,2,0,P|321:81|306:145,1,90.0450007556877,8|8,0:0|0:0,0:0:0:0:
275,352,16028,1,8,0:0:0:0:
225,149,16162,2,0,P|167:116|96:128,1,135.067501133532,0|0,1:0|0:0,0:0:0:0:
65,198,16430,2,0,P|94:248|107:310,1,90.0450007556877,0|0,1:0|0:0,0:0:0:0:
265,374,16698,1,0,1:0:0:0:
348,131,16832,5,10,0:0:0:0:
191,271,16966,1,0,1:0:0:0:
292,60,17100,1,8,0:0:0:0:
285,311,17234,1,8,0:0:0:0:
431,99,17368,1,8,0:0:0:0:
376,347,17502,1,8,0:0:0:0:
277,86,17636,1,8,0:0:0:0:
399,359,17769,6,0,P|422:292|472:178,1,159.389996838272,6|0,1:0|1:0,0:0:0:0:
266,109,18171,2,0,P|278:148|291:210,1,79.6949984191361,10|0,0:0|0:0,0:0:0:0:
152,278,18439,1,2,0:0:0:0:
152,278,18573,2,0,P|160:239|173:201,1,79.6949984191361,2|8,0:0|0:0,0:0:0:0:
291,61,18841,2,0,P|330:82|393:95,1,79.6949984191361,2|0,0:0|0:0,0:0:0:0:
512,193,19109,2,0,P|473:204|439:223,1,79.6949984191361,2|8,0:0|0:0,0:0:0:0:
291,86,19377,2,0,P|330:107|393:120,1,79.6949984191361,0|2,0:0|0:0,0:0:0:0:
512,218,19644,1,2,0:0:0:0:
380,7,19778,1,8,0:0:0:0:
323,195,19912,6,0,P|273:237|172:190,1,159.389996838272,6|0,1:0|1:0,0:0:0:0:
34,103,20314,2,0,P|47:142|60:192,1,79.6949984191361,10|0,0:0|0:0,0:0:0:0:
199,57,20582,1,2,0:0:0:0:
199,57,20716,2,0,P|185:96|173:146,1,79.6949984191361,2|8,0:0|0:0,0:0:0:0:
91,293,20984,2,0,P|50:315|2:322,1,79.6949984191361,2|0,0:0|0:0,0:0:0:0:
170,172,21252,1,2,0:0:0:0:
271,355,21386,1,8,0:0:0:0:
162,213,21519,1,2,0:0:0:0:
359,384,21653,1,8,0:0:0:0:
365,348,21720,1,8,0:0:0:0:
372,313,21787,1,10,0:0:0:0:
378,277,21854,1,8,0:0:0:0:
385,242,21921,2,0,P|390:207|400:161,1,45.0225003778439,8|8,0:0|0:0,0:0:0:0:
219,13,22122,6,0,P|241:75|263:183,1,135.067501133532,6|0,1:0|1:0,0:0:0:0:
152,338,22457,2,0,P|111:354|57:355,1,90.0450007556877,8|0,0:0|0:0,0:0:0:0:
170,172,22725,1,0,1:0:0:0:
269,351,22859,1,0,1:0:0:0:
361,157,22993,2,0,P|405:159|447:175,1,90.0450007556877,8|0,0:0|1:0,0:0:0:0:
373,369,23261,5,0,0:0:0:0:
475,199,23394,1,0,1:0:0:0:
253,328,23528,2,0,P|245:274|235:214,1,90.0450007556877,8|0,0:0|0:0,0:0:0:0:
134,54,23796,1,0,1:0:0:0:
356,183,23930,2,0,P|364:129|374:69,1,90.0450007556877,2|8,1:0|0:0,0:0:0:0:
205,240,24198,6,0,P|144:278|37:244,1,180.090001511375,6|0,1:0|1:0,0:0:0:0:
173,53,24600,2,0,P|217:57|270:82,1,90.0450007556877,8|0,0:0|0:0,0:0:0:0:
203,282,24868,1,0,1:0:0:0:
335,98,25002,1,0,1:0:0:0:
363,319,25136,2,0,P|404:336|449:340,1,90.0450007556877,8|0,0:0|0:0,0:0:0:0:
419,124,25403,5,8,3:0:0:0:
328,308,25537,1,8,3:0:0:0:
258,74,25671,1,8,0:0:0:0:
250,351,25805,5,4,1:0:0:0:
226,316,26073,1,4,1:0:0:0:
47,124,26609,5,0,1:0:0:0:
47,124,26676,1,0,1:0:0:0:
47,124,26743,2,0,P|29:158|13:211,1,79.6949984191361,10|0,0:0|0:0,0:0:0:0:
129,325,27011,1,2,1:0:0:0:
210,152,27144,2,0,P|228:186|244:239,1,79.6949984191361,2|8,0:0|0:0,0:0:0:0:
31,116,27412,2,0,P|13:150|-3:203,1,79.6949984191361,2|0,0:0|1:0,0:0:0:0:
191,159,27680,2,0,P|209:193|225:246,1,79.6949984191361,2|8,0:0|0:0,0:0:0:0:
361,368,27948,2,0,P|373:330|392:294,1,79.6949984191361,2|0,1:0|0:0,0:0:0:0:
290,112,28216,2,0,P|308:147|321:185,1,79.6949984191361,2|8,1:0|0:0,0:0:0:0:
459,341,28484,6,0,P|493:280|460:163,1,159.389996838272,2|0,1:0|1:0,0:0:0:0:
299,84,28886,1,10,0:0:0:0:
443,102,29019,1,2,0:0:0:0:
252,161,29153,1,2,1:0:0:0:
409,93,29287,1,2,1:0:0:0:
211,76,29421,1,8,0:0:0:0:
282,241,29555,2,0,P|267:279|255:328,1,79.6949984191361,2|0,0:0|1:0,0:0:0:0:
104,349,29823,2,0,P|93:310|79:273,1,79.6949984191361,2|8,1:0|0:0,0:0:0:0:
3,119,30091,2,0,P|43:138|91:146,1,79.6949984191361,2|0,0:0|1:0,0:0:0:0:
252,161,30359,2,0,P|213:169|177:187,1,79.6949984191361,2|8,1:0|0:0,0:0:0:0:
377,302,30627,6,0,B|486:243|404:192|514:141,1,180.090001511375,6|0,1:0|1:0,0:0:0:0:
254,183,31028,2,0,P|293:204|345:211,1,90.0450007556877,8|0,0:0|0:0,0:0:0:0:
149,271,31296,1,0,1:0:0:0:
239,75,31430,2,0,P|194:82|155:103,1,90.0450007556877,0|8,1:0|0:0,0:0:0:0:
59,329,31698,6,0,P|46:273|27:217,1,90.0450007556877,0|0,0:0|1:0,0:0:0:0:
172,128,31966,1,0,1:0:0:0:
147,344,32100,1,8,0:0:0:0:
105,185,32234,1,0,0:0:0:0:
231,359,32368,1,0,1:0:0:0:
190,157,32502,1,2,1:0:0:0:
262,371,32636,1,10,0:0:0:0:
275,125,32769,6,0,P|332:98|434:155,1,180.090001511375,6|0,1:0|1:0,0:0:0:0:
379,360,33171,2,0,P|362:303|352:235,1,90.0450007556877,8|0,0:0|0:0,0:0:0:0:
386,63,33439,1,0,1:0:0:0:
268,263,33573,1,0,1:0:0:0:
251,11,33707,1,8,0:0:0:0:
290,285,33841,5,8,0:0:0:0:
290,285,33908,1,8,0:0:0:0:
290,285,33975,1,8,0:0:0:0:
163,42,34109,1,8,0:0:0:0:
197,300,34243,1,8,0:0:0:0:
273,95,34377,1,8,0:0:0:0:
108,315,34511,1,10,0:0:0:0:
180,74,34644,1,10,0:0:0:0:
316,274,34778,1,10,0:0:0:0:
80,57,34912,6,0,P|109:131|132:230,1,159.389996838272,6|2,1:0|1:0,0:0:0:0:
283,120,35314,1,10,0:0:0:0:
197,300,35448,1,10,3:0:0:0:
197,300,35515,1,8,3:0:0:0:
197,300,35582,2,0,P|152:317|94:310,1,79.6949984191361,10|10,3:0|3:0,0:0:0:0:
190,108,35850,1,8,0:0:0:0:
308,309,35984,6,0,P|352:326|410:319,1,79.6949984191361,6|0,1:0|0:0,0:0:0:0:
457,133,36252,2,0,P|417:134|381:150,1,79.6949984191361,2|8,1:0|0:0,0:0:0:0:
297,337,36519,1,10,3:0:0:0:
297,337,36586,1,8,3:0:0:0:
297,337,36653,1,8,3:0:0:0:
198,133,36787,1,10,3:0:0:0:
345,228,36921,1,10,0:0:0:0:
105,338,37055,6,0,P|91:249|69:148,1,159.389996838272,6|0,1:0|1:0,0:0:0:0:
268,61,37457,1,10,0:0:0:0:
222,279,37591,1,10,3:0:0:0:
222,279,37658,1,8,3:0:0:0:
222,279,37725,1,8,3:0:0:0:
289,93,37859,1,0,3:0:0:0:
197,293,37993,1,8,0:0:0:0:
85,56,38127,6,0,P|49:99|53:226,1,159.389996838272,4|0,1:0|1:0,0:0:0:0:
377,237,38528,5,8,0:0:0:0:
140,153,38662,1,0,1:0:0:0:
437,155,38796,5,10,0:0:0:0:
178,242,38930,1,2,1:0:0:0:
443,314,39064,5,8,0:0:0:0:
271,111,39198,2,0,P|285:147|297:200,1,79.6949984191361,6|0,1:0|0:0,0:0:0:0:
218,329,39466,1,2,1:0:0:0:
331,178,39600,2,0,P|316:214|304:267,1,79.6949984191361,10|0,0:0|0:0,0:0:0:0:
114,157,39868,2,0,P|128:193|140:246,1,79.6949984191361,2|0,1:0|1:0,0:0:0:0:
169,49,40136,1,10,0:0:0:0:
357,189,40269,6,0,P|415:178|457:145,1,79.6949984191361,6|0,1:0|0:0,0:0:0:0:
244,28,40537,2,0,P|185:38|143:71,1,79.6949984191361,2|8,1:0|0:0,0:0:0:0:
369,214,40805,2,0,P|427:203|469:170,1,79.6949984191361,2|0,0:0|1:0,0:0:0:0:
256,53,41073,2,0,P|197:63|155:96,1,79.6949984191361,2|8,1:0|0:0,0:0:0:0:
12,217,41341,6,0,B|97:240|38:290|168:324,1,159.389996838272,6|0,1:0|1:0,0:0:0:0:
239,174,41743,2,0,P|195:185|154:211,1,79.6949984191361,8|0,0:0|0:0,0:0:0:0:
0,308,42011,1,0,1:0:0:0:
69,157,42144,1,0,1:0:0:0:
221,312,42278,2,0,P|255:330|294:339,1,79.6949984191361,8|0,0:0|0:0,0:0:0:0:
430,150,42546,5,0,1:0:0:0:
320,316,42680,1,8,0:0:0:0:
290,70,42814,2,0,P|242:44|170:46,1,119.542497628704,2|0,0:0|0:0,0:0:0:0:
128,114,43082,2,0,P|170:89|217:87,1,79.6949984191361,10|8,0:0|3:0,0:0:0:0:
223,280,43350,1,10,3:0:0:0:
434,114,43484,6,0,P|408:176|380:287,1,176.984997839539,6|2,1:0|1:0,0:0:0:0:
380,282,44153,2,0,P|344:285|315:294,1,58.9949992798462,10|0,0:0|0:0,0:0:0:0:
204,365,44421,1,2,1:0:0:0:
204,365,44555,2,0,P|175:357|146:355,1,58.9949992798462,2|0,1:0|0:0,0:0:0:0:
44,175,44823,1,8,0:0:0:0:
131,325,44957,1,2,1:0:0:0:
178,140,45091,1,2,1:0:0:0:
293,317,45225,2,0,P|322:333|365:341,1,58.9949992798462,10|0,0:0|1:0,0:0:0:0:
379,321,45426,2,0,P|387:294|395:272,1,29.4974996399231,2|8,0:0|0:0,0:0:0:0:
466,133,45627,6,0,B|377:149|440:210|307:224,1,176.984997839539,6|2,1:0|1:0,0:0:0:0:
321,222,46296,2,0,P|308:195|302:165,1,58.9949992798462,10|0,0:0|0:0,0:0:0:0:
203,280,46564,1,2,1:0:0:0:
203,280,46698,2,0,P|216:253|222:223,1,58.9949992798462,2|0,1:0|0:0,0:0:0:0:
163,60,46966,1,8,0:0:0:0:
109,244,47100,1,2,1:0:0:0:
183,81,47234,1,0,1:0:0:0:
82,251,47368,2,0,P|56:270|25:277,1,58.9949992798462,10|0,0:0|1:0,0:0:0:0:
73,62,47636,1,10,0:0:0:0:
233,303,47769,5,6,1:0:0:0:
455,50,48171,1,2,1:0:0:0:
459,70,48439,1,2,1:0:0:0:
463,92,48707,1,2,1:0:0:0:
467,113,48975,1,2,1:0:0:0:
472,135,49243,1,2,1:0:0:0:
476,156,49511,5,2,1:0:0:0:
480,177,49778,5,2,1:0:0:0:
303,35,49912,2,0,B|143:104|299:228|52:287,1,364.837494433022,10|0,0:0|0:0,0:0:0:0:
4,237,50984,5,10,0:0:0:0:
395,107,51252,1,10,0:0:0:0:
122,354,51519,1,10,0:0:0:0:
122,354,52189,6,0,P|152:295|171:228,1,110.744996620331,6|0,1:0|0:0,0:0:0:0:
317,130,52457,1,10,0:0:0:0:
306,369,52591,2,0,P|276:310|257:243,1,110.744996620331,2|0,0:0|1:0,0:0:0:0:
430,93,52859,2,0,P|412:145|386:194,1,110.744996620331,2|8,1:0|0:0,0:0:0:0:
216,33,53127,2,0,P|168:9|96:8,1,110.744996620331,2|0,1:0|0:0,0:0:0:0:
23,249,53394,2,0,P|77:245|127:221,1,110.744996620331,2|8,1:0|0:0,0:0:0:0:
327,62,53662,2,0,P|302:108|273:283,1,221.489993240662,2|0,1:0|1:0,0:0:0:0:
124,106,54064,2,0,P|150:154|166:207,1,110.744996620331,10|0,0:0|0:0,0:0:0:0:
485,37,54332,6,0,P|460:83|442:141,1,110.744996620331,6|0,1:0|0:0,0:0:0:0:
319,312,54600,1,10,0:0:0:0:
215,85,54734,2,0,P|150:68|103:81,1,110.744996620331,2|0,0:0|1:0,0:0:0:0:
311,286,55002,2,0,P|376:303|423:290,1,110.744996620331,2|8,1:0|0:0,0:0:0:0:
350,47,55269,2,0,P|330:91|311:171,1,110.744996620331,2|0,1:0|0:0,0:0:0:0:
187,333,55537,2,0,P|173:279|150:228,1,110.744996620331,2|8,1:0|0:0,0:0:0:0:
0,41,55805,2,0,P|65:95|218:82,1,221.489993240662,2|0,1:0|1:0,0:0:0:0:
311,286,56207,2,0,P|257:273|213:241,1,110.744996620331,10|0,0:0|0:0,0:0:0:0:
320,49,56475,6,0,P|298:111|286:186,1,110.744996620331,6|0,1:0|0:0,0:0:0:0:
305,359,56743,1,10,0:0:0:0:
119,122,56877,2,0,P|141:184|153:259,1,110.744996620331,2|0,0:0|1:0,0:0:0:0:
387,384,57144,2,0,P|398:329|417:278,1,110.744996620331,2|8,1:0|0:0,0:0:0:0:
512,56,57412,2,0,P|470:87|404:100,1,110.744996620331,2|0,1:0|0:0,0:0:0:0:
180,207,57680,2,0,P|233:218|278:251,1,110.744996620331,2|8,1:0|0:0,0:0:0:0:
260,31,57948,2,0,P|171:94|28:83,1,221.489993240662,2|0,1:0|1:0,0:0:0:0:
311,174,58350,2,0,P|360:199|415:203,1,110.744996620331,10|0,0:0|0:0,0:0:0:0:
137,12,58618,6,0,P|160:67|174:126,1,110.744996620331,6|0,1:0|0:0,0:0:0:0:
51,310,58886,1,10,0:0:0:0:
259,146,59019,2,0,P|237:196|223:250,1,110.744996620331,2|0,0:0|1:0,0:0:0:0:
41,38,59287,2,0,P|62:88|76:142,1,110.744996620331,2|8,1:0|0:0,0:0:0:0:
231,355,59555,2,0,P|297:323|318:273,1,110.744996620331,2|0,1:0|0:0,0:0:0:0:
116,178,59823,2,0,P|147:222|199:240,1,110.744996620331,2|8,1:0|0:0,0:0:0:0:
331,92,60091,1,2,0:0:0:0:
146,330,60225,5,10,0:0:0:0:
322,182,60359,1,10,0:0:0:0:
68,259,60493,1,10,0:0:0:0:
310,270,60627,1,10,0:0:0:0:
0,177,60761,6,0,P|51:148|123:144,1,110.744996620331,4|0,1:0|0:0,0:0:0:0:
251,328,61028,1,10,0:0:0:0:
400,141,61162,2,0,P|454:148|501:176,1,110.744996620331,2|0,0:0|1:0,0:0:0:0:
230,344,61430,2,0,P|218:288|197:225,1,110.744996620331,2|8,1:0|0:0,0:0:0:0:
30,102,61698,2,0,P|82:85|136:73,1,110.744996620331,2|0,1:0|0:0,0:0:0:0:
402,51,61966,2,0,P|346:39|283:18,1,110.744996620331,2|8,1:0|0:0,0:0:0:0:
68,200,62234,2,0,P|120:183|320:154,1,221.489993240662,2|0,1:0|1:0,0:0:0:0:
113,372,62636,2,0,P|137:321|143:255,1,110.744996620331,10|0,0:0|0:0,0:0:0:0:
151,54,62903,6,0,P|176:98|194:171,1,110.744996620331,6|0,1:0|0:0,0:0:0:0:
13,38,63171,1,10,0:0:0:0:
273,114,63305,2,0,P|287:60|314:12,1,110.744996620331,2|0,0:0|1:0,0:0:0:0:
77,142,63573,2,0,P|103:190|118:243,1,110.744996620331,2|8,1:0|0:0,0:0:0:0:
267,347,63841,1,2,0:0:0:0:
316,101,63975,1,4,1:0:0:0:
358,370,64109,2,0,P|372:316|399:268,1,110.744996620331,2|8,0:0|0:0,0:0:0:0:
175,127,64377,2,0,P|201:175|233:346,1,221.489993240662,2|0,0:0|1:0,0:0:0:0:
410,144,64778,2,0,P|332:99|309:101,1,110.744996620331,8|0,0:0|0:0,0:0:0:0:
31,144,65046,6,0,P|11:199|-4:271,1,110.744996620331,6|2,1:0|0:0,0:0:0:0:
212,115,65314,1,8,0:0:0:0:
113,362,65448,2,0,P|100:308|81:256,1,110.744996620331,2|0,0:0|1:0,0:0:0:0:
307,88,65716,2,0,P|287:139|275:193,1,110.744996620331,2|8,1:0|0:0,0:0:0:0:
136,371,65984,2,0,P|123:317|104:265,1,110.744996620331,2|0,1:0|0:0,0:0:0:0:
330,97,66252,2,0,P|310:148|298:202,1,110.744996620331,2|8,1:0|0:0,0:0:0:0:
209,43,66519,2,0,P|166:14|-3:62,1,221.489993240662,2|0,0:0|1:0,0:0:0:0:
129,328,66921,2,0,P|182:316|228:285,1,110.744996620331,10|0,0:0|0:0,0:0:0:0:
478,248,67189,6,0,P|445:196|431:130,1,110.744996620331,6|0,1:0|0:0,0:0:0:0:
235,61,67457,1,8,0:0:0:0:
297,330,67591,2,0,P|330:278|344:212,1,110.744996620331,2|0,0:0|1:0,0:0:0:0:
200,74,67859,1,2,1:0:0:0:
376,220,67993,5,8,0:0:0:0:
123,169,68127,1,2,1:0:0:0:
383,129,68261,5,8,0:0:0:0:
183,247,68394,1,2,1:0:0:0:
389,44,68528,1,8,0:0:0:0:
389,44,68595,1,8,3:0:0:0:
389,44,68662,2,0,P|420:32|449:32,1,55.3724983101654,10|8,3:0|3:0,0:0:0:0:
276,228,68796,1,8,3:0:0:0:
273,25,68930,1,0,1:0:0:0:
376,220,69064,1,10,3:0:0:0:
376,220,69131,1,8,3:0:0:0:
376,220,69198,2,0,P|407:232|436:232,1,55.3724983101654,8|8,3:0|3:0,0:0:0:0:
273,25,69332,6,0,P|255:74|240:140,1,110.744996620331,14|0,0:0|0:0,0:0:0:0:
82,335,69600,1,0,1:0:0:0:
163,144,69734,1,0,1:0:0:0:
180,352,69868,5,8,0:0:0:0:
71,157,70002,1,0,1:0:0:0:
293,370,70136,5,8,0:0:0:0:
74,190,70269,1,0,1:0:0:0:
292,336,70403,6,0,P|349:316|406:306,1,110.744996620331,8|0,0:0|1:0,0:0:0:0:
200,68,70671,5,10,0:0:0:0:
386,211,70805,1,0,1:0:0:0:
122,150,70939,5,10,0:0:0:0:
362,128,71073,1,0,1:0:0:0:
102,50,71207,5,10,0:0:0:0:
295,289,71341,1,0,1:0:0:0:
401,24,71475,6,0,P|378:72|358:147,1,110.744996620331,14|0,0:0|1:0,0:0:0:0:
196,355,71743,1,0,1:0:0:0:
202,64,71877,2,0,P|225:112|245:187,1,110.744996620331,10|0,0:0|1:0,0:0:0:0:
421,356,72144,1,0,1:0:0:0:
359,67,72278,2,0,P|336:115|316:190,1,110.744996620331,10|0,0:0|1:0,0:0:0:0:
161,354,72546,6,0,P|145:300|121:250,1,110.744996620331,14|0,0:0|1:0,0:0:0:0:
248,69,72814,1,0,1:0:0:0:
332,330,72948,2,0,P|348:276|372:226,1,110.744996620331,10|0,3:0|1:0,0:0:0:0:
217,71,73216,1,0,1:0:0:0:
122,344,73350,2,0,P|106:290|82:240,1,88.4924989197693,10|0,0:0|0:0,0:0:0:0:
24,209,73618,6,0,B|103:139|214:225|214:225|291:119|397:155,1,419.175010233765,6|0,1:0|1:0,0:0:0:0:
426,79,75694,1,0,1:0:0:0:
426,79,75761,2,0,P|386:57|342:52,1,90.0450007556877,8|0,0:0|1:0,0:0:0:0:
95,65,76028,1,0,1:0:0:0:
194,226,76162,2,0,P|238:221|277:200,1,90.0450007556877,8|0,0:0|1:0,0:0:0:0:
308,32,76430,1,0,1:0:0:0:
181,200,76564,2,0,P|137:195|98:174,1,90.0450007556877,8|0,0:0|1:0,0:0:0:0:
340,28,76832,5,8,0:0:0:0:
307,253,76966,1,0,1:0:0:0:
435,26,77100,5,10,0:0:0:0:
445,266,77234,1,0,1:0:0:0:
257,24,77368,5,10,0:0:0:0:
443,239,77502,1,2,1:0:0:0:
443,239,77769,6,0,B|356:262|426:337|274:352,1,200.790004748909,6|0,1:0|1:0,0:0:0:0:
122,204,78171,1,10,0:0:0:0:
323,134,78305,2,0,P|272:108|211:99,1,100.395002374455,2|0,0:0|1:0,0:0:0:0:
390,325,78573,1,2,1:0:0:0:
189,255,78707,2,0,P|240:229|301:220,1,100.395002374455,10|0,0:0|1:0,0:0:0:0:
512,342,78975,5,2,0:0:0:0:
442,141,79109,2,0,P|416:192|407:253,1,100.395002374455,2|8,1:0|0:0,0:0:0:0:
196,291,79377,1,2,0:0:0:0:
266,90,79511,2,0,P|292:141|301:202,1,100.395002374455,2|0,1:0|1:0,0:0:0:0:
212,372,79778,1,10,0:0:0:0:
163,188,79912,1,2,0:0:0:0:
364,370,80046,6,0,P|387:325|398:277,1,100.395002374455,6|0,1:0|0:0,0:0:0:0:
238,79,80314,1,10,0:0:0:0:
168,297,80448,2,0,P|144:252|133:204,1,100.395002374455,2|0,0:0|1:0,0:0:0:0:
246,53,80716,1,2,1:0:0:0:
316,271,80850,2,0,P|339:226|350:178,1,100.395002374455,10|0,0:0|1:0,0:0:0:0:
157,34,81118,6,0,P|110:11|56:5,1,100.395002374455,14|0,0:0|1:0,0:0:0:0:
185,231,81386,1,2,1:0:0:0:
346,75,81519,2,0,P|393:52|447:46,1,100.395002374455,10|0,0:0|1:0,0:0:0:0:
512,283,81787,2,0,P|462:276|417:253,1,100.395002374455,10|0,0:0|0:0,0:0:0:0:
246,53,82055,6,0,P|273:113|299:263,1,200.790004748909,6|0,1:0|1:0,0:0:0:0:
136,60,82457,1,10,0:0:0:0:
332,199,82591,2,0,P|392:193|441:160,1,100.395002374455,2|0,0:0|1:0,0:0:0:0:
249,30,82859,1,2,1:0:0:0:
126,236,82993,2,0,P|68:254|10:244,1,100.395002374455,10|0,0:0|1:0,0:0:0:0:
217,37,83261,5,2,0:0:0:0:
206,294,83394,2,0,P|214:245|229:184,1,100.395002374455,2|8,1:0|0:0,0:0:0:0:
343,13,83662,1,2,0:0:0:0:
354,268,83796,2,0,P|345:219|331:158,1,100.395002374455,2|0,1:0|1:0,0:0:0:0:
127,54,84064,1,10,0:0:0:0:
333,132,84198,1,0,1:0:0:0:
142,289,84332,6,0,P|91:311|14:312,1,100.395002374455,10|0,0:0|1:0,0:0:0:0:
245,50,84600,5,10,0:0:0:0:
237,282,84734,1,0,1:0:0:0:
159,51,84868,5,10,0:0:0:0:
309,208,85002,1,0,1:0:0:0:
77,239,85136,5,10,0:0:0:0:
297,172,85269,1,0,1:0:0:0:
23,163,85403,1,14,0:0:0:0:
23,163,85470,1,8,3:0:0:0:
23,163,85537,2,0,P|48:151|74:143,1,50.1975011872273,8|8,3:0|3:0,0:0:0:0:
229,254,85671,2,0,P|205:246|182:235,1,50.1975011872273,10|8,0:0|3:0,0:0:0:0:
14,128,85805,1,6,1:0:0:0:
14,128,85872,1,8,3:0:0:0:
14,128,85939,2,0,P|39:116|65:108,1,50.1975011872273,8|8,0:0|3:0,0:0:0:0:
229,225,86073,2,0,P|205:217|182:206,1,50.1975011872273,8|8,3:0|3:0,0:0:0:0:
6,92,86207,1,8,0:0:0:0:
0,381,86341,6,0,B|491:304|25:32|517:0,1,721.395004403046,6|0,0:0|0:0,0:0:0:0:
