osu file format v14

[General]
AudioFilename: audio.mp3
AudioLeadIn: 0
PreviewTime: 60255
Countdown: 0
SampleSet: Soft
StackLeniency: 0.7
Mode: 0
LetterboxInBreaks: 0
WidescreenStoryboard: 1

[Editor]
Bookmarks: 37415,49194
DistanceSpacing: 1
BeatDivisor: 8
GridSize: 4
TimelineZoom: 1.5

[Metadata]
Title:Akeboshi Rocket
TitleUnicode:明星ロケット
Artist:KISIDA KYODAN & THE AKEBOSI ROCKETS
ArtistUnicode:岸田教団&THE明星ロケッツ
Creator:Irin
Version:Soda's Lunatic
Source:東方文花帖 ~ Shoot the Bullet.
Tags:japanese pop Touhou aya レトロスペクティブ京都 Kishida Kyoudan and The Akeboshi Rockets 第三回 博麗神社例大祭 Rock ichigo 蒲燒鰻 TAQRO 幻想事変 Comic Market 85
BeatmapID:2091251
BeatmapSetID:972034

[Difficulty]
HPDrainRate:6
CircleSize:4.5
OverallDifficulty:8
ApproachRate:9
SliderMultiplier:1.6
SliderTickRate:1

[Events]
//Background and Video events
0,0,"57366270_p0.jpg",0,0
//Break Periods
//Storyboard Layer 0 (Background)
//Storyboard Layer 1 (Fail)
//Storyboard Layer 2 (Pass)
//Storyboard Layer 3 (Foreground)
//Storyboard Layer 4 (Overlay)
//Storyboard Sound Samples

[TimingPoints]
628,389.61038961039,4,2,1,60,1,0
628,-95.2380952380952,4,2,1,60,0,0
1017,352.941176470588,4,2,1,60,1,8
1017,-95.2380952380952,4,2,1,60,0,0
1369,359.281437125748,4,2,1,60,1,8
1369,-95.2380952380952,4,2,1,60,0,0
1728,365.853658536585,4,2,1,60,1,8
1728,-95.2380952380952,4,2,1,60,0,0
2093,368.098159509202,4,2,1,50,1,0
2093,-100,4,2,1,50,0,0
10927,375,4,2,1,50,1,8
12427,361.44578313253,4,2,1,50,1,8
12427,-142.857142857143,4,2,1,50,0,0
13511,-100,4,2,1,60,0,0
13872,372.670807453416,4,2,1,60,1,0
15362,365.853658536585,4,2,1,60,1,8
16825,368.098159509202,4,2,1,60,1,8
19769,365.853658536585,4,2,1,60,1,0
21232,370.37037037037,4,2,1,60,1,8
23454,365.853658536585,4,2,1,60,1,8
24185,368.098159509202,4,2,1,60,1,8
25657,363.636363636364,4,2,1,40,1,0
25657,-125,4,2,1,40,0,0
27111,372.670807453416,4,2,1,40,1,8
27111,-125,4,2,1,40,0,0
28601,368.098159509202,4,2,1,40,1,0
28601,-125,4,2,1,40,0,0
35962,375,4,2,1,50,1,8
35962,-125,4,2,1,50,0,0
36712,363.636363636364,4,2,1,50,1,8
37075,-100,4,2,1,60,0,0
37439,368.098159509202,4,2,1,60,1,0
49218,382.165605095541,4,2,1,40,1,0
49218,-125,4,2,1,40,0,0
49982,368.098159509202,4,2,1,40,1,8
49982,-125,4,2,1,40,0,0
50718,359.281437125748,4,2,1,40,1,8
50718,-125,4,2,1,40,0,0
51436,370.37037037037,4,2,1,40,1,8
51436,-125,4,2,1,40,0,0
52176,362.537764350453,4,2,1,40,1,8
52176,-125,4,2,1,40,0,0
53626,368.098159509202,4,2,1,40,1,8
53626,-125,4,2,1,40,0,0
55098,370.37037037037,4,2,1,50,1,0
56579,363.636363636364,4,2,1,50,1,8
58033,370.37037037037,4,2,1,60,1,8
60255,374.298190892077,4,2,1,60,1,8
61003,367.940148402527,4,2,1,70,1,1
84183,-100,4,2,1,70,0,0
84551,368.550368550369,4,2,1,60,1,0

[Colours]
Combo1 : 255,100,100
Combo2 : 255,255,147

[HitObjects]
93,122,628,5,8,0:0:0:0:
121,138,725,1,8,0:0:0:0:
154,142,822,1,8,0:0:0:0:
186,132,920,1,8,0:0:0:0:
209,108,1017,2,0,L|201:55,3,41.9999987182618,8|0|8|8,3:3|0:0|3:3|3:3,0:0:0:0:
256,173,1369,2,0,L|246:244,1,41.9999987182618,8|8,0:0|0:0,0:0:0:0:
308,271,1548,2,0,L|298:342,1,41.9999987182618,8|8,0:0|0:0,0:0:0:0:
225,356,1728,1,4,3:3:0:0:
201,347,1819,1,4,3:3:0:0:
177,337,1910,1,4,3:3:0:0:
15,190,2093,6,0,B|80:200|80:200|104:189|104:189|177:200,1,160,4|0,3:2|3:2,0:0:0:0:
260,95,2645,1,0,0:0:0:0:
336,224,2829,2,0,B|323:180|335:147|335:147|363:104|337:41,1,160,0|0,3:2|3:2,0:0:0:0:
171,199,3381,1,0,0:0:0:0:
258,294,3565,6,0,P|333:272|441:268,1,160,0|0,3:2|3:2,0:0:0:0:
279,149,4117,1,0,0:0:0:0:
145,275,4301,2,0,P|102:245|110:146,1,160,0|0,3:2|3:2,0:0:0:0:
207,42,4853,1,0,0:0:0:0:
380,141,5037,6,0,B|344:170|344:170|292:181|220:135,1,160,0|0,3:2|3:2,0:0:0:0:
106,50,5589,1,0,0:0:0:0:
47,203,5773,2,0,B|90:240|148:221|148:221|176:231|218:259,1,160,0|0,3:2|3:2,0:0:0:0:
315,321,6326,1,0,0:0:0:0:
404,212,6510,6,0,P|388:136|356:40,2,160,0|0|0,3:2|3:2|3:2,0:0:0:0:
194,244,7430,1,0,0:0:0:0:
194,244,7614,1,0,3:2:0:0:
194,244,7982,6,0,B|231:260|231:260|257:247|257:247|380:272,1,160,4|0,3:2|3:2,0:0:0:0:
278,136,8534,1,0,0:0:0:0:
136,171,8718,2,0,P|99:237|136:318,1,160,0|0,3:2|3:2,0:0:0:0:
277,287,9270,1,0,0:0:0:0:
213,155,9454,6,0,P|141:138|58:100,1,160,0|0,3:2|3:2,0:0:0:0:
236,45,10007,1,0,0:0:0:0:
340,148,10191,2,0,B|358:211|323:257|323:257|302:243|288:222,1,160,0|0,3:2|3:2,0:0:0:0:
236,45,10743,1,0,0:0:0:0:
411,85,10927,6,0,P|433:175|418:273,2,160,0|0|0,3:2|3:2|3:2,0:0:0:0:
236,45,11864,1,0,0:0:0:0:
223,140,12052,1,0,3:2:0:0:
210,235,12239,1,0,0:0:0:0:
29,112,12427,6,0,P|82:3|110:126,1,307.999990600586,0|0,3:2|0:0,0:0:0:0:
111,129,13511,2,0,P|69:115|22:134,1,80,8|0,0:0|0:0,0:0:0:0:
217,254,13872,6,0,P|305:250|366:237,1,120,4|0,3:2|0:0,0:0:0:0:
382,230,14244,2,0,P|395:177|400:145,1,80,8|0,3:2|0:0,0:0:0:0:
233,111,14617,1,0,3:2:0:0:
344,78,14803,1,0,0:0:0:0:
116,34,14990,2,0,P|123:73|133:112,1,80,8|0,3:2|0:0,0:0:0:0:
242,305,15362,5,0,3:2:0:0:
136,204,15544,1,0,0:0:0:0:
305,256,15727,2,0,L|239:307,1,80,8|0,3:2|0:0,0:0:0:0:
210,140,16093,2,0,L|287:171,1,80,0|0,3:2|0:0,0:0:0:0:
147,284,16459,2,0,L|135:201,1,80,8|0,3:2|0:0,0:0:0:0:
368,123,16825,6,0,P|405:179|447:256,1,120,4|0,3:2|0:0,0:0:0:0:
434,272,17193,2,0,P|378:266|334:254,1,80,8|0,3:2|0:0,0:0:0:0:
284,169,17561,1,0,3:2:0:0:
338,59,17745,1,0,0:0:0:0:
500,131,17929,2,0,P|448:152|403:163,1,80,8|0,3:2|0:0,0:0:0:0:
221,42,18297,5,0,3:2:0:0:
123,105,18481,1,0,0:0:0:0:
76,206,18665,2,0,P|81:253|93:287,1,80,8|0,3:2|0:0,0:0:0:0:
198,129,19033,2,0,P|154:110|118:104,1,80,0|0,3:2|0:0,0:0:0:0:
227,256,19401,2,0,P|266:248|302:231,1,80,8|0,3:2|0:0,0:0:0:0:
485,60,19769,6,0,P|406:78|361:85,1,120,4|0,3:2|0:0,0:0:0:0:
326,109,20134,2,0,P|269:85|234:76,1,80,8|0,3:2|0:0,0:0:0:0:
140,182,20500,1,0,3:2:0:0:
111,62,20683,1,0,0:0:0:0:
2,226,20866,2,0,P|59:250|94:259,1,80,8|0,3:2|0:0,0:0:0:0:
274,329,21232,5,0,3:2:0:0:
236,211,21417,1,0,0:0:0:0:
391,295,21602,2,0,L|494:320,1,80,8|0,3:2|0:0,0:0:0:0:
338,114,21972,2,0,L|350:205,1,80,0|0,3:2|0:0,0:0:0:0:
225,290,22343,2,0,L|235:210,1,80,8|0,3:2|0:0,0:0:0:0:
86,59,22713,6,0,P|146:44|218:30,1,120,4|0,3:2|0:0,0:0:0:0:
249,21,23083,2,0,P|299:40|328:57,1,80,8|0,3:2|0:0,0:0:0:0:
416,204,23454,1,0,3:2:0:0:
274,147,23636,1,0,0:0:0:0:
422,60,23819,2,0,P|472:41|501:24,1,80,8|0,3:2|0:0,0:0:0:0:
274,147,24185,5,0,3:2:0:0:
239,261,24369,1,0,0:0:0:0:
147,100,24553,2,0,L|168:194,1,80,8|0,3:2|0:0,0:0:0:0:
359,316,24921,2,0,L|341:237,1,80,0|8,3:2|0:0,0:0:0:0:
324,193,25197,1,8,0:0:0:0:
324,193,25289,1,8,0:0:0:0:
324,193,25381,1,8,0:0:0:0:
324,193,25473,1,8,0:0:0:0:
324,193,25565,1,8,0:0:0:0:
324,193,25657,6,0,L|393:198,1,64,6|0,3:2|0:0,0:0:0:0:
452,111,26020,2,0,L|388:106,1,64,0|0,3:2|0:0,0:0:0:0:
232,107,26384,2,0,L|301:112,1,64,0|0,3:2|0:0,0:0:0:0:
360,25,26747,2,0,L|296:20,1,64,0|0,3:2|0:0,0:0:0:0:
149,71,27111,6,0,P|143:117|157:155,1,64,2|0,3:2|0:0,0:0:0:0:
69,132,27483,2,0,P|82:176|110:205,1,64,0|0,3:2|0:0,0:0:0:0:
20,218,27856,2,0,P|50:253|87:268,1,64,0|0,3:2|0:0,0:0:0:0:
10,317,28229,2,0,P|51:336|92:335,1,64,0|0,3:2|0:0,0:0:0:0:
193,373,28601,6,0,L|347:364,1,128,2|0,3:2|3:2,0:0:0:0:
387,327,29153,1,0,0:0:0:0:
450,284,29337,2,0,L|296:275,1,128,0|0,3:2|3:2,0:0:0:0:
157,91,30073,6,0,P|187:53|269:62,1,128,0|0,3:2|3:2,0:0:0:0:
230,180,30625,1,0,0:0:0:0:
230,180,30809,2,0,P|225:139|224:114,1,64,0|0,3:2|0:0,0:0:0:0:
332,37,31177,2,0,P|330:68|326:100,1,64,0|0,3:2|0:0,0:0:0:0:
197,242,31545,6,0,L|128:222,1,64,2|0,3:2|0:0,0:0:0:0:
87,366,31913,2,0,L|149:384,1,64,0|0,3:2|0:0,0:0:0:0:
225,169,32281,2,0,L|156:149,1,64,2|0,3:2|0:0,0:0:0:0:
109,295,32650,2,0,L|171:313,1,64,0|0,3:2|0:0,0:0:0:0:
320,323,33018,6,0,L|329:255,1,64,2|0,3:2|0:0,0:0:0:0:
486,281,33386,2,0,L|422:272,1,64,0|0,3:2|0:0,0:0:0:0:
441,116,33754,2,0,L|432:179,1,64,2|0,3:2|0:0,0:0:0:0:
277,160,34122,2,0,L|340:168,1,64,0|0,3:2|0:0,0:0:0:0:
191,70,34490,6,0,P|203:152|201:225,1,128,2|0,3:2|3:2,0:0:0:0:
85,129,35042,1,0,0:0:0:0:
124,13,35226,2,0,P|189:22|269:30,1,128,0|0,3:2|3:2,0:0:0:0:
302,345,35962,5,0,3:2:0:0:
356,203,36149,2,0,L|366:276,1,64,0|0,1:2|3:2,0:0:0:0:
264,191,36524,1,8,3:3:0:0:
356,203,36712,1,8,3:3:0:0:
448,216,36893,1,4,3:0:0:0:
302,345,37075,1,10,0:0:0:0:
302,345,37439,6,0,P|227:329|135:323,1,160,6|0,3:2|0:0,0:0:0:0:
90,166,37991,1,0,0:0:0:0:
207,222,38175,2,0,P|224:279|232:325,1,80,0|0,3:2|0:0,0:0:0:0:
24,353,38543,2,0,P|32:314|45:275,1,80,8|0,0:0|0:0,0:0:0:0:
213,139,38911,6,0,P|300:148|366:172,1,120,2|0,3:2|0:0,0:0:0:0:
374,176,39279,2,0,P|437:172|472:161,1,80,10|0,0:0|0:0,0:0:0:0:
285,74,39647,2,0,P|250:21|223:-3,1,80,2|0,3:2|0:0,0:0:0:0:
225,210,40015,2,0,P|196:266|188:302,1,80,10|0,0:0|0:0,0:0:0:0:
476,327,40383,6,0,P|405:329|327:341,1,120,2|0,3:2|0:0,0:0:0:0:
316,360,40751,2,0,P|294:312|286:284,1,80,8|0,0:0|0:0,0:0:0:0:
412,189,41119,1,0,3:2:0:0:
274,169,41304,1,0,0:0:0:0:
430,22,41488,2,0,P|447:57|459:96,1,80,8|0,0:0|0:0,0:0:0:0:
274,169,41856,6,0,L|264:81,1,80,0|0,3:2|0:0,0:0:0:0:
89,236,42224,2,0,L|79:315,1,80,8|0,0:0|0:0,0:0:0:0:
200,290,42592,1,2,3:2:0:0:
180,195,42776,1,0,0:0:0:0:
153,102,42960,1,8,0:0:0:0:
128,9,43144,1,0,0:0:0:0:
274,169,43328,6,0,B|319:179|319:179|352:167|352:167|392:164|441:200,1,160,6|0,3:2|0:0,0:0:0:0:
462,369,43880,1,0,0:0:0:0:
355,326,44064,2,0,P|364:265|366:232,1,80,2|0,3:2|0:0,0:0:0:0:
263,89,44432,2,0,P|266:128|273:168,1,80,8|0,0:0|0:0,0:0:0:0:
137,361,44800,6,0,P|153:273|166:217,1,120,2|0,3:2|0:0,0:0:0:0:
165,195,45169,2,0,P|112:197|70:215,1,80,10|0,0:0|0:0,0:0:0:0:
251,272,45537,2,0,P|279:316|315:344,1,80,2|0,3:2|0:0,0:0:0:0:
273,168,45905,2,0,P|297:121|303:75,1,80,8|0,0:0|0:0,0:0:0:0:
65,49,46273,6,0,L|86:148,1,80,2|0,3:2|0:0,0:0:0:0:
143,322,46641,2,0,L|159:243,1,80,8|0,0:0|0:0,0:0:0:0:
199,67,47009,1,0,3:2:0:0:
273,168,47193,1,0,0:0:0:0:
297,33,47377,1,8,0:0:0:0:
182,181,47561,1,0,0:0:0:0:
369,221,47745,6,0,B|416:207|426:167|426:167|403:126|361:124,1,160,0|0,3:2|0:0,0:0:0:0:
259,277,48297,1,0,0:0:0:0:
182,181,48481,2,0,L|171:86,1,80,0|0,3:2|0:0,0:0:0:0:
112,280,48850,1,8,1:2:0:0:
112,280,49218,6,0,B|142:308|142:308|253:321,1,128,6|0,3:2|0:0,0:0:0:0:
372,226,49791,1,0,3:2:0:0:
269,234,49982,2,0,L|179:241,1,64,8|0,0:0|0:0,0:0:0:0:
353,313,50350,1,0,0:0:0:0:
372,226,50534,1,0,0:0:0:0:
388,139,50718,5,2,3:2:0:0:
226,156,50897,2,0,L|289:151,1,64,8|0,0:0|0:0,0:0:0:0:
147,81,51256,1,0,3:2:0:0:
308,66,51436,2,0,L|244:70,1,64,10|0,0:0|3:2,0:0:0:0:
114,244,51806,1,0,1:2:0:0:
114,244,52176,6,0,P|174:284|248:267,1,128,6|0,3:2|0:0,0:0:0:0:
330,145,52719,1,0,3:2:0:0:
368,223,52901,2,0,P|305:225|254:188,1,128,10|0,0:0|0:0,0:0:0:0:
267,67,53444,1,0,0:0:0:0:
189,205,53626,5,2,3:2:0:0:
109,101,53810,2,0,L|197:115,1,64,8|0,0:0|0:0,0:0:0:0:
330,145,54178,1,0,3:2:0:0:
267,67,54362,1,10,0:0:0:0:
189,205,54546,1,0,3:2:0:0:
368,223,54730,1,0,1:2:0:0:
368,223,55098,6,0,L|381:320,1,80,6|0,3:2|0:0,0:0:0:0:
290,178,55468,2,0,L|300:98,1,80,8|0,0:0|0:0,0:0:0:0:
452,243,55838,2,0,L|465:340,1,80,2|0,3:2|3:2,0:0:0:0:
215,134,56209,2,0,L|225:54,1,80,8|0,0:0|0:0,0:0:0:0:
156,285,56579,6,0,P|103:282|63:266,1,80,2|0,3:2|0:0,0:0:0:0:
233,223,56942,2,0,P|286:226|326:242,1,80,8|0,0:0|0:0,0:0:0:0:
68,358,57306,2,0,P|21:332|-8:301,1,80,2|0,3:2|3:2,0:0:0:0:
318,147,57669,2,0,P|364:172|394:203,1,80,8|0,0:0|0:0,0:0:0:0:
97,169,58033,6,0,P|126:90|143:53,1,120,2|0,3:2|0:0,0:0:0:0:
173,22,58403,2,0,P|231:38|262:55,1,80,8|0,0:0|0:0,0:0:0:0:
211,225,58773,1,0,3:2:0:0:
97,262,58958,1,0,3:2:0:0:
213,139,59144,2,0,P|271:155|302:172,1,80,8|0,0:0|0:0,0:0:0:0:
411,336,59514,6,0,P|374:290|436:265,2,120,0|0|0,1:2|1:2|1:2,0:0:0:0:
441,106,61003,6,0,P|391:96|362:85,1,80,6|0,3:2|0:0,0:0:0:0:
204,172,61370,2,0,P|254:162|283:151,1,80,8|0,3:2|0:0,0:0:0:0:
472,31,61738,2,0,P|422:21|393:10,1,80,0|0,3:2|0:0,0:0:0:0:
182,97,62106,2,0,P|232:87|261:76,1,80,8|0,3:2|0:0,0:0:0:0:
424,177,62474,5,0,3:2:0:0:
322,248,62658,1,2,0:0:0:0:
397,105,62842,1,10,3:2:0:0:
493,237,63026,1,2,0:0:0:0:
313,331,63210,2,0,P|265:310|245:289,1,80,2|2,3:2|0:0,0:0:0:0:
230,116,63578,2,0,P|235:168|227:195,1,80,10|0,3:2|0:0,0:0:0:0:
46,282,63946,6,0,L|138:264,1,80,2|0,3:2|0:0,0:0:0:0:
306,178,64314,2,0,L|214:196,1,80,8|0,3:2|0:0,0:0:0:0:
226,362,64682,2,0,L|208:270,1,80,0|0,3:2|0:0,0:0:0:0:
122,102,65050,2,0,L|140:194,1,80,8|0,3:2|0:0,0:0:0:0:
349,240,65418,5,0,3:2:0:0:
287,151,65602,1,2,0:0:0:0:
432,179,65786,1,10,3:2:0:0:
489,55,65970,1,2,0:0:0:0:
321,4,66154,2,0,P|256:18|224:34,1,80,2|2,3:2|0:0,0:0:0:0:
126,130,66522,2,0,P|135:195|130:231,1,80,10|0,3:2|0:0,0:0:0:0:
57,244,66798,1,0,0:0:0:0:
57,244,66890,6,0,P|120:245|221:288,1,160,6|8,3:2|3:2,0:0:0:0:
303,365,67441,1,0,0:0:0:0:
352,186,67625,2,0,P|321:237|310:277,1,80,0|0,3:2|0:0,0:0:0:0:
494,357,67993,2,0,P|479:319|456:287,1,80,8|2,3:2|0:0,0:0:0:0:
272,178,68361,6,0,L|362:186,1,80,2|0,3:2|0:0,0:0:0:0:
495,76,68729,2,0,L|405:84,1,80,8|0,3:2|0:0,0:0:0:0:
238,77,69097,1,2,3:2:0:0:
272,178,69281,1,0,0:0:0:0:
120,51,69465,1,8,3:2:0:0:
79,182,69649,1,2,0:0:0:0:
199,336,69833,6,0,P|208:286|206:237,1,80,2|0,3:2|0:0,0:0:0:0:
365,275,70201,2,0,P|356:225|358:176,1,80,8|0,3:2|0:0,0:0:0:0:
119,310,70569,2,0,P|128:260|126:211,1,80,0|0,3:2|0:0,0:0:0:0:
444,243,70937,2,0,P|435:193|437:144,1,80,8|0,3:2|0:0,0:0:0:0:
141,113,71305,6,0,P|210:126|285:134,1,120,0|0,3:2|0:0,0:0:0:0:
307,130,71673,2,0,P|313:62|313:37,1,80,8|0,3:2|0:0,0:0:0:0:
208,225,72041,2,0,P|202:293|202:318,1,80,0|2,3:2|1:2,0:0:0:0:
204,353,72317,1,0,1:2:0:0:
211,354,72409,1,2,1:2:0:0:
218,356,72501,1,0,1:2:0:0:
225,357,72593,1,0,1:2:0:0:
232,358,72685,1,0,1:2:0:0:
239,358,72777,6,0,L|150:368,1,80,6|0,3:2|0:0,0:0:0:0:
330,308,73145,2,0,L|419:318,1,80,8|0,3:2|0:0,0:0:0:0:
156,291,73512,2,0,L|67:301,1,80,0|0,3:2|0:0,0:0:0:0:
411,243,73880,2,0,L|500:253,1,80,8|0,3:2|0:0,0:0:0:0:
227,124,74248,5,0,3:2:0:0:
297,224,74432,1,2,0:0:0:0:
169,184,74616,1,10,3:2:0:0:
340,161,74800,1,2,0:0:0:0:
226,272,74984,1,2,3:2:0:0:
311,85,75168,1,2,0:0:0:0:
414,251,75352,2,0,L|396:333,1,80,10|0,3:2|0:0,0:0:0:0:
169,184,75720,6,0,P|219:175|259:173,1,80,2|0,3:2|0:0,0:0:0:0:
466,122,76088,2,0,P|416:113|376:111,1,80,8|0,3:2|0:0,0:0:0:0:
160,106,76456,2,0,P|210:97|250:95,1,80,0|0,3:2|0:0,0:0:0:0:
485,44,76824,2,0,P|435:35|395:33,1,80,8|0,3:2|0:0,0:0:0:0:
253,190,77192,5,0,3:2:0:0:
354,152,77376,1,2,0:0:0:0:
239,95,77560,1,10,3:2:0:0:
194,248,77744,1,2,0:0:0:0:
371,223,77928,1,2,3:2:0:0:
178,145,78112,1,2,0:0:0:0:
230,330,78296,2,0,L|324:326,1,80,10|0,3:2|0:0,0:0:0:0:
401,340,78572,1,0,0:0:0:0:
401,340,78664,6,0,L|218:349,1,160,6|8,3:2|3:2,0:0:0:0:
86,283,79216,1,0,0:0:0:0:
194,233,79400,2,0,P|208:180|206:136,1,80,0|0,3:2|0:0,0:0:0:0:
26,91,79767,2,0,P|28:130|40:168,1,80,10|2,3:2|0:0,0:0:0:0:
203,76,80135,6,0,B|243:75|269:101|269:101|300:113|333:99,1,120,2|0,3:2|0:0,0:0:0:0:
362,93,80503,2,0,P|376:156|381:189,1,80,8|0,3:2|0:0,0:0:0:0:
325,308,80871,1,2,3:2:0:0:
437,268,81055,1,0,0:0:0:0:
249,195,81239,2,0,P|235:258|230:291,1,80,10|0,3:2|0:0,0:0:0:0:
33,216,81607,6,0,P|85:212|130:201,1,80,2|0,3:2|0:0,0:0:0:0:
355,138,81975,2,0,P|303:134|258:123,1,80,8|0,3:2|0:0,0:0:0:0:
80,97,82343,2,0,P|101:44|109:5,1,80,2|0,3:2|0:0,0:0:0:0:
300,252,82711,2,0,P|279:305|271:344,1,80,8|0,3:2|0:0,0:0:0:0:
459,199,83079,5,2,3:2:0:0:
355,138,83263,1,0,0:0:0:0:
246,81,83447,2,0,P|295:65|335:28,1,80,8|0,3:2|0:0,0:0:0:0:
145,30,83815,1,0,3:2:0:0:
198,197,83999,1,8,0:0:0:0:
355,138,84183,1,8,3:2:0:0:
75,136,84551,5,8,0:0:0:0:
67,215,84735,1,8,0:0:0:0:
60,295,84919,1,8,0:0:0:0:
51,374,85103,1,8,0:0:0:0:
448,264,85656,5,8,0:0:0:0:
391,209,85840,1,8,0:0:0:0:
313,200,86025,1,8,0:0:0:0:
247,243,86209,1,8,0:0:0:0:
153,30,86578,5,0,3:2:0:0:
153,30,86670,1,0,3:2:0:0:
153,30,86762,2,0,L|161:130,1,80,0|0,1:2|1:2,0:0:0:0:
439,343,87499,5,8,0:0:0:0:
448,264,87683,1,8,0:0:0:0:
455,184,87867,1,8,0:0:0:0:
463,105,88052,1,8,0:0:0:0:
146,227,88605,5,0,1:2:0:0:
217,261,88789,1,0,1:2:0:0:
213,181,88973,1,0,1:2:0:0:
284,217,89157,1,0,1:2:0:0:
61,351,89710,5,8,0:0:0:0:
26,204,89894,1,8,0:0:0:0:
