osu file format v14

[General]
AudioFilename: audio.mp3
AudioLeadIn: 0
PreviewTime: 60255
Countdown: 0
SampleSet: Soft
StackLeniency: 0.7
Mode: 0
LetterboxInBreaks: 0
WidescreenStoryboard: 1

[Editor]
DistanceSpacing: 1.6
BeatDivisor: 4
GridSize: 4
TimelineZoom: 1.099999

[Metadata]
Title:Akeboshi Rocket
TitleUnicode:明星ロケット
Artist:KISIDA KYODAN & THE AKEBOSI ROCKETS
ArtistUnicode:岸田教団&THE明星ロケッツ
Creator:Irin
Version:Dalou's Normal
Source:東方文花帖 ~ Shoot the Bullet.
Tags:japanese pop Touhou aya レトロスペクティブ京都 Kishida Kyoudan and The Akeboshi Rockets 第三回 博麗神社例大祭 Rock ichigo 蒲燒鰻 TAQRO 幻想事変 Comic Market 85
BeatmapID:2300080
BeatmapSetID:972034

[Difficulty]
HPDrainRate:4
CircleSize:3.3
OverallDifficulty:4
ApproachRate:5.6
SliderMultiplier:1.1
SliderTickRate:1

[Events]
//Background and Video events
0,0,"57366270_p0.jpg",0,0
//Break Periods
//Storyboard Layer 0 (Background)
//Storyboard Layer 1 (Fail)
//Storyboard Layer 2 (Pass)
//Storyboard Layer 3 (Foreground)
//Storyboard Layer 4 (Overlay)
//Storyboard Sound Samples

[TimingPoints]
628,389.61038961039,4,2,1,60,1,0
1017,352.941176470588,4,2,1,60,1,8
1369,359.281437125748,4,2,1,60,1,8
1728,365.853658536585,4,2,1,60,1,8
2093,368.098159509202,4,2,1,50,1,0
10927,375,4,2,1,50,1,8
12427,361.44578313253,4,2,1,50,1,8
13511,-100,4,2,1,60,0,8
13872,372.670807453416,4,2,1,60,1,0
15362,365.853658536585,4,2,1,60,1,8
16825,368.098159509202,4,2,1,60,1,8
19769,365.853658536585,4,2,1,60,1,0
21232,370.37037037037,4,2,1,60,1,8
23454,365.853658536585,4,2,1,60,1,8
24185,368.098159509202,4,2,1,60,1,8
25657,363.636363636364,4,2,1,40,1,0
27111,372.670807453416,4,2,1,40,1,8
28601,368.098159509202,4,2,1,40,1,0
35962,375,4,2,1,50,1,8
36712,363.636363636364,4,2,1,50,1,8
37075,-100,4,2,1,60,0,8
37439,368.098159509202,4,2,1,60,1,0
49218,382.165605095541,4,2,1,40,1,0
49982,368.098159509202,4,2,1,40,1,8
50718,359.281437125748,4,2,1,40,1,8
51436,370.37037037037,4,2,1,40,1,8
52176,362.537764350453,4,2,1,40,1,8
53626,368.098159509202,4,2,1,40,1,8
55098,370.37037037037,4,2,1,50,1,0
56579,363.636363636364,4,2,1,50,1,8
58033,370.37037037037,4,2,1,60,1,8
60255,374.298190892077,4,2,1,60,1,8
61003,367.940148402527,4,2,1,70,1,1
84183,-100,4,2,1,70,0,0
84551,368.550368550369,4,2,1,60,1,0

[Colours]
Combo1 : 255,100,100
Combo2 : 255,255,147

[HitObjects]
101,62,2093,6,0,P|161:62|214:93,1,110,4|0,3:2|3:2,0:0:0:0:
295,23,2829,2,0,P|313:80|300:140,1,110,0|0,3:2|3:2,0:0:0:0:
390,197,3565,2,0,P|341:232|280:238,1,110,0|0,3:2|3:2,0:0:0:0:
255,342,4301,2,0,P|206:306|182:250,1,110,0|0,3:2|3:2,0:0:0:0:
74,259,5037,6,0,P|93:201|138:161,1,110,0|0,3:2|3:2,0:0:0:0:
101,62,5773,2,0,P|161:62|214:93,1,110,0|0,3:2|3:2,0:0:0:0:
237,189,6510,1,0,3:2:0:0:
339,148,6878,1,0,3:2:0:0:
441,107,7246,2,0,L|437:51,2,55,0|0|0,3:2|0:0|3:2,0:0:0:0:
504,196,7982,6,0,P|510:253|496:312,1,110,4|0,3:2|3:2,0:0:0:0:
409,367,8718,2,0,P|350:366|300:342,1,110,0|0,3:2|3:2,0:0:0:0:
245,252,9454,2,0,P|195:248|130:269,1,110,0|0,3:2|3:2,0:0:0:0:
53,334,10191,2,0,P|31:274|39:224,1,110,0|0,3:2|3:2,0:0:0:0:
3,124,10927,6,0,P|66:121|111:144,1,110,0|0,3:2|3:2,0:0:0:0:
215,123,11677,2,0,L|207:57,2,55,0|0|0,3:2|0:0|3:2,0:0:0:0:
222,177,12239,1,0,0:0:0:0:
222,177,12427,2,0,P|337:191|217:272,1,330,0|8,3:2|0:0,0:0:0:0:
132,243,13872,6,0,L|126:357,1,110,4|8,3:2|3:2,0:0:0:0:
21,319,14617,2,0,L|27:205,1,110,0|8,3:2|3:2,0:0:0:0:
26,99,15362,2,0,L|23:44,2,55,0|0|8,3:2|0:0|3:2,0:0:0:0:
71,131,15910,1,0,0:0:0:0:
71,131,16093,2,0,P|134:134|181:110,1,110,0|8,3:2|3:2,0:0:0:0:
263,49,16825,6,0,L|378:52,1,110,4|8,3:2|3:2,0:0:0:0:
388,158,17561,2,0,L|273:155,1,110,0|8,3:2|3:2,0:0:0:0:
175,114,18297,2,0,L|177:57,2,55,0|0|8,3:2|0:0|3:2,0:0:0:0:
144,160,18849,1,0,0:0:0:0:
144,160,19033,2,0,L|151:285,1,110,0|8,3:2|3:2,0:0:0:0:
234,341,19769,6,0,P|293:334|361:337,1,110,4|8,3:2|3:2,0:0:0:0:
453,342,20500,2,0,P|446:283|449:215,1,110,0|8,3:2|3:2,0:0:0:0:
469,124,21232,1,0,3:2:0:0:
469,124,21417,2,0,P|431:122|394:136,1,55,0|8,0:0|3:2,0:0:0:0:
370,158,21787,1,0,0:0:0:0:
370,158,21972,2,0,P|304:161|259:142,1,110,0|8,3:2|3:2,0:0:0:0:
182,71,22713,6,0,P|116:68|71:86,1,110,4|8,3:2|3:2,0:0:0:0:
29,183,23454,2,0,L|34:312,1,110,0|8,3:2|3:2,0:0:0:0:
114,367,24185,1,0,3:2:0:0:
114,367,24369,2,0,P|152:369|189:355,1,55,0|8,0:0|3:2,0:0:0:0:
203,323,24737,1,0,0:0:0:0:
203,323,24921,2,0,L|279:317,1,55,0|8,3:2|0:0,0:0:0:0:
308,339,25289,2,0,L|384:333,1,55,8|8,0:0|0:0,0:0:0:0:
416,350,25657,6,0,L|414:216,1,110,6|0,3:2|3:2,0:0:0:0:
471,145,26384,2,0,P|445:90|400:61,1,110,0|0,3:2|3:2,0:0:0:0:
299,77,27111,2,0,L|172:76,1,110,2|0,3:2|3:2,0:0:0:0:
90,126,27856,1,0,3:2:0:0:
125,231,28229,1,0,3:2:0:0:
71,328,28601,6,0,P|129:339|198:313,1,110,2|0,3:2|3:2,0:0:0:0:
277,281,29337,2,0,P|328:273|390:294,1,110,0|0,3:2|3:2,0:0:0:0:
480,340,30073,1,0,3:2:0:0:
509,234,30441,1,0,3:2:0:0:
480,127,30809,1,0,3:2:0:0:
388,65,31177,1,0,3:2:0:0:
278,56,31545,6,0,L|286:174,1,110,2|0,3:2|3:2,0:0:0:0:
287,275,32281,2,0,P|230:263|190:219,1,110,2|0,3:2|3:2,0:0:0:0:
189,117,33018,2,0,P|131:112|74:127,1,110,2|0,3:2|3:2,0:0:0:0:
9,207,33754,1,2,3:2:0:0:
34,313,34122,1,0,3:2:0:0:
133,359,34490,6,0,L|247:351,1,110,2|0,3:2|3:2,0:0:0:0:
261,242,35226,2,0,L|147:234,1,110,0|0,3:2|3:2,0:0:0:0:
124,129,35962,2,0,L|197:123,1,55,0|0,3:2|1:2,0:0:0:0:
233,116,36337,2,0,P|228:86|229:58,2,55,0|8|8,3:2|3:3|3:3,0:0:0:0:
325,175,37075,1,10,0:0:0:0:
422,222,37439,6,0,P|432:170|414:111,1,110,6|8,3:2|0:0,0:0:0:0:
373,14,38175,2,0,P|315:9|255:22,1,110,0|8,3:2|0:0,0:0:0:0:
228,61,38727,1,0,0:0:0:0:
228,61,38911,2,0,L|98:57,1,110,2|10,3:2|0:0,0:0:0:0:
8,47,39647,2,0,P|21:110|65:152,1,110,2|10,3:2|0:0,0:0:0:0:
136,211,40383,6,0,L|131:326,2,110,2|8|0,3:2|0:0|3:2,0:0:0:0:
204,125,41488,1,8,0:0:0:0:
307,161,41856,2,0,L|309:228,1,55,0|0,3:2|0:0,0:0:0:0:
277,261,42224,2,0,B|281:331|281:331|310:371,1,110,8|2,0:0|3:2,0:0:0:0:
414,380,42960,1,8,0:0:0:0:
484,295,43328,6,0,P|483:239|481:169,1,110,6|8,3:2|0:0,0:0:0:0:
509,78,44064,2,0,P|459:77|396:116,1,110,2|8,3:2|0:0,0:0:0:0:
369,145,44616,1,0,0:0:0:0:
369,145,44800,2,0,P|319:146|256:107,1,110,2|10,3:2|0:0,0:0:0:0:
195,34,45537,1,2,3:2:0:0:
85,24,45905,2,0,P|87:63|102:92,1,55,8|0,0:0|0:0,0:0:0:0:
118,126,46273,6,0,L|112:256,1,110,2|8,3:2|0:0,0:0:0:0:
217,271,47009,2,0,L|223:141,1,110,0|8,3:2|0:0,0:0:0:0:
256,117,47561,1,0,0:0:0:0:
256,117,47745,2,0,L|328:123,1,55,0|0,3:2|0:0,0:0:0:0:
356,90,48113,2,0,L|424:83,2,55,8|0|0,0:0|0:0|3:2,0:0:0:0:
279,10,48850,1,8,1:2:0:0:
173,18,49218,6,0,P|117:47|129:154,1,165,6|0,3:2|3:2,0:0:0:0:
161,173,49982,2,0,P|176:227|153:285,1,110,8|0,0:0|0:0,0:0:0:0:
99,373,50718,1,2,3:2:0:0:
99,373,50897,2,0,L|228:367,1,110,8|0,0:0|3:2,0:0:0:0:
249,333,51436,2,0,P|303:310|370:330,1,110,10|0,0:0|1:2,0:0:0:0:
454,365,52176,6,0,P|477:290|435:210,1,165,6|0,3:2|3:2,0:0:0:0:
393,187,52901,2,0,L|400:57,1,110,10|0,0:0|0:0,0:0:0:0:
297,39,53626,1,2,3:2:0:0:
297,39,53810,2,0,P|250:54|221:122,1,110,8|0,0:0|3:2,0:0:0:0:
229,158,54362,2,0,L|237:236,1,55,10|0,0:0|3:2,0:0:0:0:
241,267,54730,1,0,1:2:0:0:
163,344,55098,6,0,P|101:353|48:330,1,110,6|8,3:2|0:0,0:0:0:0:
35,229,55838,2,0,L|7:167,2,55,2|0|8,3:2|3:2|0:0,0:0:0:0:
131,172,56579,2,0,P|193:163|246:186,1,110,2|8,3:2|0:0,0:0:0:0:
301,267,57306,2,0,L|276:337,2,55,2|0|8,3:2|3:2|0:0,0:0:0:0:
393,211,58033,6,0,B|377:150|377:150|393:83,1,110,2|8,3:2|0:0,0:0:0:0:
316,20,58773,2,0,L|255:21,1,55,0|0,3:2|3:2,0:0:0:0:
245,73,59144,2,0,L|230:150,1,55,8|0,0:0|0:0,0:0:0:0:
224,180,59514,5,0,1:2:0:0:
289,230,59792,1,0,1:2:0:0:
362,192,60070,1,0,1:2:0:0:
103,318,61003,6,0,P|81:260|90:204,1,110,6|8,3:2|3:2,0:0:0:0:
154,127,61738,2,0,L|143:14,2,110,0|8|0,3:2|3:2|3:2,0:0:0:0:
199,158,62658,1,2,0:0:0:0:
199,158,62842,2,0,P|233:158|259:154,1,55,10|2,3:2|0:0,0:0:0:0:
308,145,63210,2,0,L|296:272,1,110,2|10,3:2|3:2,0:0:0:0:
284,364,63946,6,0,B|223:348|223:348|172:354,1,110,2|8,3:2|3:2,0:0:0:0:
113,263,64682,2,0,L|-3:278,2,110,0|8|0,3:2|3:2|3:2,0:0:0:0:
144,218,65602,1,2,0:0:0:0:
144,218,65786,2,0,P|144:184|140:158,1,55,10|2,3:2|0:0,0:0:0:0:
131,109,66154,2,0,L|258:121,1,110,2|10,3:2|3:2,0:0:0:0:
313,36,66890,6,0,B|377:43|377:43|436:28,1,110,6|8,3:2|3:2,0:0:0:0:
491,116,67625,2,0,B|505:167|505:167|488:242,1,110,0|8,3:2|3:2,0:0:0:0:
473,274,68177,1,2,0:0:0:0:
473,274,68361,2,0,P|410:264|359:274,1,110,2|8,3:2|3:2,0:0:0:0:
284,347,69097,1,2,3:2:0:0:
194,282,69465,2,0,L|130:279,1,55,8|2,3:2|0:0,0:0:0:0:
89,304,69833,6,0,L|91:175,1,110,2|8,3:2|3:2,0:0:0:0:
37,97,70569,2,0,P|88:83|161:104,1,110,0|8,3:2|3:2,0:0:0:0:
205,185,71305,1,0,3:2:0:0:
291,117,71673,1,8,3:2:0:0:
379,182,72041,2,0,L|441:185,1,55,0|2,3:2|1:2,0:0:0:0:
489,189,72409,2,0,L|492:127,1,55,2|0,1:2|1:2,0:0:0:0:
495,78,72777,6,0,P|439:60|365:77,1,110,6|8,3:2|3:2,0:0:0:0:
291,117,73512,2,0,P|236:122|185:105,1,110,0|8,3:2|3:2,0:0:0:0:
80,71,74248,1,0,3:2:0:0:
80,71,74432,2,0,L|87:6,2,55,2|10|2,0:0|3:2|0:0,0:0:0:0:
38,107,74984,2,0,L|47:176,1,55,2|2,3:2|0:0,0:0:0:0:
54,216,75352,1,10,3:2:0:0:
5,314,75720,6,0,P|63:322|133:292,1,110,2|8,3:2|3:2,0:0:0:0:
199,240,76456,2,0,P|251:224|305:233,1,110,0|8,3:2|3:2,0:0:0:0:
404,281,77192,1,0,3:2:0:0:
404,281,77376,2,0,L|397:346,2,55,2|10|2,0:0|3:2|0:0,0:0:0:0:
446,245,77928,2,0,L|437:176,1,55,2|2,3:2|0:0,0:0:0:0:
430,136,78296,1,10,3:2:0:0:
346,64,78664,6,0,B|300:76|300:76|218:70,1,110,6|8,3:2|3:2,0:0:0:0:
132,42,79400,2,0,L|129:156,1,110,0|10,3:2|3:2,0:0:0:0:
128,207,79951,1,2,0:0:0:0:
128,207,80135,2,0,B|174:195|174:195|256:201,1,110,2|8,3:2|3:2,0:0:0:0:
345,211,80871,1,2,3:2:0:0:
343,321,81239,1,10,3:2:0:0:
234,310,81607,6,0,L|237:181,1,110,2|8,3:2|3:2,0:0:0:0:
126,209,82343,2,0,L|123:80,1,110,2|8,3:2|3:2,0:0:0:0:
198,18,83079,1,2,3:2:0:0:
274,97,83447,1,8,3:2:0:0:
349,16,83815,2,0,L|421:14,2,55,0|8|8,3:2|0:0|3:2,0:0:0:0:
274,97,84551,6,0,L|277:162,1,55,8|8,0:0|0:0,0:0:0:0:
317,188,84919,2,0,L|320:253,1,55,8|8,0:0|0:0,0:0:0:0:
180,331,85656,2,0,L|177:266,1,55,8|8,0:0|0:0,0:0:0:0:
137,240,86025,2,0,L|134:175,1,55,8|8,0:0|0:0,0:0:0:0:
131,19,86762,5,0,1:2:0:0:
131,19,86946,1,0,1:2:0:0:
274,97,87499,6,0,L|339:99,1,55,8|8,0:0|0:0,0:0:0:0:
369,63,87867,2,0,L|434:65,1,55,8|8,0:0|0:0,0:0:0:0:
501,210,88605,2,0,L|435:207,1,55,0|0,1:2|1:2,0:0:0:0:
407,245,88973,2,0,L|341:242,1,55,0|0,1:2|1:2,0:0:0:0:
186,234,89710,5,8,0:0:0:0:
186,234,89894,1,8,0:0:0:0:
