osu file format v14

[General]
AudioFilename: audio.mp3
AudioLeadIn: 0
PreviewTime: 58555
Countdown: 0
SampleSet: Soft
StackLeniency: 0.7
Mode: 0
LetterboxInBreaks: 0
WidescreenStoryboard: 0

[Editor]
DistanceSpacing: 2.2
BeatDivisor: 4
GridSize: 32
TimelineZoom: 3

[Metadata]
Title:ANCIENT FLOWER
TitleUnicode:ANCIENT FLOWER
Artist:KISIDA KYODAN & THE AKEBOSI ROCKETS
ArtistUnicode:岸田教団&THE明星ロケッツ
Creator:SMOKELIND
Version:PHANTASM
Source:東方妖々夢 ~ Perfect Cherry Blossom.
Tags:japanese jp rock j-rock ichigo Kishida Kyoudan and Akeboshi ZUN Touhou TH Reitaisai 14 youyoumu yuuga ni sakase sumizome no sakura 東方妖々夢 ~ Ancient Temple 幽雅に咲かせ、墨染の桜 ~ Border of Life Kowari AirinCat
BeatmapID:2047632
BeatmapSetID:978477

[Difficulty]
HPDrainRate:5
CircleSize:3.8
OverallDifficulty:9
ApproachRate:9.2
SliderMultiplier:1.77
SliderTickRate:1

[Events]
//Background and Video events
0,0,"loli.jpg",0,0
//Break Periods
//Storyboard Layer 0 (Background)
//Storyboard Layer 1 (Fail)
//Storyboard Layer 2 (Pass)
//Storyboard Layer 3 (Foreground)
//Storyboard Layer 4 (Overlay)
//Storyboard Sound Samples

[TimingPoints]
1150,303.030303030303,4,2,7,47,1,0
1150,-175.438596491228,4,2,7,47,0,0
2513,257.510729613734,4,2,7,47,1,0
2513,-175.438596491228,4,2,7,47,0,0
2641,303.030303030303,4,2,7,47,1,0
2641,-175.438596491228,4,2,7,47,0,0
3550,304.568527918782,4,2,7,47,1,0
3550,-175.438596491228,4,2,7,47,0,0
4311,317.460317460317,4,2,7,47,1,0
4311,-175.438596491228,4,2,7,47,0,0
4469,303.030303030303,4,2,7,47,1,0
4469,-175.438596491228,4,2,7,47,0,0
4772,303.030303030303,4,2,7,47,1,0
4772,-175.438596491228,4,2,7,47,0,0
5075,-175.438596491228,4,2,7,47,0,0
9317,291.26213592233,4,2,7,47,1,0
9317,-114.942528735632,4,2,7,67,0,0
9462,303.030303030303,4,2,7,67,1,0
9462,-114.942528735632,4,2,7,67,0,0
9613,302.267002518892,4,2,7,67,1,0
9613,-114.942528735632,4,2,7,67,0,0
10822,-149.253731343284,4,2,7,57,0,0
11124,317.460317460317,4,2,7,57,1,0
11124,-149.253731343284,4,2,7,57,0,0
11758,303.030303030303,4,2,7,57,1,0
11758,-149.253731343284,4,2,7,57,0,0
12061,301.810865191147,4,2,7,57,1,0
12061,-149.253731343284,4,2,7,57,0,0
15382,297.029702970297,4,2,7,57,1,0
15382,-149.253731343284,4,2,7,57,0,0
15675,308.800823468863,4,2,7,57,1,0
15675,-149.253731343284,4,2,7,57,0,0
16606,303.030303030303,4,2,7,57,1,0
16606,-149.253731343284,4,2,7,57,0,0
17818,297.029702970297,4,2,7,57,1,0
17818,-149.253731343284,4,2,7,57,0,0
18115,297.029702970297,4,2,7,77,1,0
18115,-149.253731343284,4,2,7,77,0,0
18263,-103.092783505155,4,2,7,77,0,0
18857,292.682926829268,4,2,7,77,1,0
18857,-103.092783505155,4,2,7,77,0,0
19003,307.692307692308,4,2,7,77,1,0
19003,-103.092783505155,4,2,7,77,0,0
19618,303.030303030303,4,2,7,77,1,0
19618,-103.092783505155,4,2,7,77,0,0
19921,307.692307692308,4,2,7,77,1,0
19921,-103.092783505155,4,2,7,77,0,0
20536,303.030303030303,4,2,7,77,1,0
20536,-103.092783505155,4,2,7,77,0,0
29626,300,4,2,7,47,1,0
29626,-103.092783505155,4,2,7,77,0,0
30226,303.030303030303,4,2,7,47,1,0
30226,-129.87012987013,4,2,7,57,0,0
39922,306.122448979592,4,2,7,47,1,0
39922,-129.87012987013,4,2,7,57,0,0
40840,300,4,2,7,47,1,0
40840,-129.87012987013,4,2,7,57,0,0
41140,303.030303030303,4,2,7,47,1,0
41140,-129.87012987013,4,2,7,57,0,0
42352,-129.87012987013,4,2,7,57,0,0
48715,309.278350515464,4,2,7,47,1,0
48715,-129.87012987013,4,2,7,57,0,0
49024,299.25187032419,4,2,7,47,1,0
49024,-129.87012987013,4,2,7,57,0,0
49323,275.229357798165,4,2,7,57,1,0
49323,-129.87012987013,4,2,7,57,0,0
49460,309.278350515464,4,2,7,57,1,0
49460,-129.87012987013,4,2,7,57,0,0
49614,319.148936170213,4,2,7,67,1,0
49614,-114.942528735632,4,2,7,67,0,0
50092,294.117647058824,4,2,7,47,1,0
50092,-114.942528735632,4,2,7,67,0,0
50386,303.030303030303,4,2,7,47,1,0
50386,-114.942528735632,4,2,7,67,0,0
50689,315.789473684211,4,2,7,47,1,0
50689,-114.942528735632,4,2,7,67,0,0
50846,303.030303030303,4,2,7,47,1,0
50846,-114.942528735632,4,2,7,67,0,0
54482,295.566502463054,4,2,7,47,1,0
54482,-114.942528735632,4,2,7,67,0,0
55221,303.030303030303,4,2,7,47,1,0
55221,-114.942528735632,4,2,7,67,0,0
55374,307.692307692308,4,2,7,47,1,0
55374,-114.942528735632,4,2,7,67,0,0
56452,303.030303030303,4,2,7,47,1,0
56452,-114.942528735632,4,2,7,67,0,0
56906,303.030303030303,4,2,7,47,1,0
56906,-114.942528735632,4,2,7,67,0,0
57967,285.714285714286,4,2,7,47,1,0
57967,-114.942528735632,4,2,7,67,0,0
58252,303.030303030303,4,2,7,47,1,0
58252,-114.942528735632,4,2,7,67,0,0
58555,-114.942528735632,4,2,7,67,0,0
59009,333.333333333333,4,2,7,47,1,0
59009,-114.942528735632,4,2,7,67,0,0
59175,297.029702970297,4,2,7,47,1,0
59175,-93.4579439252336,4,2,7,87,0,0
59323,297.029702970297,4,2,7,47,1,0
59323,-93.4579439252336,4,2,7,87,0,0
59917,307.692307692308,4,2,7,47,1,0
59917,-93.4579439252336,4,2,7,87,0,0
60378,303.030303030303,4,2,7,47,1,0
60378,-93.4579439252336,4,2,7,87,0,0
60529,303.030303030303,4,2,7,47,1,0
60529,-93.4579439252336,4,2,7,87,0,0
72498,312.5,4,2,7,47,1,0
72498,-93.4579439252336,4,2,7,87,0,0
73123,303.030303030303,4,2,7,47,1,0
73123,-93.4579439252336,4,2,7,87,0,0
73730,-93.4579439252336,4,2,7,87,0,0
73881,303.030303030303,4,2,7,87,1,0
73881,-93.4579439252336,4,2,7,87,0,0
76153,294.117647058824,4,2,7,47,1,0
76153,-93.4579439252336,4,2,7,87,0,0
76594,303.030303030303,4,2,7,47,1,0
76594,-93.4579439252336,4,2,7,87,0,0
77351,309.278350515464,4,2,7,47,1,0
77351,-93.4579439252336,4,2,7,87,0,0
77814,303.030303030303,4,2,7,47,1,0
77814,-93.4579439252336,4,2,7,87,0,0
78571,-93.4579439252336,4,2,7,87,0,0
78723,303.030303030303,4,2,7,47,1,0
78723,-93.4579439252336,4,2,7,87,0,0
79632,295.566502463054,4,2,7,47,1,0
79632,-93.4579439252336,4,2,7,87,0,0
79927,303.030303030303,4,2,7,47,1,0
79927,-93.4579439252336,4,2,7,87,0,0
81139,312.5,4,2,7,47,1,0
81139,-93.4579439252336,4,2,7,87,0,0
81451,303.030303030303,4,2,7,47,1,0
81451,-93.4579439252336,4,2,7,87,0,0
82360,303.030303030303,4,2,7,47,1,0
82360,-93.4579439252336,4,2,7,87,0,0
87814,295.566502463054,4,2,7,47,1,0
87814,-93.4579439252336,4,2,7,87,0,0
88405,337.078651685393,4,2,7,47,1,0
88405,-103.092783505155,4,2,7,77,0,0
88742,295.566502463054,4,2,7,47,1,0
88742,-103.092783505155,4,2,7,77,0,0
89333,300,4,2,7,47,1,0
89333,-103.092783505155,4,2,7,77,0,0
89633,303.030303030303,4,2,7,47,1,0
89633,-103.092783505155,4,2,7,77,0,0
92360,300,4,2,7,47,1,0
92360,-103.092783505155,4,2,7,77,0,0
93260,303.030303030303,4,2,7,47,1,0
93260,-103.092783505155,4,2,7,77,0,0
95684,307.692307692308,4,2,7,47,1,0
95684,-93.4579439252339,4,2,7,87,0,0
95991,303.030303030303,4,2,7,47,1,0
95991,-93.4579439252339,4,2,7,87,0,0
96900,303.030303030303,4,2,7,47,1,0
96900,-93.4579439252339,4,2,7,87,0,0
98112,-1000,4,2,7,87,0,0
98263,-1000,4,2,7,7,0,0

[Colours]
Combo1 : 255,164,251
Combo2 : 196,164,255

[HitObjects]
58,48,1150,6,0,P|63:73|67:115,1,50.4449993842163,2|0,0:0|0:0,0:0:0:0:
155,156,1453,2,0,P|158:130|163:106,1,50.4449993842163,2|0,0:0|0:0,0:0:0:0:
77,38,1756,2,0,P|82:63|86:105,1,50.4449993842163,2|0,0:0|0:0,0:0:0:0:
174,146,2059,1,2,0:0:0:0:
174,146,2210,2,0,P|244:127|294:122,1,100.889998768433,2|0,0:0|0:0,0:0:0:0:
375,110,2641,2,0,P|366:135|360:172,1,50.4449993842163,2|0,0:0|0:0,0:0:0:0:
306,252,2944,2,0,P|300:227|292:203,1,50.4449993842163,2|0,0:0|0:0,0:0:0:0:
399,103,3247,2,0,P|390:127|384:164,1,50.4449993842163,2|0,0:0|0:0,0:0:0:0:
332,260,3550,6,0,P|366:271|403:273,1,50.4449993842163,2|0,0:0|0:0,0:0:0:0:
458,351,3854,2,0,P|433:355|409:363,1,50.4449993842163,2|0,0:0|0:0,0:0:0:0:
349,244,4159,2,0,P|383:255|420:257,1,50.4449993842163,2|0,0:0|0:0,0:0:0:0:
475,335,4469,1,2,0:0:0:0:
475,335,4620,2,0,P|482:273|494:200,1,100.889998768433,2|0,0:0|0:0,0:0:0:0:
465,119,5075,2,0,P|442:132|397:136,1,50.4449993842163,2|0,0:0|0:0,0:0:0:0:
338,198,5378,2,0,P|362:203|384:216,1,50.4449993842163,2|0,0:0|0:0,0:0:0:0:
462,104,5681,2,0,P|439:117|394:121,1,50.4449993842163,2|0,0:0|0:0,0:0:0:0:
295,106,5984,6,0,P|280:75|272:49,1,50.4449993842163,2|0,0:0|0:0,0:0:0:0:
168,26,6287,2,0,P|159:49|147:72,1,50.4449993842163,2|0,0:0|0:0,0:0:0:0:
312,90,6590,2,0,P|297:59|289:33,1,50.4449993842163,2|0,0:0|0:0,0:0:0:0:
185,10,6893,1,2,0:0:0:0:
185,10,7044,2,0,P|166:61|141:110,1,100.889998768433,2|0,0:0|0:0,0:0:0:0:
61,188,7499,2,0,P|89:178|122:177,1,50.4449993842163,2|0,0:0|0:0,0:0:0:0:
158,256,7802,2,0,P|181:265|206:267,1,50.4449993842163,2|0,0:0|0:0,0:0:0:0:
260,188,8105,2,0,P|288:178|321:177,1,50.4449993842163,2|0,0:0|0:0,0:0:0:0:
393,249,8408,6,0,P|399:215|408:187,1,50.4449993842163,2|0,0:0|0:0,0:0:0:0:
490,129,8711,2,0,P|496:153|500:178,1,50.4449993842163,2|0,0:0|0:0,0:0:0:0:
379,254,9014,2,0,P|385:220|394:192,1,50.4449993842163,2|0,0:0|0:0,0:0:0:0:
459,15,9317,5,8,0:0:0:0:
331,156,9462,2,0,P|293:177|228:182,1,76.9950006461678,8|0,0:0|1:0,0:0:0:0:
411,243,9764,1,8,0:0:0:0:
274,93,9915,2,0,P|240:73|203:65,1,76.9950006461678,8|0,0:0|1:0,0:0:0:0:
62,219,10217,1,8,0:0:0:0:
111,64,10368,1,0,1:0:0:0:
187,259,10519,2,0,P|197:303|201:354,1,76.9950006461678,8|0,0:0|0:0,0:0:0:0:
334,187,10822,6,0,L|403:174,1,59.2949971952135,6|0,1:0|0:0,0:0:0:0:
483,67,11124,2,0,L|414:54,1,59.2949971952135,2|0,1:0|0:0,0:0:0:0:
330,202,11441,2,0,L|399:189,1,59.2949971952135,2|0,1:0|0:0,0:0:0:0:
479,82,11758,2,0,L|410:69,1,59.2949971952135,2|0,1:0|0:0,0:0:0:0:
326,217,12061,2,0,L|395:204,1,59.2949971952135,2|0,1:0|0:0,0:0:0:0:
475,97,12362,2,0,L|406:84,1,59.2949971952135,2|0,1:0|0:0,0:0:0:0:
322,232,12664,2,0,L|391:219,1,59.2949971952135,2|0,1:0|0:0,0:0:0:0:
471,112,12966,2,0,L|402:99,1,59.2949971952135,2|0,1:0|0:0,0:0:0:0:
291,67,13268,6,0,L|232:77,1,59.2949971952135,2|0,1:0|0:0,0:0:0:0:
104,134,13570,2,0,L|162:144,1,59.2949971952135,2|0,1:0|0:0,0:0:0:0:
288,48,13871,2,0,L|229:58,1,59.2949971952135,2|0,1:0|0:0,0:0:0:0:
101,115,14173,2,0,L|159:125,1,59.2949971952135,2|0,1:0|0:0,0:0:0:0:
285,29,14475,2,0,L|226:39,1,59.2949971952135,2|0,1:0|0:0,0:0:0:0:
98,96,14777,2,0,L|156:106,1,59.2949971952135,2|0,1:0|0:0,0:0:0:0:
184,125,15003,1,0,3:0:0:0:
184,125,15079,2,0,L|247:117,1,59.2949971952135,2|0,1:0|0:0,0:0:0:0:
404,142,15382,2,0,P|386:181|379:252,1,88.9424957928202,2|0,1:0|0:0,0:0:0:0:
412,295,15675,6,0,P|382:279|346:271,1,59.2949971952135,6|0,1:0|0:0,0:0:0:0:
213,327,15983,2,0,P|241:318|267:304,1,59.2949971952135,2|0,1:0|0:0,0:0:0:0:
405,271,16292,2,0,P|372:263|335:264,1,59.2949971952135,2|0,1:0|0:0,0:0:0:0:
219,350,16606,2,0,P|245:335|267:315,1,59.2949971952135,2|0,1:0|0:0,0:0:0:0:
392,250,16909,2,0,P|358:250|323:259,1,59.2949971952135,2|0,1:0|0:0,0:0:0:0:
232,371,17212,2,0,P|253:351|269:326,1,59.2949971952135,2|0,1:0|0:0,0:0:0:0:
375,232,17515,2,0,P|342:240|310:258,1,59.2949971952135,2|0,1:0|0:0,0:0:0:0:
249,384,17818,2,0,P|281:331|301:272,1,118.589994390427,2|0,1:0|1:0,0:0:0:0:
265,121,18263,5,8,0:0:0:0:
125,305,18412,2,0,P|86:333|34:341,1,85.8450020303307,8|0,0:0|1:0,0:0:0:0:
148,130,18709,1,8,0:0:0:0:
288,314,18857,2,0,P|327:342|379:350,1,85.8450020303307,8|0,0:0|1:0,0:0:0:0:
255,95,19156,1,8,0:0:0:0:
115,279,19310,2,0,P|76:307|24:315,1,85.8450020303307,8|0,0:0|1:0,0:0:0:0:
266,185,19618,2,0,P|307:195|341:221,1,85.8450020303307,8|8,0:0|0:0,0:0:0:0:
382,296,19845,1,8,0:0:0:0:
382,296,19921,2,0,P|376:314|372:349,3,42.9225010151654,8|8|8|8,0:0|3:0|3:0|3:0,0:0:0:0:
440,384,20228,1,8,0:0:0:0:
440,384,20536,6,0,P|462:334|471:279,1,85.8450020303307,6|0,1:0|0:0,0:0:0:0:
467,72,20839,1,10,0:0:0:0:
403,214,20990,1,2,0:0:0:0:
266,29,21142,2,0,P|227:10|160:4,1,85.8450020303307,2|0,1:0|1:0,0:0:0:0:
293,209,21445,1,10,0:0:0:0:
360,54,21596,1,2,3:0:0:0:
196,204,21748,6,0,P|157:222|115:230,1,85.8450020303307,2|0,1:0|1:0,0:0:0:0:
276,70,22051,1,10,0:0:0:0:
302,246,22202,1,2,0:0:0:0:
432,70,22354,2,0,P|474:78|512:95,1,85.8450020303307,2|0,1:0|1:0,0:0:0:0:
416,307,22657,1,10,0:0:0:0:
382,139,22808,1,2,0:0:0:0:
241,313,22960,6,0,P|201:332|158:337,1,85.8450020303307,6|0,1:0|0:0,0:0:0:0:
24,142,23263,1,10,0:0:0:0:
67,322,23414,1,2,0:0:0:0:
106,102,23566,2,0,P|148:107|186:126,1,85.8450020303307,2|0,1:0|1:0,0:0:0:0:
266,338,23869,1,10,0:0:0:0:
320,150,24020,1,2,0:0:0:0:
428,355,24172,6,0,P|419:308|414:261,1,85.8450020303307,2|0,1:0|1:0,0:0:0:0:
499,64,24475,2,0,P|463:93|415:103,1,85.8450020303307,10|0,0:0|0:0,0:0:0:0:
360,54,24702,1,8,0:0:0:0:
360,54,24778,2,0,P|321:34|278:34,1,85.8450020303307,2|0,1:0|1:0,0:0:0:0:
52,109,25081,2,0,P|64:145|76:191,1,85.8450020303307,10|0,0:0|0:0,0:0:0:0:
203,356,25384,6,0,P|247:373|303:369,1,85.8450020303307,6|0,1:0|0:0,0:0:0:0:
428,184,25687,1,10,0:0:0:0:
309,338,25839,1,2,3:0:0:0:
308,122,25990,2,0,P|319:163|327:212,1,85.8450020303307,2|0,1:0|1:0,0:0:0:0:
112,310,26293,1,10,0:0:0:0:
190,122,26445,1,2,0:0:0:0:
327,317,26596,6,0,P|378:304|421:266,1,85.8450020303307,2|0,1:0|1:0,0:0:0:0:
469,59,26899,1,10,0:0:0:0:
418,237,27051,1,2,0:0:0:0:
341,31,27202,2,0,P|298:13|233:6,1,85.8450020303307,2|0,1:0|1:0,0:0:0:0:
329,228,27505,1,10,0:0:0:0:
228,44,27657,1,2,0:0:0:0:
88,238,27808,6,0,P|99:278|105:330,1,85.8450020303307,6|0,1:0|0:0,0:0:0:0:
270,133,28111,1,10,0:0:0:0:
107,207,28263,1,2,0:0:0:0:
329,228,28414,2,0,P|318:268|312:320,1,85.8450020303307,2|0,1:0|1:0,0:0:0:0:
233,65,28717,5,10,0:0:0:0:
209,318,28869,1,0,1:0:0:0:
428,164,29020,5,10,0:0:0:0:
212,236,29172,1,0,1:0:0:0:
480,231,29323,5,10,0:0:0:0:
268,87,29475,1,0,3:0:0:0:
268,87,29551,1,0,3:0:0:0:
268,87,29626,2,0,P|250:102|223:115,1,42.9225010151654,8|0,3:0|3:0,0:0:0:0:
49,58,29776,2,0,P|67:68|84:82,1,42.9225010151654,10|8,0:0|0:0,0:0:0:0:
114,240,29926,1,8,0:0:0:0:
114,240,30001,1,8,0:0:0:0:
114,240,30076,2,0,P|126:222|136:203,1,42.9225010151654,10|8,0:0|0:0,0:0:0:0:
215,20,30226,6,0,P|276:44|355:46,2,136.289997296494,6|8|0,1:0|0:0|1:0,0:0:0:0:
155,124,30983,1,0,1:0:0:0:
294,206,31135,2,0,P|307:237|316:283,1,68.1449986482468,10|0,0:0|0:0,0:0:0:0:
371,123,31438,5,0,1:0:0:0:
371,123,31589,1,0,1:0:0:0:
417,280,31741,2,0,P|424:246|437:215,1,68.1449986482468,8|0,0:0|0:0,0:0:0:0:
453,48,32044,1,0,1:0:0:0:
417,191,32195,1,2,1:0:0:0:
312,32,32347,1,10,0:0:0:0:
394,157,32498,1,2,0:0:0:0:
282,22,32650,6,0,P|238:35|126:29,1,136.289997296494,2|8,1:0|0:0,0:0:0:0:
6,130,33104,1,2,0:0:0:0:
6,130,33180,1,0,3:0:0:0:
6,130,33256,2,0,P|58:110|97:108,1,68.1449986482468,0|0,1:0|1:0,0:0:0:0:
167,279,33559,6,0,P|105:268|62:190,1,136.289997296494,10|0,0:0|1:0,0:0:0:0:
174,124,34013,1,0,1:0:0:0:
272,252,34165,2,0,P|307:265|355:267,1,68.1449986482468,8|0,0:0|0:0,0:0:0:0:
424,109,34468,1,0,1:0:0:0:
351,242,34619,1,2,1:0:0:0:
403,78,34771,1,10,0:0:0:0:
489,258,34922,5,2,3:0:0:0:
489,258,34998,1,0,3:0:0:0:
489,258,35074,2,0,P|479:320|397:377,2,136.289997296494,2|8|0,1:0|0:0|1:0,0:0:0:0:
403,78,35832,1,2,1:0:0:0:
385,236,35983,1,10,0:0:0:0:
310,61,36135,1,2,0:0:0:0:
272,252,36286,6,0,P|254:180|225:94,1,136.289997296494,2|8,1:0|0:0,0:0:0:0:
108,0,36741,2,0,P|139:18|190:25,1,68.1449986482468,0|0,0:0|1:0,0:0:0:0:
336,2,37044,1,2,1:0:0:0:
219,140,37195,1,10,0:0:0:0:
330,39,37347,1,2,0:0:0:0:
398,204,37498,6,0,P|376:247|346:351,1,136.289997296494,2|8,1:0|0:0,0:0:0:0:
257,158,37953,2,0,P|269:190|276:243,1,68.1449986482468,2|0,0:0|1:0,0:0:0:0:
317,74,38256,1,0,1:0:0:0:
182,192,38407,6,0,B|103:197|147:138|41:145,1,136.289997296494,10|0,0:0|1:0,0:0:0:0:
187,105,38862,1,0,1:0:0:0:
61,239,39013,2,0,P|71:272|82:332,1,68.1449986482468,8|0,0:0|0:0,0:0:0:0:
184,149,39316,1,0,1:0:0:0:
215,322,39468,1,2,1:0:0:0:
100,159,39619,1,10,0:0:0:0:
208,280,39771,1,2,0:0:0:0:
294,104,39922,6,0,P|364:74|444:104,2,136.289997296494,2|8|0,1:0|0:0|1:0,0:0:0:0:
307,267,40687,1,0,1:0:0:0:
453,152,40840,1,8,0:0:0:0:
299,231,40990,2,0,P|262:222|220:217,1,68.1449986482468,0|0,0:0|1:0,0:0:0:0:
121,142,41291,1,0,1:0:0:0:
54,304,41443,2,0,P|87:299|120:290,1,68.1449986482468,8|0,0:0|0:0,0:0:0:0:
209,139,41746,1,0,1:0:0:0:
204,300,41897,1,2,1:0:0:0:
307,122,42049,1,10,0:0:0:0:
164,219,42200,1,2,0:0:0:0:
250,52,42352,6,0,P|284:73|385:48,1,136.289997296494,2|8,1:0|0:0,0:0:0:0:
484,166,42806,2,0,P|449:144|404:136,1,68.1449986482468,2|0,0:0|1:0,0:0:0:0:
276,218,43109,1,0,1:0:0:0:
403,345,43261,6,0,P|413:300|353:209,1,136.289997296494,10|0,0:0|1:0,0:0:0:0:
221,147,43715,1,0,1:0:0:0:
330,287,43867,1,8,0:0:0:0:
387,118,44018,2,0,P|421:96|464:88,1,68.1449986482468,0|0,0:0|1:0,0:0:0:0:
399,237,44321,1,2,1:0:0:0:
296,77,44473,1,10,0:0:0:0:
226,256,44624,5,2,3:0:0:0:
226,256,44700,1,0,3:0:0:0:
226,256,44776,2,0,P|176:289|93:262,1,136.289997296494,2|8,1:0|0:0,0:0:0:0:
11,115,45230,2,0,P|25:148|38:204,1,68.1449986482468,0|0,0:0|1:0,0:0:0:0:
138,40,45534,1,2,1:0:0:0:
158,214,45685,1,10,0:0:0:0:
259,70,45837,1,2,0:0:0:0:
283,263,45988,6,0,P|308:180|342:120,1,136.289997296494,2|8,1:0|0:0,0:0:0:0:
463,29,46443,2,0,P|434:43|390:49,1,68.1449986482468,0|0,0:0|1:0,0:0:0:0:
193,18,46746,1,2,1:0:0:0:
354,149,46897,1,10,0:0:0:0:
223,43,47049,1,2,0:0:0:0:
130,201,47200,6,0,P|98:220|57:228,1,68.1449986482468,2|0,1:0|1:0,0:0:0:0:
208,74,47503,1,10,0:0:0:0:
265,239,47655,2,0,P|297:258|338:266,1,68.1449986482468,2|0,0:0|1:0,0:0:0:0:
430,150,47958,1,0,1:0:0:0:
364,329,48109,6,0,P|357:264|350:171,1,136.289997296494,10|0,0:0|1:0,0:0:0:0:
350,36,48564,1,0,1:0:0:0:
249,207,48715,2,0,P|216:228|173:229,1,68.1449986482468,8|0,0:0|3:0,0:0:0:0:
116,184,48946,1,0,3:0:0:0:
116,184,49024,2,0,P|93:174|66:168,1,34.0724993241234,8|8,3:0|3:0,0:0:0:0:
206,77,49173,2,0,P|189:82|174:89,1,34.0724993241234,8|8,3:0|0:0,0:0:0:0:
264,240,49323,1,10,0:0:0:0:
332,67,49460,1,2,3:0:0:0:
350,275,49614,6,0,B|345:193|389:224|389:111,1,153.990001292336,6|8,1:0|0:0,0:0:0:0:
251,20,50092,2,0,P|245:87|315:148,1,153.990001292336,2|2,1:0|1:0,0:0:0:0:
512,48,50537,1,8,0:0:0:0:
505,225,50689,6,0,P|471:244|423:245,1,76.9950006461678,2|0,0:0|0:0,0:0:0:0:
242,188,50997,2,0,P|280:191|313:210,1,76.9950006461678,2|8,1:0|0:0,0:0:0:0:
501,248,51300,2,0,P|467:267|419:268,1,76.9950006461678,2|0,0:0|1:0,0:0:0:0:
252,161,51603,1,2,1:0:0:0:
353,338,51754,1,10,0:0:0:0:
449,150,51906,6,0,P|456:101|466:53,1,76.9950006461678,2|0,0:0|1:0,0:0:0:0:
348,227,52209,1,0,1:0:0:0:
251,20,52360,1,10,0:0:0:0:
156,204,52512,2,0,P|126:228|90:239,1,76.9950006461678,2|0,1:0|0:0,0:0:0:0:
7,40,52815,2,0,P|26:74|36:115,1,76.9950006461678,2|8,1:0|0:0,0:0:0:0:
176,227,53118,6,0,P|213:236|250:232,1,76.9950006461678,2|0,0:0|0:0,0:0:0:0:
268,48,53421,1,0,1:0:0:0:
369,220,53573,2,0,P|378:171|390:127,1,76.9950006461678,8|0,0:0|3:0,0:0:0:0:
439,75,53800,1,0,3:0:0:0:
439,75,53876,2,0,P|404:94|359:96,1,76.9950006461678,0|8,1:0|3:0,0:0:0:0:
289,61,54103,1,8,3:0:0:0:
289,61,54179,2,0,P|244:49|198:56,1,76.9950006461678,10|0,0:0|3:0,0:0:0:0:
29,164,54482,6,0,P|67:166|102:152,1,76.9950006461678,6|0,1:0|0:0,0:0:0:0:
221,7,54777,1,10,0:0:0:0:
286,206,54925,2,0,P|325:221|361:217,1,76.9950006461678,2|0,1:0|0:0,0:0:0:0:
230,28,55221,2,0,P|191:25|156:39,1,76.9950006461678,2|8,1:0|0:0,0:0:0:0:
180,245,55527,2,0,P|193:286|205:338,1,76.9950006461678,2|0,0:0|0:0,0:0:0:0:
337,123,55835,2,0,P|323:164|312:216,1,76.9950006461678,2|8,1:0|0:0,0:0:0:0:
136,63,56143,2,0,P|149:104|161:156,1,76.9950006461678,2|0,0:0|1:0,0:0:0:0:
275,288,56452,1,2,1:0:0:0:
245,84,56603,1,10,0:0:0:0:
147,258,56755,1,2,0:0:0:0:
366,137,56906,6,0,P|353:172|341:233,1,76.9950006461678,10|2,0:0|0:0,0:0:0:0:
108,341,57209,1,8,0:0:0:0:
225,125,57360,1,10,0:0:0:0:
299,367,57512,1,8,0:0:0:0:
113,236,57663,1,10,0:0:0:0:
362,214,57815,1,8,0:0:0:0:
85,338,57967,2,0,P|66:240|47:169,1,153.990001292336,6|0,1:0|1:0,0:0:0:0:
9,26,58403,2,0,P|43:44|92:57,1,76.9950006461678,8|0,0:0|3:0,0:0:0:0:
160,8,58630,1,0,3:0:0:0:
160,8,58706,2,0,P|181:2|221:0,3,38.4975003230839,10|0|10|8,0:0|3:0|3:0|3:0,0:0:0:0:
252,75,59009,2,0,P|270:80|289:83,1,38.4975003230839,8|8,3:0|3:0,0:0:0:0:
468,0,59175,6,0,P|437:57|402:183,1,189.389994220276,6|0,1:0|1:0,0:0:0:0:
234,368,59620,2,0,P|228:320|213:268,1,94.694997110138,10|0,0:0|0:0,0:0:0:0:
75,73,59917,2,0,P|116:95|168:103,1,94.694997110138,2|0,1:0|1:0,0:0:0:0:
395,34,60224,1,10,0:0:0:0:
220,243,60378,6,0,P|175:259|128:262,1,94.694997110138,2|0,1:0|0:0,0:0:0:0:
273,68,60680,1,2,1:0:0:0:
341,284,60832,2,0,P|338:331|321:375,1,94.694997110138,10|0,0:0|0:0,0:0:0:0:
156,165,61135,2,0,P|159:118|176:74,1,94.694997110138,2|0,1:0|1:0,0:0:0:0:
310,274,61438,1,10,0:0:0:0:
448,61,61589,6,0,B|349:78|404:155|267:149,1,189.389994220276,6|0,1:0|1:0,0:0:0:0:
475,242,62044,1,10,0:0:0:0:
296,62,62195,2,0,P|250:43|182:30,1,94.694997110138,2|0,0:0|1:0,0:0:0:0:
382,239,62498,2,0,P|427:227|471:209,1,94.694997110138,2|8,1:0|0:0,0:0:0:0:
204,118,62801,6,0,P|223:204|237:316,1,189.389994220276,2|0,1:0|1:0,0:0:0:0:
381,71,63256,2,0,P|367:109|351:189,1,94.694997110138,8|0,0:0|0:0,0:0:0:0:
99,149,63559,1,2,1:0:0:0:
310,336,63710,2,0,P|359:362|423:365,1,94.694997110138,10|0,0:0|0:0,0:0:0:0:
474,124,64013,6,0,P|429:146|371:268,1,189.389994220276,6|0,1:0|1:0,0:0:0:0:
253,51,64468,2,0,P|208:29|151:23,1,94.694997110138,10|0,0:0|0:0,0:0:0:0:
51,252,64771,2,0,P|70:201|83:139,1,94.694997110138,2|0,1:0|1:0,0:0:0:0:
224,333,65074,1,10,0:0:0:0:
348,91,65225,6,0,P|331:46|319:0,1,94.694997110138,2|0,1:0|0:0,0:0:0:0:
175,200,65529,1,2,1:0:0:0:
457,134,65680,2,0,P|412:117|366:105,1,94.694997110138,10|0,0:0|0:0,0:0:0:0:
213,309,65983,2,0,P|258:296|303:280,1,94.694997110138,2|0,1:0|1:0,0:0:0:0:
130,91,66286,1,8,0:0:0:0:
318,294,66438,6,0,P|325:244|337:192,1,94.694997110138,6|0,1:0|0:0,0:0:0:0:
408,14,66741,1,2,1:0:0:0:
422,280,66892,5,10,0:0:0:0:
314,50,67044,1,2,1:0:0:0:
213,304,67195,5,8,0:0:0:0:
348,126,67347,1,2,1:0:0:0:
459,363,67498,5,10,0:0:0:0:
267,169,67650,2,0,P|224:145|169:141,1,94.694997110138,10|0,0:0|1:0,0:0:0:0:
342,348,67953,1,8,0:0:0:0:
421,81,68104,2,0,P|466:67|512:72,1,94.694997110138,8|0,0:0|1:0,0:0:0:0:
331,300,68407,1,10,3:0:0:0:
177,112,68559,2,0,P|171:159|159:230,1,94.694997110138,2|8,1:0|0:0,0:0:0:0:
433,60,68862,6,0,B|332:73|388:-19|228:4,1,189.389994220276,6|0,1:0|1:0,0:0:0:0:
395,205,69316,2,0,P|413:252|425:316,1,94.694997110138,10|0,0:0|0:0,0:0:0:0:
283,89,69619,2,0,P|265:136|253:200,1,94.694997110138,2|0,1:0|1:0,0:0:0:0:
92,33,69922,1,10,0:0:0:0:
191,268,70074,6,0,P|158:298|79:309,1,94.694997110138,2|0,1:0|0:0,0:0:0:0:
166,96,70377,1,2,1:0:0:0:
320,278,70529,2,0,P|355:303|435:305,1,94.694997110138,10|0,0:0|0:0,0:0:0:0:
481,75,70832,2,0,P|467:117|456:172,1,94.694997110138,2|0,1:0|1:0,0:0:0:0:
271,44,71135,1,10,0:0:0:0:
191,268,71286,6,0,P|132:284|56:188,1,189.389994220276,6|0,1:0|1:0,0:0:0:0:
249,59,71741,1,10,0:0:0:0:
327,242,71892,2,0,P|315:284|307:340,1,94.694997110138,2|0,0:0|1:0,0:0:0:0:
492,49,72195,2,0,P|505:95|512:142,1,94.694997110138,2|8,1:0|0:0,0:0:0:0:
373,369,72498,6,0,P|303:350|181:329,1,189.389994220276,2|0,1:0|1:0,0:0:0:0:
34,172,72966,2,0,P|89:165|148:149,1,94.694997110138,8|0,0:0|3:0,0:0:0:0:
180,87,73198,1,0,3:0:0:0:
180,87,73274,2,0,P|235:94|294:110,1,94.694997110138,2|10,1:0|0:0,0:0:0:0:
323,168,73501,1,8,0:0:0:0:
323,168,73577,2,0,P|329:188|337:218,1,47.347498555069,8|8,0:0|0:0,0:0:0:0:
456,25,73729,6,0,P|433:109|417:224,1,189.389994220276,6|0,1:0|1:0,0:0:0:0:
217,352,74184,2,0,P|170:355|122:335,1,94.694997110138,10|0,0:0|0:0,0:0:0:0:
14,112,74487,2,0,P|60:108|104:125,1,94.694997110138,2|0,1:0|1:0,0:0:0:0:
223,314,74790,1,10,0:0:0:0:
358,91,74941,6,0,P|363:141|378:201,1,94.694997110138,2|0,1:0|0:0,0:0:0:0:
192,19,75244,1,2,1:0:0:0:
212,278,75396,2,0,P|222:231|227:184,1,94.694997110138,10|0,0:0|0:0,0:0:0:0:
435,39,75699,2,0,P|440:89|455:149,1,94.694997110138,2|0,1:0|1:0,0:0:0:0:
369,315,76002,1,10,0:0:0:0:
216,103,76153,6,0,P|165:108|110:155,1,94.694997110138,4|0,1:0|0:0,0:0:0:0:
130,363,76447,1,2,1:0:0:0:
284,160,76594,5,10,0:0:0:0:
123,269,76745,1,2,1:0:0:0:
372,283,76897,5,8,0:0:0:0:
234,92,77048,1,2,1:0:0:0:
252,322,77200,5,10,0:0:0:0:
404,96,77351,2,0,P|387:166|370:298,1,189.389994220276,6|0,1:0|1:0,0:0:0:0:
137,88,77814,2,0,P|149:137|162:204,1,94.694997110138,8|0,0:0|1:0,0:0:0:0:
369,93,78117,2,0,P|359:132|349:205,1,94.694997110138,8|0,3:0|1:0,0:0:0:0:
109,78,78420,1,8,0:0:0:0:
218,329,78571,6,0,B|284:330|305:286|305:286|352:306|394:280,1,189.389994220276,6|0,1:0|1:0,0:0:0:0:
441,109,79026,2,0,P|403:141|349:151,1,94.694997110138,8|0,0:0|0:0,0:0:0:0:
151,204,79329,2,0,P|189:236|243:246,1,94.694997110138,2|0,1:0|1:0,0:0:0:0:
298,79,79632,1,10,0:0:0:0:
348,282,79779,6,0,P|333:325|320:383,1,94.694997110138,2|0,3:0|1:0,0:0:0:0:
270,160,80078,1,0,1:0:0:0:
198,373,80230,2,0,P|186:326|171:282,1,94.694997110138,10|0,0:0|0:0,0:0:0:0:
82,93,80533,1,0,1:0:0:0:
243,197,80684,1,0,1:0:0:0:
55,123,80836,2,0,P|41:172|30:231,1,94.694997110138,10|0,0:0|0:0,0:0:0:0:
229,55,81139,6,0,P|319:73|422:82,1,189.389994220276,6|8,1:0|0:0,0:0:0:0:
452,278,81602,1,2,0:0:0:0:
332,98,81754,2,0,P|318:146|308:212,1,94.694997110138,2|0,1:0|1:0,0:0:0:0:
169,348,82057,2,0,P|160:301|147:256,1,94.694997110138,8|0,0:0|0:0,0:0:0:0:
46,76,82360,5,2,1:0:0:0:
43,255,82511,1,0,1:0:0:0:
201,85,82663,2,0,P|187:130|179:176,1,94.694997110138,10|0,0:0|0:0,0:0:0:0:
304,368,82966,1,0,1:0:0:0:
268,171,83117,1,0,1:0:0:0:
337,376,83269,2,0,P|349:319|366:258,1,94.694997110138,10|0,0:0|0:0,0:0:0:0:
477,75,83572,6,0,P|437:102|380:112,1,94.694997110138,6|0,1:0|0:0,0:0:0:0:
166,80,83875,1,10,0:0:0:0:
306,199,84026,1,2,0:0:0:0:
142,114,84178,1,2,1:0:0:0:
323,171,84329,1,2,1:0:0:0:
135,234,84481,1,10,0:0:0:0:
344,139,84632,6,0,P|384:125|438:127,1,94.694997110138,2|0,0:0|1:0,0:0:0:0:
375,308,84935,1,2,1:0:0:0:
237,143,85087,1,10,0:0:0:0:
142,349,85238,2,0,P|94:350|49:336,1,94.694997110138,2|0,0:0|1:0,0:0:0:0:
3,151,85541,1,2,1:0:0:0:
187,271,85693,1,10,0:0:0:0:
24,179,85844,1,2,0:0:0:0:
260,170,85996,5,4,1:0:0:0:
98,52,86147,2,0,P|114:103|125:168,1,94.694997110138,2|8,0:0|0:0,0:0:0:0:
97,225,86375,2,0,P|80:276|70:341,1,94.694997110138,2|0,0:0|0:0,0:0:0:0:
149,373,86602,2,0,P|197:345|241:338,1,94.694997110138,2|0,1:0|1:0,0:0:0:0:
437,312,86905,2,0,P|390:302|351:277,1,94.694997110138,10|8,0:0|0:0,0:0:0:0:
294,205,87132,5,8,0:0:0:0:
294,205,87208,2,0,P|300:170|305:138,3,47.347498555069,2|8|8|8,1:0|0:0|0:0|0:0,0:0:0:0:
197,118,87511,2,0,P|201:141|206:165,3,47.347498555069,8|8|8|8,0:0|0:0|0:0|0:0,0:0:0:0:
261,41,87814,1,8,0:0:0:0:
483,91,87961,1,8,0:0:0:0:
483,91,88035,1,0,3:0:0:0:
483,91,88109,2,0,P|474:115|468:152,1,47.347498555069,10|8,0:0|0:0,0:0:0:0:
409,298,88257,2,0,P|403:274|396:252,1,47.347498555069,10|8,0:0|0:0,0:0:0:0:
240,47,88405,5,6,1:0:0:0:
141,205,88573,1,2,0:0:0:0:
319,92,88742,2,0,P|305:136|293:210,1,85.8450020303307,10|0,0:0|3:0,0:0:0:0:
164,0,89037,1,2,1:0:0:0:
259,162,89185,1,2,1:0:0:0:
81,49,89333,2,0,P|95:93|107:167,1,85.8450020303307,10|0,0:0|0:0,0:0:0:0:
51,327,89633,5,2,1:0:0:0:
121,164,89784,1,2,1:0:0:0:
220,348,89936,2,0,P|266:372|323:369,1,85.8450020303307,10|0,0:0|0:0,0:0:0:0:
446,180,90239,2,0,P|403:184|366:206,1,85.8450020303307,2|2,1:0|1:0,0:0:0:0:
251,315,90542,1,10,0:0:0:0:
218,125,90693,1,2,0:0:0:0:
279,292,90845,5,6,1:0:0:0:
243,106,90996,1,2,0:0:0:0:
163,318,91148,2,0,P|123:336|58:339,1,85.8450020303307,10|0,0:0|3:0,0:0:0:0:
15,124,91451,1,2,1:0:0:0:
151,231,91602,1,2,1:0:0:0:
68,31,91754,2,0,P|60:70|50:149,1,85.8450020303307,10|0,0:0|0:0,0:0:0:0:
179,256,92057,5,2,1:0:0:0:
271,91,92208,1,2,1:0:0:0:
359,296,92360,2,0,P|406:321|462:324,1,85.8450020303307,10|0,0:0|0:0,0:0:0:0:
367,99,92660,2,0,P|325:107|288:128,1,85.8450020303307,2|2,1:0|1:0,0:0:0:0:
263,343,92960,1,10,0:0:0:0:
213,162,93110,1,2,0:0:0:0:
166,370,93260,5,6,1:0:0:0:
228,199,93411,1,2,0:0:0:0:
270,376,93563,1,10,0:0:0:0:
377,187,93714,2,0,P|367:223|357:301,1,85.8450020303307,2|0,0:0|1:0,0:0:0:0:
202,122,94017,1,2,1:0:0:0:
263,343,94169,1,10,0:0:0:0:
300,157,94320,1,2,0:0:0:0:
166,334,94472,6,0,P|123:354|72:356,1,85.8450020303307,2|0,1:0|1:0,0:0:0:0:
0,135,94775,2,0,P|42:139|80:158,1,85.8450020303307,10|2,0:0|0:0,0:0:0:0:
250,304,95078,1,2,1:0:0:0:
250,304,95229,1,2,1:0:0:0:
341,122,95381,2,0,P|348:161|355:231,1,85.8450020303307,10|2,0:0|1:0,0:0:0:0:
335,287,95608,5,0,1:0:0:0:
335,287,95684,2,0,P|276:312|239:297,1,94.694997110138,12|0,0:0|1:0,0:0:0:0:
138,58,95991,5,8,0:0:0:0:
80,266,96142,1,0,1:0:0:0:
240,89,96294,5,8,0:0:0:0:
249,303,96445,1,0,1:0:0:0:
124,96,96597,5,8,0:0:0:0:
337,171,96748,1,0,1:0:0:0:
67,289,96900,6,0,P|55:230|35:159,1,94.694997110138,10|2,0:0|1:0,0:0:0:0:
264,29,97203,2,0,P|252:74|243:121,1,94.694997110138,10|2,0:0|1:0,0:0:0:0:
228,343,97506,1,10,0:0:0:0:
315,151,97657,1,2,1:0:0:0:
445,356,97809,2,0,P|453:295|464:249,1,63.1299980734254,10|0,3:0|0:0,0:0:0:0:
499,38,98112,6,0,B|215:86|489:300|81:354,1,566.4,6|0,1:0|0:0,0:0:0:0:
