osu file format v14

[General]
AudioFilename: audio.mp3
AudioLeadIn: 0
PreviewTime: 58555
Countdown: 0
SampleSet: Soft
StackLeniency: 0.7
Mode: 0
LetterboxInBreaks: 0
WidescreenStoryboard: 0

[Editor]
DistanceSpacing: 2.2
BeatDivisor: 4
GridSize: 32
TimelineZoom: 1.800001

[Metadata]
Title:ANCIENT FLOWER
TitleUnicode:ANCIENT FLOWER
Artist:KISIDA KYODAN & THE AKEBOSI ROCKETS
ArtistUnicode:岸田教団&THE明星ロケッツ
Creator:SMOKELIND
Version:BLOSSOM
Source:東方妖々夢 ~ Perfect Cherry Blossom.
Tags:japanese jp rock j-rock ichigo Kishida Kyoudan and Akeboshi ZUN Touhou TH Reitaisai 14 youyoumu yuuga ni sakase sumizome no sakura 東方妖々夢 ~ Ancient Temple 幽雅に咲かせ、墨染の桜 ~ Border of Life Kowari AirinCat
BeatmapID:2047629
BeatmapSetID:978477

[Difficulty]
HPDrainRate:5.2
CircleSize:3.8
OverallDifficulty:9.1
ApproachRate:9.4
SliderMultiplier:1.77
SliderTickRate:1

[Events]
//Background and Video events
0,0,"loli.jpg",0,0
//Break Periods
//Storyboard Layer 0 (Background)
//Storyboard Layer 1 (Fail)
//Storyboard Layer 2 (Pass)
//Storyboard Layer 3 (Foreground)
//Storyboard Layer 4 (Overlay)
//Storyboard Sound Samples

[TimingPoints]
1150,303.030303030303,4,2,7,47,1,0
1150,-175.438596491228,4,2,7,47,0,0
2513,257.510729613734,4,2,7,47,1,0
2513,-175.438596491228,4,2,7,47,0,0
2641,303.030303030303,4,2,7,47,1,0
2641,-175.438596491228,4,2,7,47,0,0
3550,304.568527918782,4,2,7,47,1,0
3550,-175.438596491228,4,2,7,47,0,0
4311,317.460317460317,4,2,7,47,1,0
4311,-175.438596491228,4,2,7,47,0,0
4469,303.030303030303,4,2,7,47,1,0
4469,-175.438596491228,4,2,7,47,0,0
4772,303.030303030303,4,2,7,47,1,0
4772,-175.438596491228,4,2,7,47,0,0
5075,-175.438596491228,4,2,7,47,0,0
9317,291.26213592233,4,2,7,47,1,0
9317,-114.942528735632,4,2,7,67,0,0
9462,303.030303030303,4,2,7,67,1,0
9462,-114.942528735632,4,2,7,67,0,0
9613,302.267002518892,4,2,7,67,1,0
9613,-114.942528735632,4,2,7,67,0,0
10822,-149.253731343284,4,2,7,57,0,0
11124,317.460317460317,4,2,7,57,1,0
11124,-149.253731343284,4,2,7,57,0,0
11758,303.030303030303,4,2,7,57,1,0
11758,-149.253731343284,4,2,7,57,0,0
12061,301.810865191147,4,2,7,57,1,0
12061,-149.253731343284,4,2,7,57,0,0
15382,297.029702970297,4,2,7,57,1,0
15382,-149.253731343284,4,2,7,57,0,0
15675,308.800823468863,4,2,7,57,1,0
15675,-149.253731343284,4,2,7,57,0,0
16606,303.030303030303,4,2,7,57,1,0
16606,-149.253731343284,4,2,7,57,0,0
17818,297.029702970297,4,2,7,57,1,0
17818,-149.253731343284,4,2,7,57,0,0
18115,297.029702970297,4,2,7,77,1,0
18115,-149.253731343284,4,2,7,77,0,0
18263,-103.092783505155,4,2,7,77,0,0
18857,292.682926829268,4,2,7,77,1,0
18857,-103.092783505155,4,2,7,77,0,0
19003,307.692307692308,4,2,7,77,1,0
19003,-103.092783505155,4,2,7,77,0,0
19618,303.030303030303,4,2,7,77,1,0
19618,-103.092783505155,4,2,7,77,0,0
19921,307.692307692308,4,2,7,77,1,0
19921,-103.092783505155,4,2,7,77,0,0
20536,303.030303030303,4,2,7,77,1,0
20536,-103.092783505155,4,2,7,77,0,0
29626,300,4,2,7,47,1,0
29626,-103.092783505155,4,2,7,77,0,0
30226,303.030303030303,4,2,7,47,1,0
30226,-129.87012987013,4,2,7,57,0,0
39922,306.122448979592,4,2,7,47,1,0
39922,-129.87012987013,4,2,7,57,0,0
40840,300,4,2,7,47,1,0
40840,-129.87012987013,4,2,7,57,0,0
41140,303.030303030303,4,2,7,47,1,0
41140,-129.87012987013,4,2,7,57,0,0
48715,309.278350515464,4,2,7,47,1,0
48715,-129.87012987013,4,2,7,57,0,0
49024,299.25187032419,4,2,7,47,1,0
49024,-129.87012987013,4,2,7,57,0,0
49323,275.229357798165,4,2,7,57,1,0
49323,-129.87012987013,4,2,7,57,0,0
49460,309.278350515464,4,2,7,57,1,0
49460,-129.87012987013,4,2,7,57,0,0
49614,319.148936170213,4,2,7,67,1,0
49614,-114.942528735632,4,2,7,67,0,0
50092,294.117647058824,4,2,7,47,1,0
50092,-114.942528735632,4,2,7,67,0,0
50386,303.030303030303,4,2,7,47,1,0
50386,-114.942528735632,4,2,7,67,0,0
50689,315.789473684211,4,2,7,47,1,0
50689,-114.942528735632,4,2,7,67,0,0
50846,303.030303030303,4,2,7,47,1,0
50846,-114.942528735632,4,2,7,67,0,0
54482,295.566502463054,4,2,7,47,1,0
54482,-114.942528735632,4,2,7,67,0,0
55221,303.030303030303,4,2,7,47,1,0
55221,-114.942528735632,4,2,7,67,0,0
55374,307.692307692308,4,2,7,47,1,0
55374,-114.942528735632,4,2,7,67,0,0
56452,303.030303030303,4,2,7,47,1,0
56452,-114.942528735632,4,2,7,67,0,0
56906,303.030303030303,4,2,7,47,1,0
56906,-114.942528735632,4,2,7,67,0,0
57967,285.714285714286,4,2,7,47,1,0
57967,-114.942528735632,4,2,7,67,0,0
58252,303.030303030303,4,2,7,47,1,0
58252,-114.942528735632,4,2,7,67,0,0
58555,-114.942528735632,4,2,7,67,0,0
59009,333.333333333333,4,2,7,47,1,0
59009,-114.942528735632,4,2,7,67,0,0
59175,297.029702970297,4,2,7,47,1,0
59175,-93.4579439252336,4,2,7,87,0,0
59323,297.029702970297,4,2,7,47,1,0
59323,-93.4579439252336,4,2,7,87,0,0
59917,307.692307692308,4,2,7,47,1,0
59917,-93.4579439252336,4,2,7,87,0,0
60378,303.030303030303,4,2,7,47,1,0
60378,-93.4579439252336,4,2,7,87,0,0
60529,303.030303030303,4,2,7,47,1,0
60529,-93.4579439252336,4,2,7,87,0,0
72498,312.5,4,2,7,47,1,0
72498,-93.4579439252336,4,2,7,87,0,0
73123,303.030303030303,4,2,7,47,1,0
73123,-93.4579439252336,4,2,7,87,0,0
73730,-93.4579439252336,4,2,7,87,0,0
73881,303.030303030303,4,2,7,87,1,0
73881,-93.4579439252336,4,2,7,87,0,0
76153,294.117647058824,4,2,7,47,1,0
76153,-93.4579439252336,4,2,7,87,0,0
76594,303.030303030303,4,2,7,47,1,0
76594,-93.4579439252336,4,2,7,87,0,0
77351,309.278350515464,4,2,7,47,1,0
77351,-93.4579439252336,4,2,7,87,0,0
77814,303.030303030303,4,2,7,47,1,0
77814,-93.4579439252336,4,2,7,87,0,0
78571,-93.4579439252336,4,2,7,87,0,0
78723,303.030303030303,4,2,7,47,1,0
78723,-93.4579439252336,4,2,7,87,0,0
79632,295.566502463054,4,2,7,47,1,0
79632,-93.4579439252336,4,2,7,87,0,0
79927,303.030303030303,4,2,7,47,1,0
79927,-93.4579439252336,4,2,7,87,0,0
81139,312.5,4,2,7,47,1,0
81139,-93.4579439252336,4,2,7,87,0,0
81451,303.030303030303,4,2,7,47,1,0
81451,-93.4579439252336,4,2,7,87,0,0
82360,303.030303030303,4,2,7,47,1,0
82360,-93.4579439252336,4,2,7,87,0,0
87814,295.566502463054,4,2,7,47,1,0
87814,-93.4579439252336,4,2,7,87,0,0
88405,337.078651685393,4,2,7,47,1,0
88405,-103.092783505155,4,2,7,77,0,0
88742,295.566502463054,4,2,7,47,1,0
88742,-103.092783505155,4,2,7,77,0,0
89333,300,4,2,7,47,1,0
89333,-103.092783505155,4,2,7,77,0,0
89633,303.030303030303,4,2,7,47,1,0
89633,-103.092783505155,4,2,7,77,0,0
92360,300,4,2,7,47,1,0
92360,-103.092783505155,4,2,7,77,0,0
93260,303.030303030303,4,2,7,47,1,0
93260,-103.092783505155,4,2,7,77,0,0
95684,307.692307692308,4,2,7,47,1,0
95684,-93.4579439252339,4,2,7,87,0,0
95991,303.030303030303,4,2,7,47,1,0
95991,-93.4579439252339,4,2,7,87,0,0
96900,303.030303030303,4,2,7,47,1,0
96900,-93.4579439252339,4,2,7,87,0,0
98112,-1000,4,2,7,87,0,0
98263,-1000,4,2,7,7,0,0

[Colours]
Combo1 : 255,164,251
Combo2 : 196,164,255

[HitObjects]
63,75,1150,6,0,P|77:99|88:133,1,50.4449993842163,2|0,0:0|0:0,0:0:0:0:
160,90,1453,2,0,P|163:118|159:153,1,50.4449993842163,2|0,0:0|0:0,0:0:0:0:
242,143,1756,2,0,P|233:170|215:200,1,50.4449993842163,2|0,0:0|0:0,0:0:0:0:
198,271,2059,1,2,0:0:0:0:
198,271,2210,2,0,B|276:286|245:240|342:252,1,100.889998768433,2|0,0:0|0:0,0:0:0:0:
376,308,2641,2,0,P|387:338|395:369,1,50.4449993842163,2|0,0:0|0:0,0:0:0:0:
498,280,2944,2,0,P|487:310|479:341,1,50.4449993842163,2|0,0:0|0:0,0:0:0:0:
391,286,3247,2,0,P|402:316|410:347,1,50.4449993842163,2|0,0:0|0:0,0:0:0:0:
448,196,3550,6,0,P|423:181|390:171,1,50.4449993842163,2|0,0:0|0:0,0:0:0:0:
433,99,3854,2,0,P|404:95|369:99,1,50.4449993842163,2|0,0:0|0:0,0:0:0:0:
380,17,4159,2,0,P|352:25|322:43,1,50.4449993842163,2|0,0:0|0:0,0:0:0:0:
281,114,4469,1,2,0:0:0:0:
281,114,4620,2,0,P|223:88|146:75,1,100.889998768433,2|0,0:0|0:0,0:0:0:0:
81,113,5075,2,0,P|92:135|101:165,1,50.4449993842163,2|0,0:0|0:0,0:0:0:0:
183,203,5378,2,0,P|171:225|163:255,1,50.4449993842163,2|0,0:0|0:0,0:0:0:0:
81,293,5681,2,0,P|92:315|101:345,1,50.4449993842163,2|0,0:0|0:0,0:0:0:0:
211,353,5984,6,0,P|245:341|281:335,1,50.4449993842163,2|0,0:0|0:0,0:0:0:0:
255,255,6287,2,0,P|290:257|326:267,1,50.4449993842163,2|0,0:0|0:0,0:0:0:0:
335,183,6590,2,0,P|366:200|395:222,1,50.4449993842163,2|0,0:0|0:0,0:0:0:0:
406,295,6893,1,2,0:0:0:0:
406,295,7044,2,0,P|457:249|466:175,1,100.889998768433,2|0,0:0|0:0,0:0:0:0:
437,129,7499,2,0,P|409:125|373:109,1,50.4449993842163,2|0,0:0|0:0,0:0:0:0:
331,35,7802,2,0,P|303:39|267:55,1,50.4449993842163,2|0,0:0|0:0,0:0:0:0:
218,117,8105,2,0,P|193:113|169:105,1,50.4449993842163,2|0,0:0|0:0,0:0:0:0:
64,74,8408,6,0,P|71:98|75:122,1,50.4449993842163,2|0,0:0|0:0,0:0:0:0:
24,212,8711,2,0,P|16:236|12:260,1,50.4449993842163,2|0,0:0|0:0,0:0:0:0:
102,311,9014,2,0,P|109:335|113:359,1,50.4449993842163,2|0,0:0|0:0,0:0:0:0:
206,150,9317,5,8,0:0:0:0:
308,343,9462,2,0,P|347:364|395:367,1,76.9950006461678,8|0,0:0|1:0,0:0:0:0:
352,85,9764,1,8,0:0:0:0:
250,278,9915,2,0,P|211:299|163:302,1,76.9950006461678,8|0,0:0|1:0,0:0:0:0:
55,89,10217,1,8,0:0:0:0:
93,281,10368,1,0,1:0:0:0:
196,59,10519,2,0,P|233:65|266:84,1,76.9950006461678,8|0,0:0|0:0,0:0:0:0:
399,273,10822,6,0,P|409:233|423:205,1,59.2949971952135,6|0,1:0|0:0,0:0:0:0:
475,94,11124,2,0,P|486:121|492:150,1,59.2949971952135,2|0,1:0|0:0,0:0:0:0:
378,273,11441,2,0,P|388:233|402:205,1,59.2949971952135,2|0,1:0|0:0,0:0:0:0:
461,99,11758,2,0,P|472:126|478:155,1,59.2949971952135,2|0,1:0|0:0,0:0:0:0:
367,277,12061,2,0,P|377:237|391:209,1,59.2949971952135,2|0,1:0|0:0,0:0:0:0:
450,103,12362,2,0,P|461:130|467:159,1,59.2949971952135,2|0,1:0|0:0,0:0:0:0:
353,282,12664,2,0,P|363:242|377:214,1,59.2949971952135,2|0,1:0|0:0,0:0:0:0:
436,108,12966,2,0,P|447:135|453:164,1,59.2949971952135,2|0,1:0|0:0,0:0:0:0:
339,272,13268,6,0,P|302:260|262:254,1,59.2949971952135,2|0,1:0|0:0,0:0:0:0:
144,198,13570,2,0,P|172:191|200:182,1,59.2949971952135,2|0,1:0|0:0,0:0:0:0:
338,253,13871,2,0,P|301:241|261:235,1,59.2949971952135,2|0,1:0|0:0,0:0:0:0:
143,179,14173,2,0,P|171:172|199:163,1,59.2949971952135,2|0,1:0|0:0,0:0:0:0:
336,237,14475,2,0,P|299:225|259:219,1,59.2949971952135,2|0,1:0|0:0,0:0:0:0:
141,163,14777,2,0,P|169:156|197:147,1,59.2949971952135,2|0,1:0|0:0,0:0:0:0:
216,122,15003,1,0,3:0:0:0:
216,122,15079,2,0,P|244:128|272:137,1,59.2949971952135,2|0,1:0|0:0,0:0:0:0:
420,245,15380,1,2,1:0:0:0:
420,245,15675,6,0,P|387:244|351:225,1,59.2949971952135,6|0,1:0|0:0,0:0:0:0:
332,112,15983,2,0,P|359:101|388:101,1,59.2949971952135,2|0,1:0|0:0,0:0:0:0:
416,226,16292,2,0,P|383:225|347:206,1,59.2949971952135,2|0,1:0|0:0,0:0:0:0:
328,93,16606,2,0,P|355:82|384:82,1,59.2949971952135,2|0,1:0|0:0,0:0:0:0:
252,181,16909,2,0,P|230:151|214:101,1,59.2949971952135,2|0,1:0|0:0,0:0:0:0:
127,7,17212,2,0,P|114:33|96:57,1,59.2949971952135,2|0,1:0|0:0,0:0:0:0:
274,176,17515,2,0,P|252:146|236:96,1,59.2949971952135,2|0,1:0|0:0,0:0:0:0:
149,2,17818,2,0,P|136:28|62:102,1,118.589994390427,2|0,1:0|1:0,0:0:0:0:
155,321,18263,5,8,0:0:0:0:
250,93,18412,2,0,P|264:134|277:202,1,85.8450020303307,8|0,0:0|1:0,0:0:0:0:
381,341,18709,1,8,0:0:0:0:
380,113,18857,2,0,P|366:154|353:222,1,85.8450020303307,8|0,0:0|1:0,0:0:0:0:
167,304,19156,1,8,0:0:0:0:
262,76,19310,2,0,P|276:117|289:185,1,85.8450020303307,8|0,0:0|1:0,0:0:0:0:
399,349,19618,2,0,P|408:307|422:266,1,85.8450020303307,8|8,0:0|0:0,0:0:0:0:
477,200,19845,1,8,0:0:0:0:
477,200,19921,2,0,P|475:165|467:135,3,42.9225010151654,8|8|8|8,0:0|3:0|3:0|3:0,0:0:0:0:
417,90,20228,1,8,0:0:0:0:
417,90,20536,6,0,P|384:113|328:126,1,85.8450020303307,6|0,1:0|0:0,0:0:0:0:
121,21,20839,1,10,0:0:0:0:
149,209,20990,1,2,0:0:0:0:
269,3,21142,2,0,P|259:50|252:105,1,85.8450020303307,2|0,1:0|1:0,0:0:0:0:
317,329,21445,1,10,0:0:0:0:
388,171,21596,1,2,3:0:0:0:
173,298,21748,6,0,P|124:315|79:312,1,85.8450020303307,2|0,1:0|1:0,0:0:0:0:
126,72,22051,1,10,0:0:0:0:
241,244,22202,1,2,0:0:0:0:
368,42,22354,2,0,P|410:43|450:59,1,85.8450020303307,2|0,1:0|1:0,0:0:0:0:
440,308,22657,1,10,0:0:0:0:
327,111,22808,1,2,0:0:0:0:
190,317,22960,6,0,P|183:273|170:219,1,85.8450020303307,6|0,1:0|0:0,0:0:0:0:
257,3,23263,1,10,0:0:0:0:
264,212,23414,1,2,0:0:0:0:
445,17,23566,2,0,P|435:58|429:101,1,85.8450020303307,2|0,1:0|1:0,0:0:0:0:
474,331,23869,1,10,0:0:0:0:
356,148,24020,1,2,0:0:0:0:
229,350,24172,6,0,P|178:350|135:322,1,85.8450020303307,2|0,1:0|1:0,0:0:0:0:
52,117,24475,2,0,P|94:114|133:132,1,85.8450020303307,10|0,0:0|0:0,0:0:0:0:
182,204,24702,1,8,0:0:0:0:
182,204,24778,2,0,P|224:206|263:188,1,85.8450020303307,2|0,1:0|1:0,0:0:0:0:
324,126,25081,2,0,P|312:167|306:217,1,85.8450020303307,10|0,0:0|0:0,0:0:0:0:
130,19,25384,6,0,P|142:60|148:110,1,85.8450020303307,6|0,1:0|0:0,0:0:0:0:
58,325,25687,1,10,0:0:0:0:
37,136,25838,1,2,3:0:0:0:
170,321,25990,2,0,P|212:345|266:347,1,85.8450020303307,2|0,1:0|1:0,0:0:0:0:
415,154,26293,1,10,0:0:0:0:
331,331,26445,1,2,0:0:0:0:
190,122,26596,6,0,P|147:128|111:150,1,85.8450020303307,2|0,1:0|1:0,0:0:0:0:
248,349,26899,1,10,0:0:0:0:
298,136,27051,1,2,0:0:0:0:
414,356,27202,2,0,P|424:307|440:265,1,85.8450020303307,2|0,1:0|1:0,0:0:0:0:
512,51,27505,1,10,0:0:0:0:
511,224,27657,1,2,0:0:0:0:
321,51,27808,6,0,P|284:29|224:22,1,85.8450020303307,6|0,1:0|0:0,0:0:0:0:
99,226,28111,1,10,0:0:0:0:
197,89,28263,1,2,0:0:0:0:
259,321,28414,2,0,P|296:343|356:350,1,85.8450020303307,2|0,1:0|1:0,0:0:0:0:
484,58,28717,5,10,0:0:0:0:
417,312,28869,1,0,1:0:0:0:
319,32,29020,5,10,0:0:0:0:
477,238,29172,1,0,1:0:0:0:
183,194,29323,5,10,0:0:0:0:
415,94,29475,1,0,3:0:0:0:
415,94,29551,1,0,3:0:0:0:
415,94,29626,2,0,P|404:118|398:156,1,42.9225010151654,8|0,3:0|3:0,0:0:0:0:
349,371,29776,2,0,P|339:351|333:331,1,42.9225010151654,10|8,0:0|0:0,0:0:0:0:
167,154,29926,1,8,0:0:0:0:
167,154,30001,1,8,0:0:0:0:
167,154,30076,2,0,P|178:178|184:216,1,42.9225010151654,10|8,0:0|0:0,0:0:0:0:
88,370,30226,6,0,B|96:289|58:326|65:238,2,136.289997296494,6|8|0,1:0|0:0|1:0,0:0:0:0:
183,199,30983,1,0,1:0:0:0:
291,333,31135,2,2,P|328:316|372:306,1,68.1449986482468,10|0,0:0|0:0,0:0:0:0:
460,150,31438,5,0,1:0:0:0:
460,150,31589,1,0,1:0:0:0:
459,337,31741,2,0,P|443:306|433:274,1,68.1449986482468,8|0,0:0|0:0,0:0:0:0:
395,93,32044,1,0,1:0:0:0:
256,219,32195,1,2,1:0:0:0:
430,173,32347,1,10,0:0:0:0:
256,133,32498,1,2,0:0:0:0:
461,40,32650,6,0,P|438:114|429:176,1,136.289997296494,2|8,1:0|0:0,0:0:0:0:
461,359,33104,1,2,0:0:0:0:
461,359,33180,1,0,3:0:0:0:
461,359,33256,2,0,P|414:333|374:322,1,68.1449986482468,0|0,1:0|1:0,0:0:0:0:
175,323,33559,6,0,L|326:291,1,136.289997296494,10|0,0:0|1:0,0:0:0:0:
168,166,34013,1,0,1:0:0:0:
317,272,34165,2,0,P|334:228|338:184,1,68.1449986482468,8|0,0:0|0:0,0:0:0:0:
237,65,34468,1,0,1:0:0:0:
247,215,34619,1,2,1:0:0:0:
337,56,34771,1,10,0:0:0:0:
205,192,34922,5,2,3:0:0:0:
205,192,34998,1,0,3:0:0:0:
205,192,35074,2,0,P|155:208|91:152,2,136.289997296494,2|8|0,1:0|0:0|1:0,0:0:0:0:
289,61,35831,1,2,1:0:0:0:
328,261,35983,1,10,0:0:0:0:
397,107,36135,1,2,0:0:0:0:
315,284,36286,6,0,B|241:299|267:255|176:272,1,136.289997296494,2|8,1:0|0:0,0:0:0:0:
33,355,36741,2,0,P|45:324|54:274,1,68.1449986482468,0|0,0:0|1:0,0:0:0:0:
46,101,37044,1,2,1:0:0:0:
139,278,37195,1,10,0:0:0:0:
58,134,37347,1,2,0:0:0:0:
217,228,37498,6,0,P|255:193|344:152,1,136.289997296494,2|8,1:0|0:0,0:0:0:0:
512,56,37953,2,0,L|421:68,1,68.1449986482468,2|0,0:0|1:0,0:0:0:0:
283,84,38256,1,0,1:0:0:0:
473,200,38407,6,0,L|336:178,1,136.289997296494,10|0,0:0|1:0,0:0:0:0:
178,155,38862,1,0,1:0:0:0:
240,320,39013,2,0,P|283:320|319:297,1,68.1449986482468,8|0,0:0|0:0,0:0:0:0:
311,134,39316,1,0,1:0:0:0:
204,243,39468,1,2,1:0:0:0:
120,50,39619,1,10,0:0:0:0:
190,198,39771,1,2,0:0:0:0:
293,34,39922,6,0,P|343:20|428:52,2,136.289997296494,2|8|0,1:0|0:0|1:0,0:0:0:0:
332,218,40687,1,0,1:0:0:0:
209,43,40840,1,8,0:0:0:0:
351,194,40990,6,0,P|384:205|428:206,1,68.1449986482468,0|0,0:0|1:0,0:0:0:0:
296,64,41291,1,0,1:0:0:0:
204,243,41443,2,0,P|171:254|127:255,1,68.1449986482468,8|0,0:0|0:0,0:0:0:0:
46,74,41746,1,0,1:0:0:0:
108,221,41897,1,2,1:0:0:0:
185,28,42049,1,10,0:0:0:0:
222,212,42200,1,2,0:0:0:0:
36,47,42352,6,0,P|77:92|164:99,1,136.289997296494,2|8,1:0|0:0,0:0:0:0:
302,29,42806,2,0,P|342:32|386:49,1,68.1449986482468,2|0,0:0|1:0,0:0:0:0:
463,186,43109,1,0,1:0:0:0:
261,117,43261,6,0,P|220:120|140:177,1,136.289997296494,10|0,0:0|1:0,0:0:0:0:
199,351,43715,1,0,1:0:0:0:
325,197,43867,1,8,0:0:0:0:
183,320,44018,2,0,P|151:340|97:344,1,68.1449986482468,0|0,0:0|1:0,0:0:0:0:
58,164,44321,1,2,1:0:0:0:
261,278,44473,1,10,0:0:0:0:
154,103,44624,5,2,3:0:0:0:
154,103,44700,1,0,3:0:0:0:
154,103,44776,2,0,P|139:165|131:241,1,136.289997296494,2|8,1:0|0:0,0:0:0:0:
293,177,45230,1,0,0:0:0:0:
300,364,45382,1,0,1:0:0:0:
219,206,45533,1,2,1:0:0:0:
144,384,45685,1,10,0:0:0:0:
192,217,45836,1,2,0:0:0:0:
311,384,45988,6,0,P|349:378|404:285,1,136.289997296494,2|8,1:0|0:0,0:0:0:0:
262,118,46443,2,0,P|292:144|338:157,1,68.1449986482468,0|0,0:0|1:0,0:0:0:0:
247,20,46746,1,2,1:0:0:0:
364,226,46897,1,10,0:0:0:0:
326,51,47049,1,2,0:0:0:0:
173,198,47200,6,0,P|138:216|102:216,1,68.1449986482468,2|0,1:0|1:0,0:0:0:0:
216,8,47503,1,10,0:0:0:0:
348,189,47655,2,0,P|383:207|419:207,1,68.1449986482468,2|0,0:0|1:0,0:0:0:0:
346,29,47958,1,0,1:0:0:0:
263,229,48109,6,0,P|279:298|290:369,1,136.289997296494,10|0,0:0|1:0,0:0:0:0:
382,175,48564,1,0,1:0:0:0:
169,264,48715,2,0,P|177:226|181:189,1,68.1449986482468,8|0,0:0|3:0,0:0:0:0:
130,129,48946,1,0,3:0:0:0:
130,129,49024,2,0,P|126:106|120:83,1,34.0724993241234,8|8,3:0|3:0,0:0:0:0:
266,0,49173,2,0,P|262:16|259:33,1,34.0724993241234,8|8,3:0|0:0,0:0:0:0:
351,260,49323,1,10,0:0:0:0:
361,54,49460,1,2,3:0:0:0:
201,271,49614,6,0,P|157:298|66:244,1,153.990001292336,6|8,1:0|0:0,0:0:0:0:
54,11,50092,2,0,P|76:60|92:167,1,153.990001292336,2|2,1:0|1:0,0:0:0:0:
38,363,50537,1,8,0:0:0:0:
145,215,50689,6,0,P|189:239|247:241,1,76.9950006461678,2|0,0:0|0:0,0:0:0:0:
365,77,50997,2,0,P|352:112|338:171,1,76.9950006461678,2|8,1:0|0:0,0:0:0:0:
314,361,51300,2,0,P|304:323|290:287,1,76.9950006461678,2|0,0:0|1:0,0:0:0:0:
167,89,51603,1,2,1:0:0:0:
126,293,51755,1,10,0:0:0:0:
256,118,51906,6,0,P|246:158|236:215,1,76.9950006461678,2|0,0:0|1:0,0:0:0:0:
371,75,52209,1,0,1:0:0:0:
397,287,52361,1,10,0:0:0:0:
367,48,52512,2,0,P|400:22|440:13,1,76.9950006461678,2|0,1:0|0:0,0:0:0:0:
388,258,52815,2,0,P|351:247|321:223,1,76.9950006461678,2|8,1:0|0:0,0:0:0:0:
174,30,53118,6,0,P|190:68|199:115,1,76.9950006461678,2|0,0:0|0:0,0:0:0:0:
129,254,53421,1,0,1:0:0:0:
292,72,53573,2,0,P|276:110|267:157,1,76.9950006461678,8|0,0:0|3:0,0:0:0:0:
290,231,53800,1,0,3:0:0:0:
290,231,53876,2,0,P|306:269|315:316,1,76.9950006461678,0|8,1:0|3:0,0:0:0:0:
253,366,54103,1,8,3:0:0:0:
253,366,54179,2,0,P|219:338|176:323,1,76.9950006461678,10|0,0:0|3:0,0:0:0:0:
29,164,54482,6,0,P|67:166|102:152,1,76.9950006461678,6|0,1:0|0:0,0:0:0:0:
221,7,54777,1,10,0:0:0:0:
286,206,54925,2,0,P|325:221|361:217,1,76.9950006461678,2|0,1:0|0:0,0:0:0:0:
230,28,55221,2,0,P|191:25|156:39,1,76.9950006461678,2|8,1:0|0:0,0:0:0:0:
117,227,55527,2,0,P|110:185|101:147,1,76.9950006461678,2|0,0:0|0:0,0:0:0:0:
251,298,55835,2,0,P|257:256|267:218,1,76.9950006461678,2|8,1:0|0:0,0:0:0:0:
46,315,56143,2,0,P|39:273|30:235,1,76.9950006461678,2|0,0:0|1:0,0:0:0:0:
184,116,56450,1,2,1:0:0:0:
265,331,56603,1,10,0:0:0:0:
309,149,56755,1,2,0:0:0:0:
159,384,56906,6,0,P|154:338|148:294,1,76.9950006461678,10|2,0:0|0:0,0:0:0:0:
79,79,57209,1,8,0:0:0:0:
17,316,57361,1,10,0:0:0:0:
195,89,57512,1,8,0:0:0:0:
280,372,57664,1,10,0:0:0:0:
69,112,57815,1,8,0:0:0:0:
428,182,57967,2,0,B|340:207|378:146|259:170,1,153.990001292336,6|0,1:0|1:0,0:0:0:0:
150,351,58403,2,0,P|123:318|116:266,1,76.9950006461678,8|0,0:0|3:0,0:0:0:0:
156,216,58630,1,0,3:0:0:0:
156,216,58706,2,0,P|166:187|172:155,3,38.4975003230839,10|0|10|8,0:0|3:0|3:0|3:0,0:0:0:0:
150,86,59009,2,0,P|170:98|201:102,1,38.4975003230839,8|8,3:0|3:0,0:0:0:0:
421,26,59175,6,0,P|397:82|363:237,1,189.389994220276,6|0,1:0|1:0,0:0:0:0:
121,384,59620,2,0,P|110:337|92:294,1,94.694997110138,10|0,0:0|0:0,0:0:0:0:
362,98,59917,2,0,P|347:143|339:189,1,94.694997110138,2|0,1:0|1:0,0:0:0:0:
141,40,60224,1,10,0:0:0:0:
315,306,60378,6,0,P|369:300|425:257,1,94.694997110138,2|0,1:0|0:0,0:0:0:0:
248,72,60681,1,2,1:0:0:0:
137,341,60832,2,0,P|82:335|27:292,1,94.694997110138,10|0,0:0|0:0,0:0:0:0:
106,31,61135,2,0,P|120:74|132:132,1,94.694997110138,2|0,1:0|1:0,0:0:0:0:
224,344,61438,1,10,0:0:0:0:
362,98,61589,6,0,P|441:99|490:199,1,189.389994220276,6|0,1:0|1:0,0:0:0:0:
260,328,62044,1,10,0:0:0:0:
210,87,62195,2,0,P|166:63|112:61,1,94.694997110138,2|0,0:0|1:0,0:0:0:0:
294,315,62498,2,0,P|340:310|381:287,1,94.694997110138,2|8,1:0|0:0,0:0:0:0:
427,0,62801,6,0,P|364:17|336:143,1,189.389994220276,2|0,1:0|1:0,0:0:0:0:
446,357,63256,2,0,P|464:305|470:260,1,94.694997110138,8|0,0:0|0:0,0:0:0:0:
320,44,63559,1,2,1:0:0:0:
182,308,63710,2,0,P|145:337|74:350,1,94.694997110138,10|0,0:0|0:0,0:0:0:0:
18,77,64013,6,0,B|124:100|59:153|201:167,1,189.389994220276,6|0,1:0|1:0,0:0:0:0:
452,78,64468,2,0,P|436:128|425:184,1,94.694997110138,10|0,0:0|0:0,0:0:0:0:
229,384,64771,2,0,P|218:337|204:292,1,94.694997110138,2|0,1:0|1:0,0:0:0:0:
103,86,65074,1,10,0:0:0:0:
310,314,65225,6,0,P|320:267|334:222,1,94.694997110138,2|0,1:0|0:0,0:0:0:0:
162,31,65529,1,2,1:0:0:0:
29,283,65680,2,0,P|18:236|4:191,1,94.694997110138,10|0,0:0|0:0,0:0:0:0:
247,43,65983,2,0,P|232:88|222:134,1,94.694997110138,2|0,1:0|1:0,0:0:0:0:
119,336,66286,1,8,0:0:0:0:
74,13,66438,6,0,P|88:58|98:104,1,94.694997110138,6|0,1:0|0:0,0:0:0:0:
209,327,66741,1,2,1:0:0:0:
331,31,66892,5,10,0:0:0:0:
301,341,67044,1,2,1:0:0:0:
221,40,67195,5,8,0:0:0:0:
388,353,67347,1,2,1:0:0:0:
435,19,67499,5,10,0:0:0:0:
209,327,67650,2,0,P|165:348|108:344,1,94.694997110138,10|0,0:0|1:0,0:0:0:0:
187,41,67953,1,8,0:0:0:0:
394,324,68104,2,0,P|438:345|495:341,1,94.694997110138,8|0,0:0|1:0,0:0:0:0:
407,45,68407,1,10,3:0:0:0:
301,340,68559,2,0,P|294:284|284:229,1,94.694997110138,2|8,1:0|0:0,0:0:0:0:
96,33,68862,6,0,B|215:38|152:98|289:97,1,189.389994220276,6|0,1:0|1:0,0:0:0:0:
92,319,69316,2,0,P|73:268|68:213,1,94.694997110138,10|0,0:0|0:0,0:0:0:0:
365,60,69619,2,0,P|358:106|340:150,1,94.694997110138,2|0,1:0|1:0,0:0:0:0:
88,68,69922,1,10,0:0:0:0:
305,299,70074,6,0,P|360:323|411:320,1,94.694997110138,2|0,1:0|0:0,0:0:0:0:
268,96,70377,1,2,1:0:0:0:
117,349,70529,2,0,P|62:373|11:370,1,94.694997110138,10|0,0:0|0:0,0:0:0:0:
173,78,70832,2,0,P|186:123|194:185,1,94.694997110138,2|0,1:0|1:0,0:0:0:0:
332,27,71135,1,10,0:0:0:0:
156,263,71286,6,0,P|103:238|63:113,1,189.389994220276,6|0,1:0|1:0,0:0:0:0:
302,62,71741,1,10,0:0:0:0:
381,349,71892,2,0,P|387:302|401:256,1,94.694997110138,2|0,0:0|1:0,0:0:0:0:
156,85,72195,2,0,P|169:130|177:192,1,94.694997110138,2|8,1:0|0:0,0:0:0:0:
453,30,72498,6,0,P|440:75|432:137,1,94.694997110138,2|0,1:0|0:0,0:0:0:0:
211,15,72810,1,0,1:0:0:0:
265,251,72966,2,0,P|221:284|169:286,1,94.694997110138,8|0,0:0|3:0,0:0:0:0:
114,249,73198,1,0,3:0:0:0:
114,249,73274,2,0,P|103:200|86:148,1,94.694997110138,2|10,1:0|0:0,0:0:0:0:
48,64,73501,1,8,0:0:0:0:
48,64,73577,2,0,P|72:73|104:77,1,47.347498555069,8|8,0:0|0:0,0:0:0:0:
403,103,73729,6,0,P|358:160|233:155,1,189.389994220276,6|0,1:0|1:0,0:0:0:0:
30,7,74184,2,0,P|47:55|58:110,1,94.694997110138,10|0,0:0|0:0,0:0:0:0:
213,364,74487,2,0,P|223:317|239:273,1,94.694997110138,2|0,1:0|1:0,0:0:0:0:
334,25,74790,1,10,0:0:0:0:
125,260,74941,6,0,P|81:280|17:280,1,94.694997110138,2|0,1:0|0:0,0:0:0:0:
199,45,75244,1,2,1:0:0:0:
322,315,75396,2,0,P|366:335|430:335,1,94.694997110138,10|0,0:0|0:0,0:0:0:0:
423,34,75699,2,0,P|376:37|333:57,1,94.694997110138,2|0,1:0|1:0,0:0:0:0:
210,331,76002,1,10,0:0:0:0:
76,34,76153,6,0,P|91:75|106:141,1,94.694997110138,4|0,1:0|0:0,0:0:0:0:
112,354,76447,1,2,1:0:0:0:
242,51,76594,5,10,0:0:0:0:
302,354,76745,1,2,1:0:0:0:
158,47,76897,5,8,0:0:0:0:
459,190,77048,1,2,1:0:0:0:
111,253,77200,5,10,0:0:0:0:
387,23,77351,2,0,P|366:105|344:239,1,189.389994220276,6|0,1:0|1:0,0:0:0:0:
74,46,77814,1,8,0:0:0:0:
116,302,77965,1,0,1:0:0:0:
272,52,78117,1,8,3:0:0:0:
276,332,78268,1,0,1:0:0:0:
221,125,78420,1,8,0:0:0:0:
26,338,78571,6,0,B|12:228|81:271|57:141,1,189.389994220276,6|0,1:0|1:0,0:0:0:0:
245,332,79026,2,0,P|305:313|367:272,1,94.694997110138,8|0,0:0|0:0,0:0:0:0:
454,97,79329,2,0,P|443:141|432:201,1,94.694997110138,2|0,1:0|1:0,0:0:0:0:
280,61,79632,1,10,0:0:0:0:
408,296,79779,6,0,P|464:290|499:266,1,94.694997110138,2|0,3:0|1:0,0:0:0:0:
363,80,80078,1,0,1:0:0:0:
246,298,80230,2,0,P|190:292|155:268,1,94.694997110138,10|0,0:0|0:0,0:0:0:0:
100,55,80533,1,0,1:0:0:0:
301,189,80684,1,0,1:0:0:0:
44,230,80836,2,0,P|21:275|14:331,1,94.694997110138,10|0,0:0|0:0,0:0:0:0:
251,106,81139,6,0,B|151:97|192:161|57:144,1,189.389994220276,6|8,1:0|0:0,0:0:0:0:
263,274,81602,1,2,0:0:0:0:
356,70,81754,2,0,P|413:85|450:112,1,94.694997110138,2|0,1:0|1:0,0:0:0:0:
247,309,82057,2,0,P|200:298|160:274,1,94.694997110138,8|0,0:0|0:0,0:0:0:0:
92,16,82360,5,2,1:0:0:0:
36,256,82511,1,0,1:0:0:0:
213,44,82663,2,0,P|253:19|299:9,1,94.694997110138,10|0,0:0|0:0,0:0:0:0:
409,233,82966,1,0,1:0:0:0:
148,121,83117,1,0,1:0:0:0:
426,116,83269,2,0,P|408:156|395:217,1,94.694997110138,10|0,0:0|0:0,0:0:0:0:
138,384,83572,6,0,P|127:337|108:294,1,94.694997110138,6|0,1:0|0:0,0:0:0:0:
179,83,83875,1,10,0:0:0:0:
218,270,84026,1,2,0:0:0:0:
304,32,84178,1,2,1:0:0:0:
248,264,84329,1,2,1:0:0:0:
148,1,84481,1,10,0:0:0:0:
331,238,84632,6,0,P|379:265|436:269,1,94.694997110138,2|0,0:0|1:0,0:0:0:0:
404,49,84935,1,2,1:0:0:0:
285,251,85087,1,10,0:0:0:0:
160,41,85238,2,0,P|113:49|73:73,1,94.694997110138,2|0,0:0|1:0,0:0:0:0:
67,317,85541,1,2,1:0:0:0:
206,129,85693,1,10,0:0:0:0:
251,335,85844,1,2,0:0:0:0:
307,83,85996,5,4,1:0:0:0:
376,333,86147,2,0,P|377:285|386:238,1,94.694997110138,2|8,0:0|0:0,0:0:0:0:
301,206,86375,2,0,P|268:234|195:251,1,94.694997110138,2|0,0:0|0:0,0:0:0:0:
135,253,86602,2,0,P|122:207|102:164,1,94.694997110138,2|0,1:0|1:0,0:0:0:0:
321,6,86905,2,0,P|302:47|285:126,1,94.694997110138,10|8,0:0|0:0,0:0:0:0:
330,170,87132,5,8,0:0:0:0:
330,170,87208,2,0,P|351:188|387:199,3,47.347498555069,2|8|8|8,1:0|0:0|0:0|0:0,0:0:0:0:
424,124,87511,2,0,P|444:112|467:108,3,47.347498555069,8|8|8|8,0:0|0:0|0:0|0:0,0:0:0:0:
512,208,87814,1,8,0:0:0:0:
467,362,87961,1,8,0:0:0:0:
467,362,88035,1,0,3:0:0:0:
467,362,88109,2,0,P|439:360|401:338,1,47.347498555069,10|8,0:0|0:0,0:0:0:0:
332,225,88257,2,0,P|308:226|286:233,1,47.347498555069,10|8,0:0|0:0,0:0:0:0:
196,357,88405,5,6,1:0:0:0:
110,180,88573,1,2,0:0:0:0:
291,381,88742,2,0,P|312:327|324:271,1,85.8450020303307,10|0,0:0|3:0,0:0:0:0:
213,73,89037,1,2,1:0:0:0:
184,285,89185,1,2,1:0:0:0:
317,81,89333,2,0,P|360:59|416:51,1,85.8450020303307,10|0,0:0|0:0,0:0:0:0:
457,317,89633,5,2,1:0:0:0:
403,139,89784,1,2,1:0:0:0:
207,308,89936,2,0,P|165:298|127:278,1,85.8450020303307,10|0,0:0|0:0,0:0:0:0:
121,38,90238,1,2,1:0:0:0:
169,260,90390,1,2,1:0:0:0:
303,32,90541,1,10,0:0:0:0:
133,170,90693,1,2,0:0:0:0:
339,31,90844,5,6,1:0:0:0:
363,266,90996,1,2,0:0:0:0:
216,34,91147,2,0,P|211:78|195:169,1,85.8450020303307,10|0,0:0|3:0,0:0:0:0:
139,347,91451,1,2,1:0:0:0:
40,137,91602,1,2,1:0:0:0:
220,314,91754,2,0,P|265:337|322:339,1,85.8450020303307,10|0,0:0|0:0,0:0:0:0:
439,104,92057,5,2,1:0:0:0:
363,266,92208,1,2,1:0:0:0:
257,33,92360,2,0,P|265:81|274:151,1,85.8450020303307,10|0,0:0|0:0,0:0:0:0:
164,355,92660,1,2,1:0:0:0:
71,112,92810,1,2,1:0:0:0:
163,324,92959,1,10,0:0:0:0:
270,117,93110,1,2,0:0:0:0:
295,384,93260,5,6,1:0:0:0:
163,208,93411,1,2,0:0:0:0:
309,364,93563,1,10,0:0:0:0:
423,145,93714,2,0,P|428:190|433:248,1,85.8450020303307,2|0,0:0|1:0,0:0:0:0:
263,75,94017,1,2,1:0:0:0:
249,307,94169,1,10,0:0:0:0:
386,129,94320,1,2,0:0:0:0:
214,305,94472,6,0,P|169:320|114:319,1,85.8450020303307,2|0,1:0|1:0,0:0:0:0:
46,89,94775,1,10,0:0:0:0:
0,273,94926,1,2,0:0:0:0:
162,82,95078,1,2,1:0:0:0:
222,335,95229,1,2,1:0:0:0:
90,166,95381,1,10,0:0:0:0:
324,69,95532,5,2,1:0:0:0:
324,69,95608,1,0,1:0:0:0:
324,69,95684,2,0,P|312:116|305:184,1,94.694997110138,12|0,0:0|1:0,0:0:0:0:
127,374,95991,5,8,0:0:0:0:
242,81,96141,1,0,1:0:0:0:
332,379,96293,5,8,0:0:0:0:
108,143,96445,1,0,1:0:0:0:
448,187,96596,5,8,0:0:0:0:
121,178,96748,1,0,1:0:0:0:
435,323,96900,5,10,0:0:0:0:
238,32,97052,1,2,1:0:0:0:
231,375,97203,5,10,0:0:0:0:
323,17,97355,1,2,1:0:0:0:
455,345,97506,5,10,0:0:0:0:
281,25,97658,1,2,1:0:0:0:
126,340,97809,6,0,P|79:364|25:363,1,63.1299980734254,10|0,3:0|0:0,0:0:0:0:
40,29,98112,6,0,B|324:77|50:291|458:345,1,566.4,6|0,1:0|0:0,0:0:0:0:
