osu file format v14

[General]
AudioFilename: audio.mp3
AudioLeadIn: 0
PreviewTime: 50361
Countdown: 0
SampleSet: None
StackLeniency: 0.2
Mode: 0
LetterboxInBreaks: 0
WidescreenStoryboard: 0

[Editor]
DistanceSpacing: 1.1
BeatDivisor: 4
GridSize: 4
TimelineZoom: 1.7

[Metadata]
Title:GATE~Sore wa Akatsuki no You ni~ (TV Size)
TitleUnicode:GATE~Sore wa Akatsuki no You ni~ (TV Size)
Artist:KISHIDA KYOUDAN & THE AKEBOSI ROCKETS
ArtistUnicode:KISHIDA KYOUDAN & THE AKEBOSI ROCKETS
Creator:deymdaniel
Version:Insane
Source:
Tags:GATE
BeatmapID:1486647
BeatmapSetID:702571

[Difficulty]
HPDrainRate:6
CircleSize:3.7
OverallDifficulty:8
ApproachRate:9
SliderMultiplier:1.7
SliderTickRate:1

[Events]
//Background and Video events
0,0,"rori.jpg",0,0
//Break Periods
2,25661,36261
2,37342,48561
//Storyboard Layer 0 (Background)
//Storyboard Layer 1 (Fail)
//Storyboard Layer 2 (Pass)
//Storyboard Layer 3 (Foreground)
//Storyboard Sound Samples

[TimingPoints]
-639,300,4,1,0,100,1,0
561,-66.6666666666667,4,2,0,75,0,0
786,-66.6666666666667,4,2,0,5,0,0
861,-66.6666666666667,4,2,0,75,0,0
1161,-66.6666666666667,4,3,0,75,0,0
1611,-133.333333333333,4,3,0,75,0,0
2736,-133.333333333333,4,3,0,5,0,0
2811,-133.333333333333,4,3,0,75,0,0
10761,-133.333333333333,4,2,0,90,0,0
11961,-100,4,3,0,90,0,0
12561,-100,4,1,0,90,0,0
13461,-100,4,3,0,90,0,0
13761,-100,4,1,0,90,0,0
14661,-100,4,3,0,90,0,0
14961,-100,4,1,0,90,0,0
17061,-100,4,3,0,90,0,0
17361,-100,4,1,0,90,0,0
18261,-100,4,3,0,90,0,0
18561,-100,4,1,0,90,0,0
19461,-100,4,3,0,90,0,0
19761,-100,4,1,0,90,0,0
22161,-125,4,2,0,90,0,0
50511,300,4,3,0,100,1,0
50511,-83.3333333333333,4,1,0,75,0,0
50736,-66.6666666666667,4,1,0,5,0,0
50811,-66.6666666666667,4,1,0,75,0,1
51036,-66.6666666666667,4,1,0,5,0,0
51111,-90.9090909090909,4,1,0,75,0,1
57411,-76.9230769230769,4,1,0,75,0,1
58011,-66.6666666666667,4,1,0,75,0,1
58461,-90.9090909090909,4,1,0,75,0,1
60186,-90.9090909090909,4,1,0,75,0,1
65061,-90.9090909090909,4,1,0,75,0,0
67011,-111.111111111111,4,1,0,75,0,0
67611,-142.857142857143,4,1,0,75,0,0
68061,-90.9090909090909,4,1,0,75,0,0

[HitObjects]
65,207,561,6,0,P|98:119|188:120,1,191.250007295609,4|0,0:0|0:0,0:0:0:0:
142,185,861,2,0,B|230:225|230:225|326:185,1,191.250007295609,4|0,0:0|0:0,0:0:0:0:
437,170,1161,5,0,0:0:0:0:
437,170,1236,1,0,0:0:0:0:
437,170,1311,1,0,0:0:0:0:
386,344,1461,1,0,0:0:0:0:
314,251,1611,2,0,L|321:104,1,127.500004863739
402,55,2061,2,0,P|382:32|343:19,2,63.7500024318696
318,188,2511,6,0,P|268:162|260:102,1,95.6250036478044
257,96,2811,2,0,L|252:213,1,95.6250036478044
201,261,3111,1,0,0:0:0:0:
106,218,3261,2,0,L|108:154,1,63.7500024318696
188,49,3561,5,0,0:0:0:0:
214,82,3636,1,0,0:0:0:0:
257,96,3711,1,0,0:0:0:0:
292,92,3786,1,0,0:0:0:0:
333,77,3861,2,0,L|340:112,1,31.8750012159348,4|0,0:0|0:0,0:0:0:0:
383,230,4011,2,0,L|390:195,1,31.8750012159348,4|0,0:0|0:0,0:0:0:0:
502,107,4161,6,0,P|481:75|440:62,1,63.7500024318696
339,108,4461,1,0,0:0:0:0:
383,230,4611,1,0,0:0:0:0:
431,138,4761,1,0,0:0:0:0:
366,26,4911,5,0,0:0:0:0:
334,28,4986,1,0,0:0:0:0:
302,30,5061,1,0,0:0:0:0:
270,32,5136,1,0,0:0:0:0:
238,34,5211,2,0,L|233:65,1,31.8750012159348,4|0,0:0|0:0,0:0:0:0:
254,140,5361,6,0,P|218:142|175:117,1,63.7500024318696,4|0,0:0|0:0,0:0:0:0:
112,59,5661,1,8,0:0:0:0:
142,246,5811,1,0,0:0:0:0:
193,133,5961,1,8,0:0:0:0:
134,243,6111,1,0,0:0:0:0:
118,64,6261,1,0,0:0:0:0:
223,220,6411,6,0,P|207:291|152:329,1,127.500004863739
39,372,6861,2,0,L|102:369,1,63.7500024318696
235,361,7161,1,8,0:0:0:0:
223,220,7311,1,0,0:0:0:0:
245,361,7461,1,8,0:0:0:0:
230,228,7611,6,0,L|381:235,1,127.500004863739
466,273,8061,2,0,L|465:203,1,63.7500024318696
357,169,8361,2,0,L|357:233,1,63.7500024318696
412,352,8661,1,0,0:0:0:0:
310,307,8811,6,0,L|182:312,1,127.500004863739
92,213,9261,1,8,0:0:0:0:
271,160,9411,1,8,0:0:0:0:
101,83,9561,1,8,0:0:0:0:
187,233,9711,1,8,0:0:0:0:
199,61,9861,1,8,0:0:0:0:
182,311,10011,1,4,0:0:0:0:
359,222,10761,5,4,0:0:0:0:
280,153,11061,5,4,0:0:0:0:
368,215,11361,5,4,0:0:0:0:
271,160,11661,5,4,0:0:0:0:
457,213,11961,5,8,0:0:0:0:
446,163,12036,1,0,0:0:0:0:
423,130,12111,1,0,0:0:0:0:
390,107,12186,1,0,0:0:0:0:
347,96,12261,6,0,L|343:169,1,42.5,4|0,0:0|0:0,0:0:0:0:
282,248,12411,2,0,L|278:175,1,42.5,4|0,0:0|0:0,0:0:0:0:
229,89,12561,6,0,L|145:94,1,85,4|0,0:0|0:0,0:0:0:0:
115,237,12861,1,0,0:0:0:0:
144,94,13011,1,0,0:0:0:0:
122,243,13161,1,8,0:0:0:0:
151,100,13311,1,0,0:0:0:0:
234,170,13461,6,0,L|276:173,1,42.5,4|0,0:0|0:0,0:0:0:0:
361,257,13611,2,0,L|283:263,1,42.5,4|0,0:0|0:0,0:0:0:0:
226,254,13761,2,0,L|236:135,1,85,8|0,0:0|0:0,0:0:0:0:
365,178,14061,2,0,L|355:59,1,85
276,59,14361,1,8,0:0:0:0:
365,178,14511,1,0,0:0:0:0:
226,254,14661,6,0,L|304:260,1,42.5,4|0,0:0|0:0,0:0:0:0:
352,337,14811,2,0,L|274:343,1,42.5,4|0,0:0|0:0,0:0:0:0:
209,347,14961,6,0,P|168:330|141:286,1,85,8|0,0:0|0:0,0:0:0:0:
73,178,15261,2,0,L|190:187,1,85,4|0,0:0|0:0,0:0:0:0:
226,254,15561,1,8,0:0:0:0:
144,298,15711,1,0,0:0:0:0:
163,110,15861,1,0,0:0:0:0:
226,254,16011,6,0,P|310:288|386:243,1,170,4|0,0:0|0:0,0:0:0:0:
302,182,16461,1,2,0:0:0:0:
376,118,16611,2,0,P|301:85|225:120,1,170,4|0,0:0|0:0,0:0:0:0:
172,195,17061,6,0,L|166:273,1,42.5,4|0,0:0|0:0,0:0:0:0:
103,342,17211,2,0,L|97:264,1,42.5,4|0,0:0|0:0,0:0:0:0:
38,79,17361,6,0,L|138:95,1,85,8|0,0:0|0:0,0:0:0:0:
296,313,17661,1,0,0:0:0:0:
317,217,17811,1,0,0:0:0:0:
400,300,17961,1,8,0:0:0:0:
436,230,18111,1,0,0:0:0:0:
438,135,18261,2,0,L|368:126,1,42.5,4|0,0:0|0:0,0:0:0:0:
306,31,18411,2,0,L|372:36,1,42.5,4|0,0:0|0:0,0:0:0:0:
217,129,18561,2,0,L|213:231,1,85,8|0,0:0|0:0,0:0:0:0:
281,298,18861,1,0,0:0:0:0:
312,199,19011,1,0,0:0:0:0:
392,304,19161,2,0,L|273:279,1,85,8|0,0:0|0:0,0:0:0:0:
237,53,19461,6,0,L|281:51,1,42.5,4|0,0:0|0:0,0:0:0:0:
299,115,19611,2,0,L|357:121,1,42.5,4|0,0:0|0:0,0:0:0:0:
455,132,19761,2,0,L|395:199,1,85,8|0,0:0|0:0,0:0:0:0:
75,93,20061,1,0,0:0:0:0:
95,249,20211,1,0,0:0:0:0:
148,129,20361,1,8,0:0:0:0:
169,266,20511,1,0,0:0:0:0:
304,129,20661,1,0,0:0:0:0:
283,247,20811,2,0,L|426:242,1,127.5,4|0,0:0|0:0,0:0:0:0:
448,256,21111,2,0,L|417:106,1,127.5,4|0,0:0|0:0,0:0:0:0:
464,100,21411,2,0,L|303:126,1,127.5,4|0,0:0|0:0,0:0:0:0:
260,235,21711,1,0,0:0:0:0:
280,232,21786,1,0,0:0:0:0:
304,232,21861,1,0,0:0:0:0:
334,206,21936,1,0,0:0:0:0:
361,217,22011,1,0,0:0:0:0:
374,218,22086,1,0,0:0:0:0:
409,238,22161,2,0,L|475:166,1,68
136,272,22461,1,8,0:0:0:0:
208,248,22611,1,0,0:0:0:0:
136,160,22761,1,0,0:0:0:0:
136,216,22911,2,0,L|208:192,1,68,0|8,0:0|0:0,0:0:0:0:
328,264,23211,2,0,L|256:272,1,68
80,208,23511,1,0,0:0:0:0:
176,160,23661,2,0,L|248:192,1,68,8|0,0:0|0:0,0:0:0:0:
240,304,23961,2,0,L|312:256,1,68
344,192,24261,2,0,L|192:208,1,136,8|0,0:0|0:0,0:0:0:0:
112,184,24711,1,0,0:0:0:0:
96,80,24861,2,0,L|176:80,1,68,8|0,0:0|0:0,0:0:0:0:
320,192,25161,1,0,0:0:0:0:
320,128,25311,1,0,0:0:0:0:
416,264,25461,1,8,0:0:0:0:
468,43,36861,6,0,P|448:102|381:136,1,127.500004863739
304,192,49161,5,0,0:0:0:0:
248,136,49311,1,0,0:0:0:0:
208,240,49461,1,0,0:0:0:0:
176,120,49611,1,0,0:0:0:0:
128,248,49761,1,0,0:0:0:0:
56,185,49911,5,0,0:0:0:0:
56,185,49986,1,0,0:0:0:0:
56,185,50061,1,0,0:0:0:0:
56,185,50136,1,0,0:0:0:0:
56,185,50211,1,0,0:0:0:0:
243,173,50511,2,0,P|201:235|266:289,1,152.999995330811
227,302,50811,2,0,P|176:228|230:156,1,191.250007295609
424,181,51111,1,0,0:0:0:0:
361,116,51261,1,0,0:0:0:0:
316,256,51411,2,0,L|106:241,1,187.000005706787
161,128,51861,1,0,0:0:0:0:
278,143,52011,2,0,L|375:175,1,93.5000028533936
454,269,52311,2,0,L|341:266,1,93.5000028533936
254,280,52611,1,0,0:0:0:0:
303,204,52761,1,0,0:0:0:0:
197,209,52911,2,0,L|128:285,1,93.5000028533936
121,166,53211,2,0,L|321:136,1,187.000005706787
375,243,53661,1,0,0:0:0:0:
233,320,53811,1,0,0:0:0:0:
254,222,53961,1,0,0:0:0:0:
12,149,54111,2,0,L|114:168,1,93.5000028533936
402,301,54411,2,0,L|421:176,1,93.5000028533936
455,129,54711,2,0,L|265:183,1,187.000005706787
230,88,55161,1,0,0:0:0:0:
112,186,55311,2,0,L|205:169,1,93.5000028533936
319,201,55611,2,0,L|134:293,1,187.000005706787
264,135,56061,1,0,0:0:0:0:
242,243,56211,1,0,0:0:0:0:
175,80,56361,2,0,L|294:73,1,93.5000028533936
342,222,56661,1,0,0:0:0:0:
454,301,56811,2,0,B|450:209|450:209|444:204|444:204|450:200|450:200|448:91,1,187.000005706787
342,222,57261,1,0,0:0:0:0:
448,103,57411,2,0,B|450:205|450:205|443:210|443:210|450:215|450:215|455:318,1,220.999989883423
342,222,57861,1,0,0:0:0:0:
48,192,58011,2,0,B|64:204|64:204|80:192|80:192|96:204|96:204|116:192|116:192|132:204|132:204|148:192|148:192|168:204|168:204|184:192|184:192|200:204|200:204|216:192|216:192|232:204|232:204|248:192|248:192|264:204|264:204,1,255.000009727478
206,95,58461,2,0,L|213:213,1,93.5000028533936
78,127,58761,1,0,0:0:0:0:
104,284,58911,1,0,0:0:0:0:
183,197,59061,1,0,0:0:0:0:
298,280,59211,2,0,L|283:170,1,93.5000028533936
235,82,59511,2,0,L|226:205,1,93.5000028533936
79,162,59811,1,0,0:0:0:0:
364,217,59961,1,0,0:0:0:0:
364,217,60036,1,0,0:0:0:0:
364,217,60111,1,0,0:0:0:0:
364,217,60186,1,0,0:0:0:0:
364,217,60261,1,0,0:0:0:0:
364,217,60336,1,0,0:0:0:0:
364,217,60411,2,0,L|454:277,1,93.5000028533936
466,273,60711,1,0,0:0:0:0:
474,157,60861,1,0,0:0:0:0:
428,70,61011,2,0,L|307:84,1,93.5000028533936
274,202,61311,2,0,L|264:93,1,93.5000028533936
108,225,61611,2,0,L|117:99,1,93.5000028533936
189,84,61911,2,0,L|192:197,1,93.5000028533936
225,262,62211,1,0,0:0:0:0:
315,192,62361,1,0,0:0:0:0:
304,320,62511,1,0,0:0:0:0:
245,128,62661,1,0,0:0:0:0:
83,240,62811,2,0,L|161:54,1,187.000005706787
243,220,63261,2,0,L|326:280,1,93.5000028533936
396,196,63561,2,0,L|287:154,1,93.5000028533936
138,127,63861,1,0,0:0:0:0:
281,68,64011,2,0,L|472:169,1,187.000005706787
417,267,64461,1,0,0:0:0:0:
205,262,64611,2,0,L|400:240,1,187.000005706787
104,144,65061,1,0,0:0:0:0:
128,272,65211,2,0,L|224:216,1,93.5000028533936
216,112,65511,2,0,L|312:152,1,93.5000028533936
320,256,65811,1,0,0:0:0:0:
464,240,65961,2,0,L|416:128,1,93.5000028533936
128,148,66261,1,0,0:0:0:0:
192,263,66411,2,0,L|326:117,1,187.000005706787
128,148,66861,1,0,0:0:0:0:
192,263,67011,2,0,L|306:141,1,152.999995330811
128,148,67461,1,0,0:0:0:0:
192,263,67611,2,0,L|290:162,1,118.999996368408
401,129,68061,1,0,0:0:0:0:
357,253,68211,1,0,0:0:0:0:
161,157,68361,1,0,0:0:0:0:
161,301,68511,2,0,L|259:262,1,93.5000028533936
368,330,68811,2,0,L|259:282,1,93.5000028533936
68,213,69111,1,0,0:0:0:0:
167,158,69261,1,0,0:0:0:0:
221,198,69411,1,0,0:0:0:0:
278,241,69561,1,0,0:0:0:0:
361,100,69636,1,0,0:0:0:0:
361,100,69711,1,0,0:0:0:0:
361,100,69786,1,0,0:0:0:0:
361,100,69861,1,0,0:0:0:0:
361,100,69936,1,0,0:0:0:0:
361,100,70011,2,0,L|441:157,1,93.5000028533936
330,268,70311,1,0,0:0:0:0:
239,189,70461,1,0,0:0:0:0:
249,112,70611,2,0,L|145:162,2,93.5000028533936
383,149,71061,1,0,0:0:0:0:
316,268,71211,2,0,L|203:279,1,93.5000028533936
115,189,71511,2,0,L|319:184,1,187.000005706787
466,272,71961,2,0,L|416:176,1,93.5000028533936
104,106,72261,1,0,0:0:0:0:
242,144,72411,2,0,L|186:241,1,93.5000028533936
82,290,72711,2,0,L|94:191,1,93.5000028533936
174,306,73011,2,0,L|276:289,1,93.5000028533936
430,301,73311,1,0,0:0:0:0:
361,175,73461,1,0,0:0:0:0:
461,166,73611,1,0,0:0:0:0:
362,273,73761,1,0,0:0:0:0:
122,133,73911,2,0,L|331:117,1,187.000005706787
218,275,74361,1,0,0:0:0:0:
306,224,74511,1,0,0:0:0:0:
350,205,74661,1,0,0:0:0:0:
290,180,74811,2,0,L|188:202,1,93.5000028533936
96,178,75111,2,0,L|171:114,1,93.5000028533936
293,253,75411,2,0,L|279:140,1,93.5000028533936
225,186,75711,1,0,0:0:0:0:
140,306,75861,1,0,0:0:0:0:
133,168,76011,1,0,0:0:0:0:
65,269,76161,1,0,0:0:0:0:
254,279,76311,2,0,L|441:212,1,187.000005706787
388,313,76761,1,0,0:0:0:0:
280,254,76911,2,0,L|381:188,1,93.5000028533936
490,134,77211,2,0,L|378:142,1,93.5000028533936
272,168,77511,5,0,0:0:0:0:
297,208,77661,1,0,0:0:0:0:
325,160,77811,1,0,0:0:0:0:
330,245,77961,1,0,0:0:0:0:
358,189,78111,1,0,0:0:0:0:
266,248,78261,1,0,0:0:0:0:
256,128,78411,1,4,0:0:0:0:
325,97,78486,1,0,0:0:0:0:
421,140,78561,1,0,0:0:0:0:
421,140,78636,1,0,0:0:0:0:
421,140,78711,1,4,0:0:0:0:
421,140,78786,1,0,0:0:0:0:
421,140,78861,1,0,0:0:0:0:
421,140,78936,1,0,0:0:0:0:
421,140,79011,1,4,0:0:0:0:
421,140,79086,1,0,0:0:0:0:
421,140,79161,1,0,0:0:0:0:
421,140,79236,1,0,0:0:0:0:
280,104,79311,2,0,L|343:146,1,46.7500014266968
257,206,79461,2,0,L|320:248,1,46.7500014266968
379,320,79611,2,0,L|344:104,1,187.000005706787,4|0,0:0|0:0,0:0:0:0:
