osu file format v14

[General]
AudioFilename: audio.mp3
AudioLeadIn: 0
PreviewTime: 109591
Countdown: 0
SampleSet: Soft
StackLeniency: 0.7
Mode: 2
LetterboxInBreaks: 0
WidescreenStoryboard: 0

[Editor]
DistanceSpacing: 0.9
BeatDivisor: 4
GridSize: 8
TimelineZoom: 0.5999999

[Metadata]
Title:Circles (Piano Version) (feat. GUMI)
TitleUnicode:Circles (Piano Version) (feat. GUMI)
Artist:KIRA
ArtistUnicode:KIRA
Creator:MBomb
Version:Alone
Source:osu!
Tags:magic bomb featured artist mappers guild noffy vocaloid english sad piano
BeatmapID:2187373
BeatmapSetID:1046346

[Difficulty]
HPDrainRate:6
CircleSize:4.6
OverallDifficulty:7.6
ApproachRate:7.6
SliderMultiplier:1.8
SliderTickRate:1

[Events]
//Background and Video events
Video,-905,"circles-piano.mp4"
0,0,"squares.jpg",0,0
//Break Periods
2,152557,162185
//Storyboard Layer 0 (Background)
//Storyboard Layer 1 (Fail)
//Storyboard Layer 2 (Pass)
//Storyboard Layer 3 (Foreground)
//Storyboard Layer 4 (Overlay)
//Storyboard Sound Samples

[TimingPoints]
17,425.531914893617,3,2,0,50,1,0
17,-166.666666666667,3,2,0,15,0,0
1293,-125,3,2,0,20,0,0
2570,-100,3,2,0,25,0,0
3846,-100,3,2,1,30,0,0
43421,-333.333333333333,3,2,1,35,0,0
45974,-100,3,2,1,40,0,1
66399,-232.558139534884,3,2,1,35,0,0
67676,-100,3,2,1,35,0,0
89378,-100,3,2,1,45,0,0
108527,-333.333333333333,3,2,1,45,0,0
109804,-100,3,2,1,50,0,1
118740,-133.333333333333,3,2,1,50,0,1
120017,-100,3,2,1,50,0,1
129804,-100,3,2,1,50,0,0
130229,-100,3,2,1,50,0,1
143421,-90.9090909090909,3,2,1,50,0,1
144272,-100,3,2,1,50,0,1
150655,-243.90243902439,3,2,1,15,0,0
152782,-100,3,2,1,20,0,0
155761,-100,3,2,1,25,0,0
158314,-100,3,2,1,30,0,0
160868,-100,3,2,1,35,0,0
163421,-100,3,2,1,40,0,0
174910,-100,3,2,1,60,0,1
176612,-87.719298245614,3,2,1,60,0,1
177463,-100,3,2,1,60,0,1
194910,-100,3,2,1,60,0,0
195336,-100,3,2,1,60,0,1
198314,-91.743119266055,3,2,1,60,0,1
199165,-100,3,2,1,60,0,1
208527,-85.4700854700855,3,2,1,60,0,1
209378,-100,3,2,1,60,0,1
215761,-500,3,2,1,50,0,0
217889,-100,3,2,1,50,0,0
220868,-100,3,2,1,30,0,0
221293,-100,3,2,1,22,0,0
221719,-100,3,2,1,16,0,0
222144,-100,3,2,1,8,0,0

[Colours]
Combo1 : 192,192,192
Combo2 : 120,240,0
Combo3 : 0,128,64

[HitObjects]
290,192,87,5,0,0:0:0:0:
384,192,442,2,0,B|432:168|432:168|384:192,1,107.999996704102,0|0,0:0|0:0,0:0:0:0:
256,192,1293,5,0,0:0:0:0:
400,192,1719,2,0,B|456:144|456:144|400:192,1,144,0|0,0:0|0:0,0:0:0:0:
216,192,2570,5,0,0:0:0:0:
400,192,2995,2,0,B|490:190|490:190|400:192|400:192,1,180,0|0,0:0|0:0,0:0:0:0:
64,192,3846,5,2,0:2:0:0:
64,192,5123,6,0,P|88:128|208:96,1,180,2|0,0:2|0:0,0:0:0:0:
32,192,5974,1,0,0:0:0:0:
224,192,6399,2,0,P|312:176|352:96,1,180,2|0,0:0|0:0,0:0:0:0:
168,192,7251,1,2,0:0:0:0:
496,192,7676,6,0,L|304:192,1,180,2|0,0:2|0:0,0:0:0:0:
448,192,9804,1,0,0:0:0:0:
112,192,10229,6,0,P|48:160|120:104,1,180,2|0,0:2|0:0,0:0:0:0:
288,192,11080,1,0,0:0:0:0:
96,192,11506,2,0,P|16:168|88:47,1,270,2|0,0:2|0:0,0:0:0:0:
480,192,12782,6,0,P|464:136|320:96,1,180,2|0,0:2|0:0,0:0:0:0:
112,192,14910,1,2,0:0:0:0:
456,192,15336,6,0,P|480:112|400:80,1,180,2|0,0:2|0:0,0:0:0:0:
224,192,16187,1,2,0:0:0:0:
16,192,16612,2,0,L|208:192,1,180,2|0,0:0|0:0,0:0:0:0:
408,192,17463,1,2,0:0:0:0:
72,192,17889,6,0,L|256:192,1,180,2|0,0:1|0:0,0:0:0:0:
24,192,20017,1,0,0:0:0:0:
360,192,20442,6,0,P|456:168|488:80,1,180,2|0,0:0|0:0,0:0:0:0:
328,192,21293,1,2,0:0:0:0:
112,192,21719,2,0,L|304:192,1,180,2|0,0:0|0:0,0:0:0:0:
112,192,22570,1,0,0:0:0:0:
328,192,22995,6,0,P|400:184|472:104,1,180,2|0,0:0|0:0,0:0:0:0:
272,192,23846,1,2,0:0:0:0:
56,192,24272,1,2,0:1:0:0:
400,192,25123,1,0,0:0:0:0:
64,192,25548,6,0,B|-16:168|-64:56|288:48,1,360,2|0,0:2|0:0,0:0:0:0:
472,192,26825,2,0,L|112:192,1,360,2|2,0:0|0:0,0:0:0:0:
456,192,28102,5,2,0:2:0:0:
456,192,29378,1,0,0:0:0:0:
320,192,29804,2,0,L|456:72,1,180
120,192,30655,6,0,B|72:160|76:96|400:96,1,360,2|0,0:2|0:0,0:0:0:0:
192,192,31931,2,0,P|56:168|144:16,1,360,2|0,0:2|0:0,0:0:0:0:
472,192,33208,6,0,L|344:64,1,180,2|2,0:2|0:2,0:0:0:0:
344,192,34485,1,0,0:0:0:0:
160,192,34910,2,0,P|64:176|32:104,1,180,0|2,0:0|0:0,0:0:0:0:
368,192,35761,6,0,P|488:144|352:48,1,360,2|2,0:2|0:0,0:0:0:0:
160,192,37038,1,2,0:0:0:0:
480,192,37889,1,2,0:0:0:0:
136,192,38314,5,2,0:1:0:0:
136,192,40442,1,0,0:0:0:0:
472,192,40868,6,0,P|496:144|360:32,1,270,2|0,0:0|0:0,0:0:0:0:
176,192,42144,2,0,L|456:192,1,270,2|0,0:0|0:0,0:0:0:0:
40,192,43421,6,0,P|16:120|72:64,1,161.999995056153,2|0,0:0|0:0,0:0:0:0:
456,192,45974,5,2,0:1:0:0:
120,192,46399,2,0,P|64:152|144:96,1,180
480,192,47251,1,2,0:0:0:0:
144,192,47676,1,0,0:0:0:0:
352,192,48102,1,0,0:0:0:0:
16,192,48527,6,0,P|56:128|168:112,1,180,2|0,0:1|0:0,0:0:0:0:
488,192,49378,1,0,0:0:0:0:
144,192,49804,2,0,P|24:128|160:32,1,360,2|0,0:0|0:0,0:0:0:0:
488,192,51080,6,0,L|296:192,2,180,2|0|0,0:1|0:0|0:0,0:0:0:0:
160,192,52357,1,2,0:0:0:0:
328,192,52782,1,0,0:0:0:0:
496,192,53208,1,2,0:0:0:0:
160,192,53634,6,0,P|24:152|136:24,1,360,2|2,0:1|0:0,0:0:0:0:
456,288,54910,2,0,P|496:208|352:8,1,360,2|0,0:1|0:0,0:0:0:0:
16,192,56187,5,2,0:1:0:0:
232,192,56612,2,0,L|40:192,1,180
368,192,57463,1,2,0:0:0:0:
168,192,57889,1,0,0:0:0:0:
496,192,58314,1,0,0:0:0:0:
128,192,58740,6,0,P|88:168|168:88,1,180,4|0,0:3|0:0,0:0:0:0:
472,192,59591,1,2,0:0:0:0:
144,192,60016,1,4,0:3:0:0:
480,192,60868,1,2,0:0:0:0:
144,192,61293,6,0,L|336:192,2,180,2|2|2,0:1|0:3|0:0,0:0:0:0:
480,192,62570,2,0,L|272:192,2,180,2|2|2,0:1|0:3|0:0,0:0:0:0:
128,192,63846,6,0,B|8:184|-16:96|-32:40|168:24,1,360,4|2,0:3|0:0,0:0:0:0:
496,208,65123,2,0,P|408:184|496:8,1,360,4|2,0:3|0:0,0:0:0:0:
152,192,66399,6,0,P|104:136|152:88,1,154.800002362061,2|0,0:0|0:0,0:0:0:0:
256,192,67676,1,2,0:2:0:0:
424,192,68102,2,0,L|352:24,1,180,0|0,0:0|0:0,0:0:0:0:
16,192,68953,6,0,P|24:112|128:64,1,180,2|0,0:2|0:0,0:0:0:0:
288,192,69804,1,0,0:0:0:0:
496,192,70229,2,0,P|488:160|360:112,1,180,2|0,0:0|0:0,0:0:0:0:
496,192,71080,1,2,0:0:0:0:
160,192,71506,6,0,L|360:192,1,180,2|0,0:2|0:0,0:0:0:0:
64,192,73208,2,0,P|48:112|128:64,1,180,0|2,0:0|0:2,0:0:0:0:
456,192,74059,6,0,P|472:144|376:80,1,180,2|0,0:0|0:0,0:0:0:0:
232,192,74910,1,0,0:0:0:0:
440,192,75336,2,0,L|248:192,1,180,2|0,0:2|0:0,0:0:0:0:
432,184,76187,1,0,0:0:0:0:
88,184,76612,6,0,P|32:152|184:48,1,360,2|0,0:2|0:0,0:0:0:0:
416,192,78740,1,2,0:0:0:0:
80,192,79165,6,0,P|16:168|48:80,1,180,2|0,0:2|0:0,0:0:0:0:
240,192,80017,1,2,0:0:0:0:
448,192,80442,1,2,0:0:0:0:
256,192,80868,1,2,0:0:0:0:
64,192,81293,1,2,0:0:0:0:
400,192,81719,6,0,P|488:168|480:88,1,180,2|0,0:1|0:0,0:0:0:0:
288,192,82570,1,2,0:0:0:0:
72,192,82995,1,2,0:1:0:0:
256,192,83421,1,0,0:0:0:0:
72,192,83846,1,0,0:0:0:0:
408,192,84272,6,0,P|472:160|416:96,1,180,2|0,0:0|0:0,0:0:0:0:
224,192,85123,1,2,0:0:0:0:
416,192,85548,2,0,P|488:144|400:112,1,180,2|0,0:0|0:0,0:0:0:0:
240,192,86399,1,0,0:0:0:0:
48,192,86825,6,0,P|24:133|88:32,1,180
496,192,88102,1,2,0:1:0:0:
224,192,88527,1,2,0:0:0:0:
496,192,88953,1,2,0:0:0:0:
144,192,89378,6,0,P|32:152|168:48,1,360,2|2,0:1|0:0,0:0:0:0:
496,192,90655,2,0,L|136:192,1,360,2|2,0:0|0:0,0:0:0:0:
472,192,91931,5,2,0:2:0:0:
280,192,92357,1,0,0:0:0:0:
88,192,92782,1,0,0:0:0:0:
424,192,93208,1,0,0:0:0:0:
240,192,93634,1,0,0:0:0:0:
424,192,94059,1,0,0:0:0:0:
88,192,94485,6,0,P|32:160|176:16,1,360,2|0,0:1|0:0,0:0:0:0:
272,192,95548,1,0,0:0:0:0:
88,192,95761,1,2,0:2:0:0:
272,192,96187,1,0,0:0:0:0:
88,192,96612,1,0,0:0:0:0:
424,192,97038,6,0,L|152:192,1,270,2|2,0:2|0:2,0:0:0:0:
440,192,98314,1,2,0:0:0:0:
240,192,98740,2,0,L|424:192,1,180,0|2,0:0|0:0,0:0:0:0:
80,192,99591,6,0,P|40:152|120:88,1,180,2|0,0:1|0:0,0:0:0:0:
208,192,100229,1,0,0:0:0:0:
112,192,100442,1,2,0:0:0:0:
16,192,100655,1,0,0:0:0:0:
208,192,100868,2,0,L|304:192,1,90,2|0,0:0|0:0,0:0:0:0:
72,192,101506,1,0,0:0:0:0:
168,192,101718,1,2,0:0:0:0:
264,192,101931,1,0,0:0:0:0:
72,192,102144,6,0,L|72:96,1,90,2|0,0:1|0:0,0:0:0:0:
344,192,102995,1,2,0:0:0:0:
200,192,103421,1,2,0:0:0:0:
400,192,103846,1,2,0:0:0:0:
64,192,104272,1,2,0:0:0:0:
400,192,104697,5,2,0:1:0:0:
208,192,105123,1,2,0:0:0:0:
16,192,105548,1,2,0:0:0:0:
360,192,105974,2,0,P|488:128|440:32,1,270,2|2,0:0|0:0,0:0:0:0:
16,192,107251,6,0,P|104:152|16:56,1,270,2|2,0:1|0:0,0:0:0:0:
448,192,108527,2,0,P|472:168|448:136,1,80.9999975280763,2|0,0:0|0:0,0:0:0:0:
32,192,109804,5,2,0:1:0:0:
368,192,110229,2,0,P|433:185|480:88,1,180,0|2,0:0|0:0,0:0:0:0:
152,192,111080,5,2,0:1:0:0:
488,192,111506,2,0,P|476:93|400:72,1,180,0|2,0:0|0:0,0:0:0:0:
80,192,112357,6,0,P|40:160|120:88,1,180,4|0,0:3|0:0,0:0:0:0:
440,192,113208,1,2,0:0:0:0:
112,192,113634,2,0,P|16:128|160:24,1,360,4|0,0:3|0:0,0:0:0:0:
488,192,114910,6,0,L|304:192,2,180,2|0|2,0:1|0:0|0:0,0:0:0:0:
384,192,115974,1,2,0:0:0:0:
184,192,116187,6,0,P|128:176|192:112,1,180,2|0,0:1|0:0,0:0:0:0:
376,192,117038,1,2,0:0:0:0:
48,192,117463,6,0,L|432:192,1,360,4|2,0:3|0:0,0:0:0:0:
16,192,118740,2,0,P|32:80|168:16,1,270.000010299683,4|0,0:3|0:0,0:0:0:0:
496,192,120017,5,2,0:1:0:0:
280,192,120442,2,0,L|472:192,1,180,0|2,0:0|0:0,0:0:0:0:
144,192,121293,1,2,0:1:0:0:
344,192,121719,1,0,0:0:0:0:
16,192,122144,1,2,0:0:0:0:
376,192,122570,6,0,P|440:160|368:120,1,180,4|0,0:3|0:0,0:0:0:0:
48,192,123421,1,2,0:0:0:0:
376,192,123846,1,4,0:3:0:0:
40,192,124697,1,2,0:0:0:0:
368,192,125123,6,0,P|456:160|488:80,2,180,2|2|2,0:1|0:3|0:0,0:0:0:0:
40,192,126399,2,0,L|232:192,2,180,2|2|2,0:1|0:3|0:0,0:0:0:0:
376,192,127676,6,0,P|432:160|360:112,1,180,4|0,0:3|0:0,0:0:0:0:
32,192,128527,1,2,0:0:0:0:
368,192,128953,2,0,P|336:123|240:104,1,180,4|0,0:3|0:0,0:0:0:0:
56,192,129804,1,0,0:0:0:0:
392,192,130229,5,2,0:1:0:0:
56,192,130655,2,0,P|56:152|160:80,1,180,2|2,0:0|0:0,0:0:0:0:
488,192,131506,1,2,0:1:0:0:
152,192,131931,2,0,P|96:176|168:128,1,180,2|0,0:0|0:0,0:0:0:0:
488,192,132782,5,4,0:3:0:0:
160,192,133208,2,0,L|344:192,1,180,2|2,0:0|0:0,0:0:0:0:
16,192,134059,2,0,B|208:192,2,180,4|0|2,0:3|0:0|0:0,0:0:0:0:
344,192,135336,5,2,0:1:0:0:
40,192,136187,1,2,0:0:0:0:
256,192,136612,6,0,P|312:128|256:120,1,180,2|2,0:1|0:0,0:0:0:0:
56,192,137463,1,2,0:0:0:0:
384,192,137889,6,0,L|480:192,1,90,4|0,0:3|0:0,0:0:0:0:
474,192,139165,1,2,0:0:0:0:
32,192,140016,1,0,0:0:0:0:
368,192,140442,5,2,0:1:0:0:
32,192,140868,2,0,P|56:144|176:112,1,180,2|2,0:0|0:0,0:0:0:0:
496,192,141719,1,2,0:1:0:0:
160,192,142144,2,0,L|344:192,1,180,2|0,0:0|0:0,0:0:0:0:
16,192,142995,5,4,0:3:0:0:
352,192,143421,2,0,L|144:192,1,198.000006042481,2|2,0:0|0:0,0:0:0:0:
496,192,144272,5,2,0:1:0:0:
160,192,144697,1,0,0:0:0:0:
376,192,145123,1,2,0:0:0:0:
48,192,145548,6,0,P|24:152|112:80,1,180,4|0,0:3|0:0,0:0:0:0:
296,192,146399,1,2,0:0:0:0:
496,192,146825,2,0,P|440:128|344:136,1,180,2|0,0:1|0:0,0:0:0:0:
16,192,147676,1,2,0:0:0:0:
352,192,148102,5,4,0:3:0:0:
104,192,148953,1,2,0:0:0:0:
440,192,149378,2,0,L|248:192,2,180,2|2|2,0:1|0:3|0:0,0:0:0:0:
104,192,150655,6,0,P|16:144|120:32,1,295.200004504395,2|0,0:0|0:0,0:0:0:0:
160,192,162995,5,0,0:0:0:0:
496,192,163421,6,0,L|304:192,2,180,2|0|0,0:1|0:0|0:0,0:0:0:0:
168,192,164697,2,0,L|352:192,1,180,2|0,0:1|0:0,0:0:0:0:
136,192,165548,1,0,0:0:0:0:
464,192,165974,5,2,0:0:0:0:
280,192,166399,1,0,0:0:0:0:
96,192,166825,1,0,0:0:0:0:
424,192,167251,1,2,0:0:0:0:
240,192,167676,1,0,0:0:0:0:
424,192,168102,1,0,0:0:0:0:
96,192,168527,6,0,L|288:192,2,180,2|0|0,0:1|0:0|0:0,0:0:0:0:
424,192,169803,2,0,L|240:192,1,180,2|0,0:1|0:0,0:0:0:0:
456,192,170654,1,0,0:0:0:0:
128,192,171080,6,0,P|96:152|184:96,1,180,2|0,0:0|0:0,0:0:0:0:
376,192,171931,1,0,0:0:0:0:
40,192,172357,2,0,L|232:192,1,180,2|0,0:0|0:0,0:0:0:0:
16,192,173208,1,0,0:0:0:0:
472,192,174059,2,0,P|496:152|368:24,1,270,0|0,0:0|0:0,0:0:0:0:
168,192,174910,5,2,0:1:0:0:
488,192,175336,2,0,P|472:128|344:96,1,180,2|2,0:3|0:0,0:0:0:0:
40,192,176187,5,2,0:1:0:0:
368,192,176612,2,0,L|152:192,1,205.199997495117,2|2,0:3|0:0,0:0:0:0:
496,192,177463,6,0,P|480:136|360:96,1,180,4|0,0:3|0:0,0:0:0:0:
48,192,178314,1,2,0:0:0:0:
384,192,178740,2,0,P|496:152|376:24,1,360,4|0,0:3|0:0,0:0:0:0:
48,192,180016,6,0,L|232:192,2,180,2|2|2,0:1|0:3|0:0,0:0:0:0:
152,192,181080,1,2,0:0:0:0:
352,192,181293,2,0,P|408:152|336:112,1,180,2|2,0:1|0:3,0:0:0:0:
136,192,182144,1,2,0:0:0:0:
464,192,182570,6,0,L|88:192,1,360,4|2,0:3|0:0,0:0:0:0:
432,192,183846,2,0,P|480:168|344:32,1,360,4|0,0:3|0:0,0:0:0:0:
16,192,185123,5,2,0:1:0:0:
232,192,185548,1,2,0:3:0:0:
32,192,185974,1,2,0:0:0:0:
368,192,186399,1,2,0:1:0:0:
144,192,186825,1,2,0:3:0:0:
496,192,187251,1,2,0:0:0:0:
128,192,187676,6,0,P|72:160|144:112,1,180,4|0,0:3|0:0,0:0:0:0:
496,192,188527,1,2,0:0:0:0:
136,192,188953,1,4,0:3:0:0:
464,192,189804,1,2,0:0:0:0:
112,192,190229,6,0,L|296:192,2,180,2|2|2,0:1|0:3|0:0,0:0:0:0:
456,192,191506,2,0,L|272:192,2,180,2|2|2,0:1|0:3|0:0,0:0:0:0:
104,192,192782,6,0,P|24:160|72:96,1,180,4|0,0:3|0:0,0:0:0:0:
392,192,193634,1,2,0:0:0:0:
64,192,194059,2,0,L|256:192,1,180,4|0,0:3|0:0,0:0:0:0:
448,192,194910,1,0,0:0:0:0:
96,192,195336,5,2,0:1:0:0:
448,192,195761,2,0,P|464:160|360:104,1,180,2|2,0:3|0:0,0:0:0:0:
24,192,196612,1,2,0:1:0:0:
368,192,197038,2,0,L|344:8,1,180,2|0,0:0|0:0,0:0:0:0:
16,192,197889,5,4,0:3:0:0:
344,192,198314,2,0,L|144:192,1,196.200002095642,2|2,0:3|0:0,0:0:0:0:
496,192,199165,2,0,L|304:192,2,180,4|2|2,0:3|0:0|0:0,0:0:0:0:
160,192,200442,5,2,0:1:0:0:
448,192,201293,1,2,0:0:0:0:
224,192,201719,2,0,P|160:176|152:72,1,180,2|2,0:1|0:0,0:0:0:0:
352,192,202570,1,2,0:0:0:0:
16,192,202995,6,0,L|120:192,1,90,4|0,0:3|0:0,0:0:0:0:
196,192,203421,2,0,L|12:192,1,180,0|2,0:0|0:0,0:0:0:0:
360,192,204272,2,0,P|432:136|320:56,1,270,4|0,0:3|0:0,0:0:0:0:
128,192,205123,1,0,0:0:0:0:
456,192,205548,5,2,0:1:0:0:
128,192,205974,2,0,P|24:144|32:88,1,180,2|2,0:3|0:0,0:0:0:0:
376,192,206825,1,2,0:1:0:0:
32,192,207251,2,0,P|64:112|152:88,1,180,2|0,0:0|0:0,0:0:0:0:
488,192,208102,5,4,0:3:0:0:
152,192,208527,2,0,L|368:192,1,210.600000803375,2|2,0:3|0:0,0:0:0:0:
16,192,209378,1,4,0:3:0:0:
352,192,209804,1,2,0:0:0:0:
136,192,210229,1,2,0:0:0:0:
472,192,210655,6,0,L|280:192,1,180,2|2,0:1|0:3,0:0:0:0:
112,192,211506,1,2,0:0:0:0:
448,192,211931,2,0,P|496:152|416:88,1,180,2|2,0:1|0:3,0:0:0:0:
104,192,212782,1,2,0:0:0:0:
448,192,213208,6,0,L|264:192,1,180,4|0,0:3|0:0,0:0:0:0:
488,192,214059,1,2,0:0:0:0:
144,192,214485,1,2,0:1:0:0:
488,192,214910,2,0,P|488:136|376:96,1,180,2|2,0:3|0:0,0:0:0:0:
48,192,215761,6,0,P|16:136|56:72,1,144,2|0,0:0|0:0,0:0:0:0:
200,192,217889,1,0,0:0:0:0:
384,192,218314,5,2,0:0:0:0:
200,192,218740,2,0,P|144:160|208:96,1,180,0|0,0:0|0:0,0:0:0:0:
392,192,219591,1,2,0:0:0:0:
208,192,220016,1,0,0:0:0:0:
416,192,220442,1,0,0:0:0:0:
256,192,220868,12,0,223421,0:0:0:0:
