osu file format v14

[General]
AudioFilename: audio.mp3
AudioLeadIn: 0
PreviewTime: 294842
Countdown: 0
SampleSet: Normal
StackLeniency: 0.7
Mode: 1
LetterboxInBreaks: 0
WidescreenStoryboard: 0

[Editor]
Bookmarks: 489889,911917,1087849,1412547
DistanceSpacing: 0.1
BeatDivisor: 16
GridSize: 4
TimelineZoom: 4.699998

[Metadata]
Title:Zankyou no Requiem
TitleUnicode:残響ノ鎮魂歌
Artist:KINEMA106
ArtistUnicode:キネマ106
Creator:Ideal
Version:A weeping, forsaken echo resounds from the waves beneath...
Source:
Tags:featured artist fa tom jun-jun original kantai collection fleet girls kancolle 艦隊これくしょん -艦これ- hibiki 響 verniy Верный c91 hiiragi minami japanese russian j-rock jrock rock an echoing chinkonka 黒兎ウル ひいな lino kurousagi uru hiina The Red Sarafan красный сарафан By the Long Road Дорогой длинною idealism
BeatmapID:1978606
BeatmapSetID:724949

[Difficulty]
HPDrainRate:5
CircleSize:2
OverallDifficulty:6.5
ApproachRate:10
SliderMultiplier:1.4
SliderTickRate:1

[Events]
//Background and Video events
0,0,"yea.jpg",0,20
//Break Periods
2,426427,433658
2,434562,441793
2,442698,449929
2,450833,458065
2,458969,466200
2,467104,472556
2,473206,474590
2,475240,482471
2,483376,488827
2,904383,907800
2,1246071,1252539
//Storyboard Layer 0 (Background)
//Storyboard Layer 1 (Fail)
//Storyboard Layer 2 (Pass)
//Storyboard Layer 3 (Foreground)
//Storyboard Layer 4 (Overlay)
//Storyboard Sound Samples

[TimingPoints]
1137,1016.94915254237,4,1,0,10,1,0
1137,-58.8235294117647,4,1,0,10,0,0
17408,-58.8235294117647,4,1,0,20,0,0
113700,-40,4,1,0,25,0,0
113954,-37.037037037037,4,1,0,30,0,0
114209,-34.4827586206897,4,1,0,36,0,0
114463,-32.258064516129,4,1,0,42,0,0
114717,-30.3030303030303,4,1,0,48,0,0
115035,508.474576271186,4,1,0,75,1,1
115035,-55.5555555555556,4,1,0,75,0,1
178085,-55.5555555555556,4,1,0,5,0,0
180118,1016.94915254237,4,1,0,25,1,0
180118,-58.8235294117647,4,1,0,25,0,0
226834,-58.8235294117647,4,1,0,30,0,0
227851,-58.8235294117647,4,1,0,35,0,0
228105,-58.8235294117647,4,1,0,37,0,0
228232,-56.8181818181818,4,1,0,39,0,0
228526,-54.9450549450549,4,1,0,41,0,0
228653,-53.1914893617021,4,1,0,42,0,0
228780,-51.5463917525773,4,1,0,44,0,0
228931,508.474576271186,4,1,0,45,1,8
228935,508.474576271186,4,1,0,45,1,0
228935,-100,4,1,0,45,0,8
259690,-96.1538461538461,4,1,0,47,0,8
259944,-92.8417934113622,4,1,0,50,0,8
260199,-89.7385482521149,4,1,0,53,0,8
260453,-86.8470613491544,4,1,0,56,0,8
260580,-85.4700854700855,4,1,0,58,0,8
260834,-82.8431007521037,4,1,0,60,0,8
260961,-81.5892485538535,4,1,0,61,0,8
261089,-80.3633507002447,4,1,0,62,0,8
261216,-79.1829036103845,4,1,0,63,0,8
261343,-78.0366333768819,4,1,0,64,0,8
261470,-76.9230769230769,4,1,0,75,0,8
261540,-76.9230769230769,4,1,0,65,0,8
292236,-76.9230769230769,4,1,0,5,0,0
294015,-100,4,1,0,5,0,0
295006,-95.2380952380952,4,1,0,36,0,0
295388,-75.4716981132076,4,1,0,42,0,0
295769,-60.6060606060606,4,1,0,48,0,0
296053,-55.5555555555556,4,1,0,75,0,1
358843,-59.7029528599104,4,1,0,75,0,1
358970,-60.4541491638266,4,1,0,75,0,1
359097,-61.2244897959184,4,1,0,75,0,1
359351,-62.8256079731483,4,1,0,75,0,1
359478,-63.6579869804707,4,1,0,75,0,1
359733,-65.3977236190599,4,1,0,75,0,1
359860,-66.3001434221392,4,1,0,75,0,1
359987,-67.2278165833021,4,1,0,75,0,1
360114,-68.1818181818182,4,1,0,75,0,1
360369,-70.1814919605272,4,1,0,75,0,1
360496,-71.2218124095429,4,1,0,75,0,1
360623,-72.2934388550577,4,1,0,75,0,1
360877,-74.53643759314,4,1,0,75,0,1
361138,-76.9230769230769,4,1,0,75,0,0
361388,-76.9230769230769,4,1,0,73,0,0
361615,-76.9230769230769,4,1,0,70,0,0
361869,-76.9230769230769,4,1,0,67,0,0
362123,-76.9230769230769,4,1,0,65,0,0
426219,1016.94915254237,4,1,0,30,1,8
426227,1016.94915254237,4,1,0,30,1,0
426227,-38.4615384615385,4,1,0,30,0,0
426344,-66.6666666666667,4,1,0,5,0,0
434083,-50,4,1,0,20,0,0
434479,-66.6666666666667,4,1,0,5,0,0
442106,-50,4,1,0,20,0,0
442615,-66.6666666666667,4,1,0,5,0,0
450242,-50,4,1,0,20,0,0
450750,-66.6666666666667,4,1,0,5,0,0
458378,-50,4,1,0,20,0,0
458886,-66.6666666666667,4,1,0,5,0,0
466513,-50,4,1,0,20,0,0
467022,-66.6666666666667,4,1,0,5,0,0
472869,-50,4,1,0,20,0,0
473123,-66.6666666666667,4,1,0,5,0,0
474903,-50,4,1,0,20,0,0
475157,-66.6666666666667,4,1,0,5,0,0
478971,-50,4,1,0,20,0,0
479225,-66.6666666666667,4,1,0,5,0,0
482784,-50,4,1,0,20,0,0
483293,-66.6666666666667,4,1,0,5,0,0
489140,-50,4,1,0,20,0,0
489394,-40,4,1,0,5,0,0
491174,-58.8235294117647,4,1,0,15,0,0
507572,-58.8235294117647,4,1,0,20,0,0
523844,-58.8235294117647,4,1,0,25,0,0
539591,-56.8181818181818,4,1,0,27,0,0
539718,-54.9450549450549,4,1,0,29,0,0
539846,-53.1914893617021,4,1,0,31,0,0
539973,-51.5463917525773,4,1,0,33,0,0
540115,508.474576271186,4,1,0,35,1,0
540115,-100,4,1,0,35,0,0
554066,-100,4,1,0,37,0,0
554320,-100,4,1,0,39,0,0
554591,-98.0392156862745,4,1,0,42,0,0
554845,-96.1538461538461,4,1,0,44,0,0
555100,-94.3396226415094,4,1,0,46,0,0
555305,-92.5925925925926,4,1,0,46,0,0
555432,-90.9090909090909,4,1,0,46,0,0
555559,-89.2857142857143,4,1,0,46,0,0
555687,-87.719298245614,4,1,0,46,0,0
555814,-86.2068965517241,4,1,0,46,0,0
555941,-84.7457627118644,4,1,0,46,0,0
556068,-83.3333333333333,4,1,0,46,0,0
556371,-80,4,1,0,48,0,0
587657,-83.3333333333333,4,1,0,48,0,0
587911,-86.9565217391304,4,1,0,48,0,0
588038,-90.9090909090909,4,1,0,50,0,0
588165,-95.2380952380952,4,1,0,50,0,0
588420,-100,4,1,0,40,0,0
588674,-111.111111111111,4,1,0,40,0,0
588928,1016.94915254237,4,1,0,30,1,0
588928,-58.8235294117647,4,1,0,30,0,0
589055,-58.8235294117647,4,1,0,15,0,0
604436,-58.8235294117647,4,1,0,5,0,0
608250,-40.8163265306122,4,1,0,32,0,0
609266,508.474576271186,4,1,0,75,1,1
609266,-55.5555555555556,4,1,0,75,0,1
687301,-56.4971751412429,4,1,0,75,0,1
687428,-57.4712643678161,4,1,0,75,0,1
687556,-58.4795321637427,4,1,0,75,0,1
687683,-59.5238095238095,4,1,0,75,0,1
687810,-60.6060606060606,4,1,0,75,0,1
687937,-61.7283950617284,4,1,0,75,0,1
688064,-62.8930817610063,4,1,0,75,0,1
688191,-64.1025641025641,4,1,0,75,0,1
688318,-65.359477124183,4,1,0,75,0,1
688445,-66.6666666666667,4,1,0,75,0,1
688573,-68.0272108843537,4,1,0,75,0,1
688827,-69.4444444444444,4,1,0,75,0,1
688954,-70.9219858156028,4,1,0,75,0,1
689208,-72.463768115942,4,1,0,75,0,1
689335,-74.0740740740741,4,1,0,75,0,1
689589,-79.3650793650794,4,1,0,70,0,1
689844,-86.9565217391304,4,1,0,65,0,1
690098,-96.1538461538461,4,1,0,60,0,1
690352,-107.52688172043,4,1,0,55,0,1
690621,1016.94915254237,4,1,0,30,1,0
690621,-58.8235294117647,4,1,0,30,0,0
737385,-57.1428571428571,4,1,0,35,0,0
738414,-55.5555555555556,4,1,0,40,0,0
738668,-54.0554905921123,4,1,0,41,0,0
738795,-53.335431088735,4,1,0,42,0,0
739050,-51.9460619062213,4,1,0,43,0,0
739177,-51.2807583703106,4,1,0,44,0,0
739434,508.474576271186,4,1,0,45,1,8
739442,508.474576271186,4,1,0,45,1,0
739442,-99.9999999999998,4,1,0,45,0,0
770133,-98.0392156862745,4,1,0,43,0,0
770387,-96.1538461538461,4,1,0,46,0,0
770641,-94.3396226415094,4,1,0,49,0,0
770832,-92.5925925925926,4,1,0,51,0,0
771030,-91.743119266055,4,1,0,53,0,0
771277,-90.9090909090909,4,1,0,57,0,0
771404,-89.2857142857143,4,1,0,59,0,0
771531,-87.719298245614,4,1,0,61,0,0
771658,-86.2068965517241,4,1,0,63,0,0
771785,-84.7457627118644,4,1,0,65,0,0
771961,-80,4,1,0,75,0,0
772016,-80,4,1,0,65,0,0
802739,-80,4,1,0,5,0,0
805519,-86.9565217391304,4,1,0,36,0,0
805901,-75.187969924812,4,1,0,42,0,0
806282,-60.6060606060606,4,1,0,48,0,0
806551,508.474576271186,4,1,0,75,1,1
806551,-55.5555555555556,4,1,0,75,0,1
835025,-55.5555555555556,4,1,0,65,0,0
837298,-53.763440860215,4,1,0,68,0,0
837552,-52.9100529100529,4,1,0,71,0,0
837807,-52.0833333333333,4,1,0,74,0,0
837946,-51.6795865633075,4,1,0,77,0,0
838061,-51.2820512820513,4,1,0,80,0,0
838315,-50.5050505050505,4,1,0,83,0,0
838569,-49.2610837438424,4,1,0,86,0,0
838824,-48.5436893203883,4,1,0,88,0,0
839093,254.237288135593,4,1,0,90,1,1
839093,-90.9090909090909,4,1,0,90,0,1
904177,508.474576271186,4,1,0,80,1,8
904183,508.474576271186,4,1,0,80,1,0
904183,-45.4545454545455,4,1,0,80,0,0
904208,-45.4545454545455,4,1,0,15,0,0
908229,-71.4285714285714,4,1,0,50,0,0
910278,-69.4444444444444,4,1,0,80,0,0
910405,-67.5675675675676,4,1,0,80,0,0
910532,-65.7894736842105,4,1,0,80,0,0
910660,-64.1025641025641,4,1,0,80,0,0
910787,-62.5,4,1,0,80,0,0
910914,-60.9756097560976,4,1,0,80,0,0
911041,-59.5238095238095,4,1,0,80,0,0
911168,-58.1395348837209,4,1,0,80,0,0
911295,-56.8181818181818,4,1,0,80,0,0
911422,-55.5555555555556,4,1,0,80,0,0
911549,-54.7945205479452,4,1,0,80,0,0
911634,-54.054054054054,4,1,0,80,0,0
911719,-53.3333333333333,4,1,0,80,0,0
911804,-52.6315789473684,4,1,0,80,0,0
912312,-58.8235294117647,4,1,0,80,0,0
927905,-57.1428571428571,4,1,0,80,0,0
928011,-55.5555555555556,4,1,0,80,0,0
928138,-54.054054054054,4,1,0,80,0,0
928265,-52.6315789473684,4,1,0,80,0,0
928393,-51.2820512820513,4,1,0,80,0,0
928520,-50,4,1,0,80,0,0
929028,-55.5555555555556,4,1,0,80,0,0
931592,-50,4,1,0,80,0,0
931846,-51.2820512820513,4,1,0,80,0,0
932100,-52.6315789473684,4,1,0,80,0,0
932354,-54.054054054054,4,1,0,80,0,0
932609,-55.5555555555556,4,1,0,80,0,0
935660,-50,4,1,0,80,0,0
935829,-28.5714285714286,4,1,0,5,0,0
936655,-50,4,1,0,80,0,0
937143,-55.5555555555556,4,1,0,80,0,0
939727,-50,4,1,0,80,0,0
939982,-51.2820512820513,4,1,0,80,0,0
940236,-52.6315789473684,4,1,0,80,0,0
940490,-54.054054054054,4,1,0,80,0,0
940744,-55.5555555555556,4,1,0,80,0,0
943795,-50,4,1,0,80,0,0
944049,-51.2820512820513,4,1,0,80,0,0
944304,-52.6315789473684,4,1,0,80,0,0
960106,-52.9100529100529,4,1,0,80,0,0
960233,-53.5827186512118,4,1,0,80,0,0
960296,-53.9227901995196,4,1,0,80,0,0
960360,-54.2727083522336,4,1,0,80,0,0
960487,-54.9806999902689,4,1,0,80,0,0
960614,-55.7074073871199,4,1,0,80,0,0
960678,-56.0809506741294,4,1,0,80,0,0
960741,-56.4535826098541,4,1,0,80,0,0
960805,-56.8372342565891,4,1,0,80,0,0
960868,-57.2200185669677,4,1,0,80,0,0
960996,-58.0138388960828,4,1,0,80,0,0
961123,-58.8235294117647,4,1,0,80,0,0
976729,-57.6368876080692,4,1,0,80,0,0
976857,-56.4971751412429,4,1,0,80,0,0
976984,-55.2486187845304,4,1,0,80,0,0
977111,-54.20054200542,4,1,0,80,0,0
977238,-53.475935828877,4,1,0,80,0,0
977365,-52.6315789473684,4,1,0,80,0,0
992863,-52.9100529100529,4,1,0,80,0,0
992948,-53.1914893617021,4,1,0,80,0,0
993032,-53.475935828877,4,1,0,80,0,0
993117,-53.763440860215,4,1,0,80,0,0
993202,-54.054054054054,4,1,0,80,0,0
993287,-54.3478260869565,4,1,0,80,0,0
993371,-54.6448087431694,4,1,0,80,0,0
993456,-54.9450549450549,4,1,0,80,0,0
993541,-55.2486187845304,4,1,0,80,0,0
993626,-55.5555555555556,4,1,0,80,0,0
1008880,-54.9450549450549,4,1,0,80,0,0
1008965,-54.3478260869565,4,1,0,80,0,0
1009049,-53.763440860215,4,1,0,80,0,0
1009134,-53.1914893617021,4,1,0,80,0,0
1009219,-52.6315789473684,4,1,0,80,0,0
1009304,-52.0833333333333,4,1,0,80,0,0
1009388,-51.5463917525773,4,1,0,80,0,0
1009473,-51.0204081632653,4,1,0,80,0,0
1009558,-50.5050505050505,4,1,0,80,0,0
1009643,-50,4,1,0,80,0,0
1009727,-49.5662949194548,4,1,0,80,0,0
1009812,-49.1400491400491,4,1,0,80,0,0
1009897,-48.780487804878,4,1,0,90,0,0
1011507,-50,4,1,0,88,0,0
1011592,-51.2820512820513,4,1,0,86,0,0
1011676,-52.6315789473684,4,1,0,84,0,0
1011804,-54.054054054054,4,1,0,82,0,0
1011931,-55.5555555555556,4,1,0,80,0,0
1017524,-54.4959128065395,4,1,0,80,0,0
1017609,-53.475935828877,4,1,0,80,0,0
1017693,-52.49343832021,4,1,0,80,0,0
1017778,-51.5463917525773,4,1,0,80,0,0
1017863,-50.6329113924051,4,1,0,80,0,0
1017948,-49.7512437810945,4,1,0,80,0,0
1018032,-48.780487804878,4,1,0,90,0,0
1019643,-50,4,1,0,88,0,0
1019727,-51.2820512820513,4,1,0,86,0,0
1019812,-52.6315789473684,4,1,0,84,0,0
1019939,-54.054054054054,4,1,0,82,0,0
1020066,-55.5555555555556,4,1,0,80,0,0
1024134,-48.780487804878,4,1,0,90,0,0
1025289,-49.5049504950495,4,1,0,90,0,0
1025384,-50.251256281407,4,1,0,89,0,0
1025543,-51.0204081632653,4,1,0,88,0,0
1025607,-51.8134715025907,4,1,0,87,0,0
1025670,-52.6315789473684,4,1,0,86,0,0
1025797,-54.054054054054,4,1,0,85,0,0
1025924,-55.5555555555556,4,1,0,84,0,0
1026041,-56.3380281690141,4,1,0,83,0,0
1026126,-57.1428571428571,4,1,0,82,0,0
1026179,-57.9710144927536,4,1,0,81,0,0
1026295,-58.8235294117647,4,1,0,80,0,0
1041941,-58.1395348837209,4,1,0,80,0,0
1042068,-57.4712643678161,4,1,0,80,0,0
1042164,-56.8181818181818,4,1,0,80,0,0
1042323,-56.1797752808989,4,1,0,80,0,0
1042450,-55.5555555555556,4,1,0,80,0,0
1058085,-54.6448087431694,4,1,0,80,0,0
1058213,-53.763440860215,4,1,0,80,0,0
1058340,-52.9100529100529,4,1,0,80,0,0
1058467,-52.0833333333333,4,1,0,80,0,0
1058594,-51.0204081632653,4,1,0,80,0,0
1058721,-50,4,1,0,80,0,0
1059198,-55.5555555555556,4,1,0,80,0,0
1061762,-50,4,1,0,80,0,0
1062016,-51.2820512820513,4,1,0,80,0,0
1062270,-52.6315789473684,4,1,0,80,0,0
1062524,-54.054054054054,4,1,0,80,0,0
1062779,-55.5555555555556,4,1,0,80,0,0
1065840,-50,4,1,0,80,0,0
1065935,-28.5714285714286,4,1,0,5,0,0
1066825,-50,4,1,0,80,0,0
1067323,-55.5555555555556,4,1,0,80,0,0
1069907,-50,4,1,0,80,0,0
1070162,-51.2820512820513,4,1,0,80,0,0
1070416,-52.6315789473684,4,1,0,80,0,0
1070670,-54.054054054054,4,1,0,80,0,0
1070924,-55.5555555555556,4,1,0,80,0,0
1073975,-56.1797752808989,4,1,0,80,0,0
1074229,-56.8181818181818,4,1,0,80,0,0
1074452,-57.4712643678161,4,1,0,80,0,0
1074706,-58.1395348837209,4,1,0,80,0,0
1074960,-58.8235294117647,4,1,0,80,0,0
1090628,-57.1428571428571,4,1,0,80,0,0
1090734,-55.5555555555556,4,1,0,80,0,0
1090861,-54.054054054054,4,1,0,80,0,0
1090988,-52.6315789473684,4,1,0,80,0,0
1091116,-51.2820512820513,4,1,0,80,0,0
1091243,-50,4,1,0,80,0,0
1091751,-55.5555555555556,4,1,0,80,0,0
1094315,-50,4,1,0,80,0,0
1094569,-51.2820512820513,4,1,0,80,0,0
1094823,-52.6315789473684,4,1,0,80,0,0
1095077,-54.054054054054,4,1,0,80,0,0
1095332,-55.5555555555556,4,1,0,80,0,0
1098383,-50,4,1,0,80,0,0
1098477,-28.5714285714286,4,1,0,5,0,0
1099367,-50,4,1,0,80,0,0
1099866,-55.5555555555556,4,1,0,80,0,0
1102450,-50,4,1,0,80,0,0
1102705,-51.2820512820513,4,1,0,80,0,0
1102959,-52.6315789473684,4,1,0,80,0,0
1103213,-54.054054054054,4,1,0,80,0,0
1103467,-55.5555555555556,4,1,0,80,0,0
1106518,-50,4,1,0,80,0,0
1106772,-51.2820512820513,4,1,0,80,0,0
1107027,-52.6315789473684,4,1,0,80,0,0
1107280,-54.054054054054,4,1,0,80,0,0
1107535,-52.6315789473684,4,1,0,80,0,0
1123043,-52.9100529100529,4,1,0,80,0,0
1123128,-53.1914893617021,4,1,0,80,0,0
1123240,-53.475935828877,4,1,0,80,0,0
1123297,-53.763440860215,4,1,0,80,0,0
1123382,-54.054054054054,4,1,0,80,0,0
1123467,-54.3478260869565,4,1,0,80,0,0
1123551,-54.6448087431694,4,1,0,80,0,0
1123636,-54.9450549450549,4,1,0,80,0,0
1123721,-55.2486187845304,4,1,0,80,0,0
1123806,-55.5555555555556,4,1,0,80,0,0
1139060,-54.9450549450549,4,1,0,80,0,0
1139145,-54.3478260869565,4,1,0,80,0,0
1139229,-53.763440860215,4,1,0,80,0,0
1139314,-53.1914893617021,4,1,0,80,0,0
1139399,-52.6315789473684,4,1,0,80,0,0
1139484,-52.0833333333333,4,1,0,80,0,0
1139568,-51.5463917525773,4,1,0,80,0,0
1139653,-51.0204081632653,4,1,0,80,0,0
1139738,-50.5050505050505,4,1,0,80,0,0
1139823,-50,4,1,0,80,0,0
1139907,-49.3827160493827,4,1,0,80,0,0
1140019,-48.780487804878,4,1,0,90,0,0
1141687,-50,4,1,0,88,0,0
1141772,-51.2820512820513,4,1,0,86,0,0
1141856,-52.6315789473684,4,1,0,84,0,0
1141984,-54.054054054054,4,1,0,82,0,0
1142111,-55.5555555555556,4,1,0,80,0,0
1147704,-54.4959128065395,4,1,0,80,0,0
1147789,-53.475935828877,4,1,0,80,0,0
1147873,-52.49343832021,4,1,0,80,0,0
1147958,-51.5463917525773,4,1,0,80,0,0
1148043,-50.6329113924051,4,1,0,80,0,0
1148128,-49.7512437810945,4,1,0,80,0,0
1148212,-48.780487804878,4,1,0,90,0,0
1149823,-50,4,1,0,88,0,0
1149907,-51.2820512820513,4,1,0,86,0,0
1149992,-52.6315789473684,4,1,0,84,0,0
1150119,-54.054054054054,4,1,0,82,0,0
1150246,-55.5555555555556,4,1,0,80,0,0
1154314,-48.780487804878,4,1,0,90,0,0
1155469,-49.5049504950495,4,1,0,90,0,0
1155564,-50.251256281407,4,1,0,90,0,0
1155723,-51.0204081632653,4,1,0,89,0,0
1155787,-51.8134715025907,4,1,0,88,0,0
1155850,-52.6315789473684,4,1,0,87,0,0
1155977,-54.054054054054,4,1,0,85,0,0
1156104,-55.5555555555556,4,1,0,83,0,0
1156231,-57.1428571428571,4,1,0,81,0,0
1156359,-58.8235294117647,4,1,0,80,0,0
1172079,-58.1395348837209,4,1,0,80,0,0
1172206,-57.4712643678161,4,1,0,80,0,0
1172333,-56.8181818181818,4,1,0,80,0,0
1172460,-56.1797752808989,4,1,0,80,0,0
1172588,-55.5555555555556,4,1,0,80,0,0
1188223,-54.6448087431694,4,1,0,80,0,0
1188351,-53.763440860215,4,1,0,80,0,0
1188478,-52.9100529100529,4,1,0,80,0,0
1188605,-52.0833333333333,4,1,0,80,0,0
1188732,-51.0204081632653,4,1,0,80,0,0
1188859,-50,4,1,0,80,0,0
1189367,-55.5555555555556,4,1,0,80,0,0
1191931,-50,4,1,0,80,0,0
1192185,-51.2820512820513,4,1,0,80,0,0
1192439,-52.6315789473684,4,1,0,80,0,0
1192693,-54.054054054054,4,1,0,80,0,0
1192948,-55.5555555555556,4,1,0,80,0,0
1196009,-50,4,1,0,80,0,0
1196104,-28.5714285714286,4,1,0,5,0,0
1196994,-50,4,1,0,80,0,0
1197492,-55.5555555555556,4,1,0,80,0,0
1200076,-50,4,1,0,80,0,0
1200331,-51.2820512820513,4,1,0,80,0,0
1200585,-52.6315789473684,4,1,0,80,0,0
1200839,-54.054054054054,4,1,0,80,0,0
1201093,-55.5555555555556,4,1,0,80,0,0
1204144,-56.1797752808989,4,1,0,80,0,0
1204398,-56.8181818181818,4,1,0,80,0,0
1204621,-57.4712643678161,4,1,0,80,0,0
1204875,-58.1395348837209,4,1,0,80,0,0
1205129,-55.5555555555556,4,1,0,80,0,0
1220765,-54.6448087431694,4,1,0,80,0,0
1220893,-53.763440860215,4,1,0,80,0,0
1221020,-52.9100529100529,4,1,0,80,0,0
1221147,-52.0833333333333,4,1,0,80,0,0
1221274,-51.0204081632653,4,1,0,80,0,0
1221401,-50,4,1,0,80,0,0
1221655,-55.5555555555556,4,1,0,80,0,0
1236655,-50,4,1,0,80,0,0
1237418,-55.5555555555556,4,1,0,80,0,0
1245871,508.474576271186,333,1,0,60,1,0
1245871,-55.5555555555556,333,1,0,60,0,0
1245902,-50,4,1,0,5,0,0
1252989,508.474576271186,4,1,0,80,1,8
1252989,-50,4,1,0,80,0,0
1254011,508.474576271186,4,1,0,70,1,0
1254011,-71.4285714285714,4,1,0,70,0,0
1285515,-50,4,1,0,70,0,0
1286516,-71.4285714285714,4,1,0,70,0,0
1385192,499.999999999999,4,1,0,70,1,8
1385192,-72.6392251815982,4,1,0,70,0,0
1386192,491.803278688524,4,1,0,70,1,0
1386192,-73.8498789346248,4,1,0,70,0,0
1387175,483.870967741935,4,1,0,70,1,8
1387175,-75.0605326876514,4,1,0,70,0,0
1388146,481.927710843374,4,1,0,70,1,0
1388146,-75.6658595641646,4,1,0,70,0,0
1389109,466.926070038911,4,1,0,70,1,8
1389109,-77.7845036319612,4,1,0,70,0,0
1390042,461.538461538461,4,1,0,70,1,0
1390042,-78.6924939467313,4,1,0,70,0,0
1390965,454.545454545454,4,1,0,70,1,8
1390965,-79.903147699758,4,1,0,70,0,0
1391874,445.269016697588,4,1,0,70,1,0
1391874,-81.7191283292979,4,1,0,70,0,0
1392766,441.176470588235,4,1,0,70,1,8
1392766,-82.3244552058112,4,1,0,70,0,0
1393648,437.956204379562,4,1,0,70,1,0
1393648,-82.9297820823245,4,1,0,70,0,0
1394523,431.654676258993,4,1,0,70,1,8
1394523,-84.1404358353511,4,1,0,70,0,0
1395386,425.531914893617,4,1,0,70,1,0
1395386,-85.3510895883777,4,1,0,70,0,0
1396237,410.958904109589,4,1,0,70,1,8
1396237,-88.3777239709443,4,1,0,70,0,0
1397058,408.163265306122,4,1,0,70,1,0
1397058,-88.9830508474577,4,1,0,70,0,0
1397874,405.405405405405,4,1,0,70,1,8
1397874,-76.9230769230769,4,1,0,70,0,0
1398482,-89.588377723971,4,1,0,70,0,0
1398684,402.684563758389,4,1,0,70,1,0
1398684,-76.9230769230769,4,1,0,70,0,0
1398734,-88.4955752212389,4,1,0,70,0,0
1399489,400,4,1,0,70,1,8
1399489,-89.0895049917161,4,1,0,70,0,0
1400287,387.096774193549,4,1,0,70,1,0
1400287,-76.9230769230769,4,1,0,70,0,0
1400362,-88.4955752212389,4,1,0,70,0,0
1401061,382.165605095542,4,1,0,70,1,8
1401061,-90.2195152678666,4,1,0,70,0,0
1401825,382.165605095542,4,1,0,70,1,0
1401825,-76.9230769230769,4,1,0,70,0,0
1401926,-88.4955752212389,4,1,0,70,0,0
1402589,375.000000000001,4,1,0,70,1,8
1402589,-89.6157723759382,4,1,0,70,0,0
1403341,370.370370370371,4,1,0,70,1,0
1403341,-76.9230769230769,4,1,0,70,0,0
1403433,-88.4955752212389,4,1,0,70,0,0
1404081,365.853658536586,4,1,0,70,1,8
1404081,-89.0418445737562,4,1,0,70,0,0
1404812,363.636363636364,4,1,0,70,1,0
1404812,-76.9230769230769,4,1,0,70,0,0
1404839,-88.4955752212389,4,1,0,70,0,0
1405539,358.208955223881,4,1,0,70,1,8
1405539,-89.5682485288169,4,1,0,70,0,0
1406255,346.820809248556,4,1,0,70,1,0
1406255,-76.9230769230769,4,1,0,70,0,0
1406348,-88.4955752212389,4,1,0,70,0,0
1406955,345.821325648416,4,1,0,70,1,8
1406955,-89.51864579845,4,1,0,70,0,0
1407646,342.857142857144,4,1,0,70,1,0
1407646,-76.9230769230769,4,1,0,70,0,0
1407662,-88.4955752212389,4,1,0,70,0,0
1409017,340.909090909092,4,1,0,70,1,0
1409017,-76.9230769230769,4,1,0,70,0,0
1409181,-88.4955752212389,4,1,0,70,0,0
1409650,-66.6666666666667,4,1,0,90,0,0
1410380,508.474576271186,4,1,0,5,1,8
1410380,-44.6428571428571,4,1,0,5,0,0
1410870,-100,4,1,0,5,0,0
1412413,508.474576271186,4,1,0,5,1,8
1414443,508.474576271186,4,1,0,10,1,0
1414443,-133.333333333333,4,1,0,10,0,0
1422260,-100,4,1,0,20,0,0
1422642,-133.333333333333,4,1,0,10,0,0
1430396,-100,4,1,0,20,0,0
1430778,-133.333333333333,4,1,0,10,0,0
1438531,-100,4,1,0,20,0,0
1438913,-133.333333333333,4,1,0,10,0,0
1446985,-117.647058823529,4,1,0,15,0,0
1463256,-117.647058823529,4,1,0,20,0,0
1479527,-117.647058823529,4,1,0,25,0,0
1493762,-113.636363636364,4,1,0,26,0,0
1494016,-109.892960279445,4,1,0,27,0,0
1494270,-106.388321558911,4,1,0,28,0,0
1494525,-103.087766539868,4,1,0,29,0,0
1494779,-99.9976397095269,4,1,0,30,0,0
1495033,-97.0873786407767,4,1,0,32,0,0
1495286,-93.8967136150235,4,1,0,34,0,0
1495540,-88.4955752212389,4,1,0,36,0,0
1495611,-85.4700854700855,4,1,0,38,0,0
1495767,-83.3333333333333,4,1,0,40,0,0
1510285,-81.9672131147541,4,1,0,41,0,0
1510539,-80.6451612903226,4,1,0,42,0,0
1510794,-79.3650793650794,4,1,0,43,0,0
1511048,-78.125,4,1,0,44,0,0
1511302,-76.9230769230769,4,1,0,45,0,0
1511434,-76.0456273764259,4,1,0,45,0,0
1511556,-75.187969924812,4,1,0,46,0,0
1511810,-73.2600732600733,4,1,0,47,0,0
1512065,-71.4285714285714,4,1,0,50,0,0
1543590,-78.125,4,1,0,50,0,0
1543844,-86.2068965517241,4,1,0,50,0,0
1544099,-96.1538461538461,4,1,0,50,0,0
1544353,-108.695652173913,4,1,0,50,0,0
1544612,1016.94915254237,4,1,0,35,1,0
1544612,-58.8235294117647,4,1,0,35,0,0
1544739,-58.8235294117647,4,1,0,15,0,0
1560120,-58.8235294117647,4,1,0,5,0,0
1563806,-42.5531914893617,4,1,0,32,0,0
1564950,508.474576271186,4,1,0,75,1,1
1564950,-62.5,4,1,0,75,0,1
1644524,-63.6942675159236,4,1,0,74,0,1
1644778,-64.6950092421442,4,1,0,73,0,1
1645032,-65.7276995305164,4,1,0,72,0,1
1645286,-66.793893129771,4,1,0,71,0,1
1645414,-67.3444033694928,4,1,0,70,0,1
1645668,-68.4641391154341,4,1,0,69,0,1
1645795,-69.0380874353011,4,1,0,68,0,1
1645922,-69.6217401519305,4,1,0,67,0,1
1646049,-70.2153454887233,4,1,0,66,0,1
1646305,-71.4285714285714,4,1,0,70,0,0
1646496,-71.4285714285714,4,1,0,65,0,0
1677068,-71.4285714285714,4,1,0,5,0,0
1678848,-100,4,1,0,5,0,0
1679865,-100,4,1,0,15,0,0
1680881,1016.94915254237,4,1,0,30,1,0
1680881,-50,4,1,0,30,0,0
1681008,-50,4,1,0,20,0,0
1709419,-50,4,1,0,15,0,0
1712403,-86.9565217391304,4,1,0,20,0,0
1712784,-76.9230769230769,4,1,0,25,0,0
1713166,-68.9655172413793,4,1,0,30,0,0
1713423,1016.94915254237,4,1,0,5,1,8
1713423,-62.5,4,1,0,5,0,0
1714439,508.474576271186,4,1,0,65,1,1
1714439,-55.5555555555556,4,1,0,65,0,1
1840790,-43.4782608695652,4,1,0,65,0,1
1841045,-36.34804563752,4,1,0,65,0,1
1841299,-31.2442415183964,4,1,0,65,0,1
1841553,-27.3972602739726,4,1,0,65,0,1
1841807,-24.3937528973576,4,1,0,65,0,1
1842062,-21.9751735261081,4,1,0,65,0,1
1842316,-20,4,1,0,65,0,1
1842574,-10,4,1,0,5,0,0
1848178,-212.765957446809,4,1,0,5,0,0
1848676,508.474576271186,4,1,0,80,1,8
1848843,1043.47826086957,4,1,0,10,1,0
1853011,1090.90909090909,4,1,0,10,1,0
1853011,-95.652173913044,4,1,0,10,0,0
1854109,1100.91743119266,4,1,0,10,1,8
1854109,-94.7826086956527,4,1,0,10,0,8
1855201,1142.85714285714,4,1,0,10,1,8
1855201,-91.3043478260876,4,1,0,10,0,8
1856343,1137.44075829384,4,1,0,10,1,8
1856343,-91.739130434783,4,1,0,10,0,8
1857480,1200,4,1,0,10,1,0
1857480,-86.9565217391308,4,1,0,10,0,0
1862280,1257.86163522013,4,1,0,10,1,0
1862280,-82.9565217391305,4,1,0,10,0,0
1863544,1276.59574468085,4,1,0,10,1,8
1863544,-81.7391304347831,4,1,0,10,0,8
1864813,1253.91849529781,4,1,0,10,1,8
1864813,-83.2173913043479,4,1,0,10,0,8
1867320,1253.91849529781,4,1,0,10,1,0
1867320,-83.2173913043479,4,1,0,10,0,0
1867398,-83.2173913043479,4,1,0,5,0,0

[HitObjects]
256,196,1137,5,8,0:0:0:0:
256,196,2152,1,8,0:0:0:0:
256,196,3169,1,8,0:0:0:0:
256,196,4186,1,0,0:0:0:0:
256,196,5203,1,0,0:0:0:0:
256,196,6220,1,8,0:0:0:0:
256,192,7237,1,0,0:0:0:0:
256,192,8254,1,8,0:0:0:0:
256,192,9271,1,8,0:0:0:0:
256,192,10288,1,8,0:0:0:0:
256,192,11305,1,8,0:0:0:0:
256,192,12322,1,0,0:0:0:0:
256,192,13339,1,0,0:0:0:0:
256,192,14356,1,8,0:0:0:0:
256,192,15373,1,0,0:0:0:0:
256,192,16390,1,0,0:0:0:0:
256,192,17407,1,0,0:0:0:0:
256,192,18424,1,8,0:0:0:0:
256,192,19441,1,8,0:0:0:0:
256,192,20458,1,0,0:0:0:0:
256,192,21474,1,0,0:0:0:0:
256,192,22491,1,8,0:0:0:0:
256,192,23508,1,0,0:0:0:0:
256,192,24525,1,8,0:0:0:0:
256,192,25542,1,8,0:0:0:0:
256,192,26559,1,8,0:0:0:0:
256,192,27576,1,8,0:0:0:0:
256,192,28593,1,0,0:0:0:0:
256,192,29610,1,0,0:0:0:0:
256,192,30627,1,8,0:0:0:0:
256,192,31644,1,0,0:0:0:0:
252,192,32661,1,8,0:0:0:0:
252,192,33678,1,0,0:0:0:0:
252,192,34186,1,8,0:0:0:0:
252,192,34441,1,0,0:0:0:0:
259,189,35458,1,8,0:0:0:0:
252,192,35712,1,0,0:0:0:0:
259,189,35966,1,0,0:0:0:0:
259,189,36474,1,8,0:0:0:0:
250,189,36983,1,8,0:0:0:0:
250,189,37237,1,8,0:0:0:0:
250,189,37491,1,0,0:0:0:0:
250,189,37746,1,0,0:0:0:0:
250,189,38000,1,8,0:0:0:0:
250,189,38508,1,8,0:0:0:0:
252,192,39780,1,0,0:0:0:0:
252,192,40797,1,8,0:0:0:0:
252,192,41813,1,0,0:0:0:0:
252,192,42322,1,8,0:0:0:0:
252,192,42576,1,0,0:0:0:0:
252,192,43593,1,8,0:0:0:0:
252,192,43847,1,0,0:0:0:0:
252,192,44102,1,0,0:0:0:0:
252,192,44610,1,0,0:0:0:0:
252,192,45119,1,0,0:0:0:0:
252,192,45373,1,8,0:0:0:0:
252,192,45627,1,8,0:0:0:0:
252,192,45881,1,8,0:0:0:0:
252,192,46135,1,0,0:0:0:0:
252,192,46644,1,8,0:0:0:0:
252,192,47915,1,8,0:0:0:0:
256,192,48169,1,0,0:0:0:0:
256,192,48424,1,8,0:0:0:0:
252,192,48678,1,0,0:0:0:0:
252,192,48932,1,8,0:0:0:0:
256,192,49186,1,8,0:0:0:0:
256,192,49441,1,0,0:0:0:0:
252,196,49695,1,0,0:0:0:0:
252,196,49822,1,0,0:0:0:0:
252,192,49949,1,8,0:0:0:0:
256,192,50458,1,8,0:0:0:0:
252,196,50712,1,0,0:0:0:0:
256,192,51220,1,8,0:0:0:0:
252,196,51729,1,8,0:0:0:0:
252,192,51983,1,8,0:0:0:0:
252,196,52237,1,0,0:0:0:0:
252,192,52746,1,8,0:0:0:0:
252,196,53254,1,8,0:0:0:0:
252,192,53508,1,0,0:0:0:0:
252,192,53763,1,0,0:0:0:0:
252,192,54017,1,8,0:0:0:0:
252,196,54271,1,0,0:0:0:0:
252,192,54780,1,0,0:0:0:0:
259,191,55797,1,0,0:0:0:0:
259,191,56051,1,0,0:0:0:0:
259,191,56813,1,8,0:0:0:0:
259,191,57068,1,0,0:0:0:0:
256,192,58085,1,4,0:0:0:0:
256,192,58339,1,4,0:0:0:0:
256,192,58593,1,8,0:0:0:0:
256,192,58847,1,0,0:0:0:0:
256,192,59864,1,0,0:0:0:0:
252,196,60119,1,8,0:0:0:0:
256,192,60373,1,8,0:0:0:0:
252,192,60881,1,0,0:0:0:0:
256,192,61390,1,0,0:0:0:0:
252,192,61644,1,8,0:0:0:0:
252,192,61898,1,0,0:0:0:0:
252,192,62152,1,8,0:0:0:0:
247,190,62407,1,0,0:0:0:0:
252,192,62915,1,0,0:0:0:0:
252,192,64186,1,8,0:0:0:0:
252,192,64949,1,0,0:0:0:0:
252,192,65203,1,0,0:0:0:0:
252,192,65966,1,8,0:0:0:0:
252,192,66220,1,8,0:0:0:0:
248,192,66474,1,0,0:0:0:0:
248,192,66729,1,8,0:0:0:0:
252,192,66983,1,0,0:0:0:0:
252,192,67237,1,0,0:0:0:0:
252,192,68254,1,0,0:0:0:0:
252,192,69271,1,0,0:0:0:0:
252,192,70288,1,0,0:0:0:0:
252,200,70542,1,8,0:0:0:0:
252,200,70797,1,0,0:0:0:0:
252,200,71051,1,8,0:0:0:0:
252,200,71305,1,8,0:0:0:0:
256,192,72322,1,0,0:0:0:0:
256,192,73339,1,0,0:0:0:0:
256,192,74356,1,0,0:0:0:0:
256,192,74610,1,8,0:0:0:0:
256,192,74864,1,0,0:0:0:0:
256,192,75119,1,8,0:0:0:0:
256,192,75373,1,8,0:0:0:0:
256,192,76390,1,8,0:0:0:0:
256,192,77407,1,0,0:0:0:0:
256,192,78424,1,0,0:0:0:0:
256,192,78678,1,8,0:0:0:0:
256,192,78932,1,8,0:0:0:0:
256,192,79186,1,0,0:0:0:0:
256,192,79441,1,0,0:0:0:0:
256,192,80458,1,0,0:0:0:0:
256,192,81474,1,0,0:0:0:0:
256,192,81856,1,8,0:0:0:0:
256,192,82237,1,8,0:0:0:0:
256,192,82491,1,4,0:0:0:0:
256,192,83000,1,8,0:0:0:0:
256,192,83254,1,0,0:0:0:0:
256,192,84271,1,8,0:0:0:0:
256,192,84525,1,8,0:0:0:0:
256,192,84780,1,0,0:0:0:0:
256,192,85288,1,8,0:0:0:0:
256,192,85797,1,0,0:0:0:0:
256,192,86051,1,0,0:0:0:0:
256,192,86305,1,8,0:0:0:0:
256,192,86559,1,8,0:0:0:0:
256,192,86813,1,0,0:0:0:0:
256,192,87322,1,0,0:0:0:0:
256,192,88339,1,0,0:0:0:0:
256,192,88593,1,0,0:0:0:0:
256,192,89356,1,8,0:0:0:0:
256,192,89610,1,0,0:0:0:0:
256,192,90627,1,4,0:0:0:0:
256,192,90881,1,4,0:0:0:0:
256,192,91135,1,8,0:0:0:0:
256,192,91390,1,0,0:0:0:0:
256,192,92407,1,8,0:0:0:0:
256,192,92661,1,0,0:0:0:0:
256,192,92915,1,0,0:0:0:0:
256,192,93424,1,8,0:0:0:0:
256,192,93932,1,0,0:0:0:0:
256,192,94186,1,8,0:0:0:0:
256,192,94441,1,8,0:0:0:0:
256,192,94695,1,0,0:0:0:0:
256,192,94949,1,8,0:0:0:0:
256,192,95458,1,8,0:0:0:0:
256,192,96729,1,0,0:0:0:0:
256,192,97746,1,0,0:0:0:0:
256,192,98127,1,8,0:0:0:0:
256,192,98508,1,8,0:0:0:0:
256,192,98763,1,0,0:0:0:0:
256,192,99271,1,8,0:0:0:0:
256,192,99525,1,0,0:0:0:0:
256,192,100542,1,0,0:0:0:0:
256,192,100797,1,8,0:0:0:0:
256,192,101051,1,0,0:0:0:0:
256,192,101559,1,8,0:0:0:0:
256,192,102068,1,8,0:0:0:0:
256,192,102322,1,8,0:0:0:0:
256,192,102576,1,0,0:0:0:0:
256,192,102830,1,8,0:0:0:0:
256,192,103085,1,0,0:0:0:0:
256,192,103593,1,0,0:0:0:0:
256,192,104356,1,0,0:0:0:0:
256,192,104610,1,0,0:0:0:0:
256,192,104864,1,8,0:0:0:0:
256,192,105627,1,8,0:0:0:0:
256,192,105881,1,0,0:0:0:0:
256,192,106898,1,4,0:0:0:0:
256,192,107152,1,4,0:0:0:0:
256,192,107407,1,8,0:0:0:0:
256,192,107661,1,0,0:0:0:0:
256,192,108678,1,8,0:0:0:0:
256,192,108932,1,0,0:0:0:0:
256,192,109186,1,8,0:0:0:0:
256,192,109695,1,0,0:0:0:0:
256,192,110203,1,0,0:0:0:0:
256,192,110458,1,0,0:0:0:0:
256,192,110712,1,0,0:0:0:0:
256,192,110966,1,8,0:0:0:0:
256,192,111220,1,8,0:0:0:0:
256,192,111729,1,0,0:0:0:0:
256,192,113764,1,0,0:0:0:0:
256,184,114017,1,0,0:0:0:0:
256,184,114271,1,8,0:0:0:0:
256,184,114525,1,8,0:0:0:0:
256,184,114780,1,0,0:0:0:0:
256,184,115035,1,12,0:0:0:0:
256,184,115796,1,0,0:0:0:0:
261,188,115924,1,0,0:0:0:0:
256,184,116050,1,8,0:0:0:0:
256,192,116813,1,8,0:0:0:0:
256,192,116940,1,8,0:0:0:0:
256,192,117067,1,0,0:0:0:0:
256,192,117449,1,0,0:0:0:0:
256,192,117830,1,8,0:0:0:0:
256,192,118084,1,0,0:0:0:0:
256,188,118339,1,0,0:0:0:0:
256,188,119101,1,12,0:0:0:0:
256,188,119864,1,0,0:0:0:0:
244,195,119992,1,0,0:0:0:0:
256,188,120118,1,8,0:0:0:0:
256,192,120881,1,8,0:0:0:0:
256,192,121008,1,8,0:0:0:0:
256,192,121135,1,0,0:0:0:0:
256,192,121517,1,0,0:0:0:0:
256,192,121898,1,0,0:0:0:0:
256,192,122025,1,0,0:0:0:0:
256,192,122152,1,8,0:0:0:0:
256,192,122406,1,0,0:0:0:0:
256,192,122661,1,8,0:0:0:0:
251,200,122915,1,0,0:0:0:0:
252,192,123169,1,12,0:0:0:0:
256,192,123932,1,8,0:0:0:0:
256,192,124059,1,8,0:0:0:0:
256,192,124186,1,0,0:0:0:0:
256,188,124949,1,0,0:0:0:0:
256,188,125076,1,0,0:0:0:0:
256,188,125203,1,8,0:0:0:0:
256,192,125584,1,8,0:0:0:0:
256,192,125966,1,8,0:0:0:0:
256,188,126093,1,0,0:0:0:0:
256,192,126220,1,8,0:0:0:0:
256,192,126474,1,0,0:0:0:0:
256,192,126983,1,0,0:0:0:0:
256,192,127237,1,4,0:0:0:0:
256,192,127491,8,0,128762,0:0:0:0:
256,192,129271,5,8,0:0:0:0:
256,192,129652,1,0,0:0:0:0:
256,192,130033,1,0,0:0:0:0:
256,192,130161,1,0,0:0:0:0:
256,192,130288,1,8,0:0:0:0:
256,192,130542,1,8,0:0:0:0:
256,192,130669,1,0,0:0:0:0:
256,192,130796,1,8,0:0:0:0:
256,196,131050,1,0,0:0:0:0:
256,192,131305,1,12,0:0:0:0:
256,192,132068,1,0,0:0:0:0:
256,192,132195,1,0,0:0:0:0:
256,192,132322,1,8,0:0:0:0:
256,192,133085,1,8,0:0:0:0:
256,192,133212,1,8,0:0:0:0:
256,192,133340,1,0,0:0:0:0:
256,192,133721,1,8,0:0:0:0:
256,192,134102,1,0,0:0:0:0:
256,184,134229,1,0,0:0:0:0:
256,184,134357,1,8,0:0:0:0:
244,176,134610,1,0,0:0:0:0:
256,192,135372,1,12,0:0:0:0:
252,192,136135,1,8,0:0:0:0:
233,186,136263,1,8,0:0:0:0:
252,192,136389,1,0,0:0:0:0:
252,192,137152,1,0,0:0:0:0:
252,192,137279,1,0,0:0:0:0:
252,192,137406,1,8,0:0:0:0:
252,192,137788,1,8,0:0:0:0:
252,192,138169,1,8,0:0:0:0:
252,192,138296,1,0,0:0:0:0:
252,192,138423,1,8,0:0:0:0:
256,192,138678,1,0,0:0:0:0:
256,192,138932,1,8,0:0:0:0:
252,192,139186,1,0,0:0:0:0:
256,192,139440,1,12,0:0:0:0:
256,192,140203,1,8,0:0:0:0:
231,177,140331,1,8,0:0:0:0:
256,192,140457,1,0,0:0:0:0:
256,192,141220,1,0,0:0:0:0:
256,192,141347,1,0,0:0:0:0:
256,192,141474,1,8,0:0:0:0:
256,192,141856,1,8,0:0:0:0:
256,192,142237,1,8,0:0:0:0:
256,192,142364,1,0,0:0:0:0:
256,192,142491,1,8,0:0:0:0:
256,192,142745,1,0,0:0:0:0:
256,192,143254,1,0,0:0:0:0:
256,192,143508,1,4,0:0:0:0:
256,192,144271,1,8,0:0:0:0:
256,192,144398,1,0,0:0:0:0:
256,192,144525,1,8,0:0:0:0:
256,192,144779,1,8,0:0:0:0:
256,192,145033,1,8,0:0:0:0:
256,192,145288,1,0,0:0:0:0:
256,176,145415,1,0,0:0:0:0:
256,192,145542,1,8,0:0:0:0:
256,192,145796,1,8,0:0:0:0:
256,192,145923,1,0,0:0:0:0:
256,192,146178,1,0,0:0:0:0:
256,192,146305,1,8,0:0:0:0:
256,192,146432,1,8,0:0:0:0:
256,192,146559,1,0,0:0:0:0:
256,192,146813,1,8,0:0:0:0:
256,192,146940,1,0,0:0:0:0:
256,192,147067,1,8,0:0:0:0:
232,192,147195,1,8,0:0:0:0:
232,192,147322,1,0,0:0:0:0:
256,192,147576,1,4,0:0:0:0:
256,192,148339,1,8,0:0:0:0:
256,192,148466,1,0,0:0:0:0:
256,192,148593,1,8,0:0:0:0:
256,192,149357,1,0,0:0:0:0:
256,192,149484,1,0,0:0:0:0:
256,192,149610,1,8,0:0:0:0:
256,192,149991,1,0,0:0:0:0:
256,192,150372,1,8,0:0:0:0:
256,192,150500,1,0,0:0:0:0:
256,192,150628,1,8,0:0:0:0:
256,192,151008,1,0,0:0:0:0:
256,192,151389,1,0,0:0:0:0:
256,192,151644,1,4,0:0:0:0:
256,192,152406,1,0,0:0:0:0:
256,192,152533,1,0,0:0:0:0:
256,192,152661,1,8,0:0:0:0:
256,192,153423,1,0,0:0:0:0:
256,192,153550,1,0,0:0:0:0:
256,192,153678,1,8,0:0:0:0:
256,192,154059,1,0,0:0:0:0:
256,192,154440,1,8,0:0:0:0:
256,192,154567,1,0,0:0:0:0:
256,192,154695,1,8,0:0:0:0:
256,192,154949,1,0,0:0:0:0:
256,192,155203,1,8,0:0:0:0:
247,191,155457,1,0,0:0:0:0:
256,192,155711,1,12,0:0:0:0:
256,192,156474,1,0,0:0:0:0:
256,192,156601,1,0,0:0:0:0:
256,192,156728,1,8,0:0:0:0:
256,196,157491,1,8,0:0:0:0:
256,196,157618,1,8,0:0:0:0:
256,196,157745,1,0,0:0:0:0:
256,192,158127,1,0,0:0:0:0:
256,192,158508,1,0,0:0:0:0:
256,192,158635,1,0,0:0:0:0:
256,192,158762,1,8,0:0:0:0:
256,192,159271,1,0,0:0:0:0:
256,192,159525,1,0,0:0:0:0:
256,192,159779,1,12,0:0:0:0:
256,192,160033,1,0,0:0:0:0:
256,192,160288,1,8,0:0:0:0:
256,192,160542,1,8,0:0:0:0:
256,192,160669,1,0,0:0:0:0:
256,192,160796,1,8,0:0:0:0:
256,192,161559,1,8,0:0:0:0:
256,192,161686,1,0,0:0:0:0:
256,192,161813,1,0,0:0:0:0:
256,196,162195,1,0,0:0:0:0:
256,196,162576,1,0,0:0:0:0:
256,196,162703,1,0,0:0:0:0:
256,196,162830,1,8,0:0:0:0:
256,192,163084,1,0,0:0:0:0:
256,192,163339,1,8,0:0:0:0:
268,192,163466,1,8,0:0:0:0:
256,196,163593,1,0,0:0:0:0:
256,192,163847,1,12,0:0:0:0:
256,188,164610,1,0,0:0:0:0:
256,188,164737,1,0,0:0:0:0:
256,188,164864,1,8,0:0:0:0:
256,188,165627,1,0,0:0:0:0:
256,188,165754,1,0,0:0:0:0:
256,188,165881,1,8,0:0:0:0:
256,188,166262,1,0,0:0:0:0:
256,188,166644,1,8,0:0:0:0:
256,188,166771,1,0,0:0:0:0:
256,188,166898,1,8,0:0:0:0:
256,188,167661,1,0,0:0:0:0:
256,192,167915,1,12,0:0:0:0:
256,192,168678,1,8,0:0:0:0:
256,192,168805,1,0,0:0:0:0:
256,192,168932,1,8,0:0:0:0:
256,192,169695,1,0,0:0:0:0:
256,192,169822,1,0,0:0:0:0:
256,192,169949,1,8,0:0:0:0:
256,192,170330,1,0,0:0:0:0:
256,192,170711,1,0,0:0:0:0:
256,192,170839,1,0,0:0:0:0:
256,192,170966,1,8,0:0:0:0:
256,192,171347,1,0,0:0:0:0:
256,182,171474,1,8,0:0:0:0:
256,192,171728,1,0,0:0:0:0:
256,192,171983,1,12,0:0:0:0:
256,182,172364,1,0,0:0:0:0:
256,192,172491,1,8,0:0:0:0:
256,192,172618,1,8,0:0:0:0:
256,196,172745,1,0,0:0:0:0:
256,196,173000,1,0,0:0:0:0:
260,188,173127,1,8,0:0:0:0:
260,188,173254,1,8,0:0:0:0:
256,192,173381,1,8,0:0:0:0:
256,196,173762,1,0,0:0:0:0:
256,196,173889,1,0,0:0:0:0:
256,196,174017,1,8,0:0:0:0:
260,188,174144,1,8,0:0:0:0:
256,196,174525,1,8,0:0:0:0:
288,204,174653,1,0,0:0:0:0:
256,196,174779,1,0,0:0:0:0:
288,204,174906,1,8,0:0:0:0:
276,196,175161,1,0,0:0:0:0:
272,200,175288,1,8,0:0:0:0:
256,196,175415,1,0,0:0:0:0:
272,200,175542,1,8,0:0:0:0:
272,200,175669,1,0,0:0:0:0:
272,200,175796,1,8,0:0:0:0:
272,200,175923,1,8,0:0:0:0:
276,196,176050,1,8,0:0:0:0:
272,200,176178,1,0,0:0:0:0:
272,200,176305,1,8,0:0:0:0:
272,200,176432,1,0,0:0:0:0:
272,200,176559,1,0,0:0:0:0:
272,200,176686,1,0,0:0:0:0:
256,196,176813,1,8,0:0:0:0:
256,196,176940,1,8,0:0:0:0:
256,196,177067,1,0,0:0:0:0:
256,196,177195,1,8,0:0:0:0:
252,200,177322,1,0,0:0:0:0:
256,196,177449,1,0,0:0:0:0:
256,192,177576,1,8,0:0:0:0:
256,196,177703,1,8,0:0:0:0:
256,196,177830,1,0,0:0:0:0:
256,192,178085,12,0,179864,0:0:0:0:
256,192,180118,5,4,0:0:0:0:
256,192,180626,5,8,0:0:0:0:
256,192,180880,1,0,0:0:0:0:
256,192,181897,1,0,0:0:0:0:
256,192,182151,1,8,0:0:0:0:
256,192,182406,1,0,0:0:0:0:
256,192,182914,1,0,0:0:0:0:
256,192,183422,1,0,0:0:0:0:
256,192,183677,1,8,0:0:0:0:
256,192,183931,1,0,0:0:0:0:
256,192,184185,1,8,0:0:0:0:
256,192,184439,1,8,0:0:0:0:
256,192,184948,1,0,0:0:0:0:
256,192,186219,1,0,0:0:0:0:
256,192,186982,1,0,0:0:0:0:
252,196,187236,1,8,0:0:0:0:
256,192,187490,1,0,0:0:0:0:
256,192,188253,1,0,0:0:0:0:
256,192,188507,1,0,0:0:0:0:
256,192,188761,1,8,0:0:0:0:
256,192,189016,1,0,0:0:0:0:
256,192,190033,1,8,0:0:0:0:
256,192,190287,1,0,0:0:0:0:
256,192,190541,1,0,0:0:0:0:
256,192,191050,1,0,0:0:0:0:
256,192,191558,1,0,0:0:0:0:
256,192,191812,1,8,0:0:0:0:
256,192,192067,1,0,0:0:0:0:
256,192,192321,1,8,0:0:0:0:
256,192,192575,1,8,0:0:0:0:
256,192,193083,1,0,0:0:0:0:
256,192,194355,1,8,0:0:0:0:
256,192,194609,1,0,0:0:0:0:
256,192,194863,1,8,0:0:0:0:
256,192,195117,1,0,0:0:0:0:
256,192,195372,1,0,0:0:0:0:
252,192,195626,1,8,0:0:0:0:
252,192,195880,1,0,0:0:0:0:
252,192,196134,1,0,0:0:0:0:
252,192,196261,1,8,0:0:0:0:
252,192,196389,1,8,0:0:0:0:
256,192,196643,1,0,0:0:0:0:
256,192,196897,1,8,0:0:0:0:
256,192,197151,1,0,0:0:0:0:
256,192,198168,1,0,0:0:0:0:
256,192,198422,1,8,0:0:0:0:
256,192,198677,1,8,0:0:0:0:
256,192,199185,1,0,0:0:0:0:
256,192,199694,1,0,0:0:0:0:
256,192,199948,1,0,0:0:0:0:
256,192,200202,1,0,0:0:0:0:
256,192,200456,1,8,0:0:0:0:
256,192,200711,1,8,0:0:0:0:
256,192,201219,1,0,0:0:0:0:
256,192,202236,1,0,0:0:0:0:
256,192,202490,1,8,0:0:0:0:
256,192,203253,1,8,0:0:0:0:
256,192,203507,1,0,0:0:0:0:
256,192,204524,1,8,0:0:0:0:
256,192,204778,1,0,0:0:0:0:
256,192,205033,1,8,0:0:0:0:
256,192,205287,1,8,0:0:0:0:
256,192,205795,1,0,0:0:0:0:
256,192,206304,1,0,0:0:0:0:
256,192,206558,1,8,0:0:0:0:
256,192,206812,1,8,0:0:0:0:
256,192,207321,1,0,0:0:0:0:
256,192,207829,1,8,0:0:0:0:
256,192,208083,1,0,0:0:0:0:
256,192,208338,1,0,0:0:0:0:
256,192,208592,1,8,0:0:0:0:
256,192,208846,1,0,0:0:0:0:
256,192,209355,1,0,0:0:0:0:
256,192,210626,1,0,0:0:0:0:
256,192,211389,1,0,0:0:0:0:
256,192,211516,1,0,0:0:0:0:
256,192,211643,1,8,0:0:0:0:
256,192,211897,1,0,0:0:0:0:
256,192,212151,1,8,0:0:0:0:
256,192,212406,1,8,0:0:0:0:
256,192,212660,1,8,0:0:0:0:
256,192,212914,1,0,0:0:0:0:
256,192,213168,1,8,0:0:0:0:
256,192,213422,1,0,0:0:0:0:
256,192,213677,1,0,0:0:0:0:
256,192,214185,1,0,0:0:0:0:
256,192,214439,1,8,0:0:0:0:
256,192,214694,1,8,0:0:0:0:
256,192,215456,1,0,0:0:0:0:
256,192,215965,1,0,0:0:0:0:
256,192,216728,1,8,0:0:0:0:
256,192,216982,1,0,0:0:0:0:
256,192,217236,1,8,0:0:0:0:
256,192,217490,1,0,0:0:0:0:
256,192,217745,1,0,0:0:0:0:
256,192,218761,1,0,0:0:0:0:
256,192,219524,1,0,0:0:0:0:
256,192,219778,1,8,0:0:0:0:
256,192,220033,1,0,0:0:0:0:
256,192,220287,1,8,0:0:0:0:
256,192,220541,1,8,0:0:0:0:
256,192,220795,1,8,0:0:0:0:
256,192,221050,1,0,0:0:0:0:
256,192,221304,1,8,0:0:0:0:
256,192,221558,1,0,0:0:0:0:
256,188,221812,1,0,0:0:0:0:
256,192,222321,1,0,0:0:0:0:
256,192,222575,1,8,0:0:0:0:
256,192,222829,1,8,0:0:0:0:
256,196,223592,1,0,0:0:0:0:
256,196,224100,1,0,0:0:0:0:
256,192,224863,1,8,0:0:0:0:
256,192,225117,1,0,0:0:0:0:
256,192,225372,1,8,0:0:0:0:
256,192,225626,1,0,0:0:0:0:
256,192,225880,1,0,0:0:0:0:
256,192,226897,1,0,0:0:0:0:
256,192,227914,1,8,0:0:0:0:
256,188,228168,1,0,0:0:0:0:
256,188,228294,1,8,0:0:0:0:
256,188,228550,1,0,0:0:0:0:
256,188,228677,1,8,0:0:0:0:
256,188,228804,1,8,0:0:0:0:
256,188,228935,1,0,0:0:0:0:
256,192,229189,1,0,0:0:0:0:
256,192,229443,1,8,0:0:0:0:
252,192,229697,1,0,0:0:0:0:
248,188,230206,1,8,0:0:0:0:
252,192,230460,1,0,0:0:0:0:
224,184,230714,1,0,0:0:0:0:
224,184,230968,1,8,0:0:0:0:
240,184,231223,1,0,0:0:0:0:
240,184,231350,1,0,0:0:0:0:
256,192,231477,1,8,0:0:0:0:
256,192,231731,1,0,0:0:0:0:
256,192,232240,1,8,0:0:0:0:
248,192,232494,1,0,0:0:0:0:
256,192,232621,1,0,0:0:0:0:
256,192,232748,1,8,0:0:0:0:
256,192,232875,1,0,0:0:0:0:
256,192,233002,1,8,0:0:0:0:
256,192,233426,1,8,0:0:0:0:
236,184,233807,1,0,0:0:0:0:
256,192,234273,1,8,0:0:0:0:
236,184,234401,1,8,0:0:0:0:
256,192,234528,1,0,0:0:0:0:
264,200,234782,1,0,0:0:0:0:
264,200,235036,1,8,0:0:0:0:
256,192,235545,1,0,0:0:0:0:
256,192,235799,1,8,0:0:0:0:
256,192,236053,1,0,0:0:0:0:
264,200,236307,1,0,0:0:0:0:
256,192,236562,1,8,0:0:0:0:
256,192,236816,1,8,0:0:0:0:
256,192,237070,1,0,0:0:0:0:
256,192,237494,1,8,0:0:0:0:
256,192,237875,1,8,0:0:0:0:
256,192,238341,1,8,0:0:0:0:
256,192,238596,1,0,0:0:0:0:
256,192,238850,1,0,0:0:0:0:
256,188,239104,1,8,0:0:0:0:
256,188,239358,1,0,0:0:0:0:
256,192,239485,1,0,0:0:0:0:
256,188,239612,1,0,0:0:0:0:
256,188,239867,1,8,0:0:0:0:
256,188,240375,1,0,0:0:0:0:
256,192,240629,1,8,0:0:0:0:
256,192,240884,1,0,0:0:0:0:
256,192,241011,1,0,0:0:0:0:
256,192,241138,1,8,0:0:0:0:
252,200,241392,1,0,0:0:0:0:
256,192,241519,1,8,0:0:0:0:
252,200,241773,1,0,0:0:0:0:
252,200,241901,1,8,0:0:0:0:
256,192,242409,1,8,0:0:0:0:
256,192,242663,1,0,0:0:0:0:
256,192,242918,1,8,0:0:0:0:
256,192,243045,1,0,0:0:0:0:
256,192,243172,1,8,0:0:0:0:
256,192,243426,1,8,0:0:0:0:
256,192,243680,1,0,0:0:0:0:
256,192,244189,1,0,0:0:0:0:
244,188,244443,1,0,0:0:0:0:
244,188,244697,1,8,0:0:0:0:
248,188,244951,1,0,0:0:0:0:
248,188,245079,1,0,0:0:0:0:
244,188,245206,1,8,0:0:0:0:
244,188,245460,1,0,0:0:0:0:
244,188,245587,1,0,0:0:0:0:
248,188,245841,1,8,0:0:0:0:
256,192,245968,1,8,0:0:0:0:
256,192,246223,1,0,0:0:0:0:
256,192,246477,1,8,0:0:0:0:
268,184,246604,1,8,0:0:0:0:
256,192,246731,1,0,0:0:0:0:
256,192,246985,1,0,0:0:0:0:
256,192,247112,1,8,0:0:0:0:
256,192,247240,1,8,0:0:0:0:
256,192,247367,1,0,0:0:0:0:
248,204,247494,1,8,0:0:0:0:
248,208,247748,1,0,0:0:0:0:
256,192,247875,1,8,0:0:0:0:
248,204,248129,1,0,0:0:0:0:
256,192,248257,1,8,0:0:0:0:
256,192,248511,1,0,0:0:0:0:
260,188,248638,1,0,0:0:0:0:
256,192,248765,1,8,0:0:0:0:
256,192,249019,1,0,0:0:0:0:
252,188,249273,1,8,0:0:0:0:
264,176,249655,1,0,0:0:0:0:
256,188,249782,1,0,0:0:0:0:
256,188,250036,1,8,0:0:0:0:
260,192,250163,1,8,0:0:0:0:
256,188,250290,1,0,0:0:0:0:
264,192,250418,1,8,0:0:0:0:
264,192,250545,1,0,0:0:0:0:
260,192,250799,1,0,0:0:0:0:
260,192,251053,1,0,0:0:0:0:
260,192,251180,1,0,0:0:0:0:
260,192,251307,1,8,0:0:0:0:
264,192,251434,1,8,0:0:0:0:
260,192,251562,1,0,0:0:0:0:
256,192,251816,1,8,0:0:0:0:
256,192,251943,1,0,0:0:0:0:
256,192,252197,1,0,0:0:0:0:
272,192,252324,1,8,0:0:0:0:
272,192,252579,1,0,0:0:0:0:
292,176,252706,1,0,0:0:0:0:
292,176,252833,1,8,0:0:0:0:
292,176,253087,1,0,0:0:0:0:
256,192,253341,1,8,0:0:0:0:
256,192,253850,1,8,0:0:0:0:
256,192,254104,1,8,0:0:0:0:
256,192,254231,1,0,0:0:0:0:
256,192,254358,1,8,0:0:0:0:
256,192,254612,1,8,0:0:0:0:
256,192,254867,1,0,0:0:0:0:
256,192,255121,1,0,0:0:0:0:
256,192,255375,1,8,0:0:0:0:
256,192,255884,1,0,0:0:0:0:
256,192,256392,1,0,0:0:0:0:
256,192,256901,1,8,0:0:0:0:
256,192,257409,1,0,0:0:0:0:
256,192,257918,1,0,0:0:0:0:
256,192,258172,1,8,0:0:0:0:
264,192,258299,1,8,0:0:0:0:
264,192,258426,1,0,0:0:0:0:
256,192,258680,1,8,0:0:0:0:
256,192,258934,1,0,0:0:0:0:
252,184,259189,1,0,0:0:0:0:
264,192,259316,1,0,0:0:0:0:
256,192,259443,1,8,0:0:0:0:
256,188,259697,1,4,0:0:0:0:
256,188,259951,1,4,0:0:0:0:
256,188,260206,1,12,0:0:0:0:
256,188,260460,1,0,0:0:0:0:
256,188,260587,1,8,0:0:0:0:
256,188,260841,1,8,0:0:0:0:
256,188,260968,1,0,0:0:0:0:
256,188,261096,1,0,0:0:0:0:
256,188,261223,1,8,0:0:0:0:
256,188,261350,1,8,0:0:0:0:
256,188,261477,1,4,0:0:0:0:
256,188,261985,1,0,0:0:0:0:
152,256,262494,1,8,0:0:0:0:
256,192,262621,1,0,0:0:0:0:
256,192,262875,1,0,0:0:0:0:
256,192,263002,1,8,0:0:0:0:
256,192,263257,1,0,0:0:0:0:
256,192,263511,1,8,0:0:0:0:
256,192,263765,1,0,0:0:0:0:
256,192,263892,1,0,0:0:0:0:
256,192,264019,1,8,0:0:0:0:
256,192,264273,1,8,0:0:0:0:
256,192,264528,1,0,0:0:0:0:
256,192,264655,1,8,0:0:0:0:
256,192,264782,1,0,0:0:0:0:
256,192,264909,1,0,0:0:0:0:
256,192,265036,1,8,0:0:0:0:
256,192,265290,1,8,0:0:0:0:
256,192,265418,1,0,0:0:0:0:
256,192,265545,1,12,0:0:0:0:
248,188,265926,1,0,0:0:0:0:
248,188,266053,1,8,0:0:0:0:
252,192,266307,1,0,0:0:0:0:
252,192,266562,1,8,0:0:0:0:
252,192,266689,1,0,0:0:0:0:
252,192,266943,1,0,0:0:0:0:
252,192,267070,1,8,0:0:0:0:
252,192,267324,1,0,0:0:0:0:
256,192,267579,1,8,0:0:0:0:
256,192,267833,1,0,0:0:0:0:
248,184,267960,1,0,0:0:0:0:
256,192,268087,1,8,0:0:0:0:
248,184,268341,1,8,0:0:0:0:
248,184,268468,1,0,0:0:0:0:
248,184,268596,1,8,0:0:0:0:
256,192,268850,1,0,0:0:0:0:
256,192,269104,1,8,0:0:0:0:
256,192,269231,1,0,0:0:0:0:
256,192,269358,1,0,0:0:0:0:
256,188,269485,1,0,0:0:0:0:
256,192,269612,1,12,0:0:0:0:
256,192,269994,1,0,0:0:0:0:
256,192,270121,1,8,0:0:0:0:
256,192,270375,1,0,0:0:0:0:
256,192,270502,1,8,0:0:0:0:
256,192,270629,1,8,0:0:0:0:
260,204,270884,1,8,0:0:0:0:
260,204,271011,1,0,0:0:0:0:
256,192,271138,1,8,0:0:0:0:
256,192,271392,1,8,0:0:0:0:
256,192,271519,1,8,0:0:0:0:
256,192,271646,1,0,0:0:0:0:
247,189,271901,1,0,0:0:0:0:
247,189,272028,1,8,0:0:0:0:
247,189,272282,1,8,0:0:0:0:
247,189,272409,1,0,0:0:0:0:
256,192,272663,1,8,0:0:0:0:
247,189,272918,1,8,0:0:0:0:
256,193,273045,1,8,0:0:0:0:
255,193,273172,1,0,0:0:0:0:
256,192,273426,1,0,0:0:0:0:
256,192,273680,1,12,0:0:0:0:
256,192,273934,1,0,0:0:0:0:
256,192,274189,1,8,0:0:0:0:
256,192,274443,1,0,0:0:0:0:
264,196,274697,1,8,0:0:0:0:
256,192,274951,1,8,0:0:0:0:
256,192,275079,1,0,0:0:0:0:
264,196,275333,1,0,0:0:0:0:
256,192,275460,1,0,0:0:0:0:
256,192,275714,1,8,0:0:0:0:
256,192,275968,1,0,0:0:0:0:
256,192,276223,1,0,0:0:0:0:
256,192,276350,1,8,0:0:0:0:
256,192,276477,1,0,0:0:0:0:
256,192,276604,1,0,0:0:0:0:
256,192,276731,1,8,0:0:0:0:
256,192,276858,1,0,0:0:0:0:
256,192,276985,1,8,0:0:0:0:
256,192,277112,1,0,0:0:0:0:
256,192,277240,1,8,0:0:0:0:
256,192,277367,1,8,0:0:0:0:
256,192,277494,1,0,0:0:0:0:
256,192,277621,1,0,0:0:0:0:
256,192,277748,1,12,0:0:0:0:
256,192,278257,1,0,0:0:0:0:
256,192,278765,1,8,0:0:0:0:
256,192,278892,1,0,0:0:0:0:
256,192,279146,1,0,0:0:0:0:
256,192,279273,1,8,0:0:0:0:
256,192,279528,1,0,0:0:0:0:
256,192,279782,1,8,0:0:0:0:
256,192,280036,1,0,0:0:0:0:
256,192,280163,1,0,0:0:0:0:
256,192,280290,1,8,0:0:0:0:
256,192,280545,1,8,0:0:0:0:
256,192,280672,1,8,0:0:0:0:
256,192,280799,1,0,0:0:0:0:
256,192,280926,1,0,0:0:0:0:
256,192,281053,1,8,0:0:0:0:
288,180,281180,1,0,0:0:0:0:
256,192,281307,1,8,0:0:0:0:
256,192,281562,1,0,0:0:0:0:
256,192,281816,1,12,0:0:0:0:
250,187,282197,1,0,0:0:0:0:
256,192,282324,1,8,0:0:0:0:
256,192,282579,1,0,0:0:0:0:
256,192,282833,1,8,0:0:0:0:
256,192,282960,1,0,0:0:0:0:
256,192,283214,1,0,0:0:0:0:
256,192,283341,1,8,0:0:0:0:
256,192,283596,1,0,0:0:0:0:
256,192,283850,1,8,0:0:0:0:
444,260,284104,1,0,0:0:0:0:
252,172,284231,1,0,0:0:0:0:
256,192,284358,1,8,0:0:0:0:
256,192,284612,1,8,0:0:0:0:
256,192,284740,1,0,0:0:0:0:
256,192,284867,1,8,0:0:0:0:
256,192,284994,1,8,0:0:0:0:
256,192,285121,1,0,0:0:0:0:
256,192,285375,1,8,0:0:0:0:
256,192,285502,1,0,0:0:0:0:
256,192,285629,1,0,0:0:0:0:
256,192,285757,1,8,0:0:0:0:
256,192,285884,1,4,0:0:0:0:
262,188,286265,1,0,0:0:0:0:
256,192,286392,1,8,0:0:0:0:
256,192,286646,1,8,0:0:0:0:
256,192,286773,1,0,0:0:0:0:
256,192,286901,1,8,0:0:0:0:
256,192,287155,1,0,0:0:0:0:
256,192,287282,1,0,0:0:0:0:
256,192,287409,1,8,0:0:0:0:
256,192,287663,1,8,0:0:0:0:
256,192,287790,1,8,0:0:0:0:
256,192,287918,1,0,0:0:0:0:
256,192,288172,1,0,0:0:0:0:
256,192,288299,1,8,0:0:0:0:
267,192,288426,1,0,0:0:0:0:
267,192,288553,1,0,0:0:0:0:
267,192,288680,1,8,0:0:0:0:
256,192,288934,1,8,0:0:0:0:
256,192,289189,1,0,0:0:0:0:
256,192,289443,1,8,0:0:0:0:
256,192,289697,1,8,0:0:0:0:
256,192,289824,1,0,0:0:0:0:
256,192,289951,1,8,0:0:0:0:
256,192,290079,1,8,0:0:0:0:
256,192,290206,1,0,0:0:0:0:
256,192,290333,1,0,0:0:0:0:
256,192,290460,1,8,0:0:0:0:
256,192,290714,1,0,0:0:0:0:
256,192,290841,1,0,0:0:0:0:
256,192,290968,1,8,0:0:0:0:
256,192,291223,1,8,0:0:0:0:
256,192,291350,1,0,0:0:0:0:
256,192,291604,1,0,0:0:0:0:
256,192,291731,1,8,0:0:0:0:
256,192,291985,1,0,0:0:0:0:
256,192,292240,12,0,294019,0:0:0:0:
256,192,295035,5,0,0:0:0:0:
256,192,295417,1,8,0:0:0:0:
256,192,295798,1,0,0:0:0:0:
256,184,296053,1,12,0:0:0:0:
256,184,296815,1,0,0:0:0:0:
256,184,296943,1,0,0:0:0:0:
256,184,297069,1,8,0:0:0:0:
256,192,297832,1,8,0:0:0:0:
256,192,297959,1,8,0:0:0:0:
256,192,298086,1,0,0:0:0:0:
256,192,298468,1,0,0:0:0:0:
256,192,298849,1,8,0:0:0:0:
256,192,299103,1,0,0:0:0:0:
256,188,299358,1,0,0:0:0:0:
256,188,300120,1,12,0:0:0:0:
256,188,300883,1,8,0:0:0:0:
256,188,301011,1,0,0:0:0:0:
256,188,301137,1,8,0:0:0:0:
256,192,301900,1,8,0:0:0:0:
256,192,302027,1,8,0:0:0:0:
256,192,302154,1,0,0:0:0:0:
256,192,302536,1,0,0:0:0:0:
256,192,302917,1,0,0:0:0:0:
256,192,303044,1,0,0:0:0:0:
256,192,303171,1,8,0:0:0:0:
256,192,303425,1,0,0:0:0:0:
256,192,303680,1,8,0:0:0:0:
248,200,303806,1,8,0:0:0:0:
246,191,303933,1,0,0:0:0:0:
252,192,304188,1,12,0:0:0:0:
256,192,304951,1,8,0:0:0:0:
256,192,305078,1,8,0:0:0:0:
256,192,305205,1,0,0:0:0:0:
256,188,305968,1,0,0:0:0:0:
256,188,306095,1,0,0:0:0:0:
256,188,306222,1,8,0:0:0:0:
256,192,306603,1,8,0:0:0:0:
256,192,306985,1,8,0:0:0:0:
256,188,307112,1,0,0:0:0:0:
256,192,307239,1,8,0:0:0:0:
256,192,307493,1,0,0:0:0:0:
256,192,308002,1,0,0:0:0:0:
256,192,308256,1,4,0:0:0:0:
256,192,308510,8,0,309781,0:0:0:0:
256,192,310290,5,8,0:0:0:0:
256,192,310671,1,0,0:0:0:0:
256,192,311053,1,0,0:0:0:0:
256,192,311180,1,0,0:0:0:0:
256,192,311307,1,8,0:0:0:0:
256,192,311562,1,8,0:0:0:0:
256,192,311689,1,0,0:0:0:0:
256,192,311816,1,8,0:0:0:0:
256,196,312070,1,0,0:0:0:0:
256,192,312324,1,12,0:0:0:0:
256,192,313087,1,0,0:0:0:0:
264,185,313214,1,0,0:0:0:0:
256,192,313341,1,8,0:0:0:0:
256,192,314104,1,8,0:0:0:0:
256,192,314231,1,8,0:0:0:0:
256,192,314358,1,0,0:0:0:0:
256,192,314740,1,0,0:0:0:0:
256,192,315121,1,0,0:0:0:0:
256,192,315248,1,0,0:0:0:0:
256,192,315375,1,8,0:0:0:0:
256,192,315629,1,0,0:0:0:0:
256,192,316392,1,12,0:0:0:0:
252,192,317155,1,8,0:0:0:0:
264,185,317282,1,0,0:0:0:0:
252,192,317409,1,8,0:0:0:0:
252,192,318172,1,0,0:0:0:0:
252,192,318299,1,0,0:0:0:0:
252,192,318426,1,8,0:0:0:0:
252,192,318807,1,8,0:0:0:0:
252,192,319189,1,8,0:0:0:0:
252,192,319316,1,0,0:0:0:0:
252,192,319443,1,8,0:0:0:0:
256,192,319697,1,0,0:0:0:0:
256,192,319951,1,8,0:0:0:0:
251,199,320206,1,0,0:0:0:0:
256,192,320460,1,12,0:0:0:0:
256,192,321223,1,8,0:0:0:0:
247,197,321350,1,8,0:0:0:0:
256,192,321477,1,0,0:0:0:0:
256,192,322240,1,0,0:0:0:0:
256,192,322367,1,0,0:0:0:0:
256,192,322494,1,8,0:0:0:0:
256,192,322875,1,8,0:0:0:0:
256,192,323257,1,8,0:0:0:0:
256,192,323384,1,0,0:0:0:0:
256,192,323511,1,8,0:0:0:0:
256,192,323765,1,0,0:0:0:0:
256,192,324273,1,0,0:0:0:0:
256,192,324528,1,4,0:0:0:0:
256,188,325290,5,8,0:0:0:0:
256,188,325418,1,0,0:0:0:0:
256,188,325545,1,8,0:0:0:0:
256,188,325926,1,8,0:0:0:0:
256,192,326307,1,0,0:0:0:0:
256,192,326434,1,0,0:0:0:0:
256,192,326562,1,12,0:0:0:0:
256,192,326816,1,8,0:0:0:0:
256,192,326943,1,0,0:0:0:0:
256,192,327197,1,0,0:0:0:0:
256,192,327324,1,8,0:0:0:0:
256,192,327451,1,8,0:0:0:0:
256,192,327579,1,0,0:0:0:0:
252,188,327833,1,0,0:0:0:0:
256,192,327960,1,0,0:0:0:0:
252,188,328087,1,8,0:0:0:0:
252,188,328341,1,0,0:0:0:0:
252,188,328596,1,12,0:0:0:0:
236,192,329358,1,0,0:0:0:0:
236,192,329485,1,0,0:0:0:0:
236,192,329612,1,8,0:0:0:0:
251,199,330375,1,8,0:0:0:0:
256,192,330502,1,8,0:0:0:0:
256,192,330629,1,0,0:0:0:0:
256,192,331011,1,0,0:0:0:0:
256,192,331392,1,0,0:0:0:0:
256,192,331519,1,0,0:0:0:0:
256,192,331646,1,8,0:0:0:0:
256,192,331901,1,0,0:0:0:0:
256,192,332663,1,12,0:0:0:0:
256,192,333426,1,8,0:0:0:0:
256,192,333553,1,0,0:0:0:0:
256,192,333680,1,8,0:0:0:0:
256,192,334443,1,0,0:0:0:0:
256,192,334570,1,8,0:0:0:0:
256,192,334697,1,0,0:0:0:0:
256,192,335079,1,0,0:0:0:0:
256,192,335460,1,0,0:0:0:0:
256,192,335587,1,0,0:0:0:0:
256,192,335714,1,8,0:0:0:0:
256,192,335968,1,0,0:0:0:0:
256,192,336223,1,8,0:0:0:0:
251,199,336477,1,0,0:0:0:0:
256,192,336731,1,12,0:0:0:0:
256,192,337494,1,8,0:0:0:0:
256,192,337621,1,8,0:0:0:0:
256,192,337748,1,0,0:0:0:0:
256,192,338511,1,8,0:0:0:0:
256,192,338638,1,0,0:0:0:0:
256,192,338765,1,8,0:0:0:0:
256,192,339146,1,0,0:0:0:0:
256,192,339528,1,0,0:0:0:0:
256,192,339655,1,0,0:0:0:0:
256,192,339782,1,8,0:0:0:0:
256,192,340037,1,0,0:0:0:0:
256,192,340545,1,0,0:0:0:0:
256,192,340799,1,12,0:0:0:0:
256,192,341562,1,0,0:0:0:0:
256,192,341689,1,0,0:0:0:0:
256,192,341816,1,8,0:0:0:0:
252,192,342579,1,8,0:0:0:0:
252,192,342706,1,0,0:0:0:0:
252,192,342833,1,8,0:0:0:0:
248,184,343215,1,0,0:0:0:0:
256,192,343596,1,0,0:0:0:0:
256,192,343723,1,0,0:0:0:0:
256,192,343850,1,8,0:0:0:0:
256,192,344104,1,8,0:0:0:0:
256,192,344231,1,0,0:0:0:0:
256,192,344359,1,8,0:0:0:0:
256,192,344613,1,0,0:0:0:0:
256,192,344867,1,12,0:0:0:0:
256,192,345630,1,8,0:0:0:0:
243,193,345757,1,8,0:0:0:0:
256,192,345884,1,0,0:0:0:0:
256,192,346647,1,8,0:0:0:0:
256,192,346774,1,0,0:0:0:0:
256,192,346901,1,0,0:0:0:0:
256,192,347282,1,0,0:0:0:0:
256,192,347664,1,0,0:0:0:0:
256,192,347791,1,0,0:0:0:0:
256,192,347918,1,8,0:0:0:0:
92,256,348172,1,0,0:0:0:0:
256,192,348934,1,12,0:0:0:0:
233,196,349697,1,8,0:0:0:0:
256,192,349824,1,0,0:0:0:0:
256,192,349951,1,8,0:0:0:0:
256,196,350714,1,0,0:0:0:0:
256,196,350841,1,0,0:0:0:0:
256,196,350968,1,8,0:0:0:0:
256,188,351350,1,8,0:0:0:0:
256,192,351731,1,8,0:0:0:0:
256,192,351859,1,8,0:0:0:0:
256,192,351986,1,0,0:0:0:0:
256,192,352240,1,0,0:0:0:0:
252,192,352494,1,8,0:0:0:0:
251,199,352748,1,0,0:0:0:0:
252,192,353003,1,12,0:0:0:0:
256,188,353765,1,8,0:0:0:0:
256,188,353892,1,8,0:0:0:0:
256,188,354020,1,0,0:0:0:0:
256,192,354782,1,0,0:0:0:0:
256,192,354909,1,0,0:0:0:0:
256,192,355037,1,8,0:0:0:0:
256,192,355418,1,0,0:0:0:0:
256,192,355799,1,8,0:0:0:0:
251,199,355926,1,8,0:0:0:0:
256,192,356053,1,0,0:0:0:0:
256,192,356308,1,0,0:0:0:0:
256,192,356816,1,0,0:0:0:0:
256,192,357070,1,12,0:0:0:0:
256,192,357833,1,0,0:0:0:0:
256,192,357960,1,0,0:0:0:0:
256,192,358087,1,8,0:0:0:0:
256,192,358850,1,8,0:0:0:0:
256,192,358977,1,0,0:0:0:0:
256,192,359104,1,8,0:0:0:0:
256,192,359358,1,0,0:0:0:0:
256,192,359485,1,8,0:0:0:0:
256,192,359740,1,0,0:0:0:0:
256,192,359867,1,8,0:0:0:0:
256,192,359994,1,8,0:0:0:0:
256,192,360121,1,0,0:0:0:0:
256,192,360376,1,0,0:0:0:0:
264,192,360503,1,0,0:0:0:0:
256,192,360630,1,8,0:0:0:0:
264,192,360884,1,8,0:0:0:0:
256,192,361138,1,4,0:0:0:0:
256,192,361392,1,0,0:0:0:0:
256,192,361647,1,8,0:0:0:0:
256,192,361901,1,0,0:0:0:0:
256,192,362155,1,8,0:0:0:0:
256,192,362409,1,0,0:0:0:0:
256,192,362537,1,8,0:0:0:0:
256,192,362791,1,8,0:0:0:0:
252,192,362918,1,0,0:0:0:0:
252,192,363172,1,0,0:0:0:0:
252,192,363299,1,8,0:0:0:0:
252,192,363426,1,8,0:0:0:0:
252,192,363553,1,0,0:0:0:0:
252,192,363808,1,0,0:0:0:0:
252,192,363935,1,8,0:0:0:0:
252,192,364189,1,8,0:0:0:0:
252,192,364443,1,8,0:0:0:0:
252,192,364570,1,0,0:0:0:0:
252,192,364825,1,8,0:0:0:0:
252,192,364952,1,0,0:0:0:0:
256,192,365206,1,8,0:0:0:0:
256,192,365460,1,0,0:0:0:0:
256,192,365587,1,0,0:0:0:0:
256,192,365715,1,8,0:0:0:0:
260,188,365842,1,8,0:0:0:0:
256,192,365969,1,0,0:0:0:0:
256,192,366223,1,8,0:0:0:0:
256,192,366477,1,0,0:0:0:0:
256,192,366731,1,0,0:0:0:0:
256,192,366986,1,8,0:0:0:0:
256,192,367113,1,0,0:0:0:0:
256,192,367240,1,8,0:0:0:0:
243,193,367494,1,8,0:0:0:0:
256,192,367621,1,8,0:0:0:0:
243,193,367748,1,0,0:0:0:0:
256,192,367876,1,0,0:0:0:0:
243,194,368003,1,8,0:0:0:0:
256,192,368257,1,0,0:0:0:0:
241,194,368511,1,0,0:0:0:0:
272,200,368638,1,0,0:0:0:0:
256,192,368765,1,8,0:0:0:0:
268,200,368892,1,8,0:0:0:0:
256,192,369020,1,0,0:0:0:0:
252,192,369274,1,4,0:0:0:0:
256,192,370037,1,0,0:0:0:0:
256,192,370164,1,0,0:0:0:0:
256,192,370291,1,8,0:0:0:0:
256,192,370545,1,0,0:0:0:0:
256,192,370672,1,8,0:0:0:0:
256,192,370926,1,8,0:0:0:0:
256,192,371053,1,0,0:0:0:0:
256,192,371308,1,0,0:0:0:0:
256,192,371689,1,0,0:0:0:0:
256,192,372070,1,0,0:0:0:0:
256,192,372198,1,0,0:0:0:0:
256,192,372325,1,8,0:0:0:0:
256,192,373087,1,0,0:0:0:0:
256,192,373215,1,8,0:0:0:0:
256,192,373342,1,4,0:0:0:0:
256,192,374104,1,0,0:0:0:0:
256,192,374231,1,0,0:0:0:0:
256,192,374359,1,8,0:0:0:0:
256,192,374613,1,8,0:0:0:0:
256,192,374740,1,0,0:0:0:0:
256,192,374867,1,8,0:0:0:0:
256,192,374994,1,8,0:0:0:0:
256,192,375121,1,0,0:0:0:0:
256,192,375376,1,0,0:0:0:0:
256,192,375503,1,0,0:0:0:0:
256,192,375630,1,8,0:0:0:0:
256,192,375757,1,0,0:0:0:0:
245,202,376011,1,0,0:0:0:0:
256,192,376138,1,8,0:0:0:0:
256,192,376392,1,8,0:0:0:0:
256,192,376647,1,0,0:0:0:0:
256,192,376774,1,8,0:0:0:0:
245,202,376901,1,0,0:0:0:0:
256,192,377155,1,0,0:0:0:0:
256,192,377409,1,4,0:0:0:0:
256,192,378172,1,8,0:0:0:0:
256,192,378299,1,8,0:0:0:0:
256,192,378426,1,8,0:0:0:0:
256,192,378681,1,8,0:0:0:0:
256,192,378808,1,0,0:0:0:0:
256,192,379062,1,0,0:0:0:0:
256,192,379189,1,8,0:0:0:0:
256,192,379443,1,0,0:0:0:0:
256,192,379698,1,8,0:0:0:0:
256,192,379825,1,0,0:0:0:0:
256,192,380206,1,0,0:0:0:0:
256,192,380333,1,0,0:0:0:0:
256,192,380460,1,8,0:0:0:0:
245,202,381223,1,8,0:0:0:0:
256,192,381477,1,4,0:0:0:0:
256,192,381731,1,0,0:0:0:0:
256,192,381859,1,0,0:0:0:0:
256,192,381986,1,8,0:0:0:0:
256,192,382240,1,0,0:0:0:0:
256,192,382494,1,0,0:0:0:0:
256,192,382748,1,8,0:0:0:0:
256,192,383003,1,8,0:0:0:0:
256,192,383384,1,0,0:0:0:0:
256,192,383511,1,8,0:0:0:0:
256,192,383765,1,0,0:0:0:0:
256,192,383892,1,8,0:0:0:0:
256,192,384020,1,8,0:0:0:0:
256,192,384274,1,8,0:0:0:0:
256,192,384401,1,0,0:0:0:0:
256,192,384528,1,8,0:0:0:0:
256,192,384782,1,8,0:0:0:0:
256,192,385037,1,0,0:0:0:0:
256,192,385354,1,0,0:0:0:0:
256,192,385545,1,12,0:0:0:0:
256,192,386308,1,8,0:0:0:0:
256,192,386435,1,0,0:0:0:0:
256,192,386562,1,8,0:0:0:0:
256,192,386943,1,0,0:0:0:0:
256,192,387325,1,0,0:0:0:0:
256,192,387579,1,0,0:0:0:0:
256,192,387706,1,8,0:0:0:0:
256,192,387833,1,8,0:0:0:0:
256,192,387960,1,0,0:0:0:0:
256,192,388215,1,0,0:0:0:0:
256,192,388342,1,0,0:0:0:0:
256,192,388596,1,8,0:0:0:0:
244,188,388850,1,0,0:0:0:0:
256,192,388977,1,8,0:0:0:0:
244,188,389231,1,0,0:0:0:0:
244,188,389359,1,8,0:0:0:0:
256,192,389613,1,12,0:0:0:0:
256,192,390376,1,0,0:0:0:0:
256,192,390503,1,0,0:0:0:0:
256,192,390630,1,8,0:0:0:0:
256,192,391392,1,0,0:0:0:0:
256,192,391520,1,0,0:0:0:0:
256,192,391647,1,8,0:0:0:0:
256,192,391774,1,8,0:0:0:0:
256,192,391901,1,8,0:0:0:0:
256,192,392028,1,0,0:0:0:0:
256,192,392282,1,0,0:0:0:0:
256,192,392409,1,8,0:0:0:0:
256,192,392664,1,0,0:0:0:0:
256,192,393172,1,0,0:0:0:0:
256,192,393426,1,8,0:0:0:0:
256,192,393681,1,12,0:0:0:0:
256,192,394443,1,0,0:0:0:0:
256,192,394570,1,0,0:0:0:0:
256,192,394698,1,8,0:0:0:0:
245,191,394952,1,0,0:0:0:0:
256,192,395079,1,8,0:0:0:0:
242,191,395333,1,0,0:0:0:0:
256,192,395460,1,8,0:0:0:0:
256,192,395715,1,0,0:0:0:0:
256,192,396096,1,0,0:0:0:0:
241,192,396477,1,8,0:0:0:0:
256,192,396604,1,0,0:0:0:0:
256,192,396731,1,8,0:0:0:0:
245,191,396986,1,8,0:0:0:0:
256,192,397113,1,0,0:0:0:0:
242,191,397367,1,0,0:0:0:0:
256,192,397494,1,8,0:0:0:0:
256,192,397748,1,12,0:0:0:0:
256,192,398130,1,8,0:0:0:0:
256,192,398511,1,0,0:0:0:0:
256,192,398638,1,8,0:0:0:0:
256,192,398765,1,8,0:0:0:0:
245,191,399020,1,0,0:0:0:0:
256,192,399147,1,0,0:0:0:0:
242,191,399274,1,8,0:0:0:0:
264,180,399401,1,8,0:0:0:0:
256,192,399528,1,0,0:0:0:0:
256,192,399782,1,8,0:0:0:0:
256,192,400164,1,0,0:0:0:0:
256,192,400545,1,8,0:0:0:0:
256,192,400672,1,0,0:0:0:0:
256,192,400799,1,8,0:0:0:0:
246,185,400926,1,8,0:0:0:0:
246,185,401053,1,0,0:0:0:0:
256,192,401308,1,8,0:0:0:0:
256,192,401562,1,0,0:0:0:0:
256,192,401689,1,0,0:0:0:0:
256,192,401816,1,12,0:0:0:0:
256,192,402579,1,8,0:0:0:0:
256,192,402706,1,0,0:0:0:0:
256,192,402833,1,8,0:0:0:0:
256,192,403213,1,0,0:0:0:0:
256,192,403595,1,8,0:0:0:0:
256,192,403722,1,8,0:0:0:0:
256,192,403849,1,8,0:0:0:0:
248,184,404103,1,0,0:0:0:0:
256,192,404230,1,0,0:0:0:0:
248,184,404358,1,0,0:0:0:0:
256,192,404612,1,0,0:0:0:0:
256,192,404739,1,0,0:0:0:0:
256,192,404866,1,8,0:0:0:0:
256,192,405120,1,8,0:0:0:0:
256,192,405629,1,0,0:0:0:0:
256,192,405756,1,0,0:0:0:0:
256,192,405883,1,8,0:0:0:0:
256,192,406052,1,0,0:0:0:0:
256,192,406222,1,0,0:0:0:0:
256,192,406391,1,8,0:0:0:0:
256,192,406561,1,8,0:0:0:0:
256,192,406730,1,0,0:0:0:0:
256,192,406900,1,8,0:0:0:0:
256,192,407069,1,0,0:0:0:0:
256,192,407239,1,0,0:0:0:0:
256,192,407408,1,8,0:0:0:0:
256,192,407578,1,8,0:0:0:0:
256,192,407747,1,0,0:0:0:0:
256,192,407917,1,8,0:0:0:0:
256,192,408086,1,0,0:0:0:0:
256,192,408256,1,8,0:0:0:0:
256,192,408425,1,8,0:0:0:0:
256,192,408595,1,0,0:0:0:0:
256,192,408764,1,0,0:0:0:0:
256,192,408934,1,8,0:0:0:0:
256,192,409103,1,0,0:0:0:0:
256,192,409273,1,0,0:0:0:0:
256,192,409442,1,8,0:0:0:0:
256,192,409612,1,8,0:0:0:0:
256,192,409781,1,0,0:0:0:0:
256,192,409951,1,12,0:0:0:0:
256,192,410714,1,8,0:0:0:0:
256,192,410841,1,0,0:0:0:0:
256,192,410968,1,8,0:0:0:0:
256,192,411222,1,0,0:0:0:0:
234,188,411476,1,0,0:0:0:0:
256,192,411730,1,0,0:0:0:0:
256,192,411858,1,8,0:0:0:0:
256,192,411985,1,8,0:0:0:0:
256,192,412366,1,0,0:0:0:0:
256,192,412747,1,0,0:0:0:0:
256,192,412874,1,8,0:0:0:0:
256,192,413002,1,0,0:0:0:0:
256,192,413256,1,8,0:0:0:0:
256,192,413383,1,8,0:0:0:0:
256,192,413510,1,0,0:0:0:0:
256,192,413637,1,8,0:0:0:0:
256,192,413764,1,0,0:0:0:0:
256,192,413891,1,8,0:0:0:0:
256,192,414019,1,4,0:0:0:0:
256,188,414781,1,8,0:0:0:0:
256,188,414908,1,0,0:0:0:0:
256,188,415036,1,8,0:0:0:0:
244,193,415290,1,0,0:0:0:0:
256,192,415417,1,8,0:0:0:0:
256,192,415671,1,8,0:0:0:0:
251,193,415798,1,0,0:0:0:0:
256,192,416052,1,0,0:0:0:0:
251,193,416307,1,8,0:0:0:0:
256,192,416434,1,0,0:0:0:0:
256,192,416688,1,8,0:0:0:0:
256,192,416815,1,0,0:0:0:0:
256,192,416942,1,0,0:0:0:0:
256,192,417069,1,8,0:0:0:0:
260,200,417197,1,0,0:0:0:0:
257,200,417324,1,8,0:0:0:0:
256,192,417578,1,8,0:0:0:0:
262,203,417832,1,0,0:0:0:0:
256,192,417959,1,0,0:0:0:0:
256,192,418086,1,12,0:0:0:0:
256,192,418849,1,0,0:0:0:0:
256,192,418976,1,8,0:0:0:0:
256,192,419103,1,0,0:0:0:0:
256,192,419866,1,0,0:0:0:0:
256,192,419993,1,0,0:0:0:0:
256,192,420120,1,0,0:0:0:0:
256,192,420502,1,8,0:0:0:0:
256,192,420883,1,8,0:0:0:0:
259,200,421010,1,0,0:0:0:0:
259,200,421137,1,8,0:0:0:0:
256,192,421519,1,8,0:0:0:0:
258,200,421900,1,8,0:0:0:0:
259,200,422027,1,8,0:0:0:0:
259,200,422155,1,4,0:0:0:0:
256,192,422917,1,8,0:0:0:0:
256,192,423044,1,0,0:0:0:0:
256,192,423171,1,8,0:0:0:0:
256,192,423934,1,0,0:0:0:0:
256,192,424061,1,0,0:0:0:0:
256,192,424188,1,8,0:0:0:0:
256,192,424442,1,8,0:0:0:0:
256,192,424569,1,0,0:0:0:0:
256,192,424824,1,0,0:0:0:0:
256,192,424951,1,8,0:0:0:0:
256,192,425078,1,0,0:0:0:0:
256,192,425205,1,8,0:0:0:0:
256,192,425459,1,0,0:0:0:0:
256,192,425714,1,8,0:0:0:0:
256,192,425841,5,8,0:0:0:0:
256,192,425968,1,0,0:0:0:0:
256,192,426227,1,12,0:0:0:0:
260,192,434108,5,4,0:0:0:0:
260,192,434362,1,4,0:0:0:0:
256,192,442243,5,4,0:0:0:0:
256,192,442498,1,4,0:0:0:0:
256,192,450379,5,4,0:0:0:0:
256,192,450633,1,4,0:0:0:0:
256,192,458515,5,4,0:0:0:0:
256,192,458769,1,4,0:0:0:0:
256,192,466650,5,4,0:0:0:0:
256,192,466904,1,4,0:0:0:0:
256,192,473006,5,4,0:0:0:0:
255,194,475040,5,4,0:0:0:0:
256,192,482921,5,4,0:0:0:0:
256,192,483176,1,4,0:0:0:0:
256,192,489277,5,4,0:0:0:0:
256,192,489786,12,0,491057,0:0:0:0:
256,192,491311,5,0,0:0:0:0:
256,192,491565,1,8,0:0:0:0:
256,192,491693,1,0,0:0:0:0:
256,192,491820,1,8,0:0:0:0:
256,192,491947,1,8,0:0:0:0:
256,192,492074,1,0,0:0:0:0:
248,192,492201,1,8,0:0:0:0:
256,192,492328,1,0,0:0:0:0:
256,192,492582,1,0,0:0:0:0:
256,192,492710,1,0,0:0:0:0:
256,192,492837,1,8,0:0:0:0:
256,192,492964,1,8,0:0:0:0:
256,192,493091,1,0,0:0:0:0:
248,192,493218,1,8,0:0:0:0:
256,192,493345,1,0,0:0:0:0:
256,192,493599,1,0,0:0:0:0:
256,192,493854,1,8,0:0:0:0:
256,192,493981,1,8,0:0:0:0:
256,192,494108,1,0,0:0:0:0:
248,192,494235,1,8,0:0:0:0:
256,192,494489,1,8,0:0:0:0:
256,192,494616,1,0,0:0:0:0:
256,192,494871,1,8,0:0:0:0:
256,192,494998,1,8,0:0:0:0:
252,200,495125,1,0,0:0:0:0:
252,200,495252,1,8,0:0:0:0:
252,200,495379,1,0,0:0:0:0:
256,192,495633,1,8,0:0:0:0:
256,192,495760,1,0,0:0:0:0:
256,192,495888,1,8,0:0:0:0:
252,200,496142,1,0,0:0:0:0:
252,200,496269,1,8,0:0:0:0:
252,200,496396,1,0,0:0:0:0:
256,192,496650,1,8,0:0:0:0:
248,200,496777,1,0,0:0:0:0:
248,200,496904,1,8,0:0:0:0:
252,200,497159,1,0,0:0:0:0:
252,200,497286,1,8,0:0:0:0:
252,200,497413,1,0,0:0:0:0:
256,192,497667,1,0,0:0:0:0:
248,200,497921,1,8,0:0:0:0:
252,200,498049,1,8,0:0:0:0:
252,200,498176,1,0,0:0:0:0:
256,192,498303,1,8,0:0:0:0:
252,200,498557,1,8,0:0:0:0:
244,204,498684,1,0,0:0:0:0:
248,200,498938,1,8,0:0:0:0:
244,204,499065,1,8,0:0:0:0:
244,204,499193,1,0,0:0:0:0:
244,204,499320,1,8,0:0:0:0:
252,200,499447,1,0,0:0:0:0:
256,192,499701,1,8,0:0:0:0:
256,192,499829,1,0,0:0:0:0:
256,192,499956,1,8,0:0:0:0:
256,192,500083,1,8,0:0:0:0:
256,192,500210,1,0,0:0:0:0:
248,192,500337,1,8,0:0:0:0:
256,192,500464,1,0,0:0:0:0:
256,192,500718,1,0,0:0:0:0:
256,192,500846,1,0,0:0:0:0:
256,192,500973,1,8,0:0:0:0:
256,192,501100,1,8,0:0:0:0:
256,192,501227,1,0,0:0:0:0:
248,192,501354,1,8,0:0:0:0:
256,192,501481,1,0,0:0:0:0:
256,192,501735,1,0,0:0:0:0:
256,192,501990,1,8,0:0:0:0:
256,192,502117,1,8,0:0:0:0:
256,192,502244,1,0,0:0:0:0:
248,192,502371,1,8,0:0:0:0:
256,192,502625,1,8,0:0:0:0:
256,192,502752,1,0,0:0:0:0:
256,192,503007,1,8,0:0:0:0:
256,192,503134,1,8,0:0:0:0:
252,200,503261,1,0,0:0:0:0:
252,200,503388,1,8,0:0:0:0:
252,200,503515,1,0,0:0:0:0:
256,192,503769,1,8,0:0:0:0:
256,192,503896,1,0,0:0:0:0:
256,192,504024,1,8,0:0:0:0:
252,200,504278,1,0,0:0:0:0:
252,200,504405,1,8,0:0:0:0:
252,200,504532,1,0,0:0:0:0:
256,192,504786,1,8,0:0:0:0:
248,200,504913,1,0,0:0:0:0:
248,200,505040,1,8,0:0:0:0:
252,200,505295,1,0,0:0:0:0:
252,200,505422,1,8,0:0:0:0:
252,200,505549,1,0,0:0:0:0:
256,192,505803,1,0,0:0:0:0:
248,200,506057,1,8,0:0:0:0:
252,200,506185,1,8,0:0:0:0:
252,200,506312,1,0,0:0:0:0:
256,192,506439,1,8,0:0:0:0:
252,200,506693,1,8,0:0:0:0:
244,204,506820,1,0,0:0:0:0:
248,200,507074,1,8,0:0:0:0:
244,204,507201,1,8,0:0:0:0:
244,204,507329,1,0,0:0:0:0:
244,204,507456,5,8,0:0:0:0:
252,200,507583,1,0,0:0:0:0:
256,192,508091,1,8,0:0:0:0:
252,196,508345,1,0,0:0:0:0:
252,196,508472,1,8,0:0:0:0:
256,192,508599,1,0,0:0:0:0:
256,192,508726,1,0,0:0:0:0:
256,192,508854,1,8,0:0:0:0:
256,192,509108,1,0,0:0:0:0:
256,192,509616,1,0,0:0:0:0:
256,192,510125,1,8,0:0:0:0:
252,196,510379,1,8,0:0:0:0:
256,192,510506,1,8,0:0:0:0:
256,192,510633,1,0,0:0:0:0:
256,192,510760,1,8,0:0:0:0:
256,192,510888,1,0,0:0:0:0:
256,192,511142,1,8,0:0:0:0:
256,192,511650,1,0,0:0:0:0:
256,192,512159,1,8,0:0:0:0:
252,188,512413,1,8,0:0:0:0:
256,192,512540,1,8,0:0:0:0:
256,192,512667,1,0,0:0:0:0:
256,192,512921,1,0,0:0:0:0:
256,192,513049,1,0,0:0:0:0:
256,192,513176,1,8,0:0:0:0:
252,200,513430,1,8,0:0:0:0:
252,200,513557,1,8,0:0:0:0:
252,200,513684,1,0,0:0:0:0:
256,192,514193,1,8,0:0:0:0:
252,188,514320,1,0,0:0:0:0:
252,188,514447,1,0,0:0:0:0:
256,192,514574,1,8,0:0:0:0:
256,188,514828,1,8,0:0:0:0:
256,192,514955,1,0,0:0:0:0:
252,200,515210,1,8,0:0:0:0:
252,188,515337,1,0,0:0:0:0:
256,192,515464,1,8,0:0:0:0:
256,208,515591,1,8,0:0:0:0:
256,188,515718,1,0,0:0:0:0:
256,192,516226,1,8,0:0:0:0:
252,188,516354,1,0,0:0:0:0:
255,188,516481,1,8,0:0:0:0:
256,188,516608,1,8,0:0:0:0:
252,188,516735,1,0,0:0:0:0:
256,192,516989,1,0,0:0:0:0:
257,204,517116,1,0,0:0:0:0:
252,188,517243,1,8,0:0:0:0:
255,188,517371,1,0,0:0:0:0:
256,188,517498,1,8,0:0:0:0:
257,204,517625,1,8,0:0:0:0:
256,188,517752,1,0,0:0:0:0:
256,192,518260,1,8,0:0:0:0:
256,192,518388,1,0,0:0:0:0:
256,192,518515,1,0,0:0:0:0:
256,192,518642,1,8,0:0:0:0:
256,192,518896,1,8,0:0:0:0:
256,192,519023,1,0,0:0:0:0:
256,192,519277,1,8,0:0:0:0:
256,192,519404,1,8,0:0:0:0:
256,192,519532,1,0,0:0:0:0:
256,192,519659,1,8,0:0:0:0:
256,192,519786,1,0,0:0:0:0:
256,192,520294,1,8,0:0:0:0:
256,192,520549,1,8,0:0:0:0:
256,192,520676,1,8,0:0:0:0:
256,192,520803,1,0,0:0:0:0:
256,188,521057,1,0,0:0:0:0:
256,192,521184,1,0,0:0:0:0:
256,192,521311,1,8,0:0:0:0:
256,192,521565,1,8,0:0:0:0:
256,192,521693,1,8,0:0:0:0:
256,192,521820,1,0,0:0:0:0:
256,192,522328,1,8,0:0:0:0:
256,192,522455,1,0,0:0:0:0:
256,192,522582,1,0,0:0:0:0:
256,192,522710,1,8,0:0:0:0:
248,196,522964,1,8,0:0:0:0:
248,196,523091,1,0,0:0:0:0:
248,200,523345,1,8,0:0:0:0:
248,200,523472,1,0,0:0:0:0:
248,200,523599,1,8,0:0:0:0:
248,200,523726,1,8,0:0:0:0:
256,192,523854,1,0,0:0:0:0:
256,192,524362,1,0,0:0:0:0:
256,192,524871,1,8,0:0:0:0:
256,192,525888,1,0,0:0:0:0:
256,192,526142,1,0,0:0:0:0:
293,164,526269,1,0,0:0:0:0:
256,192,526396,1,8,0:0:0:0:
256,192,526650,1,0,0:0:0:0:
256,192,526905,1,8,0:0:0:0:
256,188,527921,1,0,0:0:0:0:
256,192,528430,1,8,0:0:0:0:
264,196,528938,1,0,0:0:0:0:
252,192,529955,1,8,0:0:0:0:
252,192,530718,1,8,0:0:0:0:
252,192,530972,1,0,0:0:0:0:
252,192,531481,1,8,0:0:0:0:
260,196,531735,1,8,0:0:0:0:
260,196,531862,1,8,0:0:0:0:
256,192,531989,1,0,0:0:0:0:
256,192,532498,1,0,0:0:0:0:
256,192,533006,1,8,0:0:0:0:
256,192,533769,1,0,0:0:0:0:
256,192,534023,1,8,0:0:0:0:
256,192,534786,1,8,0:0:0:0:
256,192,535040,1,0,0:0:0:0:
256,192,535803,1,0,0:0:0:0:
256,192,536057,1,8,0:0:0:0:
256,192,536311,1,0,0:0:0:0:
256,192,536820,1,0,0:0:0:0:
256,192,537074,1,8,0:0:0:0:
256,192,537328,1,0,0:0:0:0:
256,192,537837,1,0,0:0:0:0:
256,192,538091,1,8,0:0:0:0:
256,192,538345,1,0,0:0:0:0:
256,192,538599,1,0,0:0:0:0:
256,192,538854,1,8,0:0:0:0:
256,192,539108,1,0,0:0:0:0:
256,192,539362,1,0,0:0:0:0:
256,192,539616,1,8,0:0:0:0:
256,192,539743,1,8,0:0:0:0:
256,192,539871,1,0,0:0:0:0:
256,192,539998,1,8,0:0:0:0:
256,192,540115,1,0,0:0:0:0:
256,192,540369,1,8,0:0:0:0:
256,192,540623,1,0,0:0:0:0:
256,192,540877,1,8,0:0:0:0:
256,192,541004,1,8,0:0:0:0:
256,192,541131,1,0,0:0:0:0:
240,196,541259,1,0,0:0:0:0:
256,192,541385,1,8,0:0:0:0:
256,192,541640,1,0,0:0:0:0:
256,192,542148,1,8,0:0:0:0:
256,192,542403,1,0,0:0:0:0:
256,192,542530,1,0,0:0:0:0:
256,192,542657,1,8,0:0:0:0:
256,192,542911,1,8,0:0:0:0:
256,192,543038,1,8,0:0:0:0:
256,192,543165,1,0,0:0:0:0:
256,192,543292,1,0,0:0:0:0:
256,192,543419,1,8,0:0:0:0:
256,192,543674,1,0,0:0:0:0:
256,192,543928,1,8,0:0:0:0:
256,192,544055,1,8,0:0:0:0:
256,192,544182,1,0,0:0:0:0:
256,192,544691,1,8,0:0:0:0:
256,192,544945,1,0,0:0:0:0:
256,192,545072,1,0,0:0:0:0:
256,192,545199,1,8,0:0:0:0:
268,180,545326,1,0,0:0:0:0:
268,180,545453,1,8,0:0:0:0:
268,180,545708,1,0,0:0:0:0:
268,180,545962,1,0,0:0:0:0:
268,180,546089,1,0,0:0:0:0:
256,192,546216,1,8,0:0:0:0:
256,192,546725,1,8,0:0:0:0:
256,192,546979,1,0,0:0:0:0:
256,192,547106,1,0,0:0:0:0:
256,192,547233,1,8,0:0:0:0:
260,184,547360,1,8,0:0:0:0:
256,192,547487,1,0,0:0:0:0:
256,192,547742,1,8,0:0:0:0:
256,192,547996,1,8,0:0:0:0:
256,192,548123,1,8,0:0:0:0:
256,192,548250,1,0,0:0:0:0:
256,192,548759,1,0,0:0:0:0:
256,192,549013,1,8,0:0:0:0:
256,192,549140,1,8,0:0:0:0:
256,192,549267,1,0,0:0:0:0:
256,192,549394,1,8,0:0:0:0:
256,192,549521,1,0,0:0:0:0:
256,192,549776,1,8,0:0:0:0:
256,192,550030,1,0,0:0:0:0:
256,192,550157,1,0,0:0:0:0:
256,192,550284,1,8,0:0:0:0:
256,192,550792,1,0,0:0:0:0:
256,192,551046,1,8,0:0:0:0:
256,192,551174,1,8,0:0:0:0:
256,192,551301,1,0,0:0:0:0:
260,196,551428,1,8,0:0:0:0:
260,196,551555,1,0,0:0:0:0:
260,196,551809,1,8,0:0:0:0:
256,192,552063,1,0,0:0:0:0:
256,192,552191,1,0,0:0:0:0:
256,192,552318,1,8,0:0:0:0:
256,192,552572,1,0,0:0:0:0:
256,192,553081,1,0,0:0:0:0:
256,192,553335,1,8,0:0:0:0:
256,192,553589,1,0,0:0:0:0:
256,192,554098,1,0,0:0:0:0:
256,192,554352,1,8,0:0:0:0:
256,192,554606,1,0,0:0:0:0:
256,192,554860,1,0,0:0:0:0:
256,192,555114,1,0,0:0:0:0:
256,192,555369,1,0,0:0:0:0:
256,192,555496,1,8,0:0:0:0:
256,192,555623,1,0,0:0:0:0:
256,192,555750,1,0,0:0:0:0:
256,192,555877,1,8,0:0:0:0:
256,192,556004,1,8,0:0:0:0:
256,192,556131,1,0,0:0:0:0:
256,196,556386,1,12,0:0:0:0:
256,192,557148,1,0,0:0:0:0:
256,192,557276,1,0,0:0:0:0:
256,192,557403,1,8,0:0:0:0:
256,192,558165,1,8,0:0:0:0:
256,192,558292,1,8,0:0:0:0:
256,192,558420,1,0,0:0:0:0:
256,192,558801,1,0,0:0:0:0:
256,192,559182,1,0,0:0:0:0:
256,192,559309,1,0,0:0:0:0:
256,192,559437,1,8,0:0:0:0:
264,184,560199,1,0,0:0:0:0:
256,192,560453,1,12,0:0:0:0:
256,192,561216,1,8,0:0:0:0:
256,192,561343,1,0,0:0:0:0:
256,192,561470,1,8,0:0:0:0:
256,192,561852,1,0,0:0:0:0:
256,192,562233,1,0,0:0:0:0:
256,192,562360,1,8,0:0:0:0:
256,192,562487,1,8,0:0:0:0:
256,192,562869,1,8,0:0:0:0:
256,192,563250,1,8,0:0:0:0:
256,192,563377,1,8,0:0:0:0:
256,192,563504,1,0,0:0:0:0:
256,192,563759,1,0,0:0:0:0:
256,192,564013,1,8,0:0:0:0:
256,192,564267,1,0,0:0:0:0:
256,192,564521,1,12,0:0:0:0:
256,192,565284,1,0,0:0:0:0:
256,192,565411,1,0,0:0:0:0:
256,192,565538,1,8,0:0:0:0:
256,192,566301,1,8,0:0:0:0:
256,192,566428,1,0,0:0:0:0:
256,192,566555,1,8,0:0:0:0:
256,192,566937,1,0,0:0:0:0:
256,192,567318,1,0,0:0:0:0:
256,192,567445,1,0,0:0:0:0:
256,192,567572,1,8,0:0:0:0:
248,188,568335,1,0,0:0:0:0:
256,192,568589,1,12,0:0:0:0:
248,188,568843,1,0,0:0:0:0:
256,192,569352,1,0,0:0:0:0:
256,192,569479,1,0,0:0:0:0:
256,192,569606,1,12,0:0:0:0:
256,192,569860,1,0,0:0:0:0:
256,192,570369,1,0,0:0:0:0:
245,178,570496,1,0,0:0:0:0:
256,192,570623,1,12,0:0:0:0:
256,192,570877,1,0,0:0:0:0:
256,192,571386,1,8,0:0:0:0:
256,194,571513,1,0,0:0:0:0:
256,192,571640,1,8,0:0:0:0:
256,192,571894,1,8,0:0:0:0:
256,192,572021,1,0,0:0:0:0:
256,192,572148,1,8,0:0:0:0:
256,192,572276,1,8,0:0:0:0:
256,192,572403,1,0,0:0:0:0:
256,192,572657,1,4,0:0:0:0:
256,188,573420,1,8,0:0:0:0:
256,188,573547,1,0,0:0:0:0:
256,188,573674,1,8,0:0:0:0:
256,188,574437,1,8,0:0:0:0:
256,188,574564,1,8,0:0:0:0:
256,188,574691,1,0,0:0:0:0:
256,188,575072,1,0,0:0:0:0:
256,188,575453,1,0,0:0:0:0:
256,188,575581,1,0,0:0:0:0:
256,188,575708,1,8,0:0:0:0:
242,180,575962,1,0,0:0:0:0:
256,192,576089,1,8,0:0:0:0:
238,175,576343,1,8,0:0:0:0:
256,192,576470,1,0,0:0:0:0:
256,192,576725,1,12,0:0:0:0:
256,192,577487,1,8,0:0:0:0:
256,192,577615,1,0,0:0:0:0:
256,192,577742,1,8,0:0:0:0:
256,196,578504,1,0,0:0:0:0:
256,196,578631,1,0,0:0:0:0:
256,196,578759,1,8,0:0:0:0:
256,196,579013,1,8,0:0:0:0:
256,196,579140,1,0,0:0:0:0:
256,192,579520,1,0,0:0:0:0:
256,192,579648,1,8,0:0:0:0:
256,196,579776,1,0,0:0:0:0:
256,192,580030,1,0,0:0:0:0:
256,192,580284,1,8,0:0:0:0:
256,192,580411,1,8,0:0:0:0:
256,192,580538,1,0,0:0:0:0:
260,188,580665,1,0,0:0:0:0:
256,192,580792,1,12,0:0:0:0:
252,192,581555,1,8,0:0:0:0:
252,192,581682,1,0,0:0:0:0:
252,192,581809,1,8,0:0:0:0:
252,192,582572,1,0,0:0:0:0:
252,192,582699,1,0,0:0:0:0:
252,192,582826,1,8,0:0:0:0:
252,192,583208,1,0,0:0:0:0:
252,192,583589,1,8,0:0:0:0:
252,192,583716,1,0,0:0:0:0:
252,192,583843,1,8,0:0:0:0:
252,184,584606,1,0,0:0:0:0:
252,184,584860,1,12,0:0:0:0:
252,184,585115,1,0,0:0:0:0:
252,192,585623,1,0,0:0:0:0:
273,194,585750,1,0,0:0:0:0:
252,184,585877,1,8,0:0:0:0:
252,192,586131,1,0,0:0:0:0:
256,192,586640,1,8,0:0:0:0:
273,194,586767,1,0,0:0:0:0:
256,192,586894,1,8,0:0:0:0:
256,192,587148,1,0,0:0:0:0:
256,192,587657,1,8,0:0:0:0:
256,192,587911,1,8,0:0:0:0:
256,192,588038,1,8,0:0:0:0:
256,192,588165,1,0,0:0:0:0:
256,192,588420,1,0,0:0:0:0:
256,192,588674,1,0,0:0:0:0:
256,192,588928,5,12,0:0:0:0:
256,192,589182,1,8,0:0:0:0:
256,192,589310,1,0,0:0:0:0:
256,192,589437,1,8,0:0:0:0:
256,192,589564,1,8,0:0:0:0:
256,192,589691,1,0,0:0:0:0:
248,192,589818,1,8,0:0:0:0:
256,192,589945,1,0,0:0:0:0:
256,192,590199,1,0,0:0:0:0:
256,192,590327,1,0,0:0:0:0:
256,192,590454,1,8,0:0:0:0:
256,192,590581,1,8,0:0:0:0:
256,192,590708,1,0,0:0:0:0:
248,192,590835,1,8,0:0:0:0:
256,192,590962,1,0,0:0:0:0:
256,192,591216,1,0,0:0:0:0:
256,192,591471,1,8,0:0:0:0:
256,192,591598,1,8,0:0:0:0:
256,192,591725,1,0,0:0:0:0:
248,192,591852,1,8,0:0:0:0:
256,192,592106,1,8,0:0:0:0:
256,192,592233,1,0,0:0:0:0:
256,192,592488,1,8,0:0:0:0:
256,192,592615,1,8,0:0:0:0:
252,200,592742,1,0,0:0:0:0:
252,200,592869,1,8,0:0:0:0:
252,200,592996,1,0,0:0:0:0:
256,192,593250,1,8,0:0:0:0:
256,192,593377,1,0,0:0:0:0:
256,192,593505,1,8,0:0:0:0:
252,200,593759,1,0,0:0:0:0:
252,200,593886,1,8,0:0:0:0:
252,200,594013,1,0,0:0:0:0:
256,192,594267,1,8,0:0:0:0:
248,200,594394,1,0,0:0:0:0:
248,200,594521,1,8,0:0:0:0:
252,200,594776,1,0,0:0:0:0:
252,200,594903,1,8,0:0:0:0:
252,200,595030,1,0,0:0:0:0:
256,192,595284,1,8,0:0:0:0:
248,200,595538,1,8,0:0:0:0:
252,200,595666,1,8,0:0:0:0:
252,200,595793,1,0,0:0:0:0:
256,192,595920,1,8,0:0:0:0:
252,200,596174,1,8,0:0:0:0:
244,204,596301,1,0,0:0:0:0:
248,200,596555,1,8,0:0:0:0:
244,204,596682,1,8,0:0:0:0:
244,204,596810,1,0,0:0:0:0:
244,204,596937,1,8,0:0:0:0:
252,200,597064,1,0,0:0:0:0:
256,192,597318,1,8,0:0:0:0:
256,192,597444,1,0,0:0:0:0:
256,192,597573,1,8,0:0:0:0:
256,192,597700,1,8,0:0:0:0:
256,192,597827,1,0,0:0:0:0:
248,192,597954,1,8,0:0:0:0:
256,192,598081,1,0,0:0:0:0:
256,192,598335,1,0,0:0:0:0:
256,192,598461,1,0,0:0:0:0:
256,192,598590,1,8,0:0:0:0:
256,192,598717,1,8,0:0:0:0:
256,192,598844,1,0,0:0:0:0:
248,192,598971,1,8,0:0:0:0:
256,192,599098,1,0,0:0:0:0:
256,192,599352,1,0,0:0:0:0:
256,192,599605,1,8,0:0:0:0:
256,192,599734,1,8,0:0:0:0:
256,192,599861,1,0,0:0:0:0:
248,192,599988,1,8,0:0:0:0:
256,192,600242,1,8,0:0:0:0:
256,192,600369,1,0,0:0:0:0:
256,192,600622,1,8,0:0:0:0:
256,192,600751,1,8,0:0:0:0:
252,200,600878,1,0,0:0:0:0:
252,200,601005,1,8,0:0:0:0:
252,200,601132,1,0,0:0:0:0:
256,192,601386,1,8,0:0:0:0:
252,200,601895,1,0,0:0:0:0:
252,200,602022,1,8,0:0:0:0:
252,200,602149,1,0,0:0:0:0:
256,192,602403,1,8,0:0:0:0:
252,200,602912,1,0,0:0:0:0:
252,200,603039,1,8,0:0:0:0:
252,200,603166,1,0,0:0:0:0:
256,192,603420,1,8,0:0:0:0:
256,192,603928,1,8,0:0:0:0:
252,200,604182,5,0,0:0:0:0:
256,192,604436,12,0,607995,0:0:0:0:
256,192,608250,5,0,0:0:0:0:
256,192,609266,5,4,0:0:0:0:
256,192,610028,1,0,0:0:0:0:
256,192,610155,1,0,0:0:0:0:
256,192,610282,1,8,0:0:0:0:
256,192,611045,1,8,0:0:0:0:
256,192,611172,1,0,0:0:0:0:
256,192,611299,1,8,0:0:0:0:
256,192,611681,1,0,0:0:0:0:
256,192,612062,1,0,0:0:0:0:
256,192,612189,1,0,0:0:0:0:
256,192,612316,1,8,0:0:0:0:
256,192,612571,1,0,0:0:0:0:
256,192,612698,1,8,0:0:0:0:
256,192,612952,1,8,0:0:0:0:
256,192,613079,1,0,0:0:0:0:
256,192,613333,1,12,0:0:0:0:
256,192,614096,1,0,0:0:0:0:
256,192,614223,1,0,0:0:0:0:
256,192,614350,1,8,0:0:0:0:
256,192,615113,1,8,0:0:0:0:
256,192,615240,1,0,0:0:0:0:
256,192,615367,1,8,0:0:0:0:
262,195,615621,1,8,0:0:0:0:
256,192,615749,1,0,0:0:0:0:
262,195,616003,1,0,0:0:0:0:
256,192,616130,1,8,0:0:0:0:
256,192,616257,1,8,0:0:0:0:
256,192,616384,1,0,0:0:0:0:
256,192,616638,1,0,0:0:0:0:
256,192,616766,1,0,0:0:0:0:
256,192,616893,1,8,0:0:0:0:
256,192,617147,1,0,0:0:0:0:
256,192,617401,1,12,0:0:0:0:
256,192,618164,1,8,0:0:0:0:
256,192,618291,1,0,0:0:0:0:
256,192,618418,1,8,0:0:0:0:
256,192,619181,1,0,0:0:0:0:
256,192,619308,1,0,0:0:0:0:
256,192,619435,1,8,0:0:0:0:
256,192,619816,1,0,0:0:0:0:
256,192,620198,1,0,0:0:0:0:
256,192,620325,1,0,0:0:0:0:
256,192,620452,1,8,0:0:0:0:
256,192,620706,1,0,0:0:0:0:
256,192,621215,1,0,0:0:0:0:
256,192,621469,1,12,0:0:0:0:
256,192,622232,1,0,0:0:0:0:
256,192,622359,1,0,0:0:0:0:
256,192,622486,1,8,0:0:0:0:
256,192,622867,1,0,0:0:0:0:
256,192,623249,1,0,0:0:0:0:
256,192,623376,1,0,0:0:0:0:
256,192,623503,1,8,0:0:0:0:
256,192,623757,1,8,0:0:0:0:
256,192,623884,1,0,0:0:0:0:
256,192,624138,1,0,0:0:0:0:
256,192,624266,1,8,0:0:0:0:
256,192,624393,1,0,0:0:0:0:
256,192,624520,1,8,0:0:0:0:
256,192,624774,1,0,0:0:0:0:
256,192,625028,1,8,0:0:0:0:
249,190,625155,1,8,0:0:0:0:
248,190,625282,1,0,0:0:0:0:
248,190,625410,1,8,0:0:0:0:
248,190,625537,1,4,0:0:0:0:
256,192,625791,1,8,0:0:0:0:
256,192,626045,1,8,0:0:0:0:
256,192,626299,1,0,0:0:0:0:
256,192,626554,1,8,0:0:0:0:
256,192,626808,1,0,0:0:0:0:
256,192,627062,1,8,0:0:0:0:
256,192,627316,1,0,0:0:0:0:
256,192,627443,1,0,0:0:0:0:
256,192,627571,1,8,0:0:0:0:
256,192,627825,1,0,0:0:0:0:
256,192,628079,1,8,0:0:0:0:
256,192,628333,1,8,0:0:0:0:
256,192,628588,1,0,0:0:0:0:
256,192,628842,1,0,0:0:0:0:
256,192,629096,1,8,0:0:0:0:
256,192,629350,1,0,0:0:0:0:
256,192,629477,1,0,0:0:0:0:
256,192,629604,1,12,0:0:0:0:
256,192,629859,1,0,0:0:0:0:
256,192,630113,1,8,0:0:0:0:
256,192,630367,1,0,0:0:0:0:
256,192,630621,1,8,0:0:0:0:
256,192,630876,1,0,0:0:0:0:
256,192,631003,1,8,0:0:0:0:
256,192,631384,1,0,0:0:0:0:
256,188,631638,1,8,0:0:0:0:
256,192,631893,1,8,0:0:0:0:
256,192,632020,1,0,0:0:0:0:
256,188,632401,1,0,0:0:0:0:
256,188,632528,1,8,0:0:0:0:
256,196,632655,1,0,0:0:0:0:
256,192,632910,1,0,0:0:0:0:
256,192,633037,1,8,0:0:0:0:
256,192,633291,1,8,0:0:0:0:
256,192,633418,1,0,0:0:0:0:
256,192,633672,1,4,0:0:0:0:
256,192,633927,1,0,0:0:0:0:
256,192,634181,1,0,0:0:0:0:
256,192,634435,1,8,0:0:0:0:
256,192,634689,1,8,0:0:0:0:
256,192,634943,1,0,0:0:0:0:
256,192,635198,1,8,0:0:0:0:
256,192,635452,1,0,0:0:0:0:
256,192,635579,1,0,0:0:0:0:
256,192,635706,1,8,0:0:0:0:
256,192,635960,1,8,0:0:0:0:
256,192,636215,1,0,0:0:0:0:
256,192,636469,1,0,0:0:0:0:
256,192,636723,1,8,0:0:0:0:
252,185,636977,1,0,0:0:0:0:
256,192,637104,1,8,0:0:0:0:
251,185,637359,1,8,0:0:0:0:
256,192,637486,1,0,0:0:0:0:
256,192,637740,1,4,0:0:0:0:
256,192,638121,1,0,0:0:0:0:
256,192,638503,1,0,0:0:0:0:
256,192,638630,1,0,0:0:0:0:
256,192,638757,1,8,0:0:0:0:
256,192,639138,1,0,0:0:0:0:
256,192,639520,1,8,0:0:0:0:
256,192,639647,1,0,0:0:0:0:
256,192,639774,1,8,0:0:0:0:
256,192,640155,1,8,0:0:0:0:
256,192,640537,1,0,0:0:0:0:
256,192,640664,1,0,0:0:0:0:
256,192,640791,1,8,0:0:0:0:
256,192,641045,1,8,0:0:0:0:
256,192,641172,1,0,0:0:0:0:
256,192,641299,1,8,0:0:0:0:
256,192,641427,1,8,0:0:0:0:
256,192,641554,1,0,0:0:0:0:
256,192,641808,1,4,0:0:0:0:
256,192,642062,1,0,0:0:0:0:
256,192,642316,1,8,0:0:0:0:
256,192,642571,1,8,0:0:0:0:
256,192,642825,1,0,0:0:0:0:
256,192,643079,1,8,0:0:0:0:
256,192,643333,1,0,0:0:0:0:
256,192,643588,1,8,0:0:0:0:
256,192,643715,1,8,0:0:0:0:
256,192,643842,1,0,0:0:0:0:
256,192,644096,1,8,0:0:0:0:
256,192,644350,1,8,0:0:0:0:
256,192,644604,1,8,0:0:0:0:
256,192,644859,1,0,0:0:0:0:
256,192,645113,1,0,0:0:0:0:
256,192,645367,1,8,0:0:0:0:
256,192,645621,1,0,0:0:0:0:
256,192,645749,1,0,0:0:0:0:
256,192,645876,1,12,0:0:0:0:
256,192,646130,1,0,0:0:0:0:
256,192,646384,1,8,0:0:0:0:
256,192,646638,1,8,0:0:0:0:
256,192,646893,1,0,0:0:0:0:
256,192,647147,1,0,0:0:0:0:
256,192,647274,1,8,0:0:0:0:
256,192,647655,1,0,0:0:0:0:
256,192,647910,1,8,0:0:0:0:
256,192,648164,1,8,0:0:0:0:
256,192,648291,1,0,0:0:0:0:
256,192,648672,1,8,0:0:0:0:
256,192,648799,1,0,0:0:0:0:
256,192,648927,1,0,0:0:0:0:
256,192,649181,1,0,0:0:0:0:
256,192,649308,1,8,0:0:0:0:
252,184,649562,1,8,0:0:0:0:
252,184,649689,1,0,0:0:0:0:
252,184,649943,1,4,0:0:0:0:
256,192,650198,1,0,0:0:0:0:
256,192,650452,1,0,0:0:0:0:
256,192,650706,1,0,0:0:0:0:
256,192,650960,1,8,0:0:0:0:
256,192,651215,1,0,0:0:0:0:
256,192,651469,1,8,0:0:0:0:
256,192,651723,1,8,0:0:0:0:
256,192,651850,1,8,0:0:0:0:
256,192,651977,1,0,0:0:0:0:
256,192,652232,1,0,0:0:0:0:
256,192,652486,1,8,0:0:0:0:
256,192,652740,1,8,0:0:0:0:
256,192,652994,1,0,0:0:0:0:
256,192,653376,1,8,0:0:0:0:
256,192,653757,1,0,0:0:0:0:
256,192,654011,1,12,0:0:0:0:
256,192,654393,1,0,0:0:0:0:
256,192,654774,1,0,0:0:0:0:
256,192,654901,1,0,0:0:0:0:
256,192,655028,1,8,0:0:0:0:
256,192,655410,1,0,0:0:0:0:
256,192,655791,1,8,0:0:0:0:
256,192,655918,1,0,0:0:0:0:
256,192,656045,1,8,0:0:0:0:
256,192,656299,1,0,0:0:0:0:
256,192,656427,1,8,0:0:0:0:
256,192,656681,1,8,0:0:0:0:
256,192,656808,1,0,0:0:0:0:
256,192,656935,1,0,0:0:0:0:
256,192,657062,1,8,0:0:0:0:
256,192,657316,1,8,0:0:0:0:
256,192,657443,1,8,0:0:0:0:
256,192,657571,1,0,0:0:0:0:
256,192,657825,1,8,0:0:0:0:
256,192,658079,1,4,0:0:0:0:
256,192,658842,1,8,0:0:0:0:
256,192,658969,1,0,0:0:0:0:
256,192,659096,1,8,0:0:0:0:
256,192,659859,1,0,0:0:0:0:
256,192,659986,1,0,0:0:0:0:
256,192,660113,1,8,0:0:0:0:
256,192,660494,1,0,0:0:0:0:
256,192,660876,1,8,0:0:0:0:
256,192,661003,1,0,0:0:0:0:
256,192,661130,1,8,0:0:0:0:
256,192,661638,1,0,0:0:0:0:
256,192,662147,1,12,0:0:0:0:
256,188,662910,1,0,0:0:0:0:
256,188,663037,1,0,0:0:0:0:
256,188,663164,1,8,0:0:0:0:
256,188,663927,1,0,0:0:0:0:
256,188,664054,1,0,0:0:0:0:
256,188,664181,1,8,0:0:0:0:
256,188,664562,1,8,0:0:0:0:
256,188,664943,1,8,0:0:0:0:
256,188,665071,1,0,0:0:0:0:
256,188,665198,1,8,0:0:0:0:
256,196,665452,1,0,0:0:0:0:
256,196,665706,1,8,0:0:0:0:
255,196,665960,1,0,0:0:0:0:
256,196,666215,1,12,0:0:0:0:
256,192,666977,1,0,0:0:0:0:
256,192,667104,1,0,0:0:0:0:
256,192,667232,1,8,0:0:0:0:
256,192,667994,1,0,0:0:0:0:
256,192,668121,1,0,0:0:0:0:
256,192,668249,1,8,0:0:0:0:
256,192,668630,1,0,0:0:0:0:
256,192,669011,1,8,0:0:0:0:
256,192,669138,1,0,0:0:0:0:
256,192,669266,1,8,0:0:0:0:
256,192,670028,1,0,0:0:0:0:
256,192,670282,1,12,0:0:0:0:
256,192,670537,1,0,0:0:0:0:
256,192,670791,1,8,0:0:0:0:
256,192,671045,1,8,0:0:0:0:
256,192,671172,1,0,0:0:0:0:
256,192,671299,1,8,0:0:0:0:
256,192,671427,1,8,0:0:0:0:
256,192,671554,1,0,0:0:0:0:
256,192,671681,1,8,0:0:0:0:
256,192,671808,1,0,0:0:0:0:
256,192,672062,1,0,0:0:0:0:
256,192,672189,1,0,0:0:0:0:
256,192,672316,1,8,0:0:0:0:
247,183,672571,1,0,0:0:0:0:
256,192,672698,1,8,0:0:0:0:
247,183,672952,1,8,0:0:0:0:
256,192,673079,1,0,0:0:0:0:
256,192,673206,1,0,0:0:0:0:
256,192,673333,1,8,0:0:0:0:
256,192,673588,1,8,0:0:0:0:
247,183,673715,1,0,0:0:0:0:
256,192,673842,1,8,0:0:0:0:
256,192,673969,1,8,0:0:0:0:
256,192,674096,1,0,0:0:0:0:
256,192,674350,1,12,0:0:0:0:
256,192,675113,1,0,0:0:0:0:
256,192,675240,1,0,0:0:0:0:
256,192,675367,1,8,0:0:0:0:
256,192,676130,1,8,0:0:0:0:
256,192,676257,1,0,0:0:0:0:
256,192,676384,1,8,0:0:0:0:
256,192,676766,1,0,0:0:0:0:
256,192,677147,1,0,0:0:0:0:
256,192,677274,1,0,0:0:0:0:
256,192,677401,1,8,0:0:0:0:
256,192,677910,1,0,0:0:0:0:
256,192,678418,1,12,0:0:0:0:
256,192,679181,1,0,0:0:0:0:
256,192,679308,1,0,0:0:0:0:
256,192,679435,1,8,0:0:0:0:
256,192,679689,1,8,0:0:0:0:
256,192,680198,1,8,0:0:0:0:
256,192,680325,1,0,0:0:0:0:
256,192,680452,1,8,0:0:0:0:
256,192,680706,1,0,0:0:0:0:
256,192,680833,1,8,0:0:0:0:
256,192,681088,1,0,0:0:0:0:
256,192,681215,1,8,0:0:0:0:
256,192,681342,1,8,0:0:0:0:
256,192,681469,1,0,0:0:0:0:
256,192,681723,1,0,0:0:0:0:
256,192,681977,1,8,0:0:0:0:
256,192,682104,1,8,0:0:0:0:
256,192,682232,1,0,0:0:0:0:
256,192,682486,1,12,0:0:0:0:
256,192,683249,1,0,0:0:0:0:
256,192,683376,1,0,0:0:0:0:
256,192,683503,1,8,0:0:0:0:
256,192,684265,1,8,0:0:0:0:
256,192,684393,1,0,0:0:0:0:
256,192,684520,1,8,0:0:0:0:
256,192,684901,1,0,0:0:0:0:
256,192,685282,1,0,0:0:0:0:
256,192,685410,1,0,0:0:0:0:
256,192,685537,1,8,0:0:0:0:
256,192,686045,1,0,0:0:0:0:
256,192,686299,1,0,0:0:0:0:
256,192,686554,1,12,0:0:0:0:
256,192,686808,1,0,0:0:0:0:
256,192,687062,1,0,0:0:0:0:
256,192,687316,1,0,0:0:0:0:
256,192,687443,1,0,0:0:0:0:
256,192,687571,1,0,0:0:0:0:
256,192,687698,1,8,0:0:0:0:
256,192,687825,1,0,0:0:0:0:
256,192,687952,1,8,0:0:0:0:
256,192,688079,1,8,0:0:0:0:
256,192,688206,1,8,0:0:0:0:
256,192,688333,1,0,0:0:0:0:
256,192,688460,1,8,0:0:0:0:
256,192,688588,1,8,0:0:0:0:
256,192,688842,1,8,0:0:0:0:
256,192,688969,1,0,0:0:0:0:
256,192,689223,1,0,0:0:0:0:
256,192,689350,1,8,0:0:0:0:
256,188,689604,1,0,0:0:0:0:
256,188,689859,1,0,0:0:0:0:
256,188,690113,1,8,0:0:0:0:
256,188,690367,1,8,0:0:0:0:
256,188,690621,1,0,0:0:0:0:
256,188,690875,1,0,0:0:0:0:
256,188,691129,1,8,0:0:0:0:
256,188,691383,1,0,0:0:0:0:
256,188,692401,1,0,0:0:0:0:
256,188,692655,1,8,0:0:0:0:
256,188,692909,1,8,0:0:0:0:
256,188,693418,1,0,0:0:0:0:
256,192,693926,1,8,0:0:0:0:
256,192,694180,1,0,0:0:0:0:
256,192,694434,1,0,0:0:0:0:
256,192,694688,1,8,0:0:0:0:
256,192,694943,1,8,0:0:0:0:
256,192,695451,1,8,0:0:0:0:
256,192,696722,1,0,0:0:0:0:
256,192,697485,1,0,0:0:0:0:
256,192,697993,1,0,0:0:0:0:
256,196,698248,1,8,0:0:0:0:
256,196,698502,1,8,0:0:0:0:
256,196,698756,1,0,0:0:0:0:
256,196,699010,1,0,0:0:0:0:
256,196,699265,1,8,0:0:0:0:
256,196,699519,1,8,0:0:0:0:
256,192,700536,1,8,0:0:0:0:
256,192,700790,1,0,0:0:0:0:
256,192,701044,1,0,0:0:0:0:
256,192,701553,1,8,0:0:0:0:
256,192,702061,1,0,0:0:0:0:
256,192,702315,1,0,0:0:0:0:
256,192,702570,1,0,0:0:0:0:
256,192,702824,1,8,0:0:0:0:
256,192,703078,1,0,0:0:0:0:
256,192,703502,1,0,0:0:0:0:
256,192,703587,1,8,0:0:0:0:
256,192,704604,1,0,0:0:0:0:
256,192,704858,1,8,0:0:0:0:
256,192,705112,1,8,0:0:0:0:
256,192,705366,1,8,0:0:0:0:
256,192,705875,1,8,0:0:0:0:
256,192,706129,1,8,0:0:0:0:
256,192,706383,1,0,0:0:0:0:
256,192,706637,1,0,0:0:0:0:
256,192,706892,1,8,0:0:0:0:
256,192,707400,1,0,0:0:0:0:
256,192,707654,1,8,0:0:0:0:
256,192,708163,1,8,0:0:0:0:
256,192,708417,1,0,0:0:0:0:
256,192,708671,1,0,0:0:0:0:
256,192,708798,1,0,0:0:0:0:
256,192,708926,1,8,0:0:0:0:
232,184,709180,1,0,0:0:0:0:
229,186,709688,1,8,0:0:0:0:
250,197,710197,1,8,0:0:0:0:
252,196,710451,1,0,0:0:0:0:
231,195,710705,1,0,0:0:0:0:
236,192,710959,1,8,0:0:0:0:
256,192,711214,1,0,0:0:0:0:
256,192,711722,1,0,0:0:0:0:
247,193,712485,1,8,0:0:0:0:
256,192,712739,1,0,0:0:0:0:
246,189,712993,1,8,0:0:0:0:
247,193,713502,1,0,0:0:0:0:
256,192,713756,1,8,0:0:0:0:
256,192,714010,1,0,0:0:0:0:
245,188,714265,1,0,0:0:0:0:
256,192,714392,1,8,0:0:0:0:
245,188,714646,1,8,0:0:0:0:
245,188,714773,1,8,0:0:0:0:
256,192,715027,1,0,0:0:0:0:
256,192,715282,1,0,0:0:0:0:
256,192,715536,1,0,0:0:0:0:
256,192,715790,1,8,0:0:0:0:
256,192,716807,1,8,0:0:0:0:
256,192,717061,1,0,0:0:0:0:
256,192,717315,1,0,0:0:0:0:
256,192,717824,1,8,0:0:0:0:
256,192,718332,1,8,0:0:0:0:
256,192,718587,1,8,0:0:0:0:
256,192,718841,1,0,0:0:0:0:
256,192,719095,1,0,0:0:0:0:
256,192,719349,1,0,0:0:0:0:
256,192,719858,1,8,0:0:0:0:
256,192,721129,1,0,0:0:0:0:
256,192,721383,1,8,0:0:0:0:
256,192,721637,1,0,0:0:0:0:
256,192,721892,1,8,0:0:0:0:
256,192,722146,1,0,0:0:0:0:
256,192,722400,1,8,0:0:0:0:
256,192,722654,1,8,0:0:0:0:
256,192,722909,1,8,0:0:0:0:
256,192,723163,1,8,0:0:0:0:
256,192,723417,1,0,0:0:0:0:
256,192,723671,1,8,0:0:0:0:
256,192,723926,1,0,0:0:0:0:
256,192,724180,1,8,0:0:0:0:
256,192,725197,1,0,0:0:0:0:
256,192,725959,1,0,0:0:0:0:
263,180,726214,1,8,0:0:0:0:
256,192,726468,1,0,0:0:0:0:
256,192,726722,1,0,0:0:0:0:
256,192,727231,1,0,0:0:0:0:
256,192,727485,1,8,0:0:0:0:
256,192,727739,1,0,0:0:0:0:
256,192,727993,1,8,0:0:0:0:
256,192,728248,1,0,0:0:0:0:
256,192,729265,1,0,0:0:0:0:
256,192,730027,1,0,0:0:0:0:
256,192,730282,1,8,0:0:0:0:
260,192,730536,1,0,0:0:0:0:
256,192,730790,1,8,0:0:0:0:
256,192,731298,1,8,0:0:0:0:
256,192,731553,1,0,0:0:0:0:
256,192,731807,1,8,0:0:0:0:
256,192,732061,1,0,0:0:0:0:
256,192,732315,1,8,0:0:0:0:
256,192,733332,1,0,0:0:0:0:
256,192,734095,1,0,0:0:0:0:
248,181,734349,1,8,0:0:0:0:
256,192,734604,1,0,0:0:0:0:
256,192,734858,1,0,0:0:0:0:
256,192,735366,1,0,0:0:0:0:
256,192,735620,1,8,0:0:0:0:
256,192,735875,1,0,0:0:0:0:
256,192,736129,1,8,0:0:0:0:
256,192,736383,1,0,0:0:0:0:
256,192,737400,1,0,0:0:0:0:
256,192,738417,1,8,0:0:0:0:
249,187,738671,1,0,0:0:0:0:
256,192,738798,1,8,0:0:0:0:
256,192,739053,1,0,0:0:0:0:
256,192,739180,1,8,0:0:0:0:
256,192,739442,1,4,0:0:0:0:
256,192,739696,1,0,0:0:0:0:
256,192,739950,1,8,0:0:0:0:
256,192,740204,1,0,0:0:0:0:
256,192,740331,1,0,0:0:0:0:
256,192,740458,1,8,0:0:0:0:
256,192,740713,1,0,0:0:0:0:
256,192,740967,1,8,0:0:0:0:
256,192,741221,1,8,0:0:0:0:
256,192,741475,1,0,0:0:0:0:
256,192,741984,1,8,0:0:0:0:
256,192,742238,1,0,0:0:0:0:
256,192,742365,1,0,0:0:0:0:
256,192,742492,1,8,0:0:0:0:
256,192,742747,1,0,0:0:0:0:
256,192,743001,1,8,0:0:0:0:
256,192,743255,1,8,0:0:0:0:
256,192,743382,1,0,0:0:0:0:
256,192,743509,1,8,0:0:0:0:
256,192,743764,1,8,0:0:0:0:
256,192,744018,1,0,0:0:0:0:
256,192,744272,1,8,0:0:0:0:
256,192,744399,1,8,0:0:0:0:
256,192,744526,1,0,0:0:0:0:
256,192,744780,1,8,0:0:0:0:
256,192,745035,1,0,0:0:0:0:
256,192,745289,1,0,0:0:0:0:
256,192,745543,1,8,0:0:0:0:
256,192,746052,1,0,0:0:0:0:
256,192,746306,1,8,0:0:0:0:
256,192,746433,1,8,0:0:0:0:
256,192,746560,1,0,0:0:0:0:
256,192,746814,1,8,0:0:0:0:
256,192,747069,1,0,0:0:0:0:
256,192,747323,1,0,0:0:0:0:
256,192,747577,1,8,0:0:0:0:
256,192,747831,1,0,0:0:0:0:
256,192,748086,1,8,0:0:0:0:
256,192,748340,1,0,0:0:0:0:
256,192,748467,1,0,0:0:0:0:
256,192,748594,1,8,0:0:0:0:
256,192,748848,1,8,0:0:0:0:
256,192,749103,1,0,0:0:0:0:
256,192,749357,1,8,0:0:0:0:
256,192,749611,1,8,0:0:0:0:
256,192,750119,1,0,0:0:0:0:
256,192,750374,1,8,0:0:0:0:
256,192,750501,1,8,0:0:0:0:
256,192,750628,1,0,0:0:0:0:
256,192,750882,1,0,0:0:0:0:
256,192,751136,1,8,0:0:0:0:
256,192,751391,1,0,0:0:0:0:
256,192,751518,1,0,0:0:0:0:
256,192,751645,1,8,0:0:0:0:
256,192,751899,1,0,0:0:0:0:
256,192,752153,1,8,0:0:0:0:
256,192,752408,1,8,0:0:0:0:
256,192,752535,1,8,0:0:0:0:
256,192,752662,1,0,0:0:0:0:
256,188,752916,1,0,0:0:0:0:
256,188,753170,1,8,0:0:0:0:
256,192,753425,1,8,0:0:0:0:
256,192,753552,1,8,0:0:0:0:
256,192,753679,1,0,0:0:0:0:
256,192,753933,1,0,0:0:0:0:
256,192,754187,1,8,0:0:0:0:
256,192,754696,1,0,0:0:0:0:
256,192,754950,1,8,0:0:0:0:
256,192,755204,1,8,0:0:0:0:
256,192,755458,1,0,0:0:0:0:
256,192,755713,1,0,0:0:0:0:
256,192,755967,1,0,0:0:0:0:
256,192,756221,1,8,0:0:0:0:
256,192,756475,1,0,0:0:0:0:
256,192,756603,1,0,0:0:0:0:
256,192,756730,1,8,0:0:0:0:
256,192,756984,1,0,0:0:0:0:
256,192,757238,1,8,0:0:0:0:
256,192,757492,1,8,0:0:0:0:
256,192,757619,1,8,0:0:0:0:
256,192,757747,1,0,0:0:0:0:
256,192,758001,1,0,0:0:0:0:
256,192,758255,1,8,0:0:0:0:
256,192,758509,1,8,0:0:0:0:
256,192,758636,1,0,0:0:0:0:
256,192,758764,1,8,0:0:0:0:
256,192,759018,1,8,0:0:0:0:
256,192,759272,1,0,0:0:0:0:
256,192,759526,1,0,0:0:0:0:
256,192,759780,1,8,0:0:0:0:
256,192,760035,1,8,0:0:0:0:
256,192,760289,1,0,0:0:0:0:
252,192,760543,1,8,0:0:0:0:
256,192,760670,1,8,0:0:0:0:
252,192,760797,1,0,0:0:0:0:
256,192,761052,1,0,0:0:0:0:
256,192,761179,1,0,0:0:0:0:
256,192,761306,1,8,0:0:0:0:
252,192,761560,1,8,0:0:0:0:
256,192,761687,1,8,0:0:0:0:
252,192,761814,1,0,0:0:0:0:
256,192,762323,1,0,0:0:0:0:
256,192,762831,1,8,0:0:0:0:
256,192,763340,1,0,0:0:0:0:
256,192,763848,1,8,0:0:0:0:
244,197,764103,1,8,0:0:0:0:
244,197,764357,1,0,0:0:0:0:
247,195,764611,1,8,0:0:0:0:
247,195,764738,1,8,0:0:0:0:
252,192,764865,1,0,0:0:0:0:
252,192,765119,1,0,0:0:0:0:
260,192,765374,1,8,0:0:0:0:
260,192,765628,1,8,0:0:0:0:
260,192,765882,1,0,0:0:0:0:
260,192,766391,1,8,0:0:0:0:
260,192,766645,1,0,0:0:0:0:
261,191,766772,1,0,0:0:0:0:
260,192,766899,1,8,0:0:0:0:
256,192,767153,1,0,0:0:0:0:
256,192,767408,1,8,0:0:0:0:
248,185,767662,1,0,0:0:0:0:
260,192,767916,1,8,0:0:0:0:
256,192,768170,1,8,0:0:0:0:
256,192,768425,1,0,0:0:0:0:
256,192,768679,1,8,0:0:0:0:
261,191,768806,1,0,0:0:0:0:
260,192,768933,1,0,0:0:0:0:
256,192,769187,1,0,0:0:0:0:
256,192,769442,1,8,0:0:0:0:
256,192,769696,1,8,0:0:0:0:
253,194,769823,1,8,0:0:0:0:
256,192,769950,1,0,0:0:0:0:
256,192,770204,1,4,0:0:0:0:
256,192,770458,1,4,0:0:0:0:
256,192,770713,1,4,0:0:0:0:
256,192,770967,1,0,0:0:0:0:
256,192,771094,1,8,0:0:0:0:
256,188,771348,1,8,0:0:0:0:
256,188,771475,1,0,0:0:0:0:
256,188,771603,1,0,0:0:0:0:
256,188,771730,1,8,0:0:0:0:
256,188,771857,1,8,0:0:0:0:
256,188,771984,1,4,0:0:0:0:
256,188,772492,1,0,0:0:0:0:
152,256,773001,1,8,0:0:0:0:
256,192,773128,1,0,0:0:0:0:
256,192,773382,1,0,0:0:0:0:
256,192,773509,1,8,0:0:0:0:
256,192,773764,1,0,0:0:0:0:
256,192,774018,1,8,0:0:0:0:
256,192,774272,1,0,0:0:0:0:
256,192,774399,1,0,0:0:0:0:
256,192,774526,1,8,0:0:0:0:
256,192,774780,1,8,0:0:0:0:
237,190,774908,1,8,0:0:0:0:
256,192,775035,1,0,0:0:0:0:
256,192,775162,1,8,0:0:0:0:
256,192,775289,1,0,0:0:0:0:
256,192,775416,1,0,0:0:0:0:
256,192,775543,1,8,0:0:0:0:
256,192,775797,1,8,0:0:0:0:
256,192,775925,1,0,0:0:0:0:
256,192,776052,1,12,0:0:0:0:
248,188,776433,1,0,0:0:0:0:
248,188,776560,1,8,0:0:0:0:
252,192,776814,1,0,0:0:0:0:
252,192,777069,1,8,0:0:0:0:
252,192,777196,1,0,0:0:0:0:
252,192,777450,1,0,0:0:0:0:
252,192,777577,1,8,0:0:0:0:
252,192,777831,1,0,0:0:0:0:
256,192,778086,1,8,0:0:0:0:
256,192,778340,1,0,0:0:0:0:
248,184,778467,1,0,0:0:0:0:
256,192,778594,1,8,0:0:0:0:
248,184,778848,1,8,0:0:0:0:
248,184,778975,1,0,0:0:0:0:
248,184,779103,1,8,0:0:0:0:
256,192,779357,1,0,0:0:0:0:
256,192,779611,1,8,0:0:0:0:
256,192,779738,1,0,0:0:0:0:
256,192,779865,1,0,0:0:0:0:
256,188,779992,1,0,0:0:0:0:
256,192,780119,1,12,0:0:0:0:
256,192,780501,1,0,0:0:0:0:
256,192,780628,1,8,0:0:0:0:
256,192,780882,1,0,0:0:0:0:
256,192,781009,1,8,0:0:0:0:
256,192,781136,1,8,0:0:0:0:
260,204,781391,1,8,0:0:0:0:
260,204,781518,1,0,0:0:0:0:
256,192,781645,1,8,0:0:0:0:
256,192,781899,1,8,0:0:0:0:
256,192,782026,1,8,0:0:0:0:
256,192,782153,1,0,0:0:0:0:
247,189,782408,1,0,0:0:0:0:
247,189,782535,1,8,0:0:0:0:
247,189,782789,1,8,0:0:0:0:
247,189,782916,1,0,0:0:0:0:
256,192,783170,1,8,0:0:0:0:
247,189,783425,1,8,0:0:0:0:
256,193,783552,1,8,0:0:0:0:
255,193,783679,1,0,0:0:0:0:
256,192,783933,1,0,0:0:0:0:
256,192,784187,1,12,0:0:0:0:
256,192,784441,1,0,0:0:0:0:
256,192,784696,1,8,0:0:0:0:
256,192,784950,1,0,0:0:0:0:
264,196,785204,1,8,0:0:0:0:
256,192,785458,1,8,0:0:0:0:
256,192,785586,1,0,0:0:0:0:
264,196,785840,1,0,0:0:0:0:
256,192,785967,1,0,0:0:0:0:
256,192,786221,1,8,0:0:0:0:
256,192,786475,1,0,0:0:0:0:
256,192,786730,1,0,0:0:0:0:
256,192,786857,1,8,0:0:0:0:
256,192,787111,1,0,0:0:0:0:
256,192,787238,1,12,0:0:0:0:
256,192,787492,1,8,0:0:0:0:
256,192,787619,1,0,0:0:0:0:
256,192,787747,1,8,0:0:0:0:
256,192,787874,1,8,0:0:0:0:
256,192,788001,1,0,0:0:0:0:
256,192,788128,1,0,0:0:0:0:
256,192,788255,1,12,0:0:0:0:
256,192,788764,1,0,0:0:0:0:
256,192,789272,1,12,0:0:0:0:
256,192,789399,1,0,0:0:0:0:
256,192,789653,1,0,0:0:0:0:
256,192,789780,1,8,0:0:0:0:
256,192,790035,1,0,0:0:0:0:
256,192,790289,1,8,0:0:0:0:
256,192,790543,1,0,0:0:0:0:
256,192,790670,1,0,0:0:0:0:
256,192,790797,1,8,0:0:0:0:
256,192,791052,1,8,0:0:0:0:
256,192,791179,1,8,0:0:0:0:
256,192,791306,1,0,0:0:0:0:
256,192,791433,1,0,0:0:0:0:
256,192,791560,1,8,0:0:0:0:
288,180,791687,1,0,0:0:0:0:
256,192,791814,1,8,0:0:0:0:
269,187,791942,1,8,0:0:0:0:
256,192,792069,1,0,0:0:0:0:
270,191,792196,1,0,0:0:0:0:
256,192,792323,1,12,0:0:0:0:
250,187,792704,1,0,0:0:0:0:
256,192,792831,1,8,0:0:0:0:
256,192,793086,1,0,0:0:0:0:
256,192,793340,1,8,0:0:0:0:
256,192,793467,1,0,0:0:0:0:
256,192,793721,1,0,0:0:0:0:
256,192,793848,1,8,0:0:0:0:
256,192,794103,1,0,0:0:0:0:
256,192,794357,1,8,0:0:0:0:
444,260,794611,1,0,0:0:0:0:
252,172,794738,1,0,0:0:0:0:
256,192,794865,1,8,0:0:0:0:
256,192,795119,1,8,0:0:0:0:
256,192,795247,1,0,0:0:0:0:
256,192,795374,1,8,0:0:0:0:
256,192,795501,1,8,0:0:0:0:
256,192,795628,1,0,0:0:0:0:
256,192,795882,1,8,0:0:0:0:
256,192,796009,1,0,0:0:0:0:
256,192,796136,1,0,0:0:0:0:
256,192,796264,1,8,0:0:0:0:
256,192,796391,1,4,0:0:0:0:
262,188,796772,1,0,0:0:0:0:
256,192,796899,1,8,0:0:0:0:
256,192,797153,1,8,0:0:0:0:
256,192,797280,1,0,0:0:0:0:
256,192,797408,1,8,0:0:0:0:
256,192,797662,1,0,0:0:0:0:
256,192,797789,1,0,0:0:0:0:
256,192,797916,1,8,0:0:0:0:
256,192,798170,1,8,0:0:0:0:
256,192,798297,1,8,0:0:0:0:
256,192,798425,1,0,0:0:0:0:
256,192,798679,1,0,0:0:0:0:
256,192,798806,1,8,0:0:0:0:
267,187,798933,1,0,0:0:0:0:
267,187,799060,1,0,0:0:0:0:
267,187,799187,1,8,0:0:0:0:
247,196,799442,1,8,0:0:0:0:
256,192,799696,1,0,0:0:0:0:
256,192,799950,1,8,0:0:0:0:
256,192,800204,1,8,0:0:0:0:
256,192,800331,1,0,0:0:0:0:
256,192,800458,1,8,0:0:0:0:
256,192,800586,1,8,0:0:0:0:
256,192,800713,1,0,0:0:0:0:
256,192,800840,1,0,0:0:0:0:
256,192,800967,1,8,0:0:0:0:
256,192,801221,1,0,0:0:0:0:
256,192,801348,1,0,0:0:0:0:
256,192,801475,1,8,0:0:0:0:
256,192,801730,1,8,0:0:0:0:
256,192,801857,1,0,0:0:0:0:
256,192,802111,1,0,0:0:0:0:
256,192,802238,1,8,0:0:0:0:
256,192,802492,1,0,0:0:0:0:
256,192,802747,12,0,804526,0:0:0:0:
256,192,805542,5,0,0:0:0:0:
256,192,805924,1,8,0:0:0:0:
256,192,806305,1,0,0:0:0:0:
256,184,806551,1,12,0:0:0:0:
256,184,807313,1,0,0:0:0:0:
287,166,807440,1,0,0:0:0:0:
256,184,807567,1,8,0:0:0:0:
256,192,808330,1,8,0:0:0:0:
256,192,808457,1,8,0:0:0:0:
256,192,808584,1,0,0:0:0:0:
256,192,808966,1,0,0:0:0:0:
256,192,809347,1,8,0:0:0:0:
256,192,809601,1,0,0:0:0:0:
256,188,809856,1,0,0:0:0:0:
256,188,810618,1,12,0:0:0:0:
256,188,811381,1,0,0:0:0:0:
248,185,811508,1,0,0:0:0:0:
256,188,811635,1,8,0:0:0:0:
256,192,812398,1,8,0:0:0:0:
256,192,812525,1,8,0:0:0:0:
256,192,812652,1,0,0:0:0:0:
256,192,813034,1,0,0:0:0:0:
256,192,813415,1,0,0:0:0:0:
256,192,813542,1,0,0:0:0:0:
256,192,813669,1,8,0:0:0:0:
256,192,813923,1,0,0:0:0:0:
256,192,814178,1,8,0:0:0:0:
256,192,814431,1,0,0:0:0:0:
252,192,814686,1,12,0:0:0:0:
256,192,815449,1,8,0:0:0:0:
256,192,815576,1,0,0:0:0:0:
256,192,815703,1,8,0:0:0:0:
256,188,816466,1,0,0:0:0:0:
256,188,816593,1,0,0:0:0:0:
256,188,816720,1,8,0:0:0:0:
256,192,817101,1,8,0:0:0:0:
256,192,817483,1,8,0:0:0:0:
256,188,817610,1,0,0:0:0:0:
256,192,817737,1,8,0:0:0:0:
256,192,817991,1,0,0:0:0:0:
256,192,818500,1,0,0:0:0:0:
256,192,818754,1,4,0:0:0:0:
256,192,819008,8,0,820279,0:0:0:0:
256,192,820788,5,8,0:0:0:0:
256,192,821169,1,0,0:0:0:0:
256,192,821550,1,0,0:0:0:0:
256,192,821678,1,0,0:0:0:0:
256,192,821805,1,8,0:0:0:0:
256,192,822059,1,8,0:0:0:0:
256,192,822186,1,0,0:0:0:0:
256,192,822313,1,8,0:0:0:0:
256,196,822567,1,0,0:0:0:0:
256,192,822822,1,12,0:0:0:0:
256,192,823583,1,0,0:0:0:0:
256,192,823711,1,0,0:0:0:0:
256,192,823838,1,8,0:0:0:0:
256,192,824601,1,8,0:0:0:0:
256,192,824728,1,8,0:0:0:0:
256,192,824855,1,0,0:0:0:0:
256,192,825237,1,0,0:0:0:0:
256,192,825618,1,0,0:0:0:0:
256,192,825745,1,0,0:0:0:0:
256,192,825873,1,8,0:0:0:0:
256,192,826127,1,0,0:0:0:0:
256,192,826634,1,0,0:0:0:0:
256,192,826889,1,12,0:0:0:0:
252,192,827652,1,8,0:0:0:0:
248,185,827779,1,8,0:0:0:0:
252,192,827906,1,0,0:0:0:0:
252,192,828669,1,0,0:0:0:0:
252,192,828796,1,0,0:0:0:0:
252,192,828923,1,8,0:0:0:0:
252,192,829305,1,8,0:0:0:0:
252,192,829686,1,8,0:0:0:0:
252,192,829813,1,0,0:0:0:0:
252,192,829940,1,8,0:0:0:0:
256,192,830195,1,0,0:0:0:0:
256,192,830449,1,8,0:0:0:0:
252,192,830702,1,0,0:0:0:0:
256,192,830957,1,12,0:0:0:0:
256,192,831720,1,8,0:0:0:0:
248,185,831847,1,8,0:0:0:0:
256,192,831974,1,0,0:0:0:0:
256,192,832737,1,0,0:0:0:0:
256,192,832864,1,0,0:0:0:0:
256,192,832991,1,8,0:0:0:0:
256,192,833373,1,8,0:0:0:0:
256,192,833754,1,8,0:0:0:0:
256,192,833880,1,0,0:0:0:0:
256,192,834008,1,8,0:0:0:0:
256,192,834262,1,0,0:0:0:0:
256,192,834771,1,0,0:0:0:0:
256,192,835025,1,4,0:0:0:0:
256,192,835788,1,8,0:0:0:0:
256,192,835915,1,0,0:0:0:0:
256,192,836042,1,8,0:0:0:0:
256,192,836805,1,8,0:0:0:0:
256,192,836932,1,0,0:0:0:0:
256,192,837059,1,12,0:0:0:0:
256,192,837313,5,8,0:0:0:0:
252,192,837567,1,8,0:0:0:0:
252,192,837822,1,0,0:0:0:0:
252,192,837949,1,8,0:0:0:0:
252,192,838076,1,4,0:0:0:0:
252,192,838330,1,12,0:0:0:0:
252,192,838584,1,4,0:0:0:0:
252,192,838839,1,4,0:0:0:0:
252,192,839093,5,12,0:0:0:0:
252,192,839347,1,0,0:0:0:0:
252,192,839474,1,0,0:0:0:0:
252,192,839537,1,0,0:0:0:0:
252,192,839601,1,8,0:0:0:0:
252,192,839728,1,0,0:0:0:0:
252,192,839855,1,8,0:0:0:0:
252,192,840109,1,0,0:0:0:0:
252,192,840237,1,0,0:0:0:0:
252,192,840300,1,0,0:0:0:0:
245,196,840364,1,8,0:0:0:0:
252,192,840491,1,0,0:0:0:0:
252,192,840618,1,8,0:0:0:0:
252,192,840681,1,8,0:0:0:0:
252,192,840745,1,0,0:0:0:0:
252,200,840809,1,0,0:0:0:0:
252,192,840872,1,8,0:0:0:0:
252,192,840999,1,0,0:0:0:0:
252,192,841126,1,8,0:0:0:0:
252,192,841190,1,8,0:0:0:0:
252,192,841254,1,0,0:0:0:0:
245,196,841381,1,0,0:0:0:0:
252,192,841508,1,8,0:0:0:0:
252,192,841571,1,8,0:0:0:0:
252,192,841635,1,0,0:0:0:0:
252,192,841762,1,0,0:0:0:0:
252,192,841889,1,8,0:0:0:0:
252,192,841953,1,8,0:0:0:0:
252,192,842016,1,0,0:0:0:0:
252,192,842143,1,0,0:0:0:0:
245,196,842207,1,0,0:0:0:0:
245,196,842270,1,0,0:0:0:0:
245,196,842398,1,8,0:0:0:0:
245,196,842525,1,0,0:0:0:0:
245,196,842652,1,8,0:0:0:0:
245,196,842715,1,8,0:0:0:0:
245,196,842779,1,8,0:0:0:0:
244,197,842843,1,8,0:0:0:0:
245,201,842906,1,0,0:0:0:0:
245,201,842970,1,0,0:0:0:0:
245,201,843033,1,0,0:0:0:0:
245,201,843097,1,0,0:0:0:0:
245,201,843160,1,12,0:0:0:0:
245,196,843415,1,0,0:0:0:0:
245,196,843542,1,8,0:0:0:0:
245,196,843605,1,8,0:0:0:0:
245,196,843669,1,0,0:0:0:0:
245,196,843796,1,0,0:0:0:0:
245,201,843923,1,8,0:0:0:0:
245,196,844177,1,0,0:0:0:0:
245,196,844304,1,0,0:0:0:0:
245,201,844368,1,0,0:0:0:0:
245,196,844431,1,8,0:0:0:0:
245,196,844559,1,0,0:0:0:0:
245,196,844686,1,8,0:0:0:0:
245,196,844749,1,8,0:0:0:0:
245,196,844813,1,0,0:0:0:0:
268,200,844876,1,0,0:0:0:0:
245,201,844940,1,8,0:0:0:0:
245,196,845067,1,0,0:0:0:0:
245,201,845194,1,0,0:0:0:0:
245,196,845258,1,0,0:0:0:0:
245,196,845321,1,8,0:0:0:0:
245,196,845448,1,0,0:0:0:0:
245,196,845576,1,8,0:0:0:0:
245,196,845639,1,8,0:0:0:0:
245,196,845703,1,0,0:0:0:0:
245,196,845830,1,0,0:0:0:0:
245,201,845957,1,8,0:0:0:0:
245,201,846020,1,8,0:0:0:0:
245,201,846084,1,0,0:0:0:0:
245,201,846211,1,8,0:0:0:0:
245,196,846275,1,8,0:0:0:0:
245,196,846338,1,8,0:0:0:0:
245,196,846465,1,0,0:0:0:0:
245,196,846593,1,0,0:0:0:0:
245,196,846720,1,8,0:0:0:0:
245,201,846974,1,8,0:0:0:0:
245,201,847101,1,0,0:0:0:0:
245,201,847228,1,12,0:0:0:0:
251,199,847482,1,0,0:0:0:0:
251,199,847609,1,0,0:0:0:0:
251,199,847673,1,0,0:0:0:0:
251,199,847737,1,8,0:0:0:0:
251,199,847864,1,0,0:0:0:0:
251,199,847991,1,8,0:0:0:0:
251,195,848245,1,0,0:0:0:0:
251,199,848372,1,8,0:0:0:0:
251,199,848436,1,8,0:0:0:0:
251,199,848499,1,0,0:0:0:0:
251,199,848626,1,0,0:0:0:0:
251,199,848754,1,8,0:0:0:0:
251,199,849008,1,8,0:0:0:0:
248,199,849135,1,0,0:0:0:0:
251,195,849262,1,8,0:0:0:0:
251,199,849516,1,0,0:0:0:0:
251,199,849643,1,8,0:0:0:0:
251,199,849707,1,8,0:0:0:0:
251,199,849770,1,0,0:0:0:0:
251,199,849898,1,8,0:0:0:0:
251,199,850025,1,0,0:0:0:0:
251,195,850279,1,0,0:0:0:0:
249,188,850406,1,0,0:0:0:0:
249,188,850470,1,0,0:0:0:0:
249,188,850533,1,8,0:0:0:0:
249,188,850660,1,8,0:0:0:0:
251,199,850787,1,0,0:0:0:0:
246,193,851042,1,0,0:0:0:0:
257,197,851169,1,0,0:0:0:0:
251,195,851296,1,12,0:0:0:0:
251,208,851423,1,0,0:0:0:0:
253,202,851487,1,0,0:0:0:0:
251,208,851550,1,8,0:0:0:0:
251,208,851677,1,0,0:0:0:0:
251,208,851741,1,0,0:0:0:0:
251,208,851804,1,8,0:0:0:0:
251,208,852059,1,0,0:0:0:0:
251,208,852186,1,0,0:0:0:0:
251,208,852313,1,12,0:0:0:0:
251,208,852440,1,0,0:0:0:0:
250,208,852504,1,0,0:0:0:0:
251,208,852567,1,8,0:0:0:0:
251,208,852694,1,0,0:0:0:0:
251,208,852758,1,0,0:0:0:0:
251,208,852821,1,8,0:0:0:0:
251,208,853076,1,8,0:0:0:0:
251,208,853203,1,0,0:0:0:0:
251,208,853330,1,12,0:0:0:0:
251,208,853457,1,8,0:0:0:0:
250,208,853520,1,8,0:0:0:0:
251,208,853584,1,0,0:0:0:0:
251,208,853711,1,0,0:0:0:0:
251,208,853775,1,0,0:0:0:0:
251,208,853838,1,8,0:0:0:0:
251,208,854093,1,8,0:0:0:0:
251,208,854220,1,0,0:0:0:0:
251,208,854347,1,12,0:0:0:0:
251,208,854474,1,8,0:0:0:0:
250,208,854537,1,8,0:0:0:0:
251,208,854601,1,0,0:0:0:0:
251,208,854728,1,0,0:0:0:0:
251,208,854792,1,0,0:0:0:0:
251,208,854855,1,8,0:0:0:0:
251,208,854982,1,8,0:0:0:0:
251,208,855109,1,0,0:0:0:0:
251,208,855173,1,0,0:0:0:0:
251,208,855237,1,0,0:0:0:0:
251,208,855300,1,0,0:0:0:0:
251,208,855364,1,12,0:0:0:0:
251,208,855618,1,0,0:0:0:0:
251,208,855745,1,8,0:0:0:0:
251,208,855809,1,8,0:0:0:0:
251,208,855872,1,0,0:0:0:0:
251,208,855999,1,0,0:0:0:0:
251,208,856126,1,8,0:0:0:0:
251,208,856381,1,0,0:0:0:0:
251,208,856508,1,0,0:0:0:0:
251,208,856571,1,0,0:0:0:0:
251,208,856635,1,8,0:0:0:0:
251,208,856762,1,0,0:0:0:0:
251,208,856889,1,8,0:0:0:0:
251,208,856953,1,8,0:0:0:0:
251,208,857016,1,0,0:0:0:0:
232,200,857080,1,0,0:0:0:0:
251,208,857143,1,8,0:0:0:0:
251,208,857270,1,0,0:0:0:0:
251,208,857398,1,0,0:0:0:0:
251,208,857461,1,0,0:0:0:0:
251,208,857525,1,8,0:0:0:0:
251,208,857652,1,0,0:0:0:0:
251,208,857779,1,8,0:0:0:0:
251,208,857843,1,8,0:0:0:0:
251,208,857906,1,0,0:0:0:0:
251,208,858033,1,0,0:0:0:0:
251,208,858160,1,8,0:0:0:0:
251,208,858224,1,8,0:0:0:0:
251,208,858287,1,0,0:0:0:0:
251,208,858415,1,0,0:0:0:0:
251,208,858478,1,0,0:0:0:0:
251,208,858542,1,0,0:0:0:0:
251,208,858669,1,8,0:0:0:0:
251,208,858796,1,0,0:0:0:0:
251,208,858923,1,8,0:0:0:0:
251,208,858987,1,8,0:0:0:0:
251,208,859050,1,8,0:0:0:0:
251,208,859114,1,8,0:0:0:0:
251,208,859177,1,0,0:0:0:0:
251,208,859241,1,0,0:0:0:0:
251,208,859304,1,0,0:0:0:0:
251,208,859368,1,0,0:0:0:0:
251,208,859431,1,12,0:0:0:0:
251,208,859686,1,0,0:0:0:0:
251,208,859813,1,8,0:0:0:0:
251,208,859876,1,8,0:0:0:0:
251,208,859940,1,0,0:0:0:0:
251,208,860067,1,0,0:0:0:0:
251,208,860194,1,8,0:0:0:0:
251,208,860448,1,0,0:0:0:0:
251,208,860576,1,0,0:0:0:0:
251,208,860639,1,0,0:0:0:0:
251,208,860703,1,8,0:0:0:0:
251,208,860830,1,0,0:0:0:0:
241,208,860957,1,8,0:0:0:0:
241,208,861020,1,8,0:0:0:0:
241,209,861084,1,0,0:0:0:0:
248,216,861148,1,0,0:0:0:0:
241,209,861211,1,8,0:0:0:0:
251,208,861338,1,0,0:0:0:0:
241,209,861465,1,8,0:0:0:0:
241,209,861529,1,8,0:0:0:0:
241,209,861592,1,0,0:0:0:0:
241,209,861720,1,0,0:0:0:0:
240,209,861847,1,8,0:0:0:0:
240,209,861910,1,8,0:0:0:0:
240,209,861974,1,0,0:0:0:0:
241,208,862101,1,0,0:0:0:0:
241,209,862228,1,8,0:0:0:0:
241,209,862292,1,8,0:0:0:0:
241,209,862355,1,0,0:0:0:0:
241,209,862482,1,8,0:0:0:0:
241,209,862546,1,8,0:0:0:0:
241,209,862609,1,8,0:0:0:0:
241,209,862737,1,0,0:0:0:0:
240,209,862864,1,0,0:0:0:0:
240,209,862991,1,8,0:0:0:0:
241,209,863245,1,0,0:0:0:0:
241,209,863372,1,0,0:0:0:0:
241,209,863499,1,12,0:0:0:0:
241,209,863626,1,0,0:0:0:0:
241,209,863690,1,0,0:0:0:0:
241,209,863754,1,8,0:0:0:0:
240,209,863881,1,8,0:0:0:0:
241,209,864135,1,0,0:0:0:0:
241,209,864262,1,8,0:0:0:0:
241,209,864389,1,8,0:0:0:0:
241,209,864453,1,8,0:0:0:0:
241,209,864516,1,0,0:0:0:0:
241,209,864643,1,0,0:0:0:0:
241,209,864770,1,8,0:0:0:0:
240,209,864898,1,0,0:0:0:0:
240,209,864961,1,0,0:0:0:0:
240,209,865025,1,8,0:0:0:0:
241,209,865279,1,0,0:0:0:0:
241,209,865406,1,0,0:0:0:0:
241,209,865533,1,8,0:0:0:0:
245,203,865660,1,8,0:0:0:0:
245,203,865724,1,8,0:0:0:0:
245,203,865787,1,0,0:0:0:0:
245,203,865915,1,8,0:0:0:0:
241,209,866169,1,0,0:0:0:0:
241,209,866296,1,8,0:0:0:0:
241,209,866423,1,0,0:0:0:0:
241,209,866487,1,0,0:0:0:0:
241,209,866550,1,8,0:0:0:0:
245,203,866677,1,8,0:0:0:0:
245,203,866804,1,0,0:0:0:0:
245,203,866931,1,8,0:0:0:0:
245,203,866995,1,0,0:0:0:0:
245,203,867059,1,8,0:0:0:0:
246,202,867313,1,8,0:0:0:0:
246,202,867440,1,8,0:0:0:0:
246,202,867567,1,4,0:0:0:0:
245,203,867694,1,0,0:0:0:0:
245,203,867758,1,0,0:0:0:0:
245,203,867821,1,8,0:0:0:0:
245,203,867948,1,0,0:0:0:0:
245,203,868012,1,0,0:0:0:0:
245,203,868076,1,8,0:0:0:0:
246,202,868330,1,0,0:0:0:0:
246,202,868457,1,8,0:0:0:0:
246,202,868584,1,4,0:0:0:0:
245,203,868711,1,0,0:0:0:0:
245,203,868775,1,0,0:0:0:0:
245,203,868838,1,8,0:0:0:0:
245,203,868965,1,0,0:0:0:0:
245,203,869029,1,0,0:0:0:0:
245,203,869093,1,8,0:0:0:0:
246,202,869347,1,8,0:0:0:0:
246,202,869474,1,8,0:0:0:0:
246,202,869601,1,4,0:0:0:0:
245,203,869728,1,8,0:0:0:0:
245,203,869792,1,0,0:0:0:0:
238,206,869855,1,8,0:0:0:0:
238,206,869982,1,0,0:0:0:0:
238,206,870046,1,0,0:0:0:0:
238,206,870109,1,8,0:0:0:0:
237,206,870364,1,0,0:0:0:0:
237,206,870491,1,8,0:0:0:0:
237,206,870618,1,4,0:0:0:0:
237,206,870745,1,0,0:0:0:0:
237,206,870809,1,0,0:0:0:0:
238,206,870872,1,8,0:0:0:0:
238,206,870999,1,8,0:0:0:0:
238,206,871063,1,8,0:0:0:0:
238,206,871126,1,0,0:0:0:0:
237,206,871190,1,0,0:0:0:0:
237,206,871254,1,8,0:0:0:0:
237,206,871317,1,0,0:0:0:0:
237,206,871381,1,8,0:0:0:0:
237,206,871508,1,0,0:0:0:0:
237,206,871635,1,12,0:0:0:0:
238,206,871889,1,8,0:0:0:0:
238,206,872016,1,8,0:0:0:0:
238,206,872080,1,8,0:0:0:0:
238,206,872143,1,0,0:0:0:0:
237,206,872207,1,8,0:0:0:0:
237,206,872270,1,0,0:0:0:0:
237,206,872398,1,8,0:0:0:0:
237,206,872525,1,0,0:0:0:0:
237,206,872652,1,8,0:0:0:0:
238,206,872715,1,8,0:0:0:0:
238,206,872779,1,0,0:0:0:0:
238,206,872906,1,0,0:0:0:0:
238,206,873033,1,8,0:0:0:0:
238,206,873097,1,8,0:0:0:0:
238,206,873160,1,0,0:0:0:0:
228,217,873287,1,0,0:0:0:0:
228,217,873415,1,8,0:0:0:0:
228,217,873478,1,8,0:0:0:0:
237,206,873542,1,0,0:0:0:0:
237,206,873605,1,0,0:0:0:0:
237,206,873669,1,8,0:0:0:0:
229,215,873796,1,0,0:0:0:0:
240,226,873859,1,0,0:0:0:0:
238,206,873923,1,8,0:0:0:0:
238,206,874050,1,0,0:0:0:0:
238,206,874177,1,8,0:0:0:0:
237,206,874431,1,0,0:0:0:0:
241,201,874559,1,0,0:0:0:0:
237,206,874622,1,0,0:0:0:0:
241,201,874686,1,8,0:0:0:0:
238,206,874813,1,8,0:0:0:0:
246,206,874876,1,0,0:0:0:0:
238,206,874940,1,8,0:0:0:0:
248,202,875067,1,0,0:0:0:0:
238,206,875194,1,8,0:0:0:0:
241,201,875258,1,0,0:0:0:0:
241,201,875321,1,8,0:0:0:0:
241,201,875385,1,8,0:0:0:0:
241,201,875448,1,0,0:0:0:0:
241,201,875576,1,0,0:0:0:0:
241,201,875703,1,12,0:0:0:0:
238,206,875830,1,8,0:0:0:0:
238,206,875893,1,8,0:0:0:0:
238,206,875957,1,0,0:0:0:0:
238,206,876084,1,8,0:0:0:0:
241,201,876465,1,8,0:0:0:0:
241,201,876529,1,8,0:0:0:0:
241,201,876593,1,0,0:0:0:0:
241,201,876656,1,0,0:0:0:0:
238,206,876720,1,8,0:0:0:0:
238,206,876847,1,8,0:0:0:0:
238,206,877101,1,8,0:0:0:0:
238,206,877165,1,0,0:0:0:0:
238,206,877228,1,8,0:0:0:0:
241,201,877292,1,8,0:0:0:0:
241,201,877355,1,0,0:0:0:0:
247,203,877482,1,0,0:0:0:0:
238,198,877737,1,8,0:0:0:0:
238,198,877864,1,0,0:0:0:0:
238,197,877927,1,0,0:0:0:0:
238,197,877991,1,8,0:0:0:0:
238,197,878118,1,8,0:0:0:0:
241,201,878499,1,8,0:0:0:0:
246,200,878563,1,8,0:0:0:0:
245,198,878626,1,0,0:0:0:0:
245,198,878690,1,0,0:0:0:0:
245,198,878754,1,8,0:0:0:0:
238,197,878881,1,0,0:0:0:0:
238,197,879008,1,8,0:0:0:0:
238,197,879262,1,8,0:0:0:0:
237,197,879325,1,0,0:0:0:0:
237,197,879389,1,8,0:0:0:0:
234,194,879453,1,8,0:0:0:0:
234,194,879516,1,0,0:0:0:0:
234,194,879643,1,0,0:0:0:0:
238,198,879770,1,12,0:0:0:0:
238,197,879898,1,0,0:0:0:0:
238,198,879961,1,8,0:0:0:0:
238,197,880025,1,0,0:0:0:0:
238,197,880152,1,8,0:0:0:0:
237,197,880406,1,0,0:0:0:0:
234,194,880533,1,8,0:0:0:0:
234,194,880597,1,8,0:0:0:0:
234,194,880660,1,0,0:0:0:0:
238,198,880787,1,8,0:0:0:0:
238,197,880915,1,0,0:0:0:0:
238,197,881169,1,0,0:0:0:0:
237,197,881296,1,0,0:0:0:0:
237,197,881359,1,0,0:0:0:0:
237,197,881423,1,8,0:0:0:0:
234,194,881550,1,8,0:0:0:0:
234,194,881677,1,0,0:0:0:0:
229,183,881931,1,0,0:0:0:0:
229,183,882059,1,0,0:0:0:0:
229,183,882122,1,0,0:0:0:0:
226,192,882186,1,8,0:0:0:0:
226,192,882313,1,8,0:0:0:0:
231,187,882440,1,0,0:0:0:0:
234,194,882694,1,0,0:0:0:0:
233,188,882821,1,8,0:0:0:0:
233,188,882885,1,8,0:0:0:0:
233,188,882948,1,0,0:0:0:0:
233,188,883076,1,8,0:0:0:0:
233,188,883203,1,0,0:0:0:0:
233,188,883330,1,8,0:0:0:0:
231,187,883393,1,0,0:0:0:0:
234,194,883457,1,8,0:0:0:0:
234,194,883520,1,8,0:0:0:0:
234,194,883584,1,0,0:0:0:0:
234,194,883711,1,0,0:0:0:0:
225,195,883838,1,12,0:0:0:0:
239,195,884093,1,8,0:0:0:0:
233,188,884220,1,8,0:0:0:0:
233,188,884347,1,0,0:0:0:0:
234,194,884474,1,0,0:0:0:0:
234,194,884601,1,8,0:0:0:0:
234,194,884728,1,0,0:0:0:0:
237,192,884855,1,8,0:0:0:0:
239,195,885109,1,0,0:0:0:0:
240,192,885173,1,0,0:0:0:0:
240,192,885237,1,8,0:0:0:0:
240,192,885300,1,0,0:0:0:0:
234,194,885364,1,8,0:0:0:0:
234,194,885491,1,0,0:0:0:0:
234,194,885618,1,8,0:0:0:0:
234,194,885745,1,0,0:0:0:0:
237,192,885809,1,0,0:0:0:0:
237,192,885872,1,8,0:0:0:0:
239,195,885999,1,8,0:0:0:0:
232,180,886063,1,0,0:0:0:0:
239,195,886126,1,8,0:0:0:0:
233,188,886254,1,0,0:0:0:0:
234,194,886508,1,8,0:0:0:0:
234,194,886635,1,0,0:0:0:0:
234,194,886762,1,0,0:0:0:0:
234,194,886826,1,0,0:0:0:0:
237,192,886889,1,8,0:0:0:0:
239,195,887016,1,8,0:0:0:0:
228,192,887080,1,0,0:0:0:0:
239,195,887143,1,8,0:0:0:0:
233,188,887270,1,0,0:0:0:0:
234,194,887525,1,0,0:0:0:0:
234,194,887652,1,8,0:0:0:0:
234,194,887779,1,8,0:0:0:0:
234,194,887843,1,8,0:0:0:0:
237,192,887906,1,0,0:0:0:0:
239,195,888033,1,0,0:0:0:0:
239,195,888160,1,8,0:0:0:0:
228,192,888224,1,0,0:0:0:0:
234,194,888287,1,8,0:0:0:0:
234,194,888351,1,0,0:0:0:0:
234,194,888415,1,8,0:0:0:0:
234,194,888542,1,8,0:0:0:0:
234,194,888605,1,0,0:0:0:0:
234,194,888669,1,8,0:0:0:0:
234,194,888732,1,8,0:0:0:0:
241,195,888796,1,0,0:0:0:0:
244,191,888923,1,8,0:0:0:0:
239,195,889177,1,8,0:0:0:0:
244,191,889304,1,8,0:0:0:0:
244,191,889368,1,8,0:0:0:0:
244,191,889431,1,0,0:0:0:0:
234,194,889495,1,0,0:0:0:0:
234,194,889559,1,8,0:0:0:0:
234,194,889686,1,8,0:0:0:0:
239,197,889940,1,0,0:0:0:0:
239,195,890194,1,8,0:0:0:0:
244,191,890321,1,0,0:0:0:0:
240,196,890385,1,0,0:0:0:0:
244,191,890448,1,8,0:0:0:0:
239,195,890512,1,8,0:0:0:0:
244,191,890576,1,0,0:0:0:0:
244,191,890703,1,8,0:0:0:0:
256,200,890766,1,0,0:0:0:0:
244,191,890830,1,8,0:0:0:0:
239,197,890957,1,0,0:0:0:0:
239,195,891211,1,8,0:0:0:0:
244,191,891338,1,0,0:0:0:0:
244,191,891402,1,0,0:0:0:0:
244,191,891465,1,8,0:0:0:0:
232,196,891529,1,8,0:0:0:0:
232,196,891593,1,0,0:0:0:0:
232,196,891656,1,8,0:0:0:0:
244,191,891720,1,0,0:0:0:0:
244,191,891847,1,8,0:0:0:0:
239,197,891974,1,4,0:0:0:0:
239,195,892228,1,8,0:0:0:0:
244,191,892355,1,8,0:0:0:0:
244,191,892419,1,8,0:0:0:0:
236,194,892482,1,0,0:0:0:0:
236,195,892609,1,8,0:0:0:0:
235,195,892737,1,0,0:0:0:0:
232,196,892800,1,0,0:0:0:0:
232,196,892864,1,8,0:0:0:0:
239,197,892991,1,0,0:0:0:0:
232,196,893118,1,0,0:0:0:0:
231,197,893181,1,0,0:0:0:0:
231,197,893245,1,8,0:0:0:0:
231,197,893372,1,8,0:0:0:0:
236,194,893499,1,8,0:0:0:0:
228,198,893563,1,8,0:0:0:0:
228,199,893626,1,0,0:0:0:0:
235,195,893754,1,8,0:0:0:0:
236,211,893881,1,0,0:0:0:0:
236,211,894008,1,8,0:0:0:0:
227,183,894262,1,0,0:0:0:0:
227,183,894389,1,0,0:0:0:0:
227,183,894453,1,0,0:0:0:0:
227,183,894516,1,8,0:0:0:0:
236,180,894643,1,8,0:0:0:0:
227,183,894770,1,0,0:0:0:0:
227,181,895025,1,8,0:0:0:0:
227,181,895152,1,0,0:0:0:0:
209,176,895279,1,8,0:0:0:0:
227,183,895406,1,8,0:0:0:0:
227,183,895533,1,0,0:0:0:0:
226,181,895660,1,0,0:0:0:0:
227,183,895724,1,0,0:0:0:0:
227,183,895787,1,8,0:0:0:0:
227,181,896042,1,8,0:0:0:0:
227,181,896105,1,0,0:0:0:0:
227,183,896169,1,8,0:0:0:0:
227,183,896232,1,0,0:0:0:0:
227,183,896296,1,8,0:0:0:0:
227,183,896359,1,0,0:0:0:0:
227,183,896423,1,8,0:0:0:0:
227,183,896487,1,0,0:0:0:0:
216,178,896550,1,8,0:0:0:0:
216,178,896614,1,8,0:0:0:0:
216,173,896677,1,0,0:0:0:0:
216,173,896741,1,0,0:0:0:0:
216,173,896804,1,8,0:0:0:0:
216,179,896931,1,0,0:0:0:0:
216,179,897059,1,8,0:0:0:0:
208,176,897122,1,8,0:0:0:0:
218,178,897186,1,0,0:0:0:0:
218,178,897313,1,0,0:0:0:0:
216,178,897440,1,8,0:0:0:0:
216,178,897504,1,8,0:0:0:0:
216,178,897567,1,0,0:0:0:0:
232,176,897631,1,8,0:0:0:0:
232,176,897694,1,0,0:0:0:0:
210,187,897821,1,8,0:0:0:0:
209,176,898203,1,8,0:0:0:0:
209,176,898266,1,8,0:0:0:0:
209,176,898330,1,0,0:0:0:0:
209,181,898393,1,0,0:0:0:0:
209,176,898457,1,8,0:0:0:0:
216,178,898584,1,8,0:0:0:0:
211,179,898711,1,8,0:0:0:0:
216,178,898775,1,8,0:0:0:0:
212,178,898838,1,0,0:0:0:0:
227,181,898965,1,0,0:0:0:0:
209,176,899029,1,0,0:0:0:0:
227,181,899093,1,8,0:0:0:0:
224,175,899220,1,8,0:0:0:0:
224,175,899347,1,0,0:0:0:0:
225,179,899410,1,0,0:0:0:0:
224,176,899474,1,8,0:0:0:0:
216,178,899601,1,0,0:0:0:0:
234,181,899728,1,8,0:0:0:0:
234,181,899792,1,8,0:0:0:0:
234,181,899855,1,0,0:0:0:0:
248,176,899919,1,0,0:0:0:0:
234,181,899982,1,8,0:0:0:0:
234,181,900109,1,4,0:0:0:0:
224,175,900364,1,0,0:0:0:0:
226,176,900491,1,0,0:0:0:0:
223,170,900618,1,8,0:0:0:0:
234,181,900745,1,8,0:0:0:0:
234,181,900872,1,0,0:0:0:0:
223,170,900999,1,8,0:0:0:0:
223,170,901126,1,0,0:0:0:0:
219,167,901254,1,0,0:0:0:0:
224,175,901381,1,8,0:0:0:0:
226,176,901508,1,0,0:0:0:0:
223,170,901635,1,8,0:0:0:0:
219,169,901698,1,8,0:0:0:0:
223,170,901762,1,0,0:0:0:0:
223,170,901826,1,0,0:0:0:0:
223,170,901889,1,8,0:0:0:0:
223,170,902016,1,0,0:0:0:0:
223,170,902143,1,8,0:0:0:0:
227,165,902228,1,0,0:0:0:0:
227,165,902313,1,0,0:0:0:0:
224,175,902398,1,8,0:0:0:0:
221,168,902525,1,0,0:0:0:0:
223,170,902652,1,8,0:0:0:0:
223,170,902779,1,0,0:0:0:0:
223,170,902906,1,8,0:0:0:0:
223,170,902970,1,8,0:0:0:0:
223,170,903033,1,0,0:0:0:0:
228,173,903160,1,8,0:0:0:0:
224,175,903287,1,0,0:0:0:0:
224,175,903351,1,0,0:0:0:0:
221,168,903415,1,8,0:0:0:0:
221,168,903542,1,8,0:0:0:0:
223,170,903669,1,0,0:0:0:0:
223,170,903796,1,0,0:0:0:0:
223,170,903859,1,0,0:0:0:0:
223,170,903923,1,8,0:0:0:0:
226,158,903987,1,8,0:0:0:0:
223,170,904050,1,0,0:0:0:0:
228,173,904183,1,8,0:0:0:0:
256,192,908250,5,0,0:0:0:0:
256,192,908504,1,0,0:0:0:0:
256,192,908759,1,0,0:0:0:0:
256,192,909013,1,0,0:0:0:0:
252,192,909267,1,0,0:0:0:0:
252,192,909394,1,8,0:0:0:0:
252,192,909521,1,0,0:0:0:0:
252,192,909648,1,8,0:0:0:0:
252,192,909775,1,0,0:0:0:0:
256,192,910030,1,0,0:0:0:0:
256,192,910284,1,4,0:0:0:0:
256,192,910411,1,4,0:0:0:0:
256,192,910538,1,4,0:0:0:0:
256,192,910666,1,4,0:0:0:0:
256,192,910793,1,4,0:0:0:0:
256,192,910920,1,4,0:0:0:0:
256,192,911047,1,4,0:0:0:0:
256,192,911174,1,4,0:0:0:0:
256,192,911301,1,4,0:0:0:0:
256,192,911428,1,4,0:0:0:0:
256,192,911555,1,8,0:0:0:0:
256,192,911640,1,0,0:0:0:0:
256,192,911725,1,0,0:0:0:0:
256,192,911810,1,8,0:0:0:0:
308,184,912318,5,12,0:0:0:0:
246,189,912445,1,0,0:0:0:0:
246,189,912572,1,0,0:0:0:0:
246,189,912657,1,0,0:0:0:0:
246,189,912742,1,0,0:0:0:0:
246,189,912827,1,8,0:0:0:0:
246,189,913081,1,8,0:0:0:0:
246,189,913335,1,0,0:0:0:0:
246,189,913462,1,0,0:0:0:0:
246,189,913716,1,0,0:0:0:0:
246,189,913844,1,8,0:0:0:0:
246,189,914098,1,8,0:0:0:0:
246,189,914183,1,8,0:0:0:0:
246,189,914267,1,8,0:0:0:0:
246,189,914352,1,0,0:0:0:0:
239,191,914479,1,8,0:0:0:0:
249,196,914606,1,0,0:0:0:0:
249,196,914691,1,0,0:0:0:0:
238,191,914776,1,0,0:0:0:0:
238,191,914860,1,8,0:0:0:0:
237,191,915115,1,8,0:0:0:0:
237,191,915369,1,0,0:0:0:0:
238,191,915496,1,0,0:0:0:0:
238,191,915750,1,0,0:0:0:0:
237,191,915877,1,8,0:0:0:0:
238,191,916386,1,12,0:0:0:0:
238,183,916513,1,8,0:0:0:0:
238,183,916640,1,0,0:0:0:0:
238,183,916725,1,0,0:0:0:0:
238,183,916810,1,0,0:0:0:0:
238,183,916894,1,8,0:0:0:0:
237,182,917149,1,8,0:0:0:0:
238,183,917403,1,0,0:0:0:0:
238,183,917530,1,0,0:0:0:0:
238,183,917784,1,0,0:0:0:0:
237,182,917911,1,8,0:0:0:0:
238,183,918166,1,8,0:0:0:0:
238,183,918250,1,8,0:0:0:0:
238,183,918335,1,8,0:0:0:0:
238,183,918420,1,0,0:0:0:0:
238,183,918547,1,8,0:0:0:0:
244,179,918674,1,0,0:0:0:0:
244,179,918759,1,0,0:0:0:0:
238,183,918844,1,0,0:0:0:0:
237,182,918928,1,8,0:0:0:0:
238,183,919183,1,8,0:0:0:0:
238,183,919437,1,0,0:0:0:0:
238,183,919564,1,0,0:0:0:0:
238,183,919691,1,8,0:0:0:0:
237,182,919818,1,8,0:0:0:0:
238,183,919945,1,0,0:0:0:0:
250,176,920072,1,0,0:0:0:0:
250,176,920199,1,8,0:0:0:0:
250,176,920454,1,12,0:0:0:0:
250,176,920581,1,0,0:0:0:0:
230,172,920708,1,0,0:0:0:0:
230,172,920793,1,0,0:0:0:0:
230,172,920877,1,0,0:0:0:0:
230,172,920962,1,8,0:0:0:0:
230,172,921216,1,8,0:0:0:0:
230,172,921471,1,0,0:0:0:0:
230,172,921598,1,0,0:0:0:0:
230,172,921852,1,0,0:0:0:0:
230,172,921979,1,8,0:0:0:0:
230,172,922233,1,8,0:0:0:0:
230,172,922318,1,8,0:0:0:0:
230,172,922403,1,8,0:0:0:0:
230,172,922488,1,0,0:0:0:0:
230,172,922615,1,8,0:0:0:0:
242,187,922742,1,0,0:0:0:0:
242,187,922827,1,0,0:0:0:0:
230,172,922911,1,0,0:0:0:0:
230,172,922996,1,8,0:0:0:0:
230,172,923250,1,8,0:0:0:0:
230,172,923505,1,8,0:0:0:0:
230,172,923632,1,0,0:0:0:0:
230,172,923886,1,0,0:0:0:0:
230,172,924013,1,8,0:0:0:0:
230,172,924521,1,12,0:0:0:0:
230,172,924649,1,8,0:0:0:0:
235,178,924776,1,0,0:0:0:0:
235,178,924860,1,0,0:0:0:0:
230,172,924945,1,0,0:0:0:0:
230,172,925030,1,8,0:0:0:0:
230,172,925284,1,8,0:0:0:0:
230,172,925538,1,0,0:0:0:0:
230,172,925666,1,0,0:0:0:0:
230,172,925920,1,0,0:0:0:0:
230,172,926047,1,8,0:0:0:0:
230,172,926301,1,8,0:0:0:0:
230,172,926386,1,8,0:0:0:0:
230,172,926471,1,8,0:0:0:0:
230,172,926555,1,0,0:0:0:0:
230,172,926683,1,8,0:0:0:0:
230,172,926810,1,0,0:0:0:0:
236,168,926894,1,0,0:0:0:0:
236,168,926979,1,0,0:0:0:0:
236,168,927064,1,8,0:0:0:0:
230,172,927318,1,8,0:0:0:0:
230,172,927572,1,0,0:0:0:0:
230,172,927699,1,0,0:0:0:0:
233,177,927954,1,0,0:0:0:0:
230,172,928081,1,8,0:0:0:0:
221,175,928208,1,0,0:0:0:0:
221,175,928335,1,0,0:0:0:0:
221,175,928462,1,0,0:0:0:0:
221,175,928589,1,12,0:0:0:0:
221,175,929098,1,0,0:0:0:0:
221,175,929352,1,0,0:0:0:0:
221,175,929437,1,0,0:0:0:0:
221,175,929521,1,0,0:0:0:0:
221,175,929606,1,8,0:0:0:0:
221,175,930115,1,0,0:0:0:0:
221,175,930369,1,8,0:0:0:0:
221,175,930454,1,8,0:0:0:0:
221,175,930538,1,8,0:0:0:0:
221,175,930623,1,0,0:0:0:0:
221,175,930708,1,0,0:0:0:0:
221,175,930793,1,0,0:0:0:0:
221,175,930877,1,8,0:0:0:0:
221,175,931132,1,8,0:0:0:0:
221,175,931216,1,0,0:0:0:0:
221,175,931301,1,0,0:0:0:0:
221,175,931386,1,8,0:0:0:0:
221,175,931640,1,12,0:0:0:0:
221,175,931894,1,12,0:0:0:0:
221,175,932149,1,4,0:0:0:0:
221,175,932403,1,4,0:0:0:0:
221,175,932657,1,12,0:0:0:0:
221,175,933166,1,0,0:0:0:0:
221,175,933420,1,0,0:0:0:0:
221,175,933505,1,0,0:0:0:0:
221,175,933589,1,0,0:0:0:0:
221,175,933674,1,8,0:0:0:0:
221,175,934183,1,0,0:0:0:0:
221,175,934437,1,8,0:0:0:0:
221,175,934522,1,8,0:0:0:0:
221,175,934606,1,8,0:0:0:0:
221,175,934691,1,0,0:0:0:0:
221,175,934776,1,0,0:0:0:0:
221,175,934861,1,0,0:0:0:0:
221,175,934945,1,8,0:0:0:0:
221,175,935200,1,8,0:0:0:0:
221,175,935284,1,0,0:0:0:0:
221,175,935369,1,0,0:0:0:0:
221,175,935454,1,8,0:0:0:0:
221,175,935708,1,12,0:0:0:0:
256,192,935835,12,0,936598,0:0:0:0:
221,175,936725,5,12,0:0:0:0:
221,175,937233,1,0,0:0:0:0:
221,175,937487,1,0,0:0:0:0:
221,175,937572,1,0,0:0:0:0:
221,175,937656,1,0,0:0:0:0:
221,175,937741,1,8,0:0:0:0:
221,175,938250,1,0,0:0:0:0:
221,175,938504,1,8,0:0:0:0:
221,175,938589,1,8,0:0:0:0:
221,175,938673,1,8,0:0:0:0:
221,175,938758,1,0,0:0:0:0:
221,175,938843,1,0,0:0:0:0:
221,175,938928,1,0,0:0:0:0:
221,175,939012,1,8,0:0:0:0:
221,175,939267,1,8,0:0:0:0:
221,175,939351,1,0,0:0:0:0:
221,175,939436,1,0,0:0:0:0:
221,175,939521,1,8,0:0:0:0:
221,175,939775,1,12,0:0:0:0:
221,175,940029,1,12,0:0:0:0:
221,175,940284,1,4,0:0:0:0:
221,175,940538,1,4,0:0:0:0:
221,175,940792,1,12,0:0:0:0:
221,175,941301,1,0,0:0:0:0:
221,175,941555,1,0,0:0:0:0:
221,175,941640,1,0,0:0:0:0:
221,175,941724,1,0,0:0:0:0:
221,175,941809,1,8,0:0:0:0:
221,175,942318,1,0,0:0:0:0:
221,175,942572,1,8,0:0:0:0:
221,175,942657,1,8,0:0:0:0:
221,175,942741,1,8,0:0:0:0:
221,175,942826,1,0,0:0:0:0:
221,175,942911,1,0,0:0:0:0:
221,175,942996,1,0,0:0:0:0:
221,175,943080,1,8,0:0:0:0:
221,175,943335,1,8,0:0:0:0:
221,175,943419,1,0,0:0:0:0:
221,175,943504,1,0,0:0:0:0:
221,175,943589,1,8,0:0:0:0:
221,175,943843,1,4,0:0:0:0:
212,168,944098,1,4,0:0:0:0:
221,175,944352,1,12,0:0:0:0:
226,165,944606,1,0,0:0:0:0:
226,165,944733,1,0,0:0:0:0:
221,175,944860,1,12,0:0:0:0:
221,175,945115,1,0,0:0:0:0:
221,175,945242,1,8,0:0:0:0:
221,175,945369,1,0,0:0:0:0:
221,175,945496,1,0,0:0:0:0:
221,175,945623,1,8,0:0:0:0:
221,175,945877,1,8,0:0:0:0:
213,172,946132,1,8,0:0:0:0:
213,172,946259,1,0,0:0:0:0:
213,172,946513,1,0,0:0:0:0:
213,172,946640,1,8,0:0:0:0:
213,172,946767,1,8,0:0:0:0:
213,172,946894,1,0,0:0:0:0:
211,161,947149,1,8,0:0:0:0:
211,161,947276,1,8,0:0:0:0:
211,161,947403,1,0,0:0:0:0:
211,161,947530,1,0,0:0:0:0:
211,161,947657,1,8,0:0:0:0:
211,161,947911,1,0,0:0:0:0:
211,161,948166,1,0,0:0:0:0:
211,161,948293,1,0,0:0:0:0:
211,161,948420,1,8,0:0:0:0:
211,161,948674,1,8,0:0:0:0:
203,165,948801,1,0,0:0:0:0:
203,165,948865,1,0,0:0:0:0:
203,165,948928,1,12,0:0:0:0:
211,161,949183,1,0,0:0:0:0:
211,161,949310,1,0,0:0:0:0:
211,161,949437,1,8,0:0:0:0:
203,165,949691,1,8,0:0:0:0:
203,165,949818,1,0,0:0:0:0:
211,161,949945,1,8,0:0:0:0:
211,161,950199,1,0,0:0:0:0:
211,161,950327,1,8,0:0:0:0:
211,157,950581,1,8,0:0:0:0:
211,157,950708,1,0,0:0:0:0:
211,161,950835,1,0,0:0:0:0:
211,161,950962,1,8,0:0:0:0:
189,159,951216,1,0,0:0:0:0:
189,159,951471,1,8,0:0:0:0:
189,159,951598,1,8,0:0:0:0:
189,159,951725,1,0,0:0:0:0:
189,159,951979,1,8,0:0:0:0:
189,159,952233,1,4,0:0:0:0:
189,159,952488,1,12,0:0:0:0:
189,159,952742,1,12,0:0:0:0:
189,159,952996,1,4,0:0:0:0:
189,159,953250,1,0,0:0:0:0:
189,159,953505,1,8,0:0:0:0:
189,159,953759,1,0,0:0:0:0:
189,159,953886,1,8,0:0:0:0:
189,159,954140,1,8,0:0:0:0:
189,159,954394,1,0,0:0:0:0:
189,159,954649,1,0,0:0:0:0:
189,159,954776,1,8,0:0:0:0:
189,159,954903,1,0,0:0:0:0:
189,159,955030,1,8,0:0:0:0:
189,159,955284,1,8,0:0:0:0:
189,159,955411,1,0,0:0:0:0:
189,159,955666,1,0,0:0:0:0:
189,159,955793,1,8,0:0:0:0:
191,166,956047,1,0,0:0:0:0:
191,166,956301,1,8,0:0:0:0:
191,166,956428,1,0,0:0:0:0:
191,166,956555,1,8,0:0:0:0:
191,166,956810,1,8,0:0:0:0:
191,166,956937,1,8,0:0:0:0:
191,166,957064,1,4,0:0:0:0:
191,166,957318,1,0,0:0:0:0:
191,166,957572,1,8,0:0:0:0:
191,166,957827,1,8,0:0:0:0:
191,166,957954,1,0,0:0:0:0:
191,166,958208,1,0,0:0:0:0:
191,166,958462,1,8,0:0:0:0:
191,166,958716,1,0,0:0:0:0:
191,166,958844,1,8,0:0:0:0:
191,166,958971,1,0,0:0:0:0:
186,174,959098,1,12,0:0:0:0:
186,174,959225,1,0,0:0:0:0:
186,174,959352,1,8,0:0:0:0:
186,174,959479,1,0,0:0:0:0:
186,174,959606,1,8,0:0:0:0:
186,179,959733,1,0,0:0:0:0:
186,179,959860,1,8,0:0:0:0:
186,174,959988,1,0,0:0:0:0:
186,174,960115,1,8,0:0:0:0:
197,177,960242,1,0,0:0:0:0:
197,178,960305,1,0,0:0:0:0:
196,178,960369,1,8,0:0:0:0:
196,178,960496,1,0,0:0:0:0:
196,178,960623,1,8,0:0:0:0:
196,178,960687,1,8,0:0:0:0:
196,178,960750,1,0,0:0:0:0:
196,178,960814,1,0,0:0:0:0:
196,178,960877,1,8,0:0:0:0:
202,163,961005,1,0,0:0:0:0:
308,184,961132,1,12,0:0:0:0:
246,189,961259,1,0,0:0:0:0:
246,189,961386,1,0,0:0:0:0:
246,189,961471,1,0,0:0:0:0:
246,189,961556,1,0,0:0:0:0:
246,189,961641,1,8,0:0:0:0:
246,189,961895,1,8,0:0:0:0:
246,189,962149,1,0,0:0:0:0:
246,189,962276,1,0,0:0:0:0:
246,189,962530,1,0,0:0:0:0:
246,189,962658,1,8,0:0:0:0:
246,189,962912,1,8,0:0:0:0:
246,189,962997,1,8,0:0:0:0:
246,189,963081,1,8,0:0:0:0:
246,189,963166,1,0,0:0:0:0:
239,191,963293,1,8,0:0:0:0:
254,193,963420,1,0,0:0:0:0:
238,191,963505,1,0,0:0:0:0:
246,189,963589,1,0,0:0:0:0:
238,191,963674,1,8,0:0:0:0:
237,191,963929,1,8,0:0:0:0:
237,191,964183,1,0,0:0:0:0:
238,191,964310,1,0,0:0:0:0:
238,191,964564,1,0,0:0:0:0:
237,191,964691,1,8,0:0:0:0:
238,191,965200,1,12,0:0:0:0:
238,183,965327,1,8,0:0:0:0:
234,180,965454,1,0,0:0:0:0:
238,183,965538,1,0,0:0:0:0:
225,202,965623,1,0,0:0:0:0:
238,183,965708,1,8,0:0:0:0:
237,182,965963,1,8,0:0:0:0:
238,183,966217,1,0,0:0:0:0:
238,183,966344,1,0,0:0:0:0:
238,183,966598,1,0,0:0:0:0:
237,182,966725,1,8,0:0:0:0:
238,183,966980,1,8,0:0:0:0:
238,183,967064,1,8,0:0:0:0:
238,183,967149,1,8,0:0:0:0:
238,183,967234,1,0,0:0:0:0:
238,183,967360,1,8,0:0:0:0:
238,183,967488,1,0,0:0:0:0:
238,183,967572,1,0,0:0:0:0:
238,183,967657,1,0,0:0:0:0:
237,182,967742,1,8,0:0:0:0:
238,183,967997,1,8,0:0:0:0:
238,183,968251,1,0,0:0:0:0:
238,183,968378,1,0,0:0:0:0:
238,183,968505,1,8,0:0:0:0:
237,182,968632,1,8,0:0:0:0:
238,183,968759,1,0,0:0:0:0:
250,176,968886,1,0,0:0:0:0:
250,176,969013,1,8,0:0:0:0:
250,176,969268,1,12,0:0:0:0:
250,176,969395,1,0,0:0:0:0:
230,172,969522,1,0,0:0:0:0:
230,172,969607,1,0,0:0:0:0:
230,172,969691,1,0,0:0:0:0:
230,172,969776,1,8,0:0:0:0:
230,172,970030,1,8,0:0:0:0:
230,172,970285,1,0,0:0:0:0:
230,172,970412,1,0,0:0:0:0:
230,172,970666,1,0,0:0:0:0:
230,172,970793,1,8,0:0:0:0:
230,172,971047,1,8,0:0:0:0:
230,172,971132,1,8,0:0:0:0:
230,172,971216,1,8,0:0:0:0:
230,172,971301,1,0,0:0:0:0:
230,172,971429,1,8,0:0:0:0:
230,172,971555,1,0,0:0:0:0:
230,172,971640,1,0,0:0:0:0:
230,172,971725,1,0,0:0:0:0:
230,172,971810,1,8,0:0:0:0:
230,172,972064,1,8,0:0:0:0:
230,172,972319,1,8,0:0:0:0:
230,172,972446,1,0,0:0:0:0:
230,172,972700,1,0,0:0:0:0:
230,172,972827,1,8,0:0:0:0:
230,172,973335,1,12,0:0:0:0:
230,172,973463,1,8,0:0:0:0:
217,179,973589,1,0,0:0:0:0:
217,178,973674,1,0,0:0:0:0:
230,172,973759,1,0,0:0:0:0:
230,172,973844,1,8,0:0:0:0:
230,172,974098,1,8,0:0:0:0:
230,172,974352,1,0,0:0:0:0:
230,172,974480,1,0,0:0:0:0:
230,172,974734,1,0,0:0:0:0:
230,172,974861,1,8,0:0:0:0:
230,172,975115,1,8,0:0:0:0:
230,172,975200,1,8,0:0:0:0:
230,172,975285,1,8,0:0:0:0:
230,172,975369,1,0,0:0:0:0:
230,172,975497,1,8,0:0:0:0:
230,172,975624,1,0,0:0:0:0:
236,168,975708,1,0,0:0:0:0:
236,168,975793,1,0,0:0:0:0:
236,168,975878,1,8,0:0:0:0:
230,172,976132,1,8,0:0:0:0:
230,172,976386,1,0,0:0:0:0:
230,172,976513,1,0,0:0:0:0:
233,177,976768,1,0,0:0:0:0:
230,172,976895,1,8,0:0:0:0:
221,175,977022,1,0,0:0:0:0:
221,175,977149,1,0,0:0:0:0:
221,175,977276,1,0,0:0:0:0:
221,175,977403,1,12,0:0:0:0:
234,170,977657,1,0,0:0:0:0:
230,172,977784,1,8,0:0:0:0:
234,170,977911,1,0,0:0:0:0:
234,170,978038,1,0,0:0:0:0:
234,170,978166,1,8,0:0:0:0:
234,170,978420,1,0,0:0:0:0:
222,179,978674,1,0,0:0:0:0:
230,172,978801,1,8,0:0:0:0:
222,179,979055,1,8,0:0:0:0:
222,179,979182,1,0,0:0:0:0:
222,179,979310,1,0,0:0:0:0:
222,179,979437,1,8,0:0:0:0:
222,179,979691,1,8,0:0:0:0:
222,179,979818,1,8,0:0:0:0:
222,179,979945,1,0,0:0:0:0:
222,179,980072,1,0,0:0:0:0:
222,179,980199,1,8,0:0:0:0:
222,179,980454,1,0,0:0:0:0:
212,178,980708,1,0,0:0:0:0:
212,178,980835,1,0,0:0:0:0:
212,178,980962,1,8,0:0:0:0:
212,178,981216,1,8,0:0:0:0:
212,178,981344,1,0,0:0:0:0:
212,178,981407,1,0,0:0:0:0:
212,178,981471,1,12,0:0:0:0:
214,188,981725,1,0,0:0:0:0:
214,188,981852,1,0,0:0:0:0:
214,188,981979,1,8,0:0:0:0:
214,188,982233,1,8,0:0:0:0:
214,188,982360,1,0,0:0:0:0:
214,188,982488,1,8,0:0:0:0:
214,188,982615,1,8,0:0:0:0:
214,188,982869,1,0,0:0:0:0:
214,188,983123,1,0,0:0:0:0:
214,188,983250,1,8,0:0:0:0:
214,188,983377,1,8,0:0:0:0:
214,188,983505,1,0,0:0:0:0:
214,188,983759,1,0,0:0:0:0:
214,188,983886,1,8,0:0:0:0:
214,188,984013,1,0,0:0:0:0:
214,188,984140,1,0,0:0:0:0:
214,188,984267,1,8,0:0:0:0:
214,188,984521,1,0,0:0:0:0:
214,188,984776,1,12,0:0:0:0:
214,188,985030,1,4,0:0:0:0:
214,188,985284,1,4,0:0:0:0:
214,188,985538,1,12,0:0:0:0:
189,159,985793,1,0,0:0:0:0:
189,159,986048,1,8,0:0:0:0:
189,159,986302,1,0,0:0:0:0:
189,159,986429,1,8,0:0:0:0:
189,159,986683,1,8,0:0:0:0:
189,159,986937,1,0,0:0:0:0:
189,159,987192,1,0,0:0:0:0:
189,159,987319,1,8,0:0:0:0:
189,159,987446,1,0,0:0:0:0:
189,159,987573,1,8,0:0:0:0:
189,159,987827,1,8,0:0:0:0:
189,159,987954,1,0,0:0:0:0:
189,159,988209,1,0,0:0:0:0:
189,159,988336,1,8,0:0:0:0:
191,166,988590,1,0,0:0:0:0:
191,166,988844,1,8,0:0:0:0:
191,166,988971,1,0,0:0:0:0:
191,166,989098,1,8,0:0:0:0:
191,166,989353,1,8,0:0:0:0:
191,166,989480,1,8,0:0:0:0:
191,166,989607,1,4,0:0:0:0:
191,166,989861,1,0,0:0:0:0:
191,166,990115,1,8,0:0:0:0:
191,166,990370,1,8,0:0:0:0:
191,166,990497,1,0,0:0:0:0:
191,166,990751,1,0,0:0:0:0:
191,166,991005,1,8,0:0:0:0:
191,166,991259,1,0,0:0:0:0:
191,166,991387,1,8,0:0:0:0:
191,166,991514,1,0,0:0:0:0:
186,174,991641,1,12,0:0:0:0:
186,174,991768,1,0,0:0:0:0:
186,174,991895,1,8,0:0:0:0:
186,174,992022,1,0,0:0:0:0:
186,174,992149,1,8,0:0:0:0:
190,174,992276,1,0,0:0:0:0:
190,174,992403,1,8,0:0:0:0:
186,174,992530,1,0,0:0:0:0:
186,174,992657,1,8,0:0:0:0:
186,174,992784,1,0,0:0:0:0:
186,174,992911,1,8,0:0:0:0:
186,174,993038,1,0,0:0:0:0:
191,165,993102,1,0,0:0:0:0:
191,165,993166,1,8,0:0:0:0:
190,174,993250,1,0,0:0:0:0:
190,174,993335,1,0,0:0:0:0:
186,174,993420,1,8,0:0:0:0:
186,174,993505,1,0,0:0:0:0:
186,174,993589,1,0,0:0:0:0:
186,174,993674,1,12,0:0:0:0:
186,174,993928,1,0,0:0:0:0:
186,174,994055,1,0,0:0:0:0:
190,174,994182,1,8,0:0:0:0:
186,174,994437,1,8,0:0:0:0:
186,174,994564,1,0,0:0:0:0:
186,174,994818,1,0,0:0:0:0:
186,174,994945,1,8,0:0:0:0:
186,174,995199,1,8,0:0:0:0:
186,174,995327,1,0,0:0:0:0:
186,174,995454,1,8,0:0:0:0:
186,174,995581,1,8,0:0:0:0:
186,174,995708,1,0,0:0:0:0:
186,174,995962,1,8,0:0:0:0:
186,174,996089,1,0,0:0:0:0:
186,174,996216,1,8,0:0:0:0:
186,174,996471,1,8,0:0:0:0:
186,174,996598,1,0,0:0:0:0:
186,174,996852,1,0,0:0:0:0:
186,174,996979,1,8,0:0:0:0:
186,174,997233,1,8,0:0:0:0:
186,174,997360,1,8,0:0:0:0:
186,174,997488,1,0,0:0:0:0:
186,174,997742,1,12,0:0:0:0:
186,174,997996,1,0,0:0:0:0:
186,174,998123,1,0,0:0:0:0:
186,174,998250,1,8,0:0:0:0:
186,174,998505,1,0,0:0:0:0:
186,174,998632,1,8,0:0:0:0:
186,174,998886,1,8,0:0:0:0:
190,183,999013,1,0,0:0:0:0:
195,164,999267,1,8,0:0:0:0:
184,183,999394,1,0,0:0:0:0:
195,164,999521,1,8,0:0:0:0:
193,162,999776,1,0,0:0:0:0:
193,162,1000030,1,8,0:0:0:0:
195,164,1000157,1,0,0:0:0:0:
195,164,1000284,1,8,0:0:0:0:
195,164,1000538,1,8,0:0:0:0:
193,162,1000666,1,0,0:0:0:0:
193,162,1000920,1,0,0:0:0:0:
195,164,1001047,1,8,0:0:0:0:
195,164,1001301,1,8,0:0:0:0:
195,164,1001428,1,0,0:0:0:0:
193,162,1001555,1,8,0:0:0:0:
193,162,1001682,1,8,0:0:0:0:
193,162,1001810,1,4,0:0:0:0:
195,164,1002064,1,0,0:0:0:0:
195,164,1002191,1,0,0:0:0:0:
195,164,1002318,1,8,0:0:0:0:
193,162,1002572,1,8,0:0:0:0:
193,162,1002699,1,0,0:0:0:0:
195,164,1002954,1,0,0:0:0:0:
205,183,1003081,1,0,0:0:0:0:
195,164,1003208,1,8,0:0:0:0:
193,162,1003462,1,0,0:0:0:0:
193,162,1003589,1,8,0:0:0:0:
193,162,1003716,1,8,0:0:0:0:
195,164,1003844,1,0,0:0:0:0:
195,164,1004098,1,0,0:0:0:0:
195,164,1004225,1,8,0:0:0:0:
193,162,1004479,1,8,0:0:0:0:
193,162,1004606,1,0,0:0:0:0:
195,164,1004860,1,8,0:0:0:0:
195,164,1004988,1,0,0:0:0:0:
195,164,1005115,1,8,0:0:0:0:
193,162,1005369,1,8,0:0:0:0:
193,162,1005496,1,8,0:0:0:0:
195,164,1005623,1,0,0:0:0:0:
195,164,1005750,1,8,0:0:0:0:
195,164,1005877,1,4,0:0:0:0:
201,172,1006132,1,0,0:0:0:0:
201,172,1006259,1,0,0:0:0:0:
201,172,1006386,1,8,0:0:0:0:
201,172,1006640,1,8,0:0:0:0:
201,172,1006767,1,0,0:0:0:0:
201,172,1007021,1,0,0:0:0:0:
201,172,1007276,1,8,0:0:0:0:
201,172,1007530,1,8,0:0:0:0:
201,172,1007657,1,0,0:0:0:0:
201,172,1007784,1,0,0:0:0:0:
201,172,1007911,1,12,0:0:0:0:
201,172,1008038,1,0,0:0:0:0:
201,172,1008166,1,8,0:0:0:0:
201,172,1008293,1,0,0:0:0:0:
201,172,1008420,1,8,0:0:0:0:
201,172,1008547,1,0,0:0:0:0:
201,172,1008674,1,8,0:0:0:0:
201,172,1008801,1,0,0:0:0:0:
193,173,1008928,1,8,0:0:0:0:
193,173,1009055,1,0,0:0:0:0:
191,167,1009119,1,0,0:0:0:0:
191,167,1009182,1,8,0:0:0:0:
193,173,1009267,1,0,0:0:0:0:
193,173,1009352,1,0,0:0:0:0:
193,173,1009437,1,8,0:0:0:0:
193,173,1009521,1,0,0:0:0:0:
193,173,1009606,1,0,0:0:0:0:
201,172,1009691,1,8,0:0:0:0:
201,172,1009818,1,0,0:0:0:0:
193,173,1009945,1,12,0:0:0:0:
193,173,1010072,1,0,0:0:0:0:
193,173,1010199,1,12,0:0:0:0:
193,173,1010327,1,0,0:0:0:0:
193,173,1010454,1,12,0:0:0:0:
193,173,1010581,1,0,0:0:0:0:
201,172,1010708,1,12,0:0:0:0:
176,167,1010835,1,0,0:0:0:0:
176,167,1010962,1,12,0:0:0:0:
176,167,1011089,1,0,0:0:0:0:
176,167,1011216,1,12,0:0:0:0:
176,167,1011344,1,0,0:0:0:0:
176,167,1011471,1,8,0:0:0:0:
176,167,1011555,1,8,0:0:0:0:
176,167,1011640,1,8,0:0:0:0:
176,167,1011725,1,0,0:0:0:0:
176,167,1011852,1,0,0:0:0:0:
176,167,1011979,1,12,0:0:0:0:
197,171,1012233,1,8,0:0:0:0:
196,171,1012360,1,0,0:0:0:0:
196,171,1012488,1,8,0:0:0:0:
196,171,1012615,1,8,0:0:0:0:
196,171,1012742,1,0,0:0:0:0:
196,171,1012869,1,8,0:0:0:0:
197,171,1013123,1,8,0:0:0:0:
196,171,1013250,1,0,0:0:0:0:
196,171,1013505,1,0,0:0:0:0:
196,171,1013632,1,8,0:0:0:0:
196,171,1013759,1,0,0:0:0:0:
197,171,1013886,1,0,0:0:0:0:
197,171,1014013,1,12,0:0:0:0:
196,171,1014267,1,8,0:0:0:0:
196,171,1014394,1,8,0:0:0:0:
196,171,1014521,1,0,0:0:0:0:
196,171,1014776,1,8,0:0:0:0:
197,171,1014903,1,0,0:0:0:0:
198,161,1015157,1,0,0:0:0:0:
196,171,1015284,1,8,0:0:0:0:
176,176,1015538,1,0,0:0:0:0:
187,175,1015666,1,0,0:0:0:0:
187,175,1015793,1,8,0:0:0:0:
187,175,1016047,1,4,0:0:0:0:
187,175,1016301,1,0,0:0:0:0:
187,175,1016428,1,0,0:0:0:0:
187,175,1016555,1,8,0:0:0:0:
187,175,1016810,1,8,0:0:0:0:
187,175,1016937,1,0,0:0:0:0:
187,175,1017191,1,0,0:0:0:0:
187,175,1017318,1,8,0:0:0:0:
187,175,1017445,1,0,0:0:0:0:
187,175,1017572,1,8,0:0:0:0:
187,175,1017657,1,8,0:0:0:0:
187,175,1017742,1,8,0:0:0:0:
187,175,1017827,1,0,0:0:0:0:
187,175,1017911,1,0,0:0:0:0:
187,175,1017996,1,0,0:0:0:0:
187,175,1018081,1,12,0:0:0:0:
187,175,1018208,1,0,0:0:0:0:
187,175,1018335,1,12,0:0:0:0:
187,175,1018462,1,0,0:0:0:0:
187,175,1018589,1,12,0:0:0:0:
187,175,1018716,1,0,0:0:0:0:
187,175,1018844,1,12,0:0:0:0:
178,178,1018971,1,0,0:0:0:0:
178,178,1019098,1,12,0:0:0:0:
178,178,1019225,1,0,0:0:0:0:
178,178,1019352,1,12,0:0:0:0:
178,178,1019479,1,0,0:0:0:0:
178,178,1019606,1,8,0:0:0:0:
178,178,1019691,1,8,0:0:0:0:
178,178,1019776,1,8,0:0:0:0:
178,178,1019860,1,0,0:0:0:0:
178,178,1019988,1,0,0:0:0:0:
178,178,1020115,1,12,0:0:0:0:
164,172,1020369,1,8,0:0:0:0:
164,172,1020496,1,0,0:0:0:0:
164,172,1020623,1,8,0:0:0:0:
164,172,1020750,1,8,0:0:0:0:
164,172,1020877,1,0,0:0:0:0:
164,172,1021005,1,8,0:0:0:0:
164,172,1021259,1,8,0:0:0:0:
164,172,1021386,1,0,0:0:0:0:
164,172,1021640,1,0,0:0:0:0:
164,172,1021767,1,8,0:0:0:0:
164,172,1021894,1,0,0:0:0:0:
164,172,1022149,1,12,0:0:0:0:
164,172,1022403,1,0,0:0:0:0:
164,172,1022530,1,8,0:0:0:0:
164,172,1022657,1,0,0:0:0:0:
164,172,1022784,1,0,0:0:0:0:
164,172,1022911,1,8,0:0:0:0:
164,172,1023166,1,0,0:0:0:0:
164,172,1023420,1,8,0:0:0:0:
164,172,1023547,1,0,0:0:0:0:
164,172,1023674,1,8,0:0:0:0:
164,172,1023801,1,8,0:0:0:0:
164,172,1023928,1,0,0:0:0:0:
164,172,1024182,1,12,0:0:0:0:
164,172,1024310,1,0,0:0:0:0:
164,172,1024437,1,12,0:0:0:0:
164,172,1024564,1,0,0:0:0:0:
164,172,1024691,1,12,0:0:0:0:
164,172,1024818,1,0,0:0:0:0:
164,172,1024945,1,12,0:0:0:0:
164,172,1025072,1,0,0:0:0:0:
164,172,1025199,1,12,0:0:0:0:
164,172,1025327,1,0,0:0:0:0:
164,172,1025454,1,8,0:0:0:0:
164,172,1025581,1,0,0:0:0:0:
164,172,1025644,1,0,0:0:0:0:
164,172,1025708,1,8,0:0:0:0:
164,172,1025835,1,0,0:0:0:0:
164,172,1025962,1,8,0:0:0:0:
164,172,1026047,1,0,0:0:0:0:
226,194,1026132,1,0,0:0:0:0:
238,191,1026216,1,12,0:0:0:0:
238,183,1026343,1,0,0:0:0:0:
175,184,1026471,1,0,0:0:0:0:
175,184,1026555,1,0,0:0:0:0:
238,183,1026640,1,0,0:0:0:0:
238,183,1026724,1,8,0:0:0:0:
237,182,1026979,1,8,0:0:0:0:
238,183,1027233,1,0,0:0:0:0:
238,183,1027360,1,0,0:0:0:0:
238,183,1027614,1,0,0:0:0:0:
237,182,1027741,1,8,0:0:0:0:
238,183,1027996,1,8,0:0:0:0:
238,183,1028080,1,8,0:0:0:0:
238,183,1028165,1,8,0:0:0:0:
238,183,1028250,1,0,0:0:0:0:
264,181,1028377,1,8,0:0:0:0:
264,181,1028505,1,0,0:0:0:0:
264,181,1028589,1,0,0:0:0:0:
238,183,1028674,1,0,0:0:0:0:
237,182,1028758,1,8,0:0:0:0:
238,183,1029013,1,0,0:0:0:0:
238,183,1029267,1,8,0:0:0:0:
238,183,1029394,1,8,0:0:0:0:
238,183,1029521,1,0,0:0:0:0:
237,182,1029648,1,0,0:0:0:0:
238,183,1029775,1,8,0:0:0:0:
250,176,1030284,1,12,0:0:0:0:
250,176,1030411,1,8,0:0:0:0:
230,172,1030538,1,0,0:0:0:0:
230,172,1030623,1,0,0:0:0:0:
230,172,1030707,1,0,0:0:0:0:
230,172,1030792,1,8,0:0:0:0:
230,172,1031046,1,8,0:0:0:0:
230,172,1031301,1,0,0:0:0:0:
230,172,1031428,1,0,0:0:0:0:
230,172,1031682,1,0,0:0:0:0:
230,172,1031809,1,8,0:0:0:0:
233,187,1032064,1,8,0:0:0:0:
233,187,1032149,1,8,0:0:0:0:
233,187,1032233,1,8,0:0:0:0:
233,187,1032318,1,0,0:0:0:0:
230,172,1032445,1,8,0:0:0:0:
255,191,1032572,1,0,0:0:0:0:
254,191,1032657,1,0,0:0:0:0:
230,172,1032742,1,0,0:0:0:0:
230,172,1032826,1,8,0:0:0:0:
230,172,1033080,1,8,0:0:0:0:
230,172,1033335,1,8,0:0:0:0:
230,172,1033462,1,0,0:0:0:0:
223,167,1033589,1,8,0:0:0:0:
223,167,1033716,1,8,0:0:0:0:
223,167,1033844,1,0,0:0:0:0:
236,177,1033971,1,0,0:0:0:0:
236,177,1034098,1,8,0:0:0:0:
230,172,1034351,1,12,0:0:0:0:
230,172,1034479,1,0,0:0:0:0:
223,167,1034606,1,0,0:0:0:0:
221,167,1034691,1,0,0:0:0:0:
230,172,1034776,1,0,0:0:0:0:
230,172,1034860,1,8,0:0:0:0:
230,172,1035114,1,8,0:0:0:0:
230,172,1035368,1,0,0:0:0:0:
230,172,1035496,1,0,0:0:0:0:
230,172,1035750,1,0,0:0:0:0:
230,172,1035877,1,8,0:0:0:0:
230,172,1036131,1,8,0:0:0:0:
230,172,1036216,1,8,0:0:0:0:
230,172,1036301,1,8,0:0:0:0:
230,172,1036385,1,0,0:0:0:0:
230,172,1036513,1,8,0:0:0:0:
230,172,1036640,1,0,0:0:0:0:
230,172,1036725,1,0,0:0:0:0:
236,168,1036810,1,0,0:0:0:0:
236,168,1036894,1,8,0:0:0:0:
230,172,1037148,1,8,0:0:0:0:
230,172,1037402,1,0,0:0:0:0:
230,172,1037529,1,0,0:0:0:0:
233,177,1037784,1,0,0:0:0:0:
230,172,1037911,1,8,0:0:0:0:
221,175,1038419,1,12,0:0:0:0:
230,172,1038547,1,8,0:0:0:0:
240,172,1038674,1,0,0:0:0:0:
240,172,1038759,1,0,0:0:0:0:
233,177,1038844,1,0,0:0:0:0:
230,177,1038928,1,8,0:0:0:0:
230,177,1039182,1,8,0:0:0:0:
230,172,1039437,1,0,0:0:0:0:
230,172,1039564,1,0,0:0:0:0:
233,177,1039818,1,0,0:0:0:0:
230,177,1039945,1,8,0:0:0:0:
230,172,1040199,1,8,0:0:0:0:
230,172,1040284,1,8,0:0:0:0:
230,172,1040369,1,8,0:0:0:0:
230,172,1040454,1,0,0:0:0:0:
233,177,1040581,1,8,0:0:0:0:
233,177,1040708,1,0,0:0:0:0:
233,177,1040793,1,0,0:0:0:0:
230,177,1040877,1,0,0:0:0:0:
230,172,1040962,1,8,0:0:0:0:
230,172,1041216,1,8,0:0:0:0:
233,177,1041471,1,0,0:0:0:0:
233,177,1041598,1,0,0:0:0:0:
230,177,1041852,1,0,0:0:0:0:
230,172,1041979,1,8,0:0:0:0:
230,172,1042106,1,8,0:0:0:0:
233,177,1042233,1,0,0:0:0:0:
233,177,1042360,1,0,0:0:0:0:
233,177,1042488,1,12,0:0:0:0:
230,177,1042742,1,0,0:0:0:0:
230,172,1042996,1,8,0:0:0:0:
230,172,1043123,1,8,0:0:0:0:
233,177,1043250,1,0,0:0:0:0:
230,177,1043505,1,8,0:0:0:0:
230,177,1043632,1,0,0:0:0:0:
230,172,1043886,1,0,0:0:0:0:
230,172,1044013,1,0,0:0:0:0:
233,177,1044267,1,0,0:0:0:0:
230,177,1044352,1,0,0:0:0:0:
238,176,1044437,1,0,0:0:0:0:
238,176,1044521,1,12,0:0:0:0:
238,176,1044776,1,8,0:0:0:0:
238,176,1044860,1,0,0:0:0:0:
238,176,1044945,1,0,0:0:0:0:
233,177,1045030,1,8,0:0:0:0:
238,176,1045284,1,0,0:0:0:0:
238,176,1045411,1,0,0:0:0:0:
238,176,1045538,1,8,0:0:0:0:
238,176,1045666,1,0,0:0:0:0:
238,176,1045920,1,0,0:0:0:0:
233,177,1046047,1,8,0:0:0:0:
238,176,1046174,1,8,0:0:0:0:
238,176,1046301,1,0,0:0:0:0:
238,176,1046386,1,0,0:0:0:0:
238,176,1046471,1,0,0:0:0:0:
238,176,1046555,1,12,0:0:0:0:
238,176,1046810,1,0,0:0:0:0:
233,177,1047064,1,8,0:0:0:0:
238,176,1047191,1,8,0:0:0:0:
238,176,1047318,1,0,0:0:0:0:
238,176,1047572,1,8,0:0:0:0:
238,176,1047699,1,0,0:0:0:0:
235,169,1047954,1,0,0:0:0:0:
235,169,1048081,1,8,0:0:0:0:
235,168,1048335,1,0,0:0:0:0:
235,168,1048420,1,0,0:0:0:0:
235,168,1048505,1,0,0:0:0:0:
235,168,1048589,1,12,0:0:0:0:
236,179,1048844,1,8,0:0:0:0:
245,175,1048928,1,0,0:0:0:0:
245,166,1049013,1,0,0:0:0:0:
245,166,1049098,1,8,0:0:0:0:
245,174,1049352,1,0,0:0:0:0:
245,175,1049606,1,8,0:0:0:0:
245,175,1049733,1,0,0:0:0:0:
245,175,1049988,1,0,0:0:0:0:
245,174,1050115,1,8,0:0:0:0:
245,174,1050242,1,8,0:0:0:0:
245,175,1050369,1,0,0:0:0:0:
245,175,1050454,1,0,0:0:0:0:
245,175,1050538,1,0,0:0:0:0:
245,175,1050623,1,12,0:0:0:0:
245,175,1050877,1,0,0:0:0:0:
245,174,1051132,1,8,0:0:0:0:
245,174,1051259,1,8,0:0:0:0:
245,175,1051386,1,0,0:0:0:0:
245,175,1051640,1,8,0:0:0:0:
245,175,1051767,1,0,0:0:0:0:
245,174,1052021,1,0,0:0:0:0:
262,162,1052149,1,0,0:0:0:0:
259,164,1052403,1,0,0:0:0:0:
259,164,1052488,1,0,0:0:0:0:
259,164,1052572,1,0,0:0:0:0:
259,164,1052657,1,12,0:0:0:0:
268,163,1052911,1,8,0:0:0:0:
266,165,1052996,1,0,0:0:0:0:
269,163,1053081,1,0,0:0:0:0:
269,163,1053166,1,8,0:0:0:0:
244,171,1053420,1,0,0:0:0:0:
249,166,1053547,1,0,0:0:0:0:
246,170,1053674,1,8,0:0:0:0:
249,166,1053801,1,0,0:0:0:0:
246,170,1054055,1,0,0:0:0:0:
246,170,1054182,1,8,0:0:0:0:
249,166,1054310,1,8,0:0:0:0:
244,171,1054437,1,0,0:0:0:0:
246,170,1054521,1,0,0:0:0:0:
246,170,1054606,1,0,0:0:0:0:
246,170,1054691,1,12,0:0:0:0:
246,170,1054945,1,0,0:0:0:0:
244,171,1055199,1,8,0:0:0:0:
244,171,1055327,1,8,0:0:0:0:
244,171,1055454,1,0,0:0:0:0:
246,170,1055708,1,8,0:0:0:0:
227,174,1055835,1,0,0:0:0:0:
244,171,1056089,1,0,0:0:0:0:
244,171,1056216,1,0,0:0:0:0:
243,180,1056471,1,0,0:0:0:0:
243,180,1056555,1,0,0:0:0:0:
243,180,1056640,1,0,0:0:0:0:
243,180,1056725,1,12,0:0:0:0:
243,180,1056979,1,8,1:0:0:0:
243,180,1057064,1,0,1:0:0:0:
243,180,1057149,1,0,1:0:0:0:
243,180,1057233,1,8,1:0:0:0:
264,172,1057488,1,0,0:0:0:0:
243,180,1057742,1,8,0:0:0:0:
243,180,1057869,1,8,0:0:0:0:
243,180,1058123,1,8,0:0:0:0:
239,182,1058250,1,0,0:0:0:0:
238,182,1058377,1,0,0:0:0:0:
243,180,1058505,1,0,0:0:0:0:
243,180,1058632,1,0,0:0:0:0:
243,180,1058759,1,12,0:0:0:0:
221,175,1059267,1,0,0:0:0:0:
221,175,1059521,1,0,0:0:0:0:
221,175,1059606,1,0,0:0:0:0:
221,175,1059690,1,0,0:0:0:0:
221,175,1059775,1,8,0:0:0:0:
221,175,1060284,1,0,0:0:0:0:
221,175,1060538,1,8,0:0:0:0:
221,175,1060623,1,8,0:0:0:0:
221,175,1060707,1,8,0:0:0:0:
221,175,1060792,1,0,0:0:0:0:
221,175,1060877,1,0,0:0:0:0:
221,175,1060962,1,0,0:0:0:0:
221,175,1061046,1,8,0:0:0:0:
221,175,1061301,1,8,0:0:0:0:
221,175,1061385,1,0,0:0:0:0:
221,175,1061470,1,0,0:0:0:0:
221,175,1061555,1,8,0:0:0:0:
221,175,1061809,1,12,0:0:0:0:
221,175,1062063,1,12,0:0:0:0:
221,175,1062318,1,4,0:0:0:0:
221,175,1062572,1,4,0:0:0:0:
221,175,1062826,1,12,0:0:0:0:
221,175,1063335,1,0,0:0:0:0:
221,175,1063589,1,0,0:0:0:0:
221,175,1063674,1,0,0:0:0:0:
221,175,1063758,1,0,0:0:0:0:
221,175,1063843,1,8,0:0:0:0:
221,175,1064352,1,0,0:0:0:0:
221,175,1064606,1,8,0:0:0:0:
221,175,1064691,1,8,0:0:0:0:
221,175,1064775,1,8,0:0:0:0:
221,175,1064860,1,0,0:0:0:0:
221,175,1064945,1,0,0:0:0:0:
221,175,1065030,1,0,0:0:0:0:
221,175,1065114,1,8,0:0:0:0:
221,175,1065369,1,8,0:0:0:0:
221,175,1065453,1,0,0:0:0:0:
221,175,1065538,1,0,0:0:0:0:
221,175,1065623,1,8,0:0:0:0:
221,175,1065877,1,12,0:0:0:0:
256,192,1066004,12,0,1066767,0:0:0:0:
221,175,1066894,5,12,0:0:0:0:
221,175,1067402,1,0,0:0:0:0:
221,175,1067656,1,0,0:0:0:0:
221,175,1067741,1,0,0:0:0:0:
221,175,1067827,1,0,0:0:0:0:
221,175,1067910,1,8,0:0:0:0:
221,175,1068419,1,0,0:0:0:0:
221,175,1068673,1,8,0:0:0:0:
221,175,1068758,1,8,0:0:0:0:
221,175,1068844,1,8,0:0:0:0:
221,175,1068927,1,0,0:0:0:0:
221,175,1069012,1,0,0:0:0:0:
221,175,1069097,1,0,0:0:0:0:
221,175,1069181,1,8,0:0:0:0:
221,175,1069436,1,8,0:0:0:0:
221,175,1069520,1,0,0:0:0:0:
221,175,1069605,1,0,0:0:0:0:
221,175,1069690,1,8,0:0:0:0:
221,175,1069944,1,12,0:0:0:0:
221,175,1070198,1,12,0:0:0:0:
221,175,1070453,1,4,0:0:0:0:
221,175,1070707,1,4,0:0:0:0:
221,175,1070961,1,12,0:0:0:0:
221,175,1071470,1,0,0:0:0:0:
221,175,1071724,1,0,0:0:0:0:
221,175,1071809,1,0,0:0:0:0:
221,175,1071893,1,0,0:0:0:0:
221,175,1071978,1,8,0:0:0:0:
221,175,1072487,1,0,0:0:0:0:
221,175,1072741,1,8,0:0:0:0:
221,175,1072826,1,8,0:0:0:0:
221,175,1072910,1,8,0:0:0:0:
221,175,1072995,1,0,0:0:0:0:
221,175,1073080,1,0,0:0:0:0:
221,175,1073165,1,0,0:0:0:0:
221,175,1073249,1,8,0:0:0:0:
221,175,1073504,1,8,0:0:0:0:
221,175,1073588,1,0,0:0:0:0:
221,175,1073673,1,0,0:0:0:0:
221,175,1073758,1,8,0:0:0:0:
221,175,1074012,1,4,0:0:0:0:
214,177,1074267,1,4,0:0:0:0:
214,177,1074521,1,12,0:0:0:0:
214,177,1074776,1,0,0:0:0:0:
308,184,1075030,1,12,0:0:0:0:
246,189,1075157,1,0,0:0:0:0:
246,189,1075284,1,0,0:0:0:0:
246,189,1075369,1,0,0:0:0:0:
246,189,1075454,1,0,0:0:0:0:
246,189,1075539,1,8,0:0:0:0:
246,189,1075793,1,8,0:0:0:0:
246,189,1076047,1,0,0:0:0:0:
246,189,1076174,1,0,0:0:0:0:
246,189,1076428,1,0,0:0:0:0:
246,189,1076556,1,8,0:0:0:0:
246,189,1076810,1,8,0:0:0:0:
246,189,1076895,1,8,0:0:0:0:
246,189,1076979,1,8,0:0:0:0:
246,189,1077064,1,0,0:0:0:0:
264,192,1077191,1,8,0:0:0:0:
264,191,1077318,1,0,0:0:0:0:
264,191,1077403,1,0,0:0:0:0:
238,191,1077488,1,0,0:0:0:0:
238,191,1077572,1,8,0:0:0:0:
237,191,1077827,1,8,0:0:0:0:
237,191,1078081,1,0,0:0:0:0:
238,191,1078208,1,0,0:0:0:0:
238,191,1078462,1,0,0:0:0:0:
237,191,1078589,1,8,0:0:0:0:
238,191,1079098,1,12,0:0:0:0:
238,183,1079225,1,8,0:0:0:0:
230,187,1079352,1,0,0:0:0:0:
230,187,1079437,1,0,0:0:0:0:
238,183,1079521,1,0,0:0:0:0:
238,183,1079606,1,8,0:0:0:0:
237,182,1079861,1,8,0:0:0:0:
238,183,1080115,1,0,0:0:0:0:
238,183,1080242,1,0,0:0:0:0:
238,183,1080496,1,0,0:0:0:0:
237,182,1080623,1,8,0:0:0:0:
238,183,1080878,1,8,0:0:0:0:
238,183,1080962,1,8,0:0:0:0:
238,183,1081047,1,8,0:0:0:0:
238,183,1081132,1,4,0:0:0:0:
238,183,1081513,1,0,0:0:0:0:
237,182,1081640,1,8,0:0:0:0:
238,183,1081895,1,8,0:0:0:0:
238,183,1082149,1,0,0:0:0:0:
238,183,1082276,1,0,0:0:0:0:
238,183,1082403,1,8,0:0:0:0:
237,182,1082530,1,8,0:0:0:0:
238,183,1082657,1,0,0:0:0:0:
250,176,1082784,1,0,0:0:0:0:
250,176,1082911,1,8,0:0:0:0:
250,176,1083166,1,12,0:0:0:0:
250,176,1083293,1,0,0:0:0:0:
230,172,1083420,1,0,0:0:0:0:
230,172,1083505,1,0,0:0:0:0:
230,172,1083589,1,0,0:0:0:0:
230,172,1083674,1,8,0:0:0:0:
230,172,1083928,1,8,0:0:0:0:
230,172,1084183,1,0,0:0:0:0:
230,172,1084310,1,0,0:0:0:0:
230,172,1084564,1,0,0:0:0:0:
230,172,1084691,1,8,0:0:0:0:
230,172,1084945,1,8,0:0:0:0:
230,172,1085030,1,8,0:0:0:0:
230,172,1085115,1,8,0:0:0:0:
230,172,1085200,1,0,0:0:0:0:
230,172,1085327,1,8,0:0:0:0:
246,169,1085454,1,0,0:0:0:0:
230,172,1085538,1,0,0:0:0:0:
245,169,1085623,1,0,0:0:0:0:
230,172,1085708,1,8,0:0:0:0:
230,172,1085962,1,8,0:0:0:0:
230,172,1086217,1,8,0:0:0:0:
230,172,1086344,1,0,0:0:0:0:
230,172,1086598,1,0,0:0:0:0:
230,172,1086725,1,8,0:0:0:0:
230,172,1087233,1,12,0:0:0:0:
230,172,1087361,1,8,0:0:0:0:
230,172,1087488,1,0,0:0:0:0:
230,172,1087572,1,0,0:0:0:0:
230,172,1087657,1,0,0:0:0:0:
230,172,1087742,1,8,0:0:0:0:
230,172,1087996,1,8,0:0:0:0:
230,172,1088250,1,0,0:0:0:0:
230,172,1088378,1,0,0:0:0:0:
230,172,1088632,1,0,0:0:0:0:
230,172,1088759,1,8,0:0:0:0:
230,172,1089013,1,8,0:0:0:0:
230,172,1089098,1,8,0:0:0:0:
230,172,1089183,1,8,0:0:0:0:
230,172,1089267,1,0,0:0:0:0:
230,172,1089395,1,8,0:0:0:0:
230,172,1089522,1,0,0:0:0:0:
236,168,1089606,1,0,0:0:0:0:
236,168,1089691,1,0,0:0:0:0:
236,168,1089776,1,8,0:0:0:0:
230,172,1090030,1,8,0:0:0:0:
230,172,1090284,1,0,0:0:0:0:
230,172,1090411,1,0,0:0:0:0:
233,177,1090666,1,0,0:0:0:0:
230,172,1090793,1,8,0:0:0:0:
221,175,1090920,1,0,0:0:0:0:
221,175,1091047,1,0,0:0:0:0:
221,175,1091174,1,0,0:0:0:0:
221,175,1091301,1,12,0:0:0:0:
221,175,1091810,1,0,0:0:0:0:
221,175,1092064,1,0,0:0:0:0:
221,175,1092149,1,0,0:0:0:0:
221,175,1092233,1,0,0:0:0:0:
221,175,1092318,1,8,0:0:0:0:
221,175,1092827,1,0,0:0:0:0:
221,175,1093081,1,8,0:0:0:0:
221,175,1093166,1,8,0:0:0:0:
221,175,1093250,1,8,0:0:0:0:
221,175,1093335,1,0,0:0:0:0:
221,175,1093420,1,0,0:0:0:0:
221,175,1093505,1,0,0:0:0:0:
221,175,1093589,1,8,0:0:0:0:
221,175,1093844,1,8,0:0:0:0:
221,175,1093928,1,0,0:0:0:0:
221,175,1094013,1,0,0:0:0:0:
221,175,1094098,1,8,0:0:0:0:
221,175,1094352,1,12,0:0:0:0:
221,175,1094606,1,12,0:0:0:0:
221,175,1094861,1,4,0:0:0:0:
221,175,1095115,1,4,0:0:0:0:
221,175,1095369,1,12,0:0:0:0:
221,175,1095878,1,0,0:0:0:0:
221,175,1096132,1,0,0:0:0:0:
221,175,1096217,1,0,0:0:0:0:
221,175,1096301,1,0,0:0:0:0:
221,175,1096386,1,8,0:0:0:0:
221,175,1096895,1,0,0:0:0:0:
221,175,1097149,1,8,0:0:0:0:
221,175,1097234,1,8,0:0:0:0:
221,175,1097318,1,8,0:0:0:0:
221,175,1097403,1,0,0:0:0:0:
221,175,1097488,1,0,0:0:0:0:
221,175,1097573,1,0,0:0:0:0:
221,175,1097657,1,8,0:0:0:0:
221,175,1097912,1,8,0:0:0:0:
221,175,1097996,1,0,0:0:0:0:
221,175,1098081,1,0,0:0:0:0:
221,175,1098166,1,8,0:0:0:0:
221,175,1098420,1,12,0:0:0:0:
256,192,1098547,12,0,1099310,0:0:0:0:
221,175,1099437,5,12,0:0:0:0:
221,175,1099945,1,0,0:0:0:0:
221,175,1100199,1,0,0:0:0:0:
221,175,1100284,1,0,0:0:0:0:
221,175,1100368,1,0,0:0:0:0:
221,175,1100453,1,8,0:0:0:0:
221,175,1100962,1,0,0:0:0:0:
221,175,1101216,1,8,0:0:0:0:
221,175,1101301,1,8,0:0:0:0:
221,175,1101385,1,8,0:0:0:0:
221,175,1101470,1,0,0:0:0:0:
221,175,1101555,1,0,0:0:0:0:
221,175,1101640,1,0,0:0:0:0:
221,175,1101724,1,8,0:0:0:0:
221,175,1101979,1,8,0:0:0:0:
221,175,1102063,1,0,0:0:0:0:
221,175,1102148,1,0,0:0:0:0:
221,175,1102233,1,8,0:0:0:0:
221,175,1102487,1,12,0:0:0:0:
221,175,1102741,1,12,0:0:0:0:
221,175,1102996,1,4,0:0:0:0:
221,175,1103250,1,4,0:0:0:0:
221,175,1103504,1,12,0:0:0:0:
221,175,1104013,1,0,0:0:0:0:
221,175,1104267,1,0,0:0:0:0:
221,175,1104352,1,0,0:0:0:0:
221,175,1104436,1,0,0:0:0:0:
221,175,1104521,1,8,0:0:0:0:
221,175,1105030,1,0,0:0:0:0:
221,175,1105284,1,8,0:0:0:0:
221,175,1105369,1,8,0:0:0:0:
221,175,1105453,1,8,0:0:0:0:
221,175,1105538,1,0,0:0:0:0:
221,175,1105623,1,0,0:0:0:0:
221,175,1105708,1,0,0:0:0:0:
221,175,1105792,1,8,0:0:0:0:
221,175,1106047,1,8,0:0:0:0:
221,175,1106131,1,0,0:0:0:0:
221,175,1106216,1,0,0:0:0:0:
221,175,1106301,1,8,0:0:0:0:
221,175,1106555,1,4,0:0:0:0:
221,175,1106810,1,4,0:0:0:0:
221,175,1107064,1,12,0:0:0:0:
221,175,1107318,1,8,0:0:0:0:
221,175,1107572,1,4,0:0:0:0:
234,170,1107827,1,0,0:0:0:0:
230,172,1107954,1,8,0:0:0:0:
234,170,1108081,1,0,0:0:0:0:
234,170,1108208,1,0,0:0:0:0:
234,170,1108336,1,8,0:0:0:0:
234,170,1108590,1,0,0:0:0:0:
222,179,1108844,1,0,0:0:0:0:
230,172,1108971,1,8,0:0:0:0:
222,179,1109225,1,8,0:0:0:0:
222,179,1109352,1,0,0:0:0:0:
222,179,1109480,1,0,0:0:0:0:
222,179,1109607,1,8,0:0:0:0:
222,179,1109861,1,8,0:0:0:0:
222,179,1109988,1,8,0:0:0:0:
222,179,1110115,1,0,0:0:0:0:
222,179,1110242,1,0,0:0:0:0:
222,179,1110369,1,8,0:0:0:0:
222,179,1110624,1,0,0:0:0:0:
212,178,1110878,1,0,0:0:0:0:
212,178,1111005,1,0,0:0:0:0:
212,178,1111132,1,8,0:0:0:0:
212,178,1111386,1,8,0:0:0:0:
212,178,1111514,1,0,0:0:0:0:
212,178,1111577,1,0,0:0:0:0:
212,178,1111641,1,12,0:0:0:0:
214,188,1111895,1,0,0:0:0:0:
214,188,1112022,1,0,0:0:0:0:
214,188,1112149,1,8,0:0:0:0:
214,188,1112403,1,8,0:0:0:0:
214,188,1112530,1,0,0:0:0:0:
214,188,1112658,1,8,0:0:0:0:
214,188,1112785,1,8,0:0:0:0:
214,188,1113039,1,0,0:0:0:0:
214,188,1113293,1,0,0:0:0:0:
214,188,1113420,1,8,0:0:0:0:
214,188,1113547,1,8,0:0:0:0:
214,188,1113675,1,0,0:0:0:0:
214,188,1113929,1,0,0:0:0:0:
214,188,1114056,1,8,0:0:0:0:
214,188,1114183,1,0,0:0:0:0:
214,188,1114310,1,0,0:0:0:0:
214,188,1114437,1,8,0:0:0:0:
214,188,1114691,1,0,0:0:0:0:
214,188,1114946,1,12,0:0:0:0:
214,188,1115200,1,4,0:0:0:0:
214,188,1115454,1,4,0:0:0:0:
214,188,1115708,1,12,0:0:0:0:
189,159,1115963,1,0,0:0:0:0:
189,159,1116216,1,8,0:0:0:0:
189,159,1116472,1,0,0:0:0:0:
189,159,1116599,1,8,0:0:0:0:
189,159,1116853,1,8,0:0:0:0:
189,159,1117107,1,0,0:0:0:0:
189,159,1117360,1,0,0:0:0:0:
189,159,1117489,1,8,0:0:0:0:
189,159,1117616,1,0,0:0:0:0:
189,159,1117743,1,8,0:0:0:0:
189,159,1117997,1,8,0:0:0:0:
189,159,1118124,1,0,0:0:0:0:
189,159,1118377,1,0,0:0:0:0:
189,159,1118506,1,8,0:0:0:0:
191,166,1118760,1,0,0:0:0:0:
191,166,1119014,1,8,0:0:0:0:
191,166,1119141,1,0,0:0:0:0:
191,166,1119268,1,8,0:0:0:0:
191,166,1119521,1,8,0:0:0:0:
191,166,1119650,1,8,0:0:0:0:
191,166,1119777,1,4,0:0:0:0:
191,166,1120031,1,0,0:0:0:0:
191,166,1120285,1,8,0:0:0:0:
191,166,1120538,1,8,0:0:0:0:
191,166,1120667,1,0,0:0:0:0:
191,166,1120921,1,0,0:0:0:0:
191,166,1121175,1,8,0:0:0:0:
191,166,1121429,1,0,0:0:0:0:
191,166,1121555,1,8,0:0:0:0:
191,166,1121682,1,0,0:0:0:0:
186,174,1121811,1,12,0:0:0:0:
186,174,1121938,1,0,0:0:0:0:
186,174,1122065,1,8,0:0:0:0:
186,174,1122192,1,0,0:0:0:0:
186,174,1122319,1,8,0:0:0:0:
190,174,1122446,1,0,0:0:0:0:
190,174,1122573,1,8,0:0:0:0:
186,174,1122700,1,0,0:0:0:0:
186,174,1122827,1,8,0:0:0:0:
186,174,1122954,1,0,0:0:0:0:
186,174,1123081,1,8,0:0:0:0:
186,174,1123208,1,0,0:0:0:0:
186,174,1123271,1,0,0:0:0:0:
186,174,1123335,1,8,0:0:0:0:
190,174,1123420,1,0,0:0:0:0:
190,174,1123505,1,0,0:0:0:0:
186,174,1123590,1,8,0:0:0:0:
186,174,1123675,1,0,0:0:0:0:
186,174,1123759,1,0,0:0:0:0:
186,174,1123844,1,12,0:0:0:0:
186,174,1124098,1,0,0:0:0:0:
186,174,1124225,1,0,0:0:0:0:
190,174,1124352,1,8,0:0:0:0:
186,174,1124607,1,8,0:0:0:0:
186,174,1124734,1,0,0:0:0:0:
186,174,1124988,1,0,0:0:0:0:
186,174,1125115,1,8,0:0:0:0:
186,174,1125369,1,8,0:0:0:0:
186,174,1125497,1,0,0:0:0:0:
186,174,1125624,1,8,0:0:0:0:
186,174,1125751,1,8,0:0:0:0:
186,174,1125878,1,0,0:0:0:0:
186,174,1126132,1,8,0:0:0:0:
186,174,1126259,1,0,0:0:0:0:
186,174,1126386,1,8,0:0:0:0:
186,174,1126641,1,8,0:0:0:0:
186,174,1126768,1,0,0:0:0:0:
186,174,1127022,1,0,0:0:0:0:
186,174,1127149,1,8,0:0:0:0:
186,174,1127403,1,8,0:0:0:0:
186,174,1127530,1,8,0:0:0:0:
186,174,1127658,1,0,0:0:0:0:
186,174,1127912,1,12,0:0:0:0:
186,174,1128166,1,0,0:0:0:0:
186,174,1128293,1,0,0:0:0:0:
186,174,1128420,1,8,0:0:0:0:
186,174,1128675,1,0,0:0:0:0:
186,174,1128802,1,8,0:0:0:0:
186,174,1129056,1,8,0:0:0:0:
190,183,1129183,1,0,0:0:0:0:
195,164,1129437,1,8,0:0:0:0:
195,164,1129691,1,8,0:0:0:0:
193,162,1129946,1,0,0:0:0:0:
193,162,1130200,1,8,0:0:0:0:
195,164,1130327,1,0,0:0:0:0:
195,164,1130454,1,8,0:0:0:0:
195,164,1130708,1,8,0:0:0:0:
193,162,1130836,1,0,0:0:0:0:
193,162,1131090,1,0,0:0:0:0:
195,164,1131217,1,8,0:0:0:0:
195,164,1131471,1,8,0:0:0:0:
195,164,1131598,1,0,0:0:0:0:
193,162,1131725,1,8,0:0:0:0:
193,162,1131852,1,8,0:0:0:0:
193,162,1131980,1,4,0:0:0:0:
195,164,1132234,1,0,0:0:0:0:
195,164,1132361,1,0,0:0:0:0:
195,164,1132488,1,8,0:0:0:0:
193,162,1132742,1,8,0:0:0:0:
193,162,1132869,1,0,0:0:0:0:
195,164,1133124,1,0,0:0:0:0:
195,164,1133378,1,8,0:0:0:0:
193,162,1133632,1,0,0:0:0:0:
193,162,1133759,1,8,0:0:0:0:
193,162,1133886,1,8,0:0:0:0:
195,164,1134014,1,0,0:0:0:0:
195,164,1134268,1,0,0:0:0:0:
195,164,1134395,1,8,0:0:0:0:
193,162,1134649,1,8,0:0:0:0:
193,162,1134776,1,0,0:0:0:0:
195,164,1135030,1,8,0:0:0:0:
195,164,1135158,1,0,0:0:0:0:
195,164,1135285,1,8,0:0:0:0:
193,162,1135539,1,8,0:0:0:0:
193,162,1135666,1,8,0:0:0:0:
195,164,1135793,1,0,0:0:0:0:
195,164,1135920,1,8,0:0:0:0:
195,164,1136047,1,4,0:0:0:0:
201,172,1136302,1,0,0:0:0:0:
201,172,1136429,1,0,0:0:0:0:
201,172,1136556,1,8,0:0:0:0:
201,172,1136810,1,8,0:0:0:0:
201,172,1136937,1,0,0:0:0:0:
201,172,1137191,1,0,0:0:0:0:
201,172,1137446,1,8,0:0:0:0:
201,172,1137700,1,8,0:0:0:0:
201,172,1137827,1,0,0:0:0:0:
201,172,1137954,1,0,0:0:0:0:
201,172,1138081,1,12,0:0:0:0:
201,172,1138208,1,0,0:0:0:0:
201,172,1138336,1,8,0:0:0:0:
201,172,1138463,1,0,0:0:0:0:
201,172,1138590,1,8,0:0:0:0:
201,172,1138717,1,0,0:0:0:0:
201,172,1138844,1,8,0:0:0:0:
201,172,1138971,1,0,0:0:0:0:
193,173,1139098,1,8,0:0:0:0:
193,173,1139182,1,8,0:0:0:0:
190,167,1139267,1,8,0:0:0:0:
193,173,1139352,1,0,0:0:0:0:
199,164,1139437,1,0,0:0:0:0:
193,173,1139521,1,0,0:0:0:0:
193,173,1139607,1,8,0:0:0:0:
193,173,1139691,1,0,0:0:0:0:
193,173,1139776,1,0,0:0:0:0:
201,172,1139861,1,8,0:0:0:0:
193,173,1139988,1,0,0:0:0:0:
193,173,1140115,1,12,0:0:0:0:
193,173,1140242,1,0,0:0:0:0:
193,173,1140369,1,12,0:0:0:0:
193,173,1140497,1,0,0:0:0:0:
193,173,1140624,1,12,0:0:0:0:
193,173,1140751,1,0,0:0:0:0:
201,172,1140878,1,12,0:0:0:0:
176,167,1141005,1,0,0:0:0:0:
176,167,1141132,1,12,0:0:0:0:
176,167,1141259,1,0,0:0:0:0:
176,167,1141386,1,12,0:0:0:0:
176,167,1141514,1,0,0:0:0:0:
176,167,1141641,1,8,0:0:0:0:
176,167,1141725,1,8,0:0:0:0:
176,167,1141810,1,8,0:0:0:0:
176,167,1141895,1,0,0:0:0:0:
176,167,1142022,1,0,0:0:0:0:
176,167,1142149,1,12,0:0:0:0:
197,171,1142403,1,8,0:0:0:0:
196,171,1142530,1,0,0:0:0:0:
196,171,1142658,1,8,0:0:0:0:
196,171,1142785,1,8,0:0:0:0:
196,171,1142912,1,0,0:0:0:0:
196,171,1143039,1,8,0:0:0:0:
197,171,1143293,1,8,0:0:0:0:
196,171,1143420,1,0,0:0:0:0:
196,171,1143675,1,0,0:0:0:0:
196,171,1143802,1,8,0:0:0:0:
196,171,1143929,1,0,0:0:0:0:
197,171,1144056,1,0,0:0:0:0:
197,171,1144183,1,12,0:0:0:0:
196,171,1144437,1,8,0:0:0:0:
196,171,1144564,1,8,0:0:0:0:
196,171,1144691,1,0,0:0:0:0:
197,171,1144946,1,8,0:0:0:0:
196,171,1145073,1,0,0:0:0:0:
196,171,1145327,1,0,0:0:0:0:
196,171,1145454,1,8,0:0:0:0:
176,176,1145708,1,0,0:0:0:0:
187,175,1145836,1,0,0:0:0:0:
187,175,1145963,1,8,0:0:0:0:
187,175,1146217,1,4,0:0:0:0:
187,175,1146471,1,0,0:0:0:0:
187,175,1146598,1,0,0:0:0:0:
187,175,1146725,1,8,0:0:0:0:
187,175,1146980,1,8,0:0:0:0:
187,175,1147107,1,0,0:0:0:0:
187,175,1147361,1,0,0:0:0:0:
187,175,1147488,1,8,0:0:0:0:
187,175,1147615,1,0,0:0:0:0:
187,175,1147742,1,8,0:0:0:0:
187,175,1147827,1,8,0:0:0:0:
187,175,1147912,1,8,0:0:0:0:
187,175,1147997,1,0,0:0:0:0:
187,175,1148081,1,0,0:0:0:0:
187,175,1148166,1,0,0:0:0:0:
187,175,1148251,1,12,0:0:0:0:
187,175,1148378,1,0,0:0:0:0:
187,175,1148505,1,12,0:0:0:0:
187,175,1148632,1,0,0:0:0:0:
187,175,1148759,1,12,0:0:0:0:
187,175,1148886,1,0,0:0:0:0:
187,175,1149014,1,12,0:0:0:0:
178,178,1149141,1,0,0:0:0:0:
178,178,1149268,1,12,0:0:0:0:
178,178,1149395,1,0,0:0:0:0:
178,178,1149522,1,12,0:0:0:0:
178,178,1149649,1,0,0:0:0:0:
178,178,1149776,1,8,0:0:0:0:
178,178,1149861,1,8,0:0:0:0:
178,178,1149946,1,8,0:0:0:0:
178,178,1150030,1,0,0:0:0:0:
178,178,1150158,1,0,0:0:0:0:
178,178,1150285,1,12,0:0:0:0:
164,172,1150539,1,8,0:0:0:0:
164,172,1150666,1,0,0:0:0:0:
164,172,1150793,1,8,0:0:0:0:
164,172,1150920,1,8,0:0:0:0:
164,172,1151047,1,0,0:0:0:0:
164,172,1151175,1,8,0:0:0:0:
164,172,1151429,1,8,0:0:0:0:
164,172,1151556,1,0,0:0:0:0:
164,172,1151810,1,0,0:0:0:0:
164,172,1151937,1,8,0:0:0:0:
164,172,1152064,1,0,0:0:0:0:
164,172,1152319,1,12,0:0:0:0:
164,172,1152573,1,0,0:0:0:0:
164,172,1152700,1,8,0:0:0:0:
164,172,1152827,1,0,0:0:0:0:
164,172,1152954,1,0,0:0:0:0:
164,172,1153081,1,8,0:0:0:0:
164,172,1153336,1,0,0:0:0:0:
164,172,1153590,1,8,0:0:0:0:
164,172,1153717,1,0,0:0:0:0:
164,172,1153844,1,8,0:0:0:0:
164,172,1153971,1,8,0:0:0:0:
164,172,1154098,1,0,0:0:0:0:
164,172,1154352,1,12,0:0:0:0:
164,172,1154480,1,0,0:0:0:0:
164,172,1154607,1,12,0:0:0:0:
164,172,1154734,1,0,0:0:0:0:
164,172,1154861,1,12,0:0:0:0:
164,172,1154988,1,0,0:0:0:0:
164,172,1155115,1,12,0:0:0:0:
164,172,1155242,1,0,0:0:0:0:
164,172,1155369,1,12,0:0:0:0:
164,172,1155497,1,0,0:0:0:0:
164,172,1155624,1,8,0:0:0:0:
164,172,1155751,1,0,0:0:0:0:
164,172,1155814,1,0,0:0:0:0:
164,172,1155878,1,8,0:0:0:0:
164,172,1156005,1,8,0:0:0:0:
164,172,1156132,1,0,0:0:0:0:
164,172,1156259,1,0,0:0:0:0:
238,191,1156386,1,12,0:0:0:0:
238,183,1156513,1,0,0:0:0:0:
198,174,1156640,1,0,0:0:0:0:
238,183,1156725,1,0,0:0:0:0:
241,152,1156810,1,0,0:0:0:0:
238,183,1156894,1,8,0:0:0:0:
237,182,1157149,1,8,0:0:0:0:
238,183,1157403,1,0,0:0:0:0:
238,183,1157530,1,0,0:0:0:0:
238,183,1157784,1,0,0:0:0:0:
237,182,1157911,1,8,0:0:0:0:
238,183,1158166,1,8,0:0:0:0:
238,183,1158250,1,8,0:0:0:0:
238,183,1158335,1,8,0:0:0:0:
238,183,1158420,1,0,0:0:0:0:
238,183,1158547,1,8,0:0:0:0:
255,187,1158674,1,0,0:0:0:0:
255,187,1158759,1,0,0:0:0:0:
238,183,1158844,1,0,0:0:0:0:
237,182,1158928,1,8,0:0:0:0:
238,183,1159183,1,8,0:0:0:0:
238,183,1159437,1,0,0:0:0:0:
238,183,1159564,1,0,0:0:0:0:
237,182,1159818,1,0,0:0:0:0:
238,183,1159945,1,8,0:0:0:0:
250,176,1160454,1,12,0:0:0:0:
250,176,1160581,1,8,0:0:0:0:
230,172,1160708,1,0,0:0:0:0:
230,172,1160793,1,0,0:0:0:0:
230,172,1160877,1,0,0:0:0:0:
230,172,1160962,1,8,0:0:0:0:
230,172,1161216,1,8,0:0:0:0:
230,172,1161471,1,0,0:0:0:0:
230,172,1161598,1,0,0:0:0:0:
230,172,1161852,1,0,0:0:0:0:
230,172,1161979,1,8,0:0:0:0:
230,172,1162233,1,0,0:0:0:0:
230,172,1162318,1,0,0:0:0:0:
230,172,1162403,1,0,0:0:0:0:
230,172,1162488,1,8,0:0:0:0:
230,172,1162615,1,0,0:0:0:0:
220,159,1162742,1,8,0:0:0:0:
220,159,1162827,1,0,0:0:0:0:
230,172,1162911,1,0,0:0:0:0:
230,172,1162996,1,8,0:0:0:0:
230,172,1163250,1,8,0:0:0:0:
230,172,1163505,1,8,0:0:0:0:
230,172,1163632,1,0,0:0:0:0:
223,167,1163759,1,8,0:0:0:0:
223,167,1163886,1,8,0:0:0:0:
223,167,1164014,1,0,0:0:0:0:
236,177,1164141,1,0,0:0:0:0:
236,177,1164268,1,8,0:0:0:0:
230,172,1164521,1,12,0:0:0:0:
230,172,1164649,1,0,0:0:0:0:
230,172,1164776,1,0,0:0:0:0:
230,172,1164860,1,0,0:0:0:0:
236,177,1164945,1,0,0:0:0:0:
230,172,1165030,1,8,0:0:0:0:
230,172,1165284,1,8,0:0:0:0:
230,172,1165538,1,0,0:0:0:0:
230,172,1165666,1,0,0:0:0:0:
230,172,1165920,1,0,0:0:0:0:
230,172,1166047,1,8,0:0:0:0:
230,172,1166301,1,8,0:0:0:0:
230,172,1166386,1,8,0:0:0:0:
230,172,1166471,1,8,0:0:0:0:
230,172,1166555,1,0,0:0:0:0:
230,172,1166683,1,0,0:0:0:0:
230,172,1166810,1,0,0:0:0:0:
230,172,1166894,1,0,0:0:0:0:
236,168,1166979,1,0,0:0:0:0:
236,168,1167064,1,8,0:0:0:0:
230,172,1167318,1,8,0:0:0:0:
230,172,1167572,1,0,0:0:0:0:
230,172,1167699,1,0,0:0:0:0:
233,177,1167954,1,0,0:0:0:0:
230,172,1168081,1,8,0:0:0:0:
221,175,1168589,1,12,0:0:0:0:
230,172,1168717,1,8,0:0:0:0:
229,179,1168844,1,0,0:0:0:0:
229,179,1168928,1,0,0:0:0:0:
233,177,1169013,1,0,0:0:0:0:
230,177,1169098,1,8,0:0:0:0:
230,177,1169352,1,8,0:0:0:0:
230,172,1169607,1,0,0:0:0:0:
230,172,1169734,1,0,0:0:0:0:
233,177,1169988,1,0,0:0:0:0:
230,177,1170115,1,8,0:0:0:0:
230,172,1170369,1,8,0:0:0:0:
230,172,1170454,1,8,0:0:0:0:
230,172,1170539,1,8,0:0:0:0:
230,172,1170624,1,0,0:0:0:0:
233,177,1170751,1,8,0:0:0:0:
233,177,1170878,1,0,0:0:0:0:
233,177,1170963,1,0,0:0:0:0:
230,177,1171047,1,0,0:0:0:0:
230,172,1171132,1,8,0:0:0:0:
230,172,1171386,1,8,0:0:0:0:
233,177,1171641,1,0,0:0:0:0:
233,177,1171768,1,0,0:0:0:0:
230,177,1172022,1,0,0:0:0:0:
230,172,1172149,1,8,0:0:0:0:
230,172,1172276,5,0,0:0:0:0:
233,177,1172403,1,0,0:0:0:0:
224,173,1172530,1,0,0:0:0:0:
225,173,1172657,1,12,0:0:0:0:
256,200,1172911,1,0,0:0:0:0:
230,172,1173166,1,8,0:0:0:0:
256,200,1173293,1,8,0:0:0:0:
256,200,1173420,1,0,0:0:0:0:
256,192,1173674,1,8,0:0:0:0:
256,192,1173801,1,0,0:0:0:0:
256,192,1174055,1,0,0:0:0:0:
256,192,1174182,1,0,0:0:0:0:
260,192,1174437,1,0,0:0:0:0:
260,192,1174521,1,0,0:0:0:0:
260,192,1174606,1,0,0:0:0:0:
260,192,1174691,1,12,0:0:0:0:
256,192,1175072,1,8,0:0:0:0:
256,192,1175199,1,0,0:0:0:0:
256,192,1175454,1,0,0:0:0:0:
256,192,1175708,1,8,0:0:0:0:
256,192,1176089,1,8,0:0:0:0:
256,192,1176216,1,8,0:0:0:0:
256,188,1176471,1,8,0:0:0:0:
256,188,1176555,1,8,0:0:0:0:
256,188,1176640,1,8,0:0:0:0:
256,188,1176725,1,4,0:0:0:0:
256,188,1176979,1,0,0:0:0:0:
256,188,1177233,1,0,0:0:0:0:
256,188,1177360,1,8,0:0:0:0:
256,192,1177488,1,0,0:0:0:0:
256,192,1177742,1,8,0:0:0:0:
256,192,1177869,1,0,0:0:0:0:
256,192,1178123,1,0,0:0:0:0:
256,192,1178250,1,0,0:0:0:0:
256,192,1178505,1,0,0:0:0:0:
256,192,1178589,1,0,0:0:0:0:
256,192,1178674,1,0,0:0:0:0:
256,192,1178759,1,12,0:0:0:0:
256,192,1179140,1,8,0:0:0:0:
256,192,1179267,1,0,0:0:0:0:
256,192,1179521,1,0,0:0:0:0:
256,192,1179776,1,0,0:0:0:0:
256,192,1180157,1,0,0:0:0:0:
256,192,1180284,1,8,0:0:0:0:
256,192,1180538,1,8,0:0:0:0:
256,192,1180623,1,8,0:0:0:0:
256,192,1180708,1,8,0:0:0:0:
256,192,1180793,1,4,0:0:0:0:
256,192,1181047,1,0,0:0:0:0:
256,192,1181301,1,8,0:0:0:0:
256,192,1181428,1,8,0:0:0:0:
256,192,1181555,1,0,0:0:0:0:
256,192,1181810,1,8,0:0:0:0:
256,192,1181937,1,0,0:0:0:0:
256,192,1182191,1,0,0:0:0:0:
256,192,1182318,1,0,0:0:0:0:
256,196,1182572,1,0,0:0:0:0:
256,196,1182657,1,0,0:0:0:0:
256,196,1182742,1,0,0:0:0:0:
256,196,1182827,1,12,0:0:0:0:
256,192,1183208,1,8,0:0:0:0:
256,192,1183335,1,0,0:0:0:0:
256,188,1183589,1,0,0:0:0:0:
256,188,1183844,1,8,0:0:0:0:
256,188,1184225,1,8,0:0:0:0:
256,188,1184352,1,8,0:0:0:0:
256,192,1184606,1,8,0:0:0:0:
256,192,1184691,1,8,0:0:0:0:
256,192,1184776,1,8,0:0:0:0:
256,192,1184860,1,4,0:0:0:0:
256,192,1185115,1,0,0:0:0:0:
256,192,1185369,1,0,0:0:0:0:
256,192,1185496,1,8,0:0:0:0:
256,192,1185623,1,0,0:0:0:0:
256,192,1185877,1,8,0:0:0:0:
256,192,1186005,1,0,0:0:0:0:
256,192,1186259,1,0,0:0:0:0:
256,192,1186386,1,0,0:0:0:0:
256,192,1186640,1,0,0:0:0:0:
256,192,1186725,1,0,0:0:0:0:
256,192,1186810,1,0,0:0:0:0:
256,192,1186894,1,12,0:0:0:0:
256,192,1187149,1,8,0:0:0:0:
256,192,1187233,1,8,0:0:0:0:
256,192,1187318,1,8,0:0:0:0:
256,192,1187403,1,0,0:0:0:0:
256,192,1187657,1,0,0:0:0:0:
256,192,1187911,1,8,0:0:0:0:
256,192,1188293,1,8,0:0:0:0:
256,192,1188420,1,0,0:0:0:0:
256,192,1188547,1,0,0:0:0:0:
256,192,1188674,1,8,0:0:0:0:
249,192,1188801,1,0,0:0:0:0:
243,180,1188928,1,12,0:0:0:0:
221,175,1189436,1,0,0:0:0:0:
221,175,1189690,1,0,0:0:0:0:
221,175,1189775,1,0,0:0:0:0:
221,175,1189859,1,0,0:0:0:0:
221,175,1189944,1,8,0:0:0:0:
221,175,1190453,1,0,0:0:0:0:
221,175,1190707,1,8,0:0:0:0:
221,175,1190792,1,8,0:0:0:0:
221,175,1190876,1,8,0:0:0:0:
221,175,1190961,1,0,0:0:0:0:
221,175,1191046,1,0,0:0:0:0:
221,175,1191131,1,0,0:0:0:0:
221,175,1191215,1,8,0:0:0:0:
221,175,1191470,1,8,0:0:0:0:
221,175,1191554,1,0,0:0:0:0:
221,175,1191639,1,0,0:0:0:0:
221,175,1191724,1,8,0:0:0:0:
221,175,1191978,1,12,0:0:0:0:
221,175,1192232,1,12,0:0:0:0:
221,175,1192487,1,4,0:0:0:0:
221,175,1192741,1,4,0:0:0:0:
221,175,1192995,1,12,0:0:0:0:
221,175,1193504,1,0,0:0:0:0:
221,175,1193758,1,0,0:0:0:0:
221,175,1193843,1,0,0:0:0:0:
221,175,1193927,1,0,0:0:0:0:
221,175,1194012,1,8,0:0:0:0:
221,175,1194521,1,0,0:0:0:0:
221,175,1194775,1,8,0:0:0:0:
221,175,1194860,1,8,0:0:0:0:
221,175,1194944,1,8,0:0:0:0:
221,175,1195029,1,0,0:0:0:0:
221,175,1195114,1,0,0:0:0:0:
221,175,1195199,1,0,0:0:0:0:
221,175,1195283,1,8,0:0:0:0:
221,175,1195538,1,8,0:0:0:0:
221,175,1195622,1,0,0:0:0:0:
221,175,1195707,1,0,0:0:0:0:
221,175,1195792,1,8,0:0:0:0:
221,175,1196046,1,12,0:0:0:0:
256,192,1196173,12,0,1196936,0:0:0:0:
221,175,1197063,5,12,0:0:0:0:
221,175,1197571,1,0,0:0:0:0:
221,175,1197827,1,0,0:0:0:0:
221,175,1197910,1,0,0:0:0:0:
221,175,1197996,1,0,0:0:0:0:
221,175,1198081,1,8,0:0:0:0:
221,175,1198588,1,0,0:0:0:0:
221,175,1198844,1,8,0:0:0:0:
221,175,1198927,1,8,0:0:0:0:
221,175,1199013,1,8,0:0:0:0:
221,175,1199098,1,0,0:0:0:0:
221,175,1199181,1,0,0:0:0:0:
221,175,1199266,1,0,0:0:0:0:
221,175,1199352,1,8,0:0:0:0:
221,175,1199605,1,8,0:0:0:0:
221,175,1199691,1,0,0:0:0:0:
221,175,1199776,1,0,0:0:0:0:
221,175,1199859,1,8,0:0:0:0:
221,175,1200115,1,12,0:0:0:0:
221,175,1200369,1,12,0:0:0:0:
221,175,1200623,1,4,0:0:0:0:
221,175,1200877,1,4,0:0:0:0:
221,175,1201132,1,12,0:0:0:0:
221,175,1201639,1,0,0:0:0:0:
221,175,1201893,1,0,0:0:0:0:
221,175,1201978,1,0,0:0:0:0:
221,175,1202064,1,0,0:0:0:0:
221,175,1202149,1,8,0:0:0:0:
221,175,1202656,1,0,0:0:0:0:
221,175,1202910,1,8,0:0:0:0:
221,175,1202995,1,8,0:0:0:0:
221,175,1203081,1,8,0:0:0:0:
221,175,1203166,1,0,0:0:0:0:
221,175,1203250,1,0,0:0:0:0:
221,175,1203335,1,0,0:0:0:0:
221,175,1203420,1,8,0:0:0:0:
221,175,1203673,1,8,0:0:0:0:
221,175,1203759,1,0,0:0:0:0:
221,175,1203844,1,0,0:0:0:0:
221,175,1203928,1,8,0:0:0:0:
221,175,1204182,1,0,0:0:0:0:
214,177,1204437,1,0,0:0:0:0:
214,177,1204691,1,12,0:0:0:0:
213,180,1204945,1,0,0:0:0:0:
225,173,1205199,1,12,0:0:0:0:
256,200,1205453,1,0,0:0:0:0:
230,172,1205708,1,8,0:0:0:0:
256,200,1205835,1,8,0:0:0:0:
256,200,1205962,1,0,0:0:0:0:
256,192,1206216,1,8,0:0:0:0:
256,192,1206343,1,0,0:0:0:0:
256,192,1206597,1,0,0:0:0:0:
256,192,1206724,1,0,0:0:0:0:
260,192,1206979,1,0,0:0:0:0:
260,192,1207063,1,0,0:0:0:0:
260,192,1207148,1,0,0:0:0:0:
260,192,1207233,1,12,0:0:0:0:
256,192,1207614,1,8,0:0:0:0:
256,192,1207741,1,0,0:0:0:0:
256,192,1207996,1,0,0:0:0:0:
256,192,1208250,1,8,0:0:0:0:
256,192,1208631,1,0,0:0:0:0:
256,192,1208758,1,8,0:0:0:0:
272,203,1208886,1,8,0:0:0:0:
272,203,1209013,1,0,0:0:0:0:
256,188,1209097,1,0,0:0:0:0:
256,188,1209182,1,0,0:0:0:0:
256,188,1209267,1,12,0:0:0:0:
256,188,1209521,1,0,0:0:0:0:
256,188,1209775,1,0,0:0:0:0:
256,188,1209902,1,8,0:0:0:0:
256,192,1210030,1,0,0:0:0:0:
256,192,1210284,1,8,0:0:0:0:
256,192,1210411,1,0,0:0:0:0:
256,192,1210665,1,0,0:0:0:0:
256,192,1210792,1,0,0:0:0:0:
256,192,1211047,1,0,0:0:0:0:
256,192,1211131,1,0,0:0:0:0:
256,192,1211216,1,0,0:0:0:0:
256,192,1211301,1,12,0:0:0:0:
256,192,1211682,1,8,0:0:0:0:
256,192,1211809,1,0,0:0:0:0:
256,192,1212063,1,0,0:0:0:0:
256,192,1212318,1,0,0:0:0:0:
247,201,1212699,1,8,0:0:0:0:
247,201,1212827,1,0,0:0:0:0:
247,201,1212954,1,8,0:0:0:0:
256,192,1213080,1,0,0:0:0:0:
256,192,1213165,1,0,0:0:0:0:
256,192,1213250,1,0,0:0:0:0:
256,192,1213335,1,12,0:0:0:0:
256,192,1213589,1,0,0:0:0:0:
256,192,1213843,1,8,0:0:0:0:
256,192,1213970,1,8,0:0:0:0:
256,192,1214097,1,0,0:0:0:0:
256,192,1214352,1,8,0:0:0:0:
256,192,1214479,1,0,0:0:0:0:
256,192,1214733,1,0,0:0:0:0:
256,192,1214860,1,0,0:0:0:0:
256,196,1215114,1,0,0:0:0:0:
256,196,1215199,1,0,0:0:0:0:
256,196,1215284,1,0,0:0:0:0:
256,196,1215369,1,12,0:0:0:0:
256,192,1215750,1,8,0:0:0:0:
256,192,1215877,1,0,0:0:0:0:
256,188,1216131,1,0,0:0:0:0:
256,188,1216386,1,8,0:0:0:0:
256,188,1216767,1,0,0:0:0:0:
256,188,1216894,1,8,0:0:0:0:
256,201,1217021,1,8,0:0:0:0:
256,192,1217148,1,0,0:0:0:0:
256,192,1217233,1,0,0:0:0:0:
256,192,1217318,1,0,0:0:0:0:
256,192,1217402,1,12,0:0:0:0:
256,192,1217657,1,0,0:0:0:0:
256,192,1217911,1,0,0:0:0:0:
256,192,1218038,1,8,0:0:0:0:
256,192,1218165,1,0,0:0:0:0:
256,192,1218419,1,8,0:0:0:0:
256,192,1218547,1,0,0:0:0:0:
256,192,1218801,1,0,0:0:0:0:
256,192,1218928,1,0,0:0:0:0:
256,192,1219182,1,0,0:0:0:0:
256,192,1219267,1,0,0:0:0:0:
256,192,1219352,1,0,0:0:0:0:
256,192,1219436,1,12,0:0:0:0:
256,192,1219691,1,8,0:0:0:0:
256,192,1219775,1,8,0:0:0:0:
256,192,1219860,1,8,0:0:0:0:
256,192,1219945,1,0,0:0:0:0:
256,192,1220199,1,0,0:0:0:0:
268,194,1220327,1,0,0:0:0:0:
256,192,1220453,1,8,0:0:0:0:
251,201,1220581,1,0,0:0:0:0:
256,192,1220835,1,8,0:0:0:0:
256,192,1220962,1,0,0:0:0:0:
256,192,1221089,1,0,0:0:0:0:
256,192,1221216,1,8,0:0:0:0:
256,192,1221344,1,0,0:0:0:0:
243,180,1221470,1,12,0:0:0:0:
256,192,1221725,1,0,0:0:0:0:
256,192,1221979,1,8,0:0:0:0:
256,192,1222106,1,8,0:0:0:0:
256,192,1222233,1,0,0:0:0:0:
256,192,1222488,1,8,0:0:0:0:
256,192,1222615,1,0,0:0:0:0:
256,192,1222869,1,0,0:0:0:0:
256,192,1222996,1,0,0:0:0:0:
256,192,1223250,1,0,0:0:0:0:
256,192,1223335,1,0,0:0:0:0:
256,192,1223420,1,0,0:0:0:0:
256,192,1223505,1,12,0:0:0:0:
271,192,1223886,1,8,0:0:0:0:
271,192,1224013,1,0,0:0:0:0:
256,192,1224267,1,0,0:0:0:0:
255,188,1224521,1,8,0:0:0:0:
288,195,1224903,1,0,0:0:0:0:
282,196,1225030,1,8,0:0:0:0:
243,176,1225284,1,8,0:0:0:0:
243,176,1225369,1,8,0:0:0:0:
243,176,1225454,1,8,0:0:0:0:
243,176,1225538,1,4,0:0:0:0:
243,176,1225793,1,8,0:0:0:0:
243,176,1225920,1,8,0:0:0:0:
243,176,1226047,1,0,0:0:0:0:
231,170,1226301,1,0,0:0:0:0:
231,170,1226428,1,0,0:0:0:0:
231,170,1226555,1,8,0:0:0:0:
231,170,1226682,1,0,0:0:0:0:
231,170,1226937,1,8,0:0:0:0:
231,170,1227064,1,0,0:0:0:0:
231,170,1227318,1,8,0:0:0:0:
204,170,1227403,1,0,0:0:0:0:
204,170,1227488,1,0,0:0:0:0:
231,170,1227572,1,12,0:0:0:0:
231,170,1227827,1,8,0:0:0:0:
231,170,1227954,1,8,0:0:0:0:
231,170,1228081,1,0,0:0:0:0:
231,170,1228335,1,0,0:0:0:0:
231,170,1228462,1,0,0:0:0:0:
231,170,1228589,1,8,0:0:0:0:
231,170,1228716,1,0,0:0:0:0:
231,170,1228971,1,0,0:0:0:0:
231,170,1229098,1,8,0:0:0:0:
231,170,1229352,1,8,0:0:0:0:
231,170,1229437,1,8,0:0:0:0:
231,170,1229521,1,8,0:0:0:0:
231,170,1229606,1,4,0:0:0:0:
231,170,1229860,1,0,0:0:0:0:
231,170,1229988,1,8,0:0:0:0:
231,170,1230115,1,0,0:0:0:0:
231,170,1230369,1,0,0:0:0:0:
231,170,1230623,1,8,0:0:0:0:
231,170,1230877,1,8,0:0:0:0:
231,170,1231132,1,8,0:0:0:0:
232,154,1231386,1,0,0:0:0:0:
233,155,1231471,1,0,0:0:0:0:
233,154,1231555,1,0,0:0:0:0:
233,154,1231640,1,12,0:0:0:0:
194,172,1231767,1,0,0:0:0:0:
234,144,1232021,1,8,0:0:0:0:
234,144,1232149,1,0,0:0:0:0:
234,144,1232403,1,8,0:0:0:0:
234,144,1232657,1,0,0:0:0:0:
240,153,1232784,1,8,0:0:0:0:
234,144,1232911,1,0,0:0:0:0:
234,144,1233038,1,0,0:0:0:0:
234,144,1233166,1,8,0:0:0:0:
227,149,1233420,1,0,0:0:0:0:
227,149,1233505,1,0,0:0:0:0:
227,149,1233589,1,0,0:0:0:0:
227,149,1233674,1,12,0:0:0:0:
227,149,1233928,1,8,0:0:0:0:
227,149,1234055,1,8,0:0:0:0:
227,149,1234182,1,0,0:0:0:0:
227,149,1234437,1,0,0:0:0:0:
227,149,1234691,1,8,0:0:0:0:
227,149,1234945,1,8,0:0:0:0:
227,149,1235199,1,8,0:0:0:0:
227,149,1235454,1,0,0:0:0:0:
227,149,1235538,1,0,0:0:0:0:
227,149,1235623,1,0,0:0:0:0:
227,149,1235708,1,12,0:0:0:0:
227,149,1236089,1,0,0:0:0:0:
227,149,1236216,1,8,0:0:0:0:
227,149,1236471,1,0,0:0:0:0:
227,149,1236725,1,12,0:0:0:0:
227,149,1236979,1,12,0:0:0:0:
227,149,1237233,1,12,0:0:0:0:
227,149,1237488,1,8,0:0:0:0:
227,149,1237572,1,0,0:0:0:0:
227,149,1237657,1,0,0:0:0:0:
227,149,1237742,1,12,0:0:0:0:
219,153,1237996,1,0,0:0:0:0:
219,152,1238250,1,8,0:0:0:0:
219,152,1238377,1,8,0:0:0:0:
219,152,1238505,1,0,0:0:0:0:
219,153,1238759,1,8,0:0:0:0:
219,153,1238886,1,0,0:0:0:0:
219,152,1239140,1,0,0:0:0:0:
219,152,1239267,1,0,0:0:0:0:
219,153,1239521,1,0,0:0:0:0:
219,153,1239606,1,0,0:0:0:0:
219,153,1239691,1,0,0:0:0:0:
219,153,1239776,1,12,0:0:0:0:
210,150,1240157,1,8,0:0:0:0:
211,149,1240284,1,0,0:0:0:0:
211,149,1240538,1,0,0:0:0:0:
211,149,1240793,1,8,0:0:0:0:
206,155,1241174,1,0,0:0:0:0:
206,155,1241301,1,8,0:0:0:0:
211,149,1241555,1,8,0:0:0:0:
209,174,1241640,1,8,0:0:0:0:
209,174,1241725,1,8,0:0:0:0:
206,155,1241810,1,4,0:0:0:0:
206,155,1242064,1,8,0:0:0:0:
206,155,1242191,1,8,0:0:0:0:
206,155,1242318,1,0,0:0:0:0:
206,155,1242572,1,0,0:0:0:0:
225,151,1242699,1,0,0:0:0:0:
224,151,1242827,1,8,0:0:0:0:
224,151,1242954,1,0,0:0:0:0:
224,151,1243208,1,8,0:0:0:0:
224,151,1243335,1,8,0:0:0:0:
224,151,1243589,1,8,0:0:0:0:
179,145,1243674,1,0,0:0:0:0:
179,145,1243759,1,0,0:0:0:0:
179,145,1243844,1,12,0:0:0:0:
224,151,1244098,1,8,0:0:0:0:
224,151,1244225,1,8,0:0:0:0:
224,151,1244352,1,0,0:0:0:0:
224,151,1244606,1,0,0:0:0:0:
224,151,1244733,1,0,0:0:0:0:
224,151,1244860,1,8,0:0:0:0:
224,151,1244988,1,0,0:0:0:0:
224,151,1245242,1,0,0:0:0:0:
224,151,1245369,1,8,0:0:0:0:
224,151,1245623,1,0,0:0:0:0:
224,151,1245708,1,0,0:0:0:0:
224,151,1245793,1,0,0:0:0:0:
224,151,1245871,1,8,0:0:0:0:
256,192,1252989,5,12,0:0:0:0:
256,192,1253243,1,12,0:0:0:0:
256,192,1253497,1,12,0:0:0:0:
256,192,1254011,1,4,0:0:0:0:
256,192,1254265,1,0,0:0:0:0:
256,192,1254519,1,0,0:0:0:0:
256,192,1254647,1,8,0:0:0:0:
256,192,1254774,1,0,0:0:0:0:
260,192,1255028,1,8,0:0:0:0:
260,192,1255155,1,0,0:0:0:0:
260,192,1255409,1,0,0:0:0:0:
260,192,1255536,1,0,0:0:0:0:
260,192,1255791,1,0,0:0:0:0:
260,192,1256045,1,8,0:0:0:0:
260,192,1256426,1,8,0:0:0:0:
260,192,1256553,1,0,0:0:0:0:
260,192,1256808,1,0,0:0:0:0:
260,192,1257062,1,8,0:0:0:0:
260,192,1257443,1,8,0:0:0:0:
260,192,1257570,1,8,0:0:0:0:
260,192,1257697,1,0,0:0:0:0:
260,192,1257825,1,0,0:0:0:0:
260,192,1257952,1,0,0:0:0:0:
260,192,1258079,1,8,0:0:0:0:
260,192,1258333,1,8,0:0:0:0:
260,192,1258460,1,0,0:0:0:0:
260,192,1258587,1,0,0:0:0:0:
260,192,1258841,1,0,0:0:0:0:
260,192,1258969,1,8,0:0:0:0:
260,192,1259096,1,0,0:0:0:0:
260,192,1259477,1,8,0:0:0:0:
260,192,1259604,1,0,0:0:0:0:
256,192,1259858,1,8,0:0:0:0:
256,192,1260113,1,0,0:0:0:0:
256,192,1260367,1,8,0:0:0:0:
256,192,1260494,1,8,0:0:0:0:
256,192,1260621,1,0,0:0:0:0:
256,192,1260875,1,0,0:0:0:0:
256,192,1261003,1,0,0:0:0:0:
256,192,1261130,1,8,0:0:0:0:
256,192,1261257,1,0,0:0:0:0:
256,192,1261511,1,0,0:0:0:0:
256,192,1261638,1,8,0:0:0:0:
256,192,1261766,1,8,0:0:0:0:
256,192,1261893,1,0,0:0:0:0:
264,190,1262019,1,0,0:0:0:0:
256,192,1262147,1,8,0:0:0:0:
252,196,1262401,1,0,0:0:0:0:
252,196,1262528,1,8,0:0:0:0:
252,196,1262655,1,0,0:0:0:0:
256,188,1262909,1,0,0:0:0:0:
256,188,1263164,1,8,0:0:0:0:
256,188,1263418,1,8,0:0:0:0:
256,188,1263672,1,8,0:0:0:0:
256,188,1264181,1,0,0:0:0:0:
256,188,1264562,1,8,0:0:0:0:
256,188,1264689,1,0,0:0:0:0:
256,188,1264943,1,8,0:0:0:0:
256,188,1265197,1,0,0:0:0:0:
256,192,1265452,1,0,0:0:0:0:
256,192,1265578,1,0,0:0:0:0:
256,192,1265706,1,8,0:0:0:0:
256,192,1265960,1,8,0:0:0:0:
256,192,1266087,1,0,0:0:0:0:
256,192,1266214,1,8,0:0:0:0:
256,192,1266596,1,8,0:0:0:0:
256,192,1266723,1,0,0:0:0:0:
256,192,1266977,1,0,0:0:0:0:
256,192,1267231,1,8,0:0:0:0:
256,192,1267486,1,8,0:0:0:0:
256,192,1267740,1,8,0:0:0:0:
256,196,1268248,1,8,0:0:0:0:
256,196,1268630,1,0,0:0:0:0:
256,196,1268757,1,8,0:0:0:0:
256,196,1269011,1,0,0:0:0:0:
256,196,1269265,1,8,0:0:0:0:
256,196,1269519,1,8,0:0:0:0:
256,196,1269774,1,8,0:0:0:0:
256,192,1270028,1,8,0:0:0:0:
256,192,1270155,1,0,0:0:0:0:
256,192,1270282,1,12,0:0:0:0:
256,192,1270536,1,0,0:0:0:0:
256,192,1270791,1,0,0:0:0:0:
256,192,1270918,1,0,0:0:0:0:
256,192,1271045,1,8,0:0:0:0:
256,192,1271299,1,8,0:0:0:0:
256,192,1271426,1,0,0:0:0:0:
256,192,1271680,1,0,0:0:0:0:
256,192,1271808,1,0,0:0:0:0:
256,192,1272062,1,0,0:0:0:0:
256,192,1272316,1,8,0:0:0:0:
256,188,1272697,1,8,0:0:0:0:
256,188,1272825,1,0,0:0:0:0:
256,188,1273079,1,0,0:0:0:0:
256,188,1273333,1,8,0:0:0:0:
256,188,1273714,1,8,0:0:0:0:
256,188,1273841,1,8,0:0:0:0:
256,188,1273969,1,0,0:0:0:0:
256,188,1274096,1,0,0:0:0:0:
256,188,1274223,1,0,0:0:0:0:
256,188,1274350,1,8,0:0:0:0:
256,188,1274604,1,8,0:0:0:0:
256,188,1274731,1,8,0:0:0:0:
256,188,1274858,1,0,0:0:0:0:
260,192,1275113,1,0,0:0:0:0:
260,192,1275240,1,0,0:0:0:0:
260,192,1275367,1,8,0:0:0:0:
260,192,1275748,1,8,0:0:0:0:
260,192,1275875,1,0,0:0:0:0:
260,192,1276130,1,8,0:0:0:0:
260,192,1276384,1,0,0:0:0:0:
260,192,1276638,1,8,0:0:0:0:
260,192,1276765,1,8,0:0:0:0:
260,192,1276892,1,0,0:0:0:0:
260,192,1277147,1,8,0:0:0:0:
260,192,1277274,1,0,0:0:0:0:
260,192,1277401,1,8,0:0:0:0:
260,192,1277655,1,0,0:0:0:0:
260,192,1277782,1,0,0:0:0:0:
260,192,1277909,1,8,0:0:0:0:
260,192,1278036,1,8,0:0:0:0:
260,192,1278164,1,0,0:0:0:0:
242,187,1278290,1,0,0:0:0:0:
260,192,1278418,1,8,0:0:0:0:
256,192,1278799,1,8,0:0:0:0:
256,192,1278926,1,0,0:0:0:0:
256,192,1279180,1,0,0:0:0:0:
256,192,1279435,1,8,0:0:0:0:
256,192,1279689,1,8,0:0:0:0:
256,192,1279943,1,8,0:0:0:0:
252,192,1280452,1,8,0:0:0:0:
252,192,1280706,1,0,0:0:0:0:
252,192,1280833,1,8,0:0:0:0:
252,192,1280960,1,0,0:0:0:0:
252,192,1281214,1,8,0:0:0:0:
252,192,1281469,1,0,0:0:0:0:
248,192,1281723,1,0,0:0:0:0:
248,192,1281849,1,0,0:0:0:0:
248,192,1281977,1,8,0:0:0:0:
256,192,1282231,1,8,0:0:0:0:
256,192,1282358,1,0,0:0:0:0:
256,192,1282486,1,8,0:0:0:0:
248,192,1282740,1,8,0:0:0:0:
256,192,1282867,1,8,0:0:0:0:
256,192,1282994,1,0,0:0:0:0:
256,192,1283248,1,0,0:0:0:0:
256,192,1283503,1,8,0:0:0:0:
256,192,1283757,1,8,0:0:0:0:
256,192,1284011,1,8,0:0:0:0:
262,171,1284265,1,0,0:0:0:0:
256,192,1284520,1,8,0:0:0:0:
256,192,1285537,1,12,0:0:0:0:
256,192,1285791,1,12,0:0:0:0:
256,192,1286045,1,12,0:0:0:0:
256,192,1286552,1,12,0:0:0:0:
256,196,1286807,1,0,0:0:0:0:
256,196,1286934,1,8,0:0:0:0:
256,196,1287188,1,8,0:0:0:0:
256,196,1287315,1,0,0:0:0:0:
256,192,1287569,1,0,0:0:0:0:
234,187,1287697,1,8,0:0:0:0:
256,192,1287824,1,0,0:0:0:0:
256,192,1287951,1,0,0:0:0:0:
256,192,1288078,1,8,0:0:0:0:
256,192,1288333,1,8,0:0:0:0:
256,192,1288459,1,0,0:0:0:0:
256,192,1288586,1,8,0:0:0:0:
256,192,1288841,1,0,0:0:0:0:
256,192,1288968,1,8,0:0:0:0:
256,184,1289222,1,8,0:0:0:0:
256,184,1289349,1,0,0:0:0:0:
256,192,1289603,1,0,0:0:0:0:
256,184,1289858,1,8,0:0:0:0:
256,184,1289985,1,0,0:0:0:0:
256,184,1290112,1,8,0:0:0:0:
256,184,1290366,1,0,0:0:0:0:
256,184,1290620,1,8,0:0:0:0:
256,192,1290874,1,0,0:0:0:0:
256,192,1291002,1,8,0:0:0:0:
256,192,1291383,1,8,0:0:0:0:
256,192,1291510,1,8,0:0:0:0:
256,192,1291637,1,0,0:0:0:0:
256,192,1291891,1,0,0:0:0:0:
256,192,1292019,1,8,0:0:0:0:
256,192,1292400,1,8,0:0:0:0:
256,192,1292527,1,8,0:0:0:0:
256,192,1292655,1,0,0:0:0:0:
256,192,1292909,1,0,0:0:0:0:
256,192,1293036,1,0,0:0:0:0:
256,192,1293417,1,0,0:0:0:0:
256,192,1293544,1,0,0:0:0:0:
256,192,1293672,1,8,0:0:0:0:
256,192,1293926,1,8,0:0:0:0:
256,192,1294053,1,8,0:0:0:0:
265,190,1294180,1,0,0:0:0:0:
265,190,1294434,1,8,0:0:0:0:
256,192,1294561,1,0,0:0:0:0:
256,192,1294688,1,12,0:0:0:0:
256,192,1294943,1,0,0:0:0:0:
256,192,1295070,1,8,0:0:0:0:
256,192,1295324,1,0,0:0:0:0:
256,192,1295451,1,8,0:0:0:0:
252,192,1295705,1,0,0:0:0:0:
252,192,1295959,1,8,0:0:0:0:
252,192,1296086,1,8,0:0:0:0:
252,192,1296213,1,0,0:0:0:0:
252,192,1296468,1,0,0:0:0:0:
252,192,1296595,1,0,0:0:0:0:
252,192,1296722,1,8,0:0:0:0:
252,192,1296976,1,0,0:0:0:0:
252,192,1297103,1,8,0:0:0:0:
252,192,1297358,1,0,0:0:0:0:
252,192,1297485,1,8,0:0:0:0:
272,184,1297612,1,8,0:0:0:0:
271,184,1297739,1,0,0:0:0:0:
271,184,1297994,1,8,0:0:0:0:
271,184,1298121,1,8,0:0:0:0:
256,192,1298248,1,0,0:0:0:0:
256,192,1298375,1,8,0:0:0:0:
256,192,1298502,1,0,0:0:0:0:
256,192,1298756,1,8,0:0:0:0:
256,192,1299010,1,0,0:0:0:0:
256,192,1299137,1,8,0:0:0:0:
256,192,1299519,1,8,0:0:0:0:
256,192,1299646,1,0,0:0:0:0:
256,192,1299773,1,0,0:0:0:0:
268,186,1299900,1,8,0:0:0:0:
256,188,1300027,1,0,0:0:0:0:
256,188,1300281,1,8,0:0:0:0:
256,188,1300536,1,8,0:0:0:0:
256,188,1300663,1,0,0:0:0:0:
256,188,1300790,1,8,0:0:0:0:
256,192,1301044,1,0,0:0:0:0:
256,192,1301172,1,0,0:0:0:0:
256,192,1301298,1,8,0:0:0:0:
256,192,1301552,1,8,0:0:0:0:
256,192,1301680,1,8,0:0:0:0:
256,192,1301807,1,0,0:0:0:0:
256,192,1302188,1,0,0:0:0:0:
256,192,1302315,1,8,0:0:0:0:
256,192,1302569,1,8,0:0:0:0:
256,192,1302824,1,4,0:0:0:0:
256,188,1303332,1,0,0:0:0:0:
256,192,1303714,1,0,0:0:0:0:
256,192,1303841,1,8,0:0:0:0:
256,192,1304095,1,8,0:0:0:0:
256,192,1304222,1,8,0:0:0:0:
256,192,1304349,1,0,0:0:0:0:
252,192,1304603,1,0,0:0:0:0:
256,192,1304731,1,0,0:0:0:0:
252,192,1304858,1,8,0:0:0:0:
256,192,1304985,1,0,0:0:0:0:
256,192,1305112,1,8,0:0:0:0:
256,192,1305239,1,8,0:0:0:0:
252,192,1305366,1,0,0:0:0:0:
252,192,1305620,1,0,0:0:0:0:
252,192,1305874,1,0,0:0:0:0:
252,192,1306002,1,8,0:0:0:0:
252,192,1306256,1,8,0:0:0:0:
252,192,1306510,1,8,0:0:0:0:
252,192,1306637,1,0,0:0:0:0:
252,192,1306891,1,0,0:0:0:0:
252,192,1307146,1,0,0:0:0:0:
252,192,1307273,1,8,0:0:0:0:
252,192,1307400,1,0,0:0:0:0:
252,192,1307654,1,0,0:0:0:0:
252,192,1307908,1,8,0:0:0:0:
252,192,1308163,1,8,0:0:0:0:
252,192,1308290,1,8,0:0:0:0:
252,192,1308417,1,0,0:0:0:0:
252,192,1308671,1,0,0:0:0:0:
252,192,1308925,1,8,0:0:0:0:
252,192,1309307,1,0,0:0:0:0:
252,192,1309688,1,0,0:0:0:0:
252,192,1309942,1,8,0:0:0:0:
256,192,1310197,1,0,0:0:0:0:
256,192,1310324,1,0,0:0:0:0:
256,192,1310451,1,8,0:0:0:0:
256,192,1310705,1,8,0:0:0:0:
252,192,1310960,1,4,0:0:0:0:
253,182,1311468,1,0,0:0:0:0:
256,192,1311849,1,0,0:0:0:0:
244,200,1311977,1,8,0:0:0:0:
256,192,1312230,1,8,0:0:0:0:
256,192,1312358,1,8,0:0:0:0:
256,192,1312485,1,0,0:0:0:0:
256,192,1312739,1,0,0:0:0:0:
261,187,1312866,1,0,0:0:0:0:
256,192,1312993,1,8,0:0:0:0:
271,187,1313121,1,0,0:0:0:0:
256,192,1313247,1,8,0:0:0:0:
271,187,1313375,1,8,0:0:0:0:
271,187,1313502,1,0,0:0:0:0:
256,192,1313756,1,8,0:0:0:0:
256,192,1314010,1,0,0:0:0:0:
256,192,1314138,1,8,0:0:0:0:
256,192,1314391,1,0,0:0:0:0:
256,192,1314645,1,8,0:0:0:0:
256,192,1314773,1,0,0:0:0:0:
256,192,1315027,1,8,0:0:0:0:
256,192,1315409,1,0,0:0:0:0:
256,188,1315536,1,8,0:0:0:0:
256,192,1315790,1,0,0:0:0:0:
256,188,1316044,1,0,0:0:0:0:
256,188,1316172,1,8,0:0:0:0:
256,188,1316425,1,8,0:0:0:0:
256,188,1316553,1,0,0:0:0:0:
256,188,1316806,1,0,0:0:0:0:
256,188,1317061,1,12,0:0:0:0:
256,192,1317188,1,0,0:0:0:0:
256,192,1317443,1,0,0:0:0:0:
256,192,1317507,1,0,0:0:0:0:
256,192,1317570,1,12,0:0:0:0:
251,194,1317824,1,0,0:0:0:0:
256,192,1318078,1,12,0:0:0:0:
256,192,1318333,1,0,0:0:0:0:
252,192,1318460,1,0,0:0:0:0:
252,192,1318587,1,8,0:0:0:0:
252,192,1318840,1,0,0:0:0:0:
252,192,1319095,1,12,0:0:0:0:
252,192,1319349,1,0,0:0:0:0:
252,192,1319476,1,8,0:0:0:0:
252,192,1319730,1,0,0:0:0:0:
256,192,1319858,1,8,0:0:0:0:
252,192,1319985,1,0,0:0:0:0:
252,192,1320112,1,8,0:0:0:0:
256,192,1320367,1,0,0:0:0:0:
256,192,1320621,1,8,0:0:0:0:
256,192,1320748,1,8,0:0:0:0:
256,192,1320875,1,0,0:0:0:0:
256,192,1321002,1,0,0:0:0:0:
256,192,1321129,1,8,0:0:0:0:
256,192,1321383,1,0,0:0:0:0:
256,192,1321510,1,8,0:0:0:0:
256,192,1321764,1,8,0:0:0:0:
256,192,1321891,1,0,0:0:0:0:
256,192,1322019,1,8,0:0:0:0:
256,192,1322146,1,0,0:0:0:0:
256,192,1322400,1,8,0:0:0:0:
256,192,1322527,1,8,0:0:0:0:
256,192,1322654,1,0,0:0:0:0:
256,192,1322908,1,8,0:0:0:0:
256,192,1323163,1,0,0:0:0:0:
256,192,1323417,1,8,0:0:0:0:
256,192,1323544,1,0,0:0:0:0:
256,192,1323671,1,0,0:0:0:0:
256,192,1323798,1,8,0:0:0:0:
256,199,1324053,1,0,0:0:0:0:
256,192,1324180,1,8,0:0:0:0:
256,192,1324307,1,0,0:0:0:0:
256,192,1324561,1,8,0:0:0:0:
256,192,1324815,1,0,0:0:0:0:
256,192,1325069,1,0,0:0:0:0:
256,192,1325197,1,8,0:0:0:0:
260,192,1325451,1,0,0:0:0:0:
260,192,1325578,1,0,0:0:0:0:
260,192,1325705,1,8,0:0:0:0:
260,192,1325959,1,0,0:0:0:0:
260,192,1326213,1,8,0:0:0:0:
260,192,1326595,1,0,0:0:0:0:
260,192,1326722,1,8,0:0:0:0:
260,192,1326976,1,8,0:0:0:0:
260,192,1327103,1,8,0:0:0:0:
260,192,1327230,1,4,0:0:0:0:
256,192,1327485,1,0,0:0:0:0:
256,192,1327612,1,8,0:0:0:0:
268,188,1327867,1,0,0:0:0:0:
268,188,1327994,1,8,0:0:0:0:
256,192,1328121,1,0,0:0:0:0:
256,192,1328248,1,8,0:0:0:0:
256,192,1328502,1,0,0:0:0:0:
256,192,1328756,1,8,0:0:0:0:
256,192,1328884,1,8,0:0:0:0:
264,195,1329011,1,0,0:0:0:0:
256,192,1329137,1,0,0:0:0:0:
256,192,1329264,1,8,0:0:0:0:
252,192,1329519,1,0,0:0:0:0:
252,192,1329646,1,8,0:0:0:0:
256,192,1329900,1,8,0:0:0:0:
256,192,1330027,1,0,0:0:0:0:
256,192,1330154,1,8,0:0:0:0:
256,192,1330281,1,0,0:0:0:0:
256,192,1330536,1,8,0:0:0:0:
256,192,1330663,1,8,0:0:0:0:
256,192,1330790,1,0,0:0:0:0:
252,188,1331044,1,8,0:0:0:0:
252,188,1331298,1,0,0:0:0:0:
252,188,1331552,1,0,0:0:0:0:
252,188,1331680,1,0,0:0:0:0:
252,188,1331807,1,8,0:0:0:0:
252,188,1331934,1,0,0:0:0:0:
252,188,1332188,1,8,0:0:0:0:
252,188,1332315,1,0,0:0:0:0:
252,188,1332442,1,8,0:0:0:0:
252,188,1332697,1,8,0:0:0:0:
252,188,1332824,1,0,0:0:0:0:
252,188,1333078,1,0,0:0:0:0:
252,188,1333332,1,12,0:0:0:0:
252,188,1333714,1,8,0:0:0:0:
252,188,1333841,1,4,0:0:0:0:
252,188,1334095,1,0,0:0:0:0:
252,188,1334349,1,12,0:0:0:0:
252,188,1334603,1,0,0:0:0:0:
252,188,1334730,1,0,0:0:0:0:
256,192,1334858,1,8,0:0:0:0:
260,194,1334985,1,8,0:0:0:0:
256,192,1335112,1,0,0:0:0:0:
256,192,1335366,1,12,0:0:0:0:
256,196,1335620,1,0,0:0:0:0:
256,196,1335747,1,8,0:0:0:0:
256,192,1336002,1,8,0:0:0:0:
256,192,1336129,1,0,0:0:0:0:
256,196,1336383,1,0,0:0:0:0:
256,196,1336510,1,0,0:0:0:0:
256,196,1336637,1,8,0:0:0:0:
256,196,1336891,1,0,0:0:0:0:
275,188,1337146,1,8,0:0:0:0:
275,188,1337273,1,0,0:0:0:0:
256,196,1337400,1,8,0:0:0:0:
264,197,1337655,1,0,0:0:0:0:
256,196,1337782,1,8,0:0:0:0:
256,196,1338036,1,8,0:0:0:0:
256,196,1338163,1,0,0:0:0:0:
276,199,1338417,1,0,0:0:0:0:
256,196,1338544,1,8,0:0:0:0:
256,196,1338672,1,0,0:0:0:0:
256,196,1338799,1,0,0:0:0:0:
256,196,1338926,1,8,0:0:0:0:
256,196,1339180,1,0,0:0:0:0:
256,196,1339434,1,8,0:0:0:0:
256,196,1339687,1,0,0:0:0:0:
256,196,1339816,1,8,0:0:0:0:
256,196,1340196,1,8,0:0:0:0:
256,196,1340323,1,8,0:0:0:0:
256,196,1340450,1,0,0:0:0:0:
256,192,1340704,1,0,0:0:0:0:
256,192,1340833,1,8,0:0:0:0:
256,192,1341214,1,0,0:0:0:0:
259,184,1341340,1,0,0:0:0:0:
256,192,1341467,1,8,0:0:0:0:
259,184,1341721,1,8,0:0:0:0:
256,192,1341850,1,0,0:0:0:0:
256,196,1342104,1,8,0:0:0:0:
256,192,1342231,1,0,0:0:0:0:
256,192,1342358,1,0,0:0:0:0:
256,192,1342485,1,8,0:0:0:0:
256,192,1342739,1,8,0:0:0:0:
256,192,1342866,1,8,0:0:0:0:
251,189,1342994,1,0,0:0:0:0:
256,192,1343248,1,8,0:0:0:0:
256,192,1343375,1,0,0:0:0:0:
256,192,1343502,1,12,0:0:0:0:
256,196,1343755,1,0,0:0:0:0:
256,196,1343882,1,8,0:0:0:0:
252,196,1344138,1,0,0:0:0:0:
252,196,1344265,1,8,0:0:0:0:
256,192,1344520,1,0,0:0:0:0:
256,192,1344774,1,8,0:0:0:0:
256,192,1344901,1,8,0:0:0:0:
256,192,1345028,1,0,0:0:0:0:
256,192,1345282,1,0,0:0:0:0:
256,192,1345409,1,0,0:0:0:0:
256,192,1345537,1,8,0:0:0:0:
256,192,1345790,1,0,0:0:0:0:
256,192,1345917,1,8,0:0:0:0:
256,192,1346171,1,0,0:0:0:0:
256,192,1346298,1,8,0:0:0:0:
256,183,1346426,1,8,0:0:0:0:
256,192,1346552,1,0,0:0:0:0:
260,196,1346807,1,8,0:0:0:0:
260,196,1346934,1,8,0:0:0:0:
260,196,1347061,1,0,0:0:0:0:
254,199,1347188,1,0,0:0:0:0:
252,198,1347316,1,8,0:0:0:0:
260,196,1347570,1,0,0:0:0:0:
260,196,1347824,1,0,0:0:0:0:
260,196,1347951,1,8,0:0:0:0:
260,196,1348332,1,8,0:0:0:0:
260,196,1348459,1,0,0:0:0:0:
260,196,1348586,1,8,0:0:0:0:
260,196,1348841,1,0,0:0:0:0:
260,196,1349095,1,8,0:0:0:0:
260,192,1349349,1,8,0:0:0:0:
260,192,1349476,1,0,0:0:0:0:
260,192,1349603,1,8,0:0:0:0:
260,192,1349858,1,0,0:0:0:0:
260,192,1349985,1,0,0:0:0:0:
260,192,1350112,1,8,0:0:0:0:
260,192,1350366,1,8,0:0:0:0:
260,192,1350493,1,8,0:0:0:0:
260,192,1350620,1,0,0:0:0:0:
260,192,1350874,1,0,0:0:0:0:
260,192,1351002,1,0,0:0:0:0:
260,192,1351129,1,8,0:0:0:0:
260,192,1351383,1,8,0:0:0:0:
260,192,1351637,1,4,0:0:0:0:
256,192,1352019,1,0,0:0:0:0:
256,192,1352146,1,8,0:0:0:0:
256,192,1352527,1,8,0:0:0:0:
256,192,1352654,1,0,0:0:0:0:
256,192,1352908,1,8,0:0:0:0:
256,192,1353163,1,0,0:0:0:0:
256,192,1353290,1,0,0:0:0:0:
256,192,1353417,1,8,0:0:0:0:
256,192,1353544,1,0,0:0:0:0:
256,192,1353671,1,8,0:0:0:0:
256,192,1353925,1,8,0:0:0:0:
256,192,1354052,1,8,0:0:0:0:
256,192,1354180,1,0,0:0:0:0:
256,192,1354434,1,8,0:0:0:0:
256,192,1354688,1,0,0:0:0:0:
256,192,1354815,1,8,0:0:0:0:
256,192,1355069,1,8,0:0:0:0:
256,196,1355451,1,0,0:0:0:0:
256,196,1355705,1,8,0:0:0:0:
256,196,1355832,1,0,0:0:0:0:
256,196,1355959,1,8,0:0:0:0:
256,196,1356086,1,8,0:0:0:0:
256,196,1356213,1,0,0:0:0:0:
256,200,1356468,1,0,0:0:0:0:
256,192,1356722,1,0,0:0:0:0:
256,192,1356849,1,8,0:0:0:0:
256,192,1357103,1,8,0:0:0:0:
256,192,1357230,1,0,0:0:0:0:
256,192,1357485,1,0,0:0:0:0:
256,192,1357739,1,8,0:0:0:0:
256,192,1357866,1,0,0:0:0:0:
256,192,1358120,1,0,0:0:0:0:
256,192,1358247,1,0,0:0:0:0:
256,192,1358502,1,0,0:0:0:0:
256,192,1358756,1,8,0:0:0:0:
256,192,1359010,1,8,0:0:0:0:
256,192,1359137,1,0,0:0:0:0:
256,192,1359264,1,8,0:0:0:0:
256,192,1359519,1,0,0:0:0:0:
256,192,1359646,1,0,0:0:0:0:
256,192,1359773,1,12,0:0:0:0:
256,192,1360281,1,0,0:0:0:0:
256,192,1360663,1,0,0:0:0:0:
256,192,1360790,1,8,0:0:0:0:
256,192,1361044,1,8,0:0:0:0:
256,192,1361298,1,0,0:0:0:0:
256,192,1361552,1,0,0:0:0:0:
256,192,1361680,1,0,0:0:0:0:
256,192,1361807,1,8,0:0:0:0:
256,192,1362061,1,8,0:0:0:0:
256,192,1362188,1,8,0:0:0:0:
256,192,1362315,1,0,0:0:0:0:
256,192,1362569,1,8,0:0:0:0:
256,192,1362824,1,0,0:0:0:0:
256,192,1362951,1,8,0:0:0:0:
242,178,1363078,1,8,0:0:0:0:
256,192,1363205,1,0,0:0:0:0:
256,192,1363460,1,8,0:0:0:0:
256,192,1363587,1,8,0:0:0:0:
256,192,1363714,1,0,0:0:0:0:
256,192,1363841,1,0,0:0:0:0:
256,192,1363968,1,8,0:0:0:0:
256,188,1364222,1,0,0:0:0:0:
256,188,1364349,1,8,0:0:0:0:
256,188,1364603,1,0,0:0:0:0:
256,184,1364858,1,8,0:0:0:0:
256,192,1365239,1,0,0:0:0:0:
256,192,1365366,1,8,0:0:0:0:
260,192,1365620,1,8,0:0:0:0:
260,192,1365874,1,0,0:0:0:0:
260,192,1366002,1,8,0:0:0:0:
260,192,1366256,1,8,0:0:0:0:
260,192,1366383,1,0,0:0:0:0:
260,192,1366637,1,0,0:0:0:0:
260,192,1366765,1,0,0:0:0:0:
260,192,1366892,1,8,0:0:0:0:
256,188,1367146,1,8,0:0:0:0:
256,188,1367400,1,0,0:0:0:0:
256,192,1367909,1,12,0:0:0:0:
256,192,1368163,1,0,0:0:0:0:
256,192,1368290,1,8,0:0:0:0:
256,192,1368544,1,0,0:0:0:0:
256,192,1368672,1,8,0:0:0:0:
254,182,1368799,1,0,0:0:0:0:
256,192,1368926,1,8,0:0:0:0:
256,192,1369180,1,0,0:0:0:0:
256,192,1369434,1,8,0:0:0:0:
256,192,1369561,1,8,0:0:0:0:
256,192,1369688,1,0,0:0:0:0:
256,192,1369816,1,0,0:0:0:0:
256,192,1369943,1,8,0:0:0:0:
256,192,1370197,1,0,0:0:0:0:
256,192,1370324,1,8,0:0:0:0:
256,192,1370578,1,8,0:0:0:0:
256,192,1370705,1,0,0:0:0:0:
256,192,1370832,1,8,0:0:0:0:
256,192,1370959,1,0,0:0:0:0:
256,192,1371213,1,8,0:0:0:0:
256,192,1371341,1,8,0:0:0:0:
256,192,1371468,1,0,0:0:0:0:
256,192,1371722,1,8,0:0:0:0:
256,192,1371976,1,0,0:0:0:0:
256,192,1372230,1,8,0:0:0:0:
256,192,1372358,1,0,0:0:0:0:
256,192,1372485,1,0,0:0:0:0:
256,192,1372612,1,8,0:0:0:0:
256,192,1372866,1,0,0:0:0:0:
256,192,1372993,1,8,0:0:0:0:
256,192,1373120,1,8,0:0:0:0:
248,192,1373374,1,8,0:0:0:0:
248,192,1373629,1,8,0:0:0:0:
248,192,1373756,1,8,0:0:0:0:
248,192,1373883,1,0,0:0:0:0:
248,192,1374010,1,8,0:0:0:0:
248,192,1374264,1,0,0:0:0:0:
248,192,1374391,1,0,0:0:0:0:
248,192,1374519,1,8,0:0:0:0:
248,192,1374773,1,0,0:0:0:0:
248,192,1375027,1,8,0:0:0:0:
248,192,1375408,1,0,0:0:0:0:
248,192,1375536,1,8,0:0:0:0:
276,185,1375790,1,8,0:0:0:0:
276,185,1375917,1,8,0:0:0:0:
256,188,1376044,1,4,0:0:0:0:
256,188,1376298,1,0,0:0:0:0:
256,188,1376425,1,8,0:0:0:0:
256,192,1376680,1,8,0:0:0:0:
256,192,1376807,1,0,0:0:0:0:
256,192,1376934,1,8,0:0:0:0:
256,192,1377061,1,0,0:0:0:0:
256,192,1377315,1,0,0:0:0:0:
256,192,1377569,1,8,0:0:0:0:
256,192,1377697,1,8,0:0:0:0:
256,192,1377824,1,0,0:0:0:0:
256,192,1377951,1,0,0:0:0:0:
256,192,1378078,1,8,0:0:0:0:
256,192,1378332,1,0,0:0:0:0:
256,192,1378459,1,8,0:0:0:0:
256,192,1378713,1,8,0:0:0:0:
256,192,1378841,1,0,0:0:0:0:
256,192,1378968,1,8,0:0:0:0:
256,192,1379095,1,0,0:0:0:0:
256,192,1379349,1,8,0:0:0:0:
256,192,1379476,1,8,0:0:0:0:
256,192,1379603,1,0,0:0:0:0:
256,192,1379858,1,8,0:0:0:0:
256,192,1380112,1,0,0:0:0:0:
256,192,1380366,1,8,0:0:0:0:
256,192,1380620,1,0,0:0:0:0:
256,192,1380747,1,8,0:0:0:0:
238,197,1380875,1,0,0:0:0:0:
256,192,1381129,1,0,0:0:0:0:
256,192,1381256,1,8,0:0:0:0:
256,192,1381510,1,8,0:0:0:0:
256,192,1381637,1,0,0:0:0:0:
256,192,1381891,1,0,0:0:0:0:
256,192,1382146,1,8,0:0:0:0:
256,192,1382273,1,0,0:0:0:0:
256,192,1382527,1,0,0:0:0:0:
256,192,1382654,1,8,0:0:0:0:
256,192,1382908,1,8,0:0:0:0:
256,192,1383163,1,0,0:0:0:0:
256,192,1383417,1,0,0:0:0:0:
256,192,1383544,1,0,0:0:0:0:
256,192,1383672,1,8,0:0:0:0:
256,192,1383927,1,0,0:0:0:0:
256,192,1384180,1,12,0:0:0:0:
256,192,1384434,1,0,0:0:0:0:
256,192,1384688,1,8,0:0:0:0:
256,192,1384816,1,8,0:0:0:0:
256,192,1384943,1,0,0:0:0:0:
256,192,1385193,1,8,0:0:0:0:
256,192,1385317,1,8,0:0:0:0:
256,192,1385567,1,8,0:0:0:0:
256,192,1385692,1,0,0:0:0:0:
252,192,1385942,1,0,0:0:0:0:
256,192,1386192,1,8,0:0:0:0:
256,192,1386437,1,8,0:0:0:0:
256,192,1386560,1,8,0:0:0:0:
256,192,1386683,1,0,0:0:0:0:
256,192,1386929,1,0,0:0:0:0:
256,192,1387175,1,8,0:0:0:0:
256,192,1387537,1,8,0:0:0:0:
256,192,1387658,1,0,0:0:0:0:
256,192,1387900,1,0,0:0:0:0:
256,192,1388021,1,0,0:0:0:0:
256,192,1388146,1,8,0:0:0:0:
256,192,1388386,1,8,0:0:0:0:
256,192,1388507,1,8,0:0:0:0:
256,192,1388627,1,0,0:0:0:0:
256,192,1388868,1,0,0:0:0:0:
256,192,1388989,1,8,0:0:0:0:
256,192,1389109,1,0,0:0:0:0:
256,192,1389459,1,8,0:0:0:0:
256,192,1389575,1,0,0:0:0:0:
256,196,1389809,1,8,0:0:0:0:
256,192,1390042,1,0,0:0:0:0:
256,192,1390272,1,8,0:0:0:0:
256,192,1390388,1,8,0:0:0:0:
256,192,1390503,1,0,0:0:0:0:
256,192,1390734,1,0,0:0:0:0:
256,192,1390849,1,0,0:0:0:0:
256,192,1390965,1,8,0:0:0:0:
256,192,1391192,1,0,0:0:0:0:
256,192,1391419,1,8,0:0:0:0:
256,192,1391533,1,0,0:0:0:0:
256,192,1391646,1,0,0:0:0:0:
256,192,1391760,1,8,0:0:0:0:
256,192,1391874,1,0,0:0:0:0:
256,192,1392096,1,0,0:0:0:0:
256,192,1392207,1,8,0:0:0:0:
256,192,1392319,1,0,0:0:0:0:
256,192,1392541,1,0,0:0:0:0:
256,192,1392766,1,8,0:0:0:0:
256,192,1392986,1,8,0:0:0:0:
256,192,1393207,1,8,0:0:0:0:
256,192,1393648,1,0,0:0:0:0:
256,192,1393866,1,0,0:0:0:0:
256,192,1393976,1,8,0:0:0:0:
256,192,1394085,1,0,0:0:0:0:
256,192,1394304,1,8,0:0:0:0:
256,192,1394523,1,0,0:0:0:0:
256,192,1394738,1,0,0:0:0:0:
256,192,1394846,1,0,0:0:0:0:
256,192,1394954,1,8,0:0:0:0:
256,192,1395170,1,8,0:0:0:0:
256,192,1395278,1,0,0:0:0:0:
256,192,1395386,1,8,0:0:0:0:
256,192,1395598,1,8,0:0:0:0:
256,192,1395705,1,8,0:0:0:0:
256,192,1395811,1,0,0:0:0:0:
256,192,1396024,1,0,0:0:0:0:
256,192,1396237,1,8,0:0:0:0:
256,192,1396442,1,8,0:0:0:0:
256,192,1396647,1,8,0:0:0:0:
256,192,1397058,1,0,0:0:0:0:
256,192,1397364,1,0,0:0:0:0:
256,192,1397466,1,8,0:0:0:0:
260,188,1397670,1,0,0:0:0:0:
256,192,1397874,1,12,0:0:0:0:
256,192,1398076,1,12,0:0:0:0:
256,192,1398279,1,12,0:0:0:0:
256,192,1398684,1,12,0:0:0:0:
256,192,1398885,1,0,0:0:0:0:
256,192,1399086,1,0,0:0:0:0:
256,192,1399187,1,8,0:0:0:0:
256,192,1399288,1,0,0:0:0:0:
256,192,1399489,1,8,0:0:0:0:
256,192,1399589,1,0,0:0:0:0:
256,192,1399789,1,0,0:0:0:0:
256,192,1399889,1,0,0:0:0:0:
256,192,1400089,1,0,0:0:0:0:
256,192,1400287,1,12,0:0:0:0:
256,192,1400480,1,8,0:0:0:0:
256,192,1400577,1,8,0:0:0:0:
256,192,1400674,1,0,0:0:0:0:
256,192,1400867,1,0,0:0:0:0:
256,192,1401061,1,8,0:0:0:0:
256,188,1401347,1,8,0:0:0:0:
256,188,1401443,1,0,0:0:0:0:
256,188,1401634,1,0,0:0:0:0:
256,188,1401825,5,12,0:0:0:0:
256,188,1402016,1,8,0:0:0:0:
256,188,1402111,1,0,0:0:0:0:
256,188,1402207,1,0,0:0:0:0:
256,188,1402398,1,0,0:0:0:0:
256,188,1402493,1,8,0:0:0:0:
256,188,1402589,1,0,0:0:0:0:
256,188,1402870,1,8,0:0:0:0:
256,188,1402964,1,0,0:0:0:0:
256,188,1403151,1,0,0:0:0:0:
256,188,1403341,1,12,0:0:0:0:
256,188,1403526,1,8,0:0:0:0:
256,188,1403618,1,8,0:0:0:0:
256,188,1403711,1,0,0:0:0:0:
256,188,1403896,1,0,0:0:0:0:
256,188,1403989,1,0,0:0:0:0:
256,188,1404081,1,8,0:0:0:0:
256,188,1404263,1,8,0:0:0:0:
256,188,1404355,1,0,0:0:0:0:
256,188,1404446,1,8,0:0:0:0:
256,188,1404538,1,8,0:0:0:0:
256,188,1404629,1,0,0:0:0:0:
256,188,1404812,1,12,0:0:0:0:
256,188,1404993,1,0,0:0:0:0:
256,188,1405084,1,0,0:0:0:0:
256,188,1405175,1,8,0:0:0:0:
256,188,1405357,1,0,0:0:0:0:
256,188,1405539,1,8,0:0:0:0:
256,188,1405718,1,8,0:0:0:0:
256,188,1405897,1,8,0:0:0:0:
256,188,1406255,1,12,0:0:0:0:
256,188,1406428,1,0,0:0:0:0:
256,188,1406515,1,0,0:0:0:0:
256,188,1406601,1,8,0:0:0:0:
256,188,1406775,1,8,0:0:0:0:
256,188,1406955,1,0,0:0:0:0:
256,188,1407127,1,8,0:0:0:0:
256,188,1407214,1,0,0:0:0:0:
256,188,1407300,1,8,0:0:0:0:
256,188,1407473,1,0,0:0:0:0:
256,188,1407646,1,12,0:0:0:0:
256,188,1407817,1,8,0:0:0:0:
256,188,1407903,1,8,0:0:0:0:
256,188,1407988,1,0,0:0:0:0:
256,188,1408160,1,0,0:0:0:0:
256,188,1408331,1,8,0:0:0:0:
256,188,1408503,1,8,0:0:0:0:
256,188,1408674,1,8,0:0:0:0:
246,183,1409017,1,12,0:0:0:0:
256,188,1409272,1,0,0:0:0:0:
256,188,1409357,1,8,0:0:0:0:
256,188,1409528,1,0,0:0:0:0:
256,188,1409698,1,12,0:0:0:0:
256,188,1409869,1,12,0:0:0:0:
256,188,1410039,1,12,0:0:0:0:
256,192,1412667,12,0,1414319,0:0:0:0:
252,192,1414443,5,0,0:0:0:0:
252,192,1416476,1,8,0:0:0:0:
252,192,1418510,1,8,0:0:0:0:
252,192,1420544,5,0,0:0:0:0:
252,192,1422324,5,4,0:0:0:0:
252,192,1422578,1,4,0:0:0:0:
252,192,1424612,1,0,0:0:0:0:
252,192,1426646,1,8,0:0:0:0:
252,192,1428680,5,8,0:0:0:0:
252,192,1430459,5,4,0:0:0:0:
252,192,1430714,1,4,0:0:0:0:
252,192,1432747,1,8,0:0:0:0:
252,192,1434781,1,8,0:0:0:0:
256,192,1436815,5,0,0:0:0:0:
256,192,1438595,5,4,0:0:0:0:
256,192,1438849,1,4,0:0:0:0:
256,192,1440883,1,8,0:0:0:0:
256,192,1442917,1,8,0:0:0:0:
256,192,1444951,5,8,0:0:0:0:
256,192,1446985,5,0,0:0:0:0:
256,192,1447239,1,8,0:0:0:0:
256,192,1447366,1,0,0:0:0:0:
256,192,1447493,1,8,0:0:0:0:
256,192,1447620,1,8,0:0:0:0:
256,192,1447748,1,0,0:0:0:0:
248,192,1447875,1,8,0:0:0:0:
256,192,1448002,1,0,0:0:0:0:
256,192,1448256,1,0,0:0:0:0:
256,192,1448383,1,0,0:0:0:0:
256,192,1448510,1,8,0:0:0:0:
256,192,1448637,1,8,0:0:0:0:
256,192,1448765,1,0,0:0:0:0:
248,192,1448892,1,8,0:0:0:0:
256,192,1449019,1,0,0:0:0:0:
256,192,1449273,1,0,0:0:0:0:
256,192,1449527,1,8,0:0:0:0:
256,192,1449654,1,8,0:0:0:0:
256,192,1449781,1,0,0:0:0:0:
248,192,1449909,1,8,0:0:0:0:
256,192,1450163,1,8,0:0:0:0:
256,192,1450290,1,0,0:0:0:0:
256,192,1450544,1,8,0:0:0:0:
256,192,1450671,1,8,0:0:0:0:
252,200,1450798,1,0,0:0:0:0:
252,200,1450926,1,8,0:0:0:0:
252,200,1451053,1,0,0:0:0:0:
256,192,1451307,1,8,0:0:0:0:
256,192,1451434,1,0,0:0:0:0:
256,192,1451561,1,8,0:0:0:0:
252,200,1451815,1,0,0:0:0:0:
252,200,1451943,1,8,0:0:0:0:
252,200,1452070,1,0,0:0:0:0:
256,192,1452324,1,8,0:0:0:0:
248,200,1452451,1,0,0:0:0:0:
248,200,1452578,1,8,0:0:0:0:
252,200,1452832,1,0,0:0:0:0:
252,200,1452959,1,8,0:0:0:0:
252,200,1453087,1,0,0:0:0:0:
256,192,1453341,1,0,0:0:0:0:
248,200,1453595,1,8,0:0:0:0:
252,200,1453722,1,8,0:0:0:0:
252,200,1453849,1,0,0:0:0:0:
256,192,1453976,1,8,0:0:0:0:
252,200,1454231,1,8,0:0:0:0:
244,204,1454358,1,0,0:0:0:0:
248,200,1454612,1,8,0:0:0:0:
244,204,1454739,1,8,0:0:0:0:
244,204,1454866,1,0,0:0:0:0:
244,204,1454993,1,8,0:0:0:0:
252,200,1455120,1,0,0:0:0:0:
256,192,1455375,1,8,0:0:0:0:
256,192,1455502,1,0,0:0:0:0:
256,192,1455629,1,8,0:0:0:0:
256,192,1455756,1,8,0:0:0:0:
256,192,1455883,1,0,0:0:0:0:
248,192,1456010,1,8,0:0:0:0:
256,192,1456137,1,0,0:0:0:0:
256,192,1456392,1,0,0:0:0:0:
256,192,1456519,1,0,0:0:0:0:
256,192,1456646,1,8,0:0:0:0:
256,192,1456773,1,8,0:0:0:0:
256,192,1456900,1,0,0:0:0:0:
248,192,1457027,1,8,0:0:0:0:
256,192,1457154,1,0,0:0:0:0:
256,192,1457409,1,0,0:0:0:0:
256,192,1457663,1,8,0:0:0:0:
256,192,1457790,1,8,0:0:0:0:
256,192,1457917,1,0,0:0:0:0:
248,192,1458044,1,8,0:0:0:0:
256,192,1458298,1,8,0:0:0:0:
256,192,1458426,1,0,0:0:0:0:
256,192,1458680,1,8,0:0:0:0:
256,192,1458807,1,8,0:0:0:0:
252,200,1458934,1,0,0:0:0:0:
252,200,1459061,1,8,0:0:0:0:
252,200,1459188,1,0,0:0:0:0:
250,197,1459443,1,8,0:0:0:0:
250,197,1459570,1,0,0:0:0:0:
256,192,1459697,1,8,0:0:0:0:
252,200,1459951,1,0,0:0:0:0:
252,200,1460078,1,8,0:0:0:0:
252,200,1460205,1,0,0:0:0:0:
256,192,1460459,1,8,0:0:0:0:
248,200,1460587,1,0,0:0:0:0:
248,200,1460714,1,8,0:0:0:0:
252,200,1460968,1,0,0:0:0:0:
252,200,1461095,1,8,0:0:0:0:
252,200,1461222,1,0,0:0:0:0:
256,192,1461476,1,0,0:0:0:0:
248,200,1461731,1,8,0:0:0:0:
252,200,1461858,1,8,0:0:0:0:
252,200,1461985,1,0,0:0:0:0:
256,192,1462112,1,8,0:0:0:0:
252,200,1462366,1,8,0:0:0:0:
244,204,1462493,1,0,0:0:0:0:
248,200,1462748,1,8,0:0:0:0:
244,204,1462875,1,8,0:0:0:0:
244,204,1463002,1,0,0:0:0:0:
244,204,1463129,5,8,0:0:0:0:
252,200,1463256,1,0,0:0:0:0:
256,192,1463765,1,8,0:0:0:0:
252,196,1464019,1,0,0:0:0:0:
252,196,1464146,1,8,0:0:0:0:
256,192,1464273,1,0,0:0:0:0:
256,192,1464400,1,0,0:0:0:0:
256,192,1464527,1,8,0:0:0:0:
256,192,1464781,1,0,0:0:0:0:
256,192,1465290,1,0,0:0:0:0:
256,192,1465798,1,8,0:0:0:0:
252,196,1466053,1,8,0:0:0:0:
256,192,1466180,1,8,0:0:0:0:
256,192,1466307,1,0,0:0:0:0:
256,192,1466434,1,8,0:0:0:0:
256,192,1466561,1,0,0:0:0:0:
256,192,1466815,1,8,0:0:0:0:
256,192,1467324,1,0,0:0:0:0:
256,192,1467832,1,8,0:0:0:0:
252,188,1468087,1,8,0:0:0:0:
256,192,1468214,1,8,0:0:0:0:
256,192,1468341,1,0,0:0:0:0:
256,192,1468595,1,0,0:0:0:0:
256,192,1468722,1,0,0:0:0:0:
256,192,1468849,1,8,0:0:0:0:
252,200,1469104,1,8,0:0:0:0:
252,200,1469231,1,8,0:0:0:0:
252,200,1469358,1,0,0:0:0:0:
256,192,1469867,1,8,0:0:0:0:
252,188,1469994,1,0,0:0:0:0:
252,188,1470121,1,0,0:0:0:0:
256,192,1470248,1,8,0:0:0:0:
256,188,1470502,1,8,0:0:0:0:
256,192,1470629,1,0,0:0:0:0:
252,200,1470884,1,8,0:0:0:0:
252,188,1471011,1,0,0:0:0:0:
256,192,1471138,1,8,0:0:0:0:
256,208,1471265,1,8,0:0:0:0:
256,188,1471392,1,0,0:0:0:0:
256,192,1471900,1,8,0:0:0:0:
252,188,1472028,1,0,0:0:0:0:
255,188,1472155,1,8,0:0:0:0:
256,188,1472282,1,8,0:0:0:0:
252,188,1472409,1,0,0:0:0:0:
256,192,1472663,1,0,0:0:0:0:
270,189,1472790,1,0,0:0:0:0:
252,188,1472917,1,8,0:0:0:0:
270,189,1473044,1,0,0:0:0:0:
270,189,1473171,1,8,0:0:0:0:
270,189,1473298,1,8,0:0:0:0:
256,188,1473426,1,0,0:0:0:0:
256,192,1473934,1,8,0:0:0:0:
256,192,1474062,1,0,0:0:0:0:
256,192,1474189,1,0,0:0:0:0:
256,192,1474316,1,8,0:0:0:0:
256,192,1474570,1,8,0:0:0:0:
256,192,1474697,1,0,0:0:0:0:
256,192,1474951,1,8,0:0:0:0:
256,192,1475078,1,8,0:0:0:0:
256,192,1475206,1,0,0:0:0:0:
256,192,1475333,1,8,0:0:0:0:
256,192,1475460,1,0,0:0:0:0:
256,192,1475968,1,8,0:0:0:0:
256,192,1476223,1,8,0:0:0:0:
256,192,1476350,1,8,0:0:0:0:
256,192,1476476,1,0,0:0:0:0:
256,188,1476731,1,0,0:0:0:0:
256,192,1476858,1,0,0:0:0:0:
256,192,1476985,1,8,0:0:0:0:
256,192,1477239,1,8,0:0:0:0:
256,192,1477367,1,8,0:0:0:0:
256,192,1477494,1,0,0:0:0:0:
256,192,1478002,1,8,0:0:0:0:
256,192,1478129,1,0,0:0:0:0:
256,192,1478256,1,0,0:0:0:0:
256,192,1478384,1,8,0:0:0:0:
248,196,1478638,1,8,0:0:0:0:
248,196,1478765,1,0,0:0:0:0:
248,200,1479019,1,8,0:0:0:0:
248,200,1479146,1,0,0:0:0:0:
248,200,1479273,1,8,0:0:0:0:
248,200,1479400,1,8,0:0:0:0:
256,192,1479528,1,0,0:0:0:0:
256,192,1480036,1,0,0:0:0:0:
256,192,1480545,1,8,0:0:0:0:
256,192,1481562,1,0,0:0:0:0:
256,192,1482324,1,0,0:0:0:0:
256,192,1482579,1,8,0:0:0:0:
256,192,1483087,1,8,0:0:0:0:
256,188,1483595,1,0,0:0:0:0:
256,192,1484104,1,8,0:0:0:0:
264,196,1484612,1,0,0:0:0:0:
252,192,1485629,1,8,0:0:0:0:
256,192,1486392,1,0,0:0:0:0:
252,192,1486646,1,8,0:0:0:0:
256,192,1487663,1,0,0:0:0:0:
256,192,1488172,1,0,0:0:0:0:
256,192,1488680,1,8,0:0:0:0:
256,192,1489443,1,0,0:0:0:0:
256,192,1489697,1,8,0:0:0:0:
256,192,1490460,1,8,0:0:0:0:
256,192,1490714,1,0,0:0:0:0:
256,192,1491477,1,0,0:0:0:0:
256,192,1491731,1,8,0:0:0:0:
256,192,1491985,1,0,0:0:0:0:
256,192,1492494,1,0,0:0:0:0:
256,192,1492748,1,8,0:0:0:0:
256,192,1493002,1,0,0:0:0:0:
256,192,1493511,1,0,0:0:0:0:
256,192,1493765,1,8,0:0:0:0:
256,192,1494019,1,0,0:0:0:0:
256,192,1494273,1,0,0:0:0:0:
256,192,1494528,1,8,0:0:0:0:
256,192,1494782,1,0,0:0:0:0:
256,192,1495036,1,0,0:0:0:0:
256,192,1495290,1,8,0:0:0:0:
256,192,1495544,1,8,0:0:0:0:
256,192,1495671,1,8,0:0:0:0:
256,192,1495798,5,0,0:0:0:0:
256,192,1496053,1,0,0:0:0:0:
256,192,1496307,1,0,0:0:0:0:
256,192,1496561,1,8,0:0:0:0:
256,192,1496688,1,8,0:0:0:0:
256,192,1496815,1,0,0:0:0:0:
256,192,1497070,1,0,0:0:0:0:
256,192,1497197,1,0,0:0:0:0:
256,192,1497324,1,8,0:0:0:0:
256,192,1497578,1,8,0:0:0:0:
256,192,1497832,1,0,0:0:0:0:
256,192,1498087,1,0,0:0:0:0:
256,192,1498214,1,0,0:0:0:0:
256,192,1498341,1,8,0:0:0:0:
256,192,1498595,1,8,0:0:0:0:
256,192,1498722,1,8,0:0:0:0:
256,192,1498849,1,0,0:0:0:0:
256,192,1499104,1,8,0:0:0:0:
256,192,1499231,1,0,0:0:0:0:
256,192,1499358,1,8,0:0:0:0:
256,192,1499485,1,0,0:0:0:0:
256,192,1499612,1,0,0:0:0:0:
256,192,1499866,1,8,0:0:0:0:
256,196,1500121,1,0,0:0:0:0:
256,196,1500375,1,8,0:0:0:0:
256,196,1500502,1,0,0:0:0:0:
256,196,1500629,1,0,0:0:0:0:
256,188,1500756,1,8,0:0:0:0:
256,192,1500883,1,0,0:0:0:0:
256,192,1501137,1,8,0:0:0:0:
256,192,1501265,1,0,0:0:0:0:
256,192,1501392,1,8,0:0:0:0:
256,192,1501646,1,0,0:0:0:0:
256,192,1501900,1,8,0:0:0:0:
256,192,1502154,1,8,0:0:0:0:
256,192,1502282,1,8,0:0:0:0:
256,192,1502409,1,0,0:0:0:0:
256,192,1502663,1,0,0:0:0:0:
256,192,1502790,1,8,0:0:0:0:
256,192,1502917,1,0,0:0:0:0:
256,192,1503171,1,0,0:0:0:0:
256,192,1503299,1,0,0:0:0:0:
256,192,1503426,1,8,0:0:0:0:
256,192,1503680,1,8,0:0:0:0:
256,192,1503934,1,0,0:0:0:0:
256,192,1504443,1,0,0:0:0:0:
256,192,1504570,1,8,0:0:0:0:
256,192,1504697,1,0,0:0:0:0:
256,192,1504824,1,0,0:0:0:0:
256,192,1504951,1,8,0:0:0:0:
256,192,1505205,1,0,0:0:0:0:
256,192,1505332,1,0,0:0:0:0:
256,192,1505460,1,8,0:0:0:0:
256,192,1505714,1,8,0:0:0:0:
256,192,1505968,1,0,0:0:0:0:
256,192,1506222,1,8,0:0:0:0:
256,192,1506349,1,8,0:0:0:0:
256,192,1506476,1,0,0:0:0:0:
256,192,1506731,1,8,0:0:0:0:
256,192,1506985,1,0,0:0:0:0:
256,192,1507112,1,8,0:0:0:0:
256,192,1507239,1,0,0:0:0:0:
256,192,1507366,1,0,0:0:0:0:
256,192,1507493,1,8,0:0:0:0:
256,192,1507748,1,0,0:0:0:0:
256,192,1507875,1,0,0:0:0:0:
256,192,1508002,1,8,0:0:0:0:
256,196,1508256,1,0,0:0:0:0:
256,196,1508765,1,0,0:0:0:0:
256,196,1509019,1,8,0:0:0:0:
256,196,1509273,1,0,0:0:0:0:
256,196,1509782,1,0,0:0:0:0:
256,196,1510036,1,8,0:0:0:0:
256,196,1510290,1,4,0:0:0:0:
256,196,1510544,1,4,0:0:0:0:
256,196,1510799,1,12,0:0:0:0:
256,196,1511053,1,4,0:0:0:0:
256,196,1511307,1,8,0:0:0:0:
256,196,1511434,1,8,0:0:0:0:
256,196,1511561,1,8,0:0:0:0:
256,196,1511815,1,0,0:0:0:0:
256,196,1512070,1,12,0:0:0:0:
256,192,1512832,1,0,0:0:0:0:
256,192,1512960,1,0,0:0:0:0:
256,192,1513087,1,8,0:0:0:0:
256,192,1513849,1,8,0:0:0:0:
256,192,1513976,1,0,0:0:0:0:
256,192,1514104,1,8,0:0:0:0:
256,192,1514485,1,0,0:0:0:0:
256,192,1514866,1,0,0:0:0:0:
256,192,1514993,1,0,0:0:0:0:
256,192,1515120,1,8,0:0:0:0:
256,192,1516137,1,12,0:0:0:0:
256,192,1516900,1,0,0:0:0:0:
256,192,1517027,1,0,0:0:0:0:
256,192,1517154,1,8,0:0:0:0:
256,192,1517917,1,8,0:0:0:0:
256,192,1518044,1,0,0:0:0:0:
256,192,1518171,1,8,0:0:0:0:
256,192,1518553,1,0,0:0:0:0:
256,192,1518934,1,8,0:0:0:0:
256,192,1519061,1,8,0:0:0:0:
256,192,1519188,1,0,0:0:0:0:
256,192,1519443,1,0,0:0:0:0:
256,192,1519697,1,8,0:0:0:0:
256,192,1520205,1,12,0:0:0:0:
256,192,1520968,1,8,0:0:0:0:
256,192,1521095,1,0,0:0:0:0:
256,192,1521222,1,8,0:0:0:0:
256,192,1521985,1,0,0:0:0:0:
256,192,1522112,1,0,0:0:0:0:
256,192,1522239,1,8,0:0:0:0:
256,192,1522621,1,0,0:0:0:0:
261,185,1523002,1,8,0:0:0:0:
261,185,1523129,1,8,0:0:0:0:
256,192,1523256,1,0,0:0:0:0:
256,192,1524019,1,0,0:0:0:0:
256,192,1524273,1,12,0:0:0:0:
256,192,1525036,1,0,0:0:0:0:
256,192,1525163,1,0,0:0:0:0:
256,192,1525290,1,12,0:0:0:0:
252,192,1526053,1,8,0:0:0:0:
252,192,1526180,1,0,0:0:0:0:
252,192,1526307,1,12,0:0:0:0:
256,192,1526688,1,8,0:0:0:0:
256,192,1527070,1,8,0:0:0:0:
256,192,1527197,1,8,0:0:0:0:
256,192,1527324,1,0,0:0:0:0:
256,192,1527578,1,0,0:0:0:0:
244,194,1527705,1,8,0:0:0:0:
256,192,1527959,1,8,0:0:0:0:
256,192,1528087,1,0,0:0:0:0:
256,192,1528341,1,12,0:0:0:0:
256,192,1529104,1,0,0:0:0:0:
256,192,1529231,1,0,0:0:0:0:
256,192,1529358,1,8,0:0:0:0:
256,192,1530121,1,8,0:0:0:0:
256,192,1530248,1,0,0:0:0:0:
256,192,1530375,1,8,0:0:0:0:
256,192,1530756,1,0,0:0:0:0:
256,192,1531137,1,0,0:0:0:0:
256,192,1531265,1,0,0:0:0:0:
256,196,1531392,1,8,0:0:0:0:
256,192,1532409,1,12,0:0:0:0:
256,192,1533171,1,8,0:0:0:0:
256,192,1533299,1,0,0:0:0:0:
256,192,1533426,1,8,0:0:0:0:
256,192,1534188,1,0,0:0:0:0:
256,192,1534315,1,0,0:0:0:0:
256,192,1534443,1,8,0:0:0:0:
256,192,1534824,1,0,0:0:0:0:
256,192,1535205,1,8,0:0:0:0:
256,192,1535332,1,8,0:0:0:0:
256,192,1535460,1,0,0:0:0:0:
256,192,1535714,1,8,0:0:0:0:
256,192,1535841,1,0,0:0:0:0:
256,192,1535968,1,8,0:0:0:0:
262,203,1536095,1,8,0:0:0:0:
256,192,1536222,1,0,0:0:0:0:
256,192,1536349,1,0,0:0:0:0:
256,192,1536476,1,12,0:0:0:0:
260,192,1537239,1,8,0:0:0:0:
260,192,1537366,1,0,0:0:0:0:
260,192,1537493,1,8,0:0:0:0:
260,192,1538256,1,8,0:0:0:0:
260,192,1538383,1,8,0:0:0:0:
260,192,1538510,1,0,0:0:0:0:
260,192,1538892,1,0,0:0:0:0:
260,192,1539273,1,0,0:0:0:0:
260,192,1539401,1,0,0:0:0:0:
260,192,1539528,1,8,0:0:0:0:
260,192,1540290,1,0,0:0:0:0:
260,192,1540544,1,12,0:0:0:0:
263,184,1540798,1,0,0:0:0:0:
260,192,1541307,1,0,0:0:0:0:
260,192,1541434,1,0,0:0:0:0:
260,192,1541561,1,8,0:0:0:0:
260,192,1541815,1,0,0:0:0:0:
260,192,1542324,1,8,0:0:0:0:
260,192,1542451,1,0,0:0:0:0:
260,192,1542578,1,8,0:0:0:0:
260,192,1542832,1,0,0:0:0:0:
260,192,1543341,1,8,0:0:0:0:
260,192,1543595,1,8,0:0:0:0:
256,192,1543849,1,8,0:0:0:0:
256,192,1544104,1,0,0:0:0:0:
256,192,1544358,5,0,0:0:0:0:
256,192,1544612,5,8,0:0:0:0:
256,192,1544866,1,8,0:0:0:0:
256,192,1544994,1,0,0:0:0:0:
256,192,1545121,1,8,0:0:0:0:
256,192,1545248,1,8,0:0:0:0:
256,192,1545375,1,0,0:0:0:0:
248,192,1545502,1,8,0:0:0:0:
256,192,1545629,1,8,0:0:0:0:
256,192,1545883,1,8,0:0:0:0:
256,192,1546011,1,0,0:0:0:0:
256,192,1546138,1,8,0:0:0:0:
256,192,1546265,1,8,0:0:0:0:
256,192,1546392,1,0,0:0:0:0:
248,192,1546519,1,8,0:0:0:0:
256,192,1546646,1,0,0:0:0:0:
256,192,1546900,1,0,0:0:0:0:
256,192,1547155,1,8,0:0:0:0:
256,192,1547282,1,0,0:0:0:0:
256,192,1547409,1,0,0:0:0:0:
248,192,1547536,1,8,0:0:0:0:
256,192,1547790,1,8,0:0:0:0:
256,192,1547917,1,0,0:0:0:0:
256,192,1548172,1,8,0:0:0:0:
252,200,1548299,1,0,0:0:0:0:
252,200,1548426,1,0,0:0:0:0:
252,200,1548553,1,8,0:0:0:0:
252,200,1548680,1,0,0:0:0:0:
256,192,1548934,1,0,0:0:0:0:
256,192,1549061,1,0,0:0:0:0:
256,192,1549189,1,8,0:0:0:0:
252,200,1549442,1,0,0:0:0:0:
252,200,1549569,1,8,0:0:0:0:
252,200,1549697,1,0,0:0:0:0:
252,200,1549950,1,0,0:0:0:0:
248,200,1550078,1,0,0:0:0:0:
248,200,1550205,1,8,0:0:0:0:
252,200,1550460,1,0,0:0:0:0:
252,200,1550587,1,8,0:0:0:0:
252,200,1550714,1,0,0:0:0:0:
252,200,1550968,1,0,0:0:0:0:
248,200,1551222,1,8,0:0:0:0:
252,200,1551350,1,0,0:0:0:0:
252,200,1551477,1,0,0:0:0:0:
252,200,1551604,1,8,0:0:0:0:
252,200,1551858,1,8,0:0:0:0:
244,204,1551985,1,0,0:0:0:0:
248,200,1552239,1,8,0:0:0:0:
244,204,1552366,1,8,0:0:0:0:
244,204,1552494,1,0,0:0:0:0:
244,204,1552621,1,8,0:0:0:0:
252,200,1552748,1,0,0:0:0:0:
252,196,1553002,1,0,0:0:0:0:
248,200,1553129,1,0,0:0:0:0:
256,196,1553256,1,8,0:0:0:0:
252,196,1553383,1,0,0:0:0:0:
252,196,1553511,1,0,0:0:0:0:
252,196,1553638,1,8,0:0:0:0:
252,200,1553765,1,0,0:0:0:0:
252,196,1554019,1,8,0:0:0:0:
248,200,1554146,1,0,0:0:0:0:
256,196,1554273,1,8,0:0:0:0:
252,196,1554400,1,0,0:0:0:0:
252,196,1554527,1,0,0:0:0:0:
252,196,1554655,1,8,0:0:0:0:
252,200,1554782,1,0,0:0:0:0:
252,196,1555035,1,0,0:0:0:0:
256,196,1555290,1,8,0:0:0:0:
252,196,1555417,1,0,0:0:0:0:
252,196,1555544,1,0,0:0:0:0:
252,196,1555672,1,8,0:0:0:0:
256,192,1555926,1,8,0:0:0:0:
252,196,1556053,1,0,0:0:0:0:
256,196,1556307,1,8,0:0:0:0:
252,196,1556434,1,0,0:0:0:0:
252,196,1556561,1,0,0:0:0:0:
252,196,1556689,1,8,0:0:0:0:
256,192,1556816,1,0,0:0:0:0:
256,192,1557069,1,8,0:0:0:0:
256,192,1557197,1,0,0:0:0:0:
248,192,1557324,1,8,0:0:0:0:
252,196,1557578,1,0,0:0:0:0:
252,196,1557705,1,8,0:0:0:0:
248,192,1557833,1,0,0:0:0:0:
248,192,1558087,1,8,0:0:0:0:
248,196,1558214,1,0,0:0:0:0:
248,192,1558341,1,8,0:0:0:0:
252,196,1558595,1,0,0:0:0:0:
252,196,1558722,1,8,0:0:0:0:
248,192,1558850,1,0,0:0:0:0:
248,192,1559103,1,8,0:0:0:0:
243,187,1559230,1,0,0:0:0:0:
248,192,1559357,1,8,0:0:0:0:
245,194,1559484,1,8,0:0:0:0:
239,188,1559612,1,0,0:0:0:0:
248,192,1559739,1,8,0:0:0:0:
263,198,1559866,1,0,0:0:0:0:
256,192,1560120,12,0,1563679,0:0:0:0:
256,191,1563934,5,0,0:0:0:0:
256,192,1564950,5,4,0:0:0:0:
256,192,1565713,1,0,0:0:0:0:
256,192,1565840,1,0,0:0:0:0:
256,192,1565967,1,8,0:0:0:0:
256,192,1566730,1,8,0:0:0:0:
256,192,1566857,1,0,0:0:0:0:
256,192,1566984,1,8,0:0:0:0:
256,192,1567366,1,0,0:0:0:0:
256,192,1567747,1,0,0:0:0:0:
256,192,1567874,1,0,0:0:0:0:
256,192,1568001,1,8,0:0:0:0:
256,192,1568256,1,0,0:0:0:0:
256,192,1568383,1,8,0:0:0:0:
256,192,1568637,1,8,0:0:0:0:
256,192,1568764,1,0,0:0:0:0:
256,192,1569018,1,12,0:0:0:0:
256,192,1569781,1,0,0:0:0:0:
256,192,1569908,1,0,0:0:0:0:
256,192,1570035,1,8,0:0:0:0:
256,192,1570798,1,8,0:0:0:0:
256,192,1570925,1,0,0:0:0:0:
256,192,1571052,1,8,0:0:0:0:
256,192,1571434,1,0,0:0:0:0:
256,192,1571815,1,0,0:0:0:0:
256,192,1571942,1,0,0:0:0:0:
256,192,1572069,1,8,0:0:0:0:
256,192,1572323,1,0,0:0:0:0:
256,192,1572578,1,8,0:0:0:0:
261,200,1572832,1,0,0:0:0:0:
256,192,1573086,1,4,0:0:0:0:
256,192,1573849,1,8,0:0:0:0:
256,192,1573976,1,0,0:0:0:0:
256,192,1574103,1,8,0:0:0:0:
256,192,1574866,1,0,0:0:0:0:
256,192,1574993,1,0,0:0:0:0:
256,192,1575120,1,8,0:0:0:0:
256,192,1575501,1,0,0:0:0:0:
256,192,1575883,1,0,0:0:0:0:
256,192,1576010,1,0,0:0:0:0:
256,192,1576137,1,8,0:0:0:0:
256,192,1576391,1,0,0:0:0:0:
256,192,1576645,1,8,0:0:0:0:
261,200,1576900,1,0,0:0:0:0:
256,192,1577154,1,12,0:0:0:0:
256,192,1577917,1,0,0:0:0:0:
256,192,1578044,1,0,0:0:0:0:
256,192,1578171,1,8,0:0:0:0:
256,192,1578934,1,0,0:0:0:0:
256,192,1579061,1,0,0:0:0:0:
256,192,1579188,1,8,0:0:0:0:
256,192,1579442,1,8,0:0:0:0:
256,192,1579696,1,0,0:0:0:0:
256,192,1579951,1,8,0:0:0:0:
256,192,1580078,1,0,0:0:0:0:
256,192,1580205,1,8,0:0:0:0:
256,192,1580459,1,0,0:0:0:0:
256,192,1580713,1,8,0:0:0:0:
261,200,1580840,1,8,0:0:0:0:
261,200,1580967,1,0,0:0:0:0:
261,200,1581095,1,8,0:0:0:0:
261,200,1581222,1,4,0:0:0:0:
256,192,1581476,1,8,0:0:0:0:
256,192,1581730,1,8,0:0:0:0:
256,192,1581984,1,0,0:0:0:0:
256,192,1582239,1,8,0:0:0:0:
256,192,1582493,1,0,0:0:0:0:
256,192,1582747,1,8,0:0:0:0:
256,192,1583001,1,0,0:0:0:0:
256,192,1583128,1,0,0:0:0:0:
256,192,1583256,1,8,0:0:0:0:
256,192,1583510,1,0,0:0:0:0:
256,192,1583764,1,8,0:0:0:0:
256,192,1584018,1,8,0:0:0:0:
256,192,1584273,1,0,0:0:0:0:
256,192,1584527,1,0,0:0:0:0:
256,192,1584781,1,8,0:0:0:0:
256,192,1585035,1,8,0:0:0:0:
256,192,1585162,1,8,0:0:0:0:
256,192,1585289,1,4,0:0:0:0:
256,192,1585544,1,0,0:0:0:0:
256,192,1585798,1,8,0:0:0:0:
256,192,1586052,1,0,0:0:0:0:
256,192,1586306,1,8,0:0:0:0:
256,192,1586561,1,0,0:0:0:0:
256,192,1586688,1,8,0:0:0:0:
256,192,1586942,1,8,0:0:0:0:
256,192,1587069,1,0,0:0:0:0:
256,188,1587323,1,8,0:0:0:0:
256,192,1587578,1,8,0:0:0:0:
256,192,1587705,1,0,0:0:0:0:
256,192,1587959,1,0,0:0:0:0:
256,188,1588086,1,8,0:0:0:0:
256,188,1588213,1,8,0:0:0:0:
256,196,1588340,1,0,0:0:0:0:
256,192,1588595,1,0,0:0:0:0:
256,192,1588722,1,8,0:0:0:0:
256,192,1588976,1,8,0:0:0:0:
256,192,1589103,1,0,0:0:0:0:
256,192,1589357,1,4,0:0:0:0:
256,192,1589612,1,0,0:0:0:0:
256,192,1589866,1,0,0:0:0:0:
256,192,1590120,1,8,0:0:0:0:
256,192,1590374,1,8,0:0:0:0:
256,192,1590628,1,0,0:0:0:0:
256,192,1590883,1,8,0:0:0:0:
256,192,1591137,1,0,0:0:0:0:
256,192,1591264,1,0,0:0:0:0:
256,192,1591391,1,8,0:0:0:0:
256,192,1591645,1,8,0:0:0:0:
256,192,1591900,1,0,0:0:0:0:
256,192,1592154,1,0,0:0:0:0:
256,192,1592408,1,8,0:0:0:0:
256,192,1592662,1,0,0:0:0:0:
256,192,1592789,1,8,0:0:0:0:
256,192,1593044,1,8,0:0:0:0:
256,192,1593171,1,0,0:0:0:0:
256,192,1593425,1,4,0:0:0:0:
256,192,1593806,1,0,0:0:0:0:
256,192,1594188,1,0,0:0:0:0:
256,192,1594315,1,0,0:0:0:0:
256,192,1594442,1,8,0:0:0:0:
256,192,1594823,1,0,0:0:0:0:
256,192,1595205,1,8,0:0:0:0:
256,192,1595332,1,0,0:0:0:0:
256,192,1595459,1,8,0:0:0:0:
256,192,1595840,1,8,0:0:0:0:
256,192,1596222,1,0,0:0:0:0:
256,192,1596349,1,0,0:0:0:0:
256,192,1596476,1,8,0:0:0:0:
256,192,1596730,1,0,0:0:0:0:
256,192,1596857,1,0,0:0:0:0:
256,192,1596984,1,8,0:0:0:0:
256,192,1597112,1,0,0:0:0:0:
256,192,1597239,1,8,0:0:0:0:
256,192,1597366,1,8,0:0:0:0:
256,192,1597493,1,4,0:0:0:0:
256,192,1597747,1,0,0:0:0:0:
256,192,1598001,1,8,0:0:0:0:
256,192,1598256,1,0,0:0:0:0:
256,192,1598510,1,0,0:0:0:0:
256,192,1598764,1,8,0:0:0:0:
256,192,1599018,1,8,0:0:0:0:
256,192,1599273,1,8,0:0:0:0:
256,192,1599400,1,8,0:0:0:0:
256,192,1599527,1,0,0:0:0:0:
256,192,1599781,1,8,0:0:0:0:
256,192,1600035,1,0,0:0:0:0:
256,192,1600289,1,0,0:0:0:0:
256,192,1600544,1,8,0:0:0:0:
256,192,1600798,1,0,0:0:0:0:
256,192,1601052,1,8,0:0:0:0:
256,192,1601306,1,0,0:0:0:0:
256,192,1601434,1,0,0:0:0:0:
256,192,1601561,1,12,0:0:0:0:
256,192,1601815,1,0,0:0:0:0:
256,192,1602069,1,8,0:0:0:0:
256,192,1602323,1,8,0:0:0:0:
256,192,1602578,1,0,0:0:0:0:
256,192,1602832,1,0,0:0:0:0:
256,192,1602959,1,8,0:0:0:0:
256,192,1603213,1,8,0:0:0:0:
256,192,1603340,1,0,0:0:0:0:
256,192,1603595,1,8,0:0:0:0:
256,192,1603849,1,8,0:0:0:0:
256,192,1603976,1,0,0:0:0:0:
256,192,1604230,1,8,0:0:0:0:
256,192,1604357,1,0,0:0:0:0:
256,192,1604484,1,8,0:0:0:0:
256,192,1604612,1,0,0:0:0:0:
256,192,1604866,1,0,0:0:0:0:
256,192,1604993,1,8,0:0:0:0:
252,184,1605247,1,8,0:0:0:0:
252,184,1605374,1,0,0:0:0:0:
252,184,1605628,1,4,0:0:0:0:
256,192,1605883,1,0,0:0:0:0:
256,192,1606137,1,0,0:0:0:0:
256,192,1606391,1,0,0:0:0:0:
256,192,1606645,1,8,0:0:0:0:
256,192,1606900,1,0,0:0:0:0:
256,192,1607154,1,8,0:0:0:0:
256,192,1607408,1,8,0:0:0:0:
256,192,1607535,1,8,0:0:0:0:
256,192,1607662,1,0,0:0:0:0:
256,192,1607917,1,0,0:0:0:0:
256,192,1608171,1,8,0:0:0:0:
256,192,1608425,1,8,0:0:0:0:
256,192,1608679,1,0,0:0:0:0:
255,181,1608934,1,0,0:0:0:0:
256,192,1609061,1,8,0:0:0:0:
255,181,1609315,1,8,0:0:0:0:
256,192,1609442,1,0,0:0:0:0:
256,192,1609696,1,12,0:0:0:0:
256,192,1610078,1,0,0:0:0:0:
256,192,1610459,1,0,0:0:0:0:
256,192,1610586,1,0,0:0:0:0:
256,192,1610713,1,8,0:0:0:0:
256,196,1610967,1,0,0:0:0:0:
256,192,1611095,1,8,0:0:0:0:
256,196,1611349,1,0,0:0:0:0:
256,192,1611476,1,8,0:0:0:0:
256,192,1611603,1,0,0:0:0:0:
256,192,1611730,1,8,0:0:0:0:
256,196,1611984,1,8,0:0:0:0:
256,192,1612112,1,0,0:0:0:0:
256,196,1612366,1,8,0:0:0:0:
256,192,1612493,1,0,0:0:0:0:
261,195,1612620,1,0,0:0:0:0:
256,192,1612747,1,8,0:0:0:0:
256,196,1613001,1,0,0:0:0:0:
256,192,1613128,1,0,0:0:0:0:
256,196,1613256,1,8,0:0:0:0:
256,196,1613383,1,8,0:0:0:0:
261,195,1613510,1,0,0:0:0:0:
256,192,1613764,1,4,0:0:0:0:
256,192,1614527,1,8,0:0:0:0:
256,192,1614654,1,0,0:0:0:0:
256,192,1614781,1,8,0:0:0:0:
256,192,1615544,1,0,0:0:0:0:
256,192,1615671,1,0,0:0:0:0:
256,192,1615798,1,8,0:0:0:0:
256,192,1616179,1,0,0:0:0:0:
256,192,1616561,1,8,0:0:0:0:
256,192,1616688,1,0,0:0:0:0:
256,192,1616815,1,8,0:0:0:0:
247,176,1617069,1,8,0:0:0:0:
256,192,1617323,1,0,0:0:0:0:
256,192,1617832,1,12,0:0:0:0:
256,188,1618595,1,0,0:0:0:0:
256,188,1618722,1,0,0:0:0:0:
256,188,1618849,1,8,0:0:0:0:
256,188,1619612,1,0,0:0:0:0:
256,188,1619739,1,0,0:0:0:0:
256,188,1619866,1,8,0:0:0:0:
245,181,1620247,1,0,0:0:0:0:
256,188,1620628,1,8,0:0:0:0:
256,188,1620756,1,0,0:0:0:0:
256,188,1620883,1,8,0:0:0:0:
256,196,1621137,1,0,0:0:0:0:
256,196,1621391,1,8,0:0:0:0:
256,188,1621518,1,8,0:0:0:0:
256,188,1621645,1,0,0:0:0:0:
256,196,1621900,1,12,0:0:0:0:
256,192,1622662,1,0,0:0:0:0:
256,192,1622789,1,0,0:0:0:0:
256,192,1622917,1,8,0:0:0:0:
256,192,1623679,1,0,0:0:0:0:
256,192,1623806,1,0,0:0:0:0:
256,192,1623934,1,8,0:0:0:0:
256,192,1624315,1,0,0:0:0:0:
256,192,1624696,1,8,0:0:0:0:
256,192,1624823,1,0,0:0:0:0:
256,192,1624951,1,8,0:0:0:0:
256,192,1625205,1,0,0:0:0:0:
256,192,1625459,1,0,0:0:0:0:
256,192,1625967,1,12,0:0:0:0:
256,192,1626222,1,0,0:0:0:0:
256,192,1626476,1,8,0:0:0:0:
256,192,1626730,1,8,0:0:0:0:
256,192,1626857,1,0,0:0:0:0:
256,192,1626984,1,8,0:0:0:0:
256,192,1627112,1,8,0:0:0:0:
256,192,1627239,1,0,0:0:0:0:
256,192,1627366,1,8,0:0:0:0:
256,192,1627493,1,0,0:0:0:0:
256,192,1627747,1,0,0:0:0:0:
256,192,1627874,1,0,0:0:0:0:
256,192,1628001,1,8,0:0:0:0:
256,192,1628256,1,0,0:0:0:0:
256,192,1628383,1,8,0:0:0:0:
256,192,1628637,1,8,0:0:0:0:
256,192,1628764,1,0,0:0:0:0:
256,192,1628891,1,0,0:0:0:0:
256,192,1629018,1,8,0:0:0:0:
256,192,1629273,1,8,0:0:0:0:
256,192,1629400,1,0,0:0:0:0:
256,192,1629527,1,8,0:0:0:0:
256,192,1629654,1,8,0:0:0:0:
256,192,1629781,1,0,0:0:0:0:
256,192,1629908,1,0,0:0:0:0:
256,192,1630035,1,12,0:0:0:0:
256,192,1630798,1,0,0:0:0:0:
256,192,1630925,1,0,0:0:0:0:
256,192,1631052,1,8,0:0:0:0:
256,192,1631815,1,8,0:0:0:0:
256,192,1631942,1,0,0:0:0:0:
256,192,1632069,1,8,0:0:0:0:
256,192,1632451,1,0,0:0:0:0:
256,192,1632832,1,0,0:0:0:0:
256,192,1632959,1,0,0:0:0:0:
256,192,1633086,1,8,0:0:0:0:
256,192,1633595,1,0,0:0:0:0:
248,173,1633849,1,0,0:0:0:0:
256,192,1634103,1,12,0:0:0:0:
256,192,1634866,1,0,0:0:0:0:
256,192,1634993,1,0,0:0:0:0:
256,192,1635120,1,8,0:0:0:0:
256,192,1635374,1,8,0:0:0:0:
256,192,1635883,1,8,0:0:0:0:
256,192,1636010,1,0,0:0:0:0:
256,192,1636137,1,8,0:0:0:0:
256,192,1636391,1,0,0:0:0:0:
256,192,1636518,1,8,0:0:0:0:
256,192,1636773,1,0,0:0:0:0:
256,192,1636900,1,8,0:0:0:0:
256,192,1637027,1,8,0:0:0:0:
256,192,1637154,1,0,0:0:0:0:
256,192,1637408,1,0,0:0:0:0:
256,192,1637662,1,8,0:0:0:0:
256,192,1637789,1,8,0:0:0:0:
256,192,1637917,1,0,0:0:0:0:
256,192,1638171,1,12,0:0:0:0:
256,192,1638934,1,0,0:0:0:0:
256,192,1639061,1,0,0:0:0:0:
256,192,1639188,1,8,0:0:0:0:
256,192,1639950,1,8,0:0:0:0:
256,192,1640078,1,0,0:0:0:0:
256,192,1640205,1,8,0:0:0:0:
256,192,1640586,1,0,0:0:0:0:
256,192,1640967,1,0,0:0:0:0:
256,192,1641095,1,0,0:0:0:0:
256,192,1641222,1,8,0:0:0:0:
256,192,1641730,1,0,0:0:0:0:
256,192,1641984,1,0,0:0:0:0:
256,192,1642239,1,12,0:0:0:0:
256,192,1642493,1,0,0:0:0:0:
256,192,1642747,5,0,0:0:0:0:
256,188,1643001,5,0,0:0:0:0:
256,188,1643128,1,0,0:0:0:0:
256,188,1643255,1,8,0:0:0:0:
256,188,1643383,1,8,0:0:0:0:
256,188,1643510,1,0,0:0:0:0:
256,188,1643637,1,8,0:0:0:0:
256,188,1643764,1,8,0:0:0:0:
256,188,1643891,1,0,0:0:0:0:
256,188,1644018,1,0,0:0:0:0:
256,188,1644145,1,8,0:0:0:0:
256,188,1644273,1,4,0:0:0:0:
260,184,1644527,1,4,0:0:0:0:
260,184,1644781,1,4,0:0:0:0:
260,184,1645035,1,4,0:0:0:0:
256,196,1645289,1,8,0:0:0:0:
256,196,1645417,1,0,0:0:0:0:
256,196,1645671,1,0,0:0:0:0:
256,196,1645798,1,8,0:0:0:0:
252,192,1645925,1,8,0:0:0:0:
256,196,1646052,1,0,0:0:0:0:
256,188,1646305,1,12,0:0:0:0:
256,188,1646814,1,0,0:0:0:0:
152,256,1647323,1,8,0:0:0:0:
256,192,1647450,1,0,0:0:0:0:
256,192,1647704,1,0,0:0:0:0:
256,192,1647831,1,8,0:0:0:0:
256,192,1648086,1,0,0:0:0:0:
256,192,1648340,1,8,0:0:0:0:
256,192,1648594,1,0,0:0:0:0:
256,192,1648721,1,0,0:0:0:0:
256,192,1648848,1,8,0:0:0:0:
256,192,1649102,1,8,0:0:0:0:
256,192,1649357,1,0,0:0:0:0:
256,192,1649484,1,8,0:0:0:0:
256,192,1649611,1,0,0:0:0:0:
256,192,1649738,1,0,0:0:0:0:
256,192,1649865,1,8,0:0:0:0:
256,192,1650119,1,8,0:0:0:0:
256,192,1650247,1,0,0:0:0:0:
256,192,1650374,1,12,0:0:0:0:
248,188,1650755,1,0,0:0:0:0:
248,188,1650882,1,8,0:0:0:0:
252,192,1651136,1,0,0:0:0:0:
252,192,1651391,1,8,0:0:0:0:
252,192,1651518,1,0,0:0:0:0:
252,192,1651772,1,0,0:0:0:0:
252,192,1651899,1,8,0:0:0:0:
252,192,1652153,1,0,0:0:0:0:
256,192,1652408,1,8,0:0:0:0:
256,192,1652662,1,0,0:0:0:0:
248,184,1652789,1,0,0:0:0:0:
256,192,1652916,1,8,0:0:0:0:
248,184,1653170,1,8,0:0:0:0:
248,184,1653297,1,0,0:0:0:0:
248,184,1653425,1,8,0:0:0:0:
256,192,1653679,1,0,0:0:0:0:
256,192,1653933,1,8,0:0:0:0:
256,192,1654060,1,0,0:0:0:0:
256,192,1654187,1,0,0:0:0:0:
256,188,1654314,1,0,0:0:0:0:
256,192,1654441,1,12,0:0:0:0:
256,192,1654823,1,0,0:0:0:0:
256,192,1654950,1,8,0:0:0:0:
256,192,1655204,1,0,0:0:0:0:
256,192,1655331,1,8,0:0:0:0:
256,192,1655458,1,8,0:0:0:0:
260,204,1655713,1,8,0:0:0:0:
260,204,1655840,1,0,0:0:0:0:
256,192,1655967,1,8,0:0:0:0:
256,192,1656221,1,8,0:0:0:0:
256,192,1656348,1,8,0:0:0:0:
256,192,1656475,1,0,0:0:0:0:
247,189,1656730,1,0,0:0:0:0:
247,189,1656857,1,8,0:0:0:0:
247,189,1657111,1,8,0:0:0:0:
247,189,1657238,1,0,0:0:0:0:
256,192,1657492,1,8,0:0:0:0:
247,189,1657747,1,8,0:0:0:0:
256,193,1657874,1,8,0:0:0:0:
255,193,1658001,1,0,0:0:0:0:
256,192,1658255,1,0,0:0:0:0:
256,192,1658509,1,12,0:0:0:0:
256,192,1658763,1,0,0:0:0:0:
256,192,1659018,1,8,0:0:0:0:
256,192,1659272,1,0,0:0:0:0:
264,196,1659526,1,8,0:0:0:0:
256,192,1659780,1,8,0:0:0:0:
256,192,1659908,1,0,0:0:0:0:
264,196,1660162,1,0,0:0:0:0:
256,192,1660289,1,0,0:0:0:0:
256,192,1660543,1,8,0:0:0:0:
256,192,1660797,1,0,0:0:0:0:
256,192,1661052,1,0,0:0:0:0:
256,192,1661179,1,8,0:0:0:0:
256,192,1661306,1,0,0:0:0:0:
256,192,1661433,1,0,0:0:0:0:
256,192,1661560,1,8,0:0:0:0:
256,192,1661687,1,0,0:0:0:0:
256,192,1661814,1,8,0:0:0:0:
256,192,1661941,1,0,0:0:0:0:
256,192,1662069,1,8,0:0:0:0:
256,192,1662196,1,8,0:0:0:0:
256,192,1662323,1,0,0:0:0:0:
256,192,1662450,1,0,0:0:0:0:
256,192,1662577,1,12,0:0:0:0:
256,192,1662959,1,0,0:0:0:0:
256,192,1663086,1,8,0:0:0:0:
256,192,1663594,1,8,0:0:0:0:
256,192,1663721,1,0,0:0:0:0:
256,192,1663975,1,0,0:0:0:0:
256,192,1664102,1,8,0:0:0:0:
256,192,1664357,1,0,0:0:0:0:
256,192,1664611,1,8,0:0:0:0:
256,192,1664865,1,0,0:0:0:0:
256,192,1664992,1,0,0:0:0:0:
256,192,1665119,1,8,0:0:0:0:
256,192,1665374,1,8,0:0:0:0:
256,192,1665501,1,8,0:0:0:0:
256,192,1665628,1,0,0:0:0:0:
256,192,1665755,1,0,0:0:0:0:
256,192,1665882,1,8,0:0:0:0:
288,180,1666009,1,0,0:0:0:0:
256,192,1666136,1,8,0:0:0:0:
236,191,1666264,1,8,0:0:0:0:
256,192,1666391,1,0,0:0:0:0:
256,192,1666645,1,12,0:0:0:0:
250,187,1667026,1,0,0:0:0:0:
256,192,1667153,1,8,0:0:0:0:
256,192,1667408,1,0,0:0:0:0:
256,192,1667662,1,8,0:0:0:0:
256,192,1667789,1,0,0:0:0:0:
256,192,1668043,1,0,0:0:0:0:
256,192,1668170,1,8,0:0:0:0:
256,192,1668425,1,0,0:0:0:0:
256,192,1668679,1,8,0:0:0:0:
444,260,1668933,1,0,0:0:0:0:
252,172,1669060,1,0,0:0:0:0:
256,192,1669187,1,8,0:0:0:0:
256,192,1669441,1,8,0:0:0:0:
256,192,1669569,1,0,0:0:0:0:
256,192,1669696,1,8,0:0:0:0:
256,192,1669823,1,8,0:0:0:0:
256,192,1669950,1,0,0:0:0:0:
256,192,1670204,1,8,0:0:0:0:
256,192,1670331,1,0,0:0:0:0:
256,192,1670458,1,0,0:0:0:0:
256,192,1670586,1,8,0:0:0:0:
256,192,1670713,1,4,0:0:0:0:
262,188,1671094,1,0,0:0:0:0:
256,192,1671221,1,8,0:0:0:0:
248,183,1671349,1,8,0:0:0:0:
256,192,1671475,1,8,0:0:0:0:
256,192,1671602,1,0,0:0:0:0:
256,192,1671730,1,8,0:0:0:0:
256,192,1672111,1,0,0:0:0:0:
256,192,1672238,1,8,0:0:0:0:
256,192,1672492,1,8,0:0:0:0:
256,192,1672619,1,8,0:0:0:0:
256,192,1672747,1,0,0:0:0:0:
256,192,1673001,1,0,0:0:0:0:
256,192,1673128,1,8,0:0:0:0:
256,192,1673509,1,8,0:0:0:0:
256,192,1673637,1,8,0:0:0:0:
252,184,1673763,1,0,0:0:0:0:
256,192,1674018,1,0,0:0:0:0:
256,192,1674272,1,8,0:0:0:0:
256,192,1674526,1,8,0:0:0:0:
256,192,1674653,1,0,0:0:0:0:
256,192,1674780,1,8,0:0:0:0:
256,192,1674908,1,8,0:0:0:0:
256,192,1675035,1,0,0:0:0:0:
256,192,1675162,1,0,0:0:0:0:
256,192,1675289,1,8,0:0:0:0:
256,192,1675543,1,0,0:0:0:0:
256,192,1675670,1,0,0:0:0:0:
256,192,1675797,1,8,0:0:0:0:
256,192,1676052,1,8,0:0:0:0:
256,192,1676179,1,0,0:0:0:0:
256,192,1676433,1,0,0:0:0:0:
256,192,1676560,1,8,0:0:0:0:
256,192,1676688,1,0,0:0:0:0:
256,192,1676751,1,0,0:0:0:0:
256,192,1676815,5,8,0:0:0:0:
256,192,1677069,12,0,1678849,0:0:0:0:
260,192,1679865,5,8,0:0:0:0:
260,192,1680247,1,0,0:0:0:0:
256,192,1680628,1,0,0:0:0:0:
256,192,1680882,1,12,0:0:0:0:
256,192,1681643,1,8,0:0:0:0:
256,192,1681897,1,0,0:0:0:0:
256,192,1682659,1,8,0:0:0:0:
256,192,1682786,1,8,0:0:0:0:
256,192,1682913,1,0,0:0:0:0:
256,192,1683295,1,0,0:0:0:0:
256,192,1683676,1,8,0:0:0:0:
256,192,1684185,1,0,0:0:0:0:
256,192,1684947,1,8,0:0:0:0:
256,192,1685710,1,0,0:0:0:0:
256,192,1685964,1,8,0:0:0:0:
256,192,1686727,1,0,0:0:0:0:
256,192,1686854,1,0,0:0:0:0:
256,192,1686981,1,8,0:0:0:0:
256,192,1687363,1,0,0:0:0:0:
256,192,1687745,1,8,0:0:0:0:
256,192,1688252,1,0,0:0:0:0:
252,192,1689015,1,8,0:0:0:0:
252,192,1689778,1,8,0:0:0:0:
252,192,1690032,1,0,0:0:0:0:
252,192,1690795,1,8,0:0:0:0:
252,192,1690922,1,0,0:0:0:0:
252,192,1691049,1,8,0:0:0:0:
252,192,1691430,1,8,0:0:0:0:
252,192,1691812,1,0,0:0:0:0:
252,192,1692320,1,0,0:0:0:0:
252,192,1692829,1,8,0:0:0:0:
252,192,1693083,1,0,0:0:0:0:
252,192,1693338,1,8,0:0:0:0:
252,192,1693465,1,0,0:0:0:0:
252,192,1693592,1,8,0:0:0:0:
252,192,1693719,1,8,0:0:0:0:
252,192,1693847,1,0,0:0:0:0:
252,192,1693974,1,8,0:0:0:0:
252,192,1694101,1,0,0:0:0:0:
252,192,1694355,1,0,0:0:0:0:
252,192,1694482,1,0,0:0:0:0:
252,192,1694609,1,8,0:0:0:0:
252,192,1694736,1,0,0:0:0:0:
252,192,1694863,1,8,0:0:0:0:
252,192,1694991,1,8,0:0:0:0:
252,192,1695118,1,0,0:0:0:0:
252,192,1695372,1,0,0:0:0:0:
252,192,1695499,1,0,0:0:0:0:
252,192,1695626,1,8,0:0:0:0:
252,192,1695753,1,8,0:0:0:0:
252,192,1695880,1,0,0:0:0:0:
252,192,1696008,1,8,0:0:0:0:
252,192,1696135,1,0,0:0:0:0:
256,192,1696388,1,8,0:0:0:0:
271,197,1696516,1,8,0:0:0:0:
256,192,1696642,1,0,0:0:0:0:
256,192,1696896,1,0,0:0:0:0:
256,192,1697151,1,12,0:0:0:0:
256,192,1697533,1,0,0:0:0:0:
256,192,1697914,1,8,0:0:0:0:
256,192,1698168,1,0,0:0:0:0:
256,192,1698423,1,0,0:0:0:0:
256,192,1698677,1,8,0:0:0:0:
256,192,1698930,1,0,0:0:0:0:
256,192,1699057,1,8,0:0:0:0:
256,192,1699185,1,0,0:0:0:0:
256,192,1699440,1,0,0:0:0:0:
256,192,1699566,1,8,0:0:0:0:
256,192,1699821,1,8,0:0:0:0:
256,192,1699947,1,8,0:0:0:0:
256,192,1700202,1,8,0:0:0:0:
256,192,1700456,1,0,0:0:0:0:
256,196,1701218,1,0,0:0:0:0:
256,192,1701601,1,8,0:0:0:0:
256,196,1701981,1,8,0:0:0:0:
256,196,1702235,1,0,0:0:0:0:
246,194,1702491,1,0,0:0:0:0:
246,194,1702745,1,8,0:0:0:0:
256,196,1702998,1,0,0:0:0:0:
256,196,1703125,1,0,0:0:0:0:
256,196,1703252,1,8,0:0:0:0:
256,192,1703508,1,0,0:0:0:0:
256,196,1703634,1,8,0:0:0:0:
256,196,1704015,1,8,0:0:0:0:
256,196,1704524,1,0,0:0:0:0:
256,192,1705286,1,8,0:0:0:0:
256,196,1705669,1,8,0:0:0:0:
256,192,1706049,1,0,0:0:0:0:
256,192,1706303,1,8,0:0:0:0:
242,202,1706558,1,8,0:0:0:0:
242,202,1706813,1,0,0:0:0:0:
256,192,1707066,1,8,0:0:0:0:
256,192,1707193,1,8,0:0:0:0:
256,192,1707320,1,0,0:0:0:0:
256,192,1707702,1,0,0:0:0:0:
256,192,1708083,1,0,0:0:0:0:
256,192,1708591,1,0,0:0:0:0:
256,192,1709100,1,0,0:0:0:0:
246,180,1709355,1,12,0:0:0:0:
264,187,1709736,1,0,0:0:0:0:
264,187,1710118,1,0,0:0:0:0:
264,187,1710626,1,0,0:0:0:0:
256,192,1712406,5,0,0:0:0:0:
256,192,1712787,1,0,0:0:0:0:
256,192,1713169,1,0,0:0:0:0:
256,192,1713423,12,0,1714186,0:0:0:0:
256,184,1714440,5,12,0:0:0:0:
256,184,1715202,1,0,0:0:0:0:
247,185,1715328,1,0,0:0:0:0:
256,184,1715456,1,8,0:0:0:0:
256,192,1716219,1,8,0:0:0:0:
256,192,1716346,1,8,0:0:0:0:
256,192,1716473,1,0,0:0:0:0:
256,192,1716855,1,0,0:0:0:0:
256,192,1717236,1,8,0:0:0:0:
256,192,1717362,1,8,0:0:0:0:
256,192,1717490,1,0,0:0:0:0:
256,188,1717745,1,0,0:0:0:0:
256,188,1717999,1,8,0:0:0:0:
256,192,1718252,1,0,0:0:0:0:
256,188,1718507,1,12,0:0:0:0:
247,185,1719269,1,8,0:0:0:0:
256,188,1719396,1,0,0:0:0:0:
256,188,1719524,1,0,0:0:0:0:
256,192,1720287,1,8,0:0:0:0:
256,192,1720414,1,8,0:0:0:0:
256,192,1720541,1,0,0:0:0:0:
256,192,1720923,1,0,0:0:0:0:
256,192,1721304,1,0,0:0:0:0:
256,192,1721431,1,0,0:0:0:0:
256,192,1721558,1,8,0:0:0:0:
256,192,1721812,1,0,0:0:0:0:
256,192,1722067,1,8,0:0:0:0:
256,192,1722193,1,8,0:0:0:0:
256,192,1722320,1,0,0:0:0:0:
252,192,1722575,1,12,0:0:0:0:
256,192,1723338,1,8,0:0:0:0:
256,192,1723465,1,0,0:0:0:0:
256,192,1723592,1,8,0:0:0:0:
256,188,1724355,1,0,0:0:0:0:
256,188,1724482,1,0,0:0:0:0:
256,188,1724609,1,8,0:0:0:0:
256,192,1724990,1,8,0:0:0:0:
256,192,1725372,1,8,0:0:0:0:
256,188,1725499,1,0,0:0:0:0:
256,192,1725626,1,8,0:0:0:0:
256,192,1725880,1,0,0:0:0:0:
256,192,1726133,1,8,0:0:0:0:
256,192,1726261,1,8,0:0:0:0:
256,192,1726389,1,0,0:0:0:0:
256,192,1726643,1,4,0:0:0:0:
256,192,1726897,8,0,1728168,0:0:0:0:
256,192,1728677,5,8,0:0:0:0:
256,192,1728930,1,8,0:0:0:0:
256,192,1729058,1,0,0:0:0:0:
256,192,1729311,1,0,0:0:0:0:
256,192,1729439,1,8,0:0:0:0:
256,192,1729566,1,8,0:0:0:0:
256,192,1729693,1,0,0:0:0:0:
256,192,1729947,1,8,0:0:0:0:
256,192,1730074,1,0,0:0:0:0:
256,192,1730201,1,8,0:0:0:0:
256,192,1730328,1,0,0:0:0:0:
256,196,1730455,1,0,0:0:0:0:
256,192,1730711,1,12,0:0:0:0:
256,192,1731472,1,0,0:0:0:0:
256,192,1731600,1,0,0:0:0:0:
256,192,1731727,1,8,0:0:0:0:
256,192,1732490,1,8,0:0:0:0:
256,192,1732617,1,8,0:0:0:0:
256,192,1732744,1,0,0:0:0:0:
260,184,1732998,1,8,0:0:0:0:
256,192,1733126,1,0,0:0:0:0:
256,192,1733379,1,0,0:0:0:0:
256,192,1733506,1,8,0:0:0:0:
256,192,1733762,1,8,0:0:0:0:
252,193,1734015,1,0,0:0:0:0:
248,195,1734269,1,8,0:0:0:0:
248,195,1734396,1,8,0:0:0:0:
248,195,1734523,1,0,0:0:0:0:
256,192,1734778,1,12,0:0:0:0:
252,192,1735541,1,8,0:0:0:0:
243,195,1735667,1,8,0:0:0:0:
252,192,1735795,1,0,0:0:0:0:
252,192,1736558,1,0,0:0:0:0:
252,192,1736685,1,0,0:0:0:0:
252,192,1736812,1,8,0:0:0:0:
252,192,1737066,1,0,0:0:0:0:
252,192,1737194,1,8,0:0:0:0:
252,192,1737447,1,0,0:0:0:0:
252,192,1737575,1,8,0:0:0:0:
252,192,1737702,1,0,0:0:0:0:
252,192,1737829,1,8,0:0:0:0:
248,185,1737955,1,8,0:0:0:0:
256,192,1738084,1,0,0:0:0:0:
256,192,1738338,1,8,0:0:0:0:
252,192,1738591,1,0,0:0:0:0:
252,192,1738718,1,0,0:0:0:0:
256,192,1738846,1,12,0:0:0:0:
256,192,1739609,1,8,0:0:0:0:
235,183,1739735,1,8,0:0:0:0:
256,192,1739863,1,0,0:0:0:0:
256,192,1740626,1,0,0:0:0:0:
256,192,1740753,1,0,0:0:0:0:
256,192,1740880,1,8,0:0:0:0:
256,192,1741133,1,8,0:0:0:0:
256,192,1741261,1,0,0:0:0:0:
256,192,1741515,1,0,0:0:0:0:
256,192,1741643,1,8,0:0:0:0:
256,192,1741897,1,8,0:0:0:0:
256,192,1742151,1,0,0:0:0:0:
256,192,1742660,1,0,0:0:0:0:
256,192,1742786,1,0,0:0:0:0:
256,192,1742913,1,12,0:0:0:0:
256,192,1743294,1,0,0:0:0:0:
256,188,1743676,5,8,0:0:0:0:
256,188,1743803,1,0,0:0:0:0:
256,188,1743930,1,8,0:0:0:0:
256,192,1744311,1,0,0:0:0:0:
256,192,1744693,1,0,0:0:0:0:
256,192,1744820,1,0,0:0:0:0:
256,192,1744947,1,12,0:0:0:0:
256,192,1745201,1,8,0:0:0:0:
256,192,1745328,1,0,0:0:0:0:
256,192,1745583,1,0,0:0:0:0:
256,192,1745710,1,8,0:0:0:0:
256,192,1745837,1,0,0:0:0:0:
256,192,1745964,1,8,0:0:0:0:
256,192,1746091,1,8,0:0:0:0:
252,188,1746218,1,0,0:0:0:0:
252,188,1746472,1,8,0:0:0:0:
256,184,1746600,1,8,0:0:0:0:
252,188,1746727,1,0,0:0:0:0:
252,188,1746981,1,12,0:0:0:0:
256,192,1747744,1,8,0:0:0:0:
252,188,1747871,1,8,0:0:0:0:
256,192,1747999,1,0,0:0:0:0:
256,192,1748761,1,0,0:0:0:0:
256,192,1748888,1,0,0:0:0:0:
256,192,1749015,1,8,0:0:0:0:
256,192,1749396,1,0,0:0:0:0:
256,192,1749777,1,8,0:0:0:0:
256,192,1749905,1,8,0:0:0:0:
256,192,1750032,1,0,0:0:0:0:
256,192,1750286,1,0,0:0:0:0:
247,187,1750540,1,0,0:0:0:0:
247,187,1750667,1,8,0:0:0:0:
256,192,1750794,1,0,0:0:0:0:
256,192,1751049,1,12,0:0:0:0:
256,192,1751811,1,8,0:0:0:0:
256,192,1751939,1,8,0:0:0:0:
256,192,1752066,1,0,0:0:0:0:
256,192,1752828,1,0,0:0:0:0:
256,192,1752955,1,8,0:0:0:0:
256,192,1753083,1,0,0:0:0:0:
247,187,1753337,1,0,0:0:0:0:
247,187,1753464,1,8,0:0:0:0:
247,187,1753718,1,8,0:0:0:0:
256,192,1753845,1,0,0:0:0:0:
256,192,1753972,1,0,0:0:0:0:
256,192,1754100,1,8,0:0:0:0:
255,189,1754227,1,8,0:0:0:0:
256,192,1754354,1,0,0:0:0:0:
256,192,1754608,1,8,0:0:0:0:
247,187,1754735,1,8,0:0:0:0:
246,189,1754862,1,0,0:0:0:0:
256,192,1755116,1,12,0:0:0:0:
256,192,1755879,1,8,0:0:0:0:
256,192,1756006,1,8,0:0:0:0:
256,192,1756133,1,0,0:0:0:0:
256,192,1756896,1,8,0:0:0:0:
256,192,1757023,1,0,0:0:0:0:
256,192,1757150,1,8,0:0:0:0:
256,192,1757532,1,0,0:0:0:0:
256,192,1757913,1,0,0:0:0:0:
256,192,1758040,1,0,0:0:0:0:
256,192,1758167,1,8,0:0:0:0:
256,192,1758422,1,0,0:0:0:0:
256,192,1758930,1,0,0:0:0:0:
256,192,1759184,1,12,0:0:0:0:
256,192,1759947,1,0,0:0:0:0:
256,192,1760074,1,0,0:0:0:0:
256,192,1760201,1,8,0:0:0:0:
252,192,1760964,1,8,0:0:0:0:
252,192,1761091,1,0,0:0:0:0:
252,192,1761218,1,8,0:0:0:0:
256,192,1761472,1,8,0:0:0:0:
248,184,1761600,1,0,0:0:0:0:
267,198,1761854,1,0,0:0:0:0:
262,201,1761981,1,0,0:0:0:0:
256,192,1762108,1,0,0:0:0:0:
256,192,1762235,1,8,0:0:0:0:
256,192,1762489,1,8,0:0:0:0:
256,192,1762616,1,0,0:0:0:0:
256,192,1762744,1,8,0:0:0:0:
256,192,1762998,1,0,0:0:0:0:
256,192,1763252,1,12,0:0:0:0:
256,192,1764015,1,8,0:0:0:0:
261,198,1764142,1,8,0:0:0:0:
256,192,1764269,1,0,0:0:0:0:
256,192,1765032,1,8,0:0:0:0:
256,192,1765159,1,0,0:0:0:0:
256,192,1765286,1,8,0:0:0:0:
256,192,1765667,1,0,0:0:0:0:
256,192,1766049,1,0,0:0:0:0:
256,192,1766176,1,0,0:0:0:0:
256,192,1766303,1,8,0:0:0:0:
92,256,1766557,1,0,0:0:0:0:
256,192,1766684,1,0,0:0:0:0:
256,192,1766811,1,8,0:0:0:0:
247,180,1766939,1,8,0:0:0:0:
256,192,1767066,1,0,0:0:0:0:
256,192,1767320,1,12,0:0:0:0:
256,192,1768083,1,8,0:0:0:0:
256,192,1768210,1,8,0:0:0:0:
256,192,1768338,1,0,0:0:0:0:
265,189,1768718,1,8,0:0:0:0:
256,196,1769100,1,0,0:0:0:0:
256,196,1769227,1,0,0:0:0:0:
256,196,1769354,1,8,0:0:0:0:
256,188,1769735,1,8,0:0:0:0:
256,192,1770116,1,8,0:0:0:0:
256,192,1770244,1,8,0:0:0:0:
256,192,1770371,1,0,0:0:0:0:
256,192,1770625,1,0,0:0:0:0:
252,192,1770879,1,8,0:0:0:0:
261,198,1771133,1,0,0:0:0:0:
252,192,1771388,1,12,0:0:0:0:
256,188,1772150,5,8,0:0:0:0:
256,196,1772277,1,0,0:0:0:0:
256,196,1772405,1,8,0:0:0:0:
256,196,1773167,1,0,0:0:0:0:
256,196,1773294,1,0,0:0:0:0:
256,196,1773422,1,8,0:0:0:0:
256,196,1773676,1,8,0:0:0:0:
256,196,1773803,1,0,0:0:0:0:
256,196,1774057,1,0,0:0:0:0:
256,196,1774184,1,8,0:0:0:0:
256,196,1774439,1,0,0:0:0:0:
256,196,1774693,1,8,0:0:0:0:
256,196,1774820,1,0,0:0:0:0:
256,196,1774947,1,0,0:0:0:0:
256,196,1775074,1,8,0:0:0:0:
256,196,1775201,1,0,0:0:0:0:
256,188,1775455,1,12,0:0:0:0:
256,192,1775837,1,0,0:0:0:0:
256,192,1776218,1,8,0:0:0:0:
256,192,1776345,1,0,0:0:0:0:
256,188,1776472,1,8,0:0:0:0:
261,198,1776854,1,8,0:0:0:0:
261,198,1777235,1,8,0:0:0:0:
261,198,1777362,1,8,0:0:0:0:
261,198,1777489,1,0,0:0:0:0:
256,188,1777744,1,0,0:0:0:0:
256,192,1777871,1,8,0:0:0:0:
256,188,1777998,1,8,0:0:0:0:
256,188,1778125,1,0,0:0:0:0:
256,188,1778252,1,8,0:0:0:0:
256,188,1778379,1,8,0:0:0:0:
256,188,1778506,1,0,0:0:0:0:
256,184,1778677,1,8,0:0:0:0:
256,192,1778846,1,8,0:0:0:0:
256,184,1779015,1,0,0:0:0:0:
256,188,1779185,1,0,0:0:0:0:
256,188,1779355,1,0,0:0:0:0:
256,184,1779523,1,12,0:0:0:0:
252,192,1780286,1,0,0:0:0:0:
252,192,1780413,1,0,0:0:0:0:
252,192,1780540,1,8,0:0:0:0:
252,192,1781303,1,8,0:0:0:0:
252,192,1781430,1,0,0:0:0:0:
252,192,1781557,1,8,0:0:0:0:
256,186,1781811,1,0,0:0:0:0:
252,192,1781939,1,0,0:0:0:0:
252,192,1782193,1,8,0:0:0:0:
252,192,1782320,1,0,0:0:0:0:
258,195,1782448,1,0,0:0:0:0:
252,192,1782574,1,8,0:0:0:0:
261,198,1783210,1,8,0:0:0:0:
261,198,1783337,1,0,0:0:0:0:
252,192,1783591,1,12,0:0:0:0:
252,192,1784354,1,0,0:0:0:0:
252,192,1784481,1,0,0:0:0:0:
252,192,1784608,1,8,0:0:0:0:
252,192,1785371,1,8,0:0:0:0:
252,192,1785498,1,0,0:0:0:0:
252,192,1785625,1,8,0:0:0:0:
252,192,1785752,1,8,0:0:0:0:
252,192,1785879,1,0,0:0:0:0:
252,192,1786006,1,8,0:0:0:0:
252,192,1786261,1,8,0:0:0:0:
256,192,1786388,1,0,0:0:0:0:
256,192,1786515,1,0,0:0:0:0:
256,192,1786642,1,8,0:0:0:0:
256,192,1786896,1,0,0:0:0:0:
252,192,1787023,1,8,0:0:0:0:
252,192,1787150,1,8,0:0:0:0:
252,192,1787277,1,0,0:0:0:0:
256,192,1787405,1,8,0:0:0:0:
256,192,1787659,1,12,0:0:0:0:
256,196,1788422,1,0,0:0:0:0:
256,196,1788549,1,0,0:0:0:0:
256,196,1788676,1,8,0:0:0:0:
256,196,1789439,1,8,0:0:0:0:
256,196,1789566,1,8,0:0:0:0:
256,196,1789693,1,0,0:0:0:0:
256,196,1789947,1,0,0:0:0:0:
256,196,1790074,1,8,0:0:0:0:
256,196,1790328,1,8,0:0:0:0:
256,192,1790455,1,0,0:0:0:0:
256,192,1790583,1,8,0:0:0:0:
256,192,1790710,1,0,0:0:0:0:
256,196,1790964,1,0,0:0:0:0:
255,186,1791091,1,0,0:0:0:0:
256,196,1791218,1,8,0:0:0:0:
256,192,1791472,1,8,0:0:0:0:
256,192,1791727,1,4,0:0:0:0:
252,196,1792489,1,8,0:0:0:0:
252,196,1792616,1,0,0:0:0:0:
252,196,1792744,1,8,0:0:0:0:
252,196,1793506,1,8,0:0:0:0:
252,196,1793633,1,8,0:0:0:0:
252,196,1793761,1,0,0:0:0:0:
246,191,1794015,1,0,0:0:0:0:
246,191,1794142,1,8,0:0:0:0:
246,191,1794396,1,8,0:0:0:0:
256,188,1794523,1,0,0:0:0:0:
256,188,1794650,1,0,0:0:0:0:
256,188,1794777,1,8,0:0:0:0:
256,188,1795032,1,0,0:0:0:0:
252,196,1795116,1,0,0:0:0:0:
256,188,1795201,1,0,0:0:0:0:
256,188,1795286,1,8,0:0:0:0:
246,191,1795413,1,8,0:0:0:0:
251,194,1795540,1,0,0:0:0:0:
251,194,1795667,1,0,0:0:0:0:
256,188,1795794,1,12,0:0:0:0:
256,192,1796557,1,8,0:0:0:0:
256,192,1796684,1,0,0:0:0:0:
256,192,1796811,1,8,0:0:0:0:
256,192,1797161,1,8,0:0:0:0:
263,195,1797574,1,0,0:0:0:0:
263,195,1797701,1,0,0:0:0:0:
249,189,1797828,1,8,0:0:0:0:
256,192,1798210,1,0,0:0:0:0:
249,183,1798464,1,8,0:0:0:0:
256,192,1798591,1,0,0:0:0:0:
256,192,1798718,1,8,0:0:0:0:
256,192,1798845,1,8,0:0:0:0:
256,192,1799100,1,0,0:0:0:0:
249,183,1799227,1,0,0:0:0:0:
256,192,1799354,1,8,0:0:0:0:
249,183,1799608,1,8,0:0:0:0:
249,183,1799735,1,8,0:0:0:0:
249,183,1799862,1,4,0:0:0:0:
249,183,1800116,1,0,0:0:0:0:
256,192,1800244,1,8,0:0:0:0:
256,192,1800625,1,0,0:0:0:0:
256,192,1800752,1,0,0:0:0:0:
256,192,1800879,1,8,0:0:0:0:
249,183,1801133,1,0,0:0:0:0:
247,189,1801261,1,8,0:0:0:0:
247,189,1801515,1,8,0:0:0:0:
247,189,1801642,1,0,0:0:0:0:
247,189,1801769,1,0,0:0:0:0:
247,189,1801896,1,0,0:0:0:0:
247,189,1802150,1,8,0:0:0:0:
256,192,1802277,1,0,0:0:0:0:
247,189,1802532,1,0,0:0:0:0:
247,189,1802659,1,8,0:0:0:0:
256,192,1802913,1,8,0:0:0:0:
256,192,1803167,1,0,0:0:0:0:
247,189,1803294,1,8,0:0:0:0:
247,189,1803422,1,0,0:0:0:0:
247,189,1803549,1,0,0:0:0:0:
247,189,1803676,1,8,0:0:0:0:
256,192,1803930,1,12,0:0:0:0:
256,192,1804439,1,0,0:0:0:0:
254,193,1804566,1,0,0:0:0:0:
256,192,1804693,1,8,0:0:0:0:
256,192,1804947,1,8,0:0:0:0:
256,192,1805201,1,0,0:0:0:0:
256,192,1805328,1,0,0:0:0:0:
256,192,1805455,1,8,0:0:0:0:
254,193,1805583,1,8,0:0:0:0:
256,192,1805710,1,0,0:0:0:0:
252,192,1805964,1,0,0:0:0:0:
252,192,1806091,1,8,0:0:0:0:
252,192,1806218,1,8,0:0:0:0:
252,192,1806345,1,8,0:0:0:0:
256,192,1806472,1,0,0:0:0:0:
256,192,1806727,1,8,0:0:0:0:
252,192,1806854,1,8,0:0:0:0:
252,192,1806981,1,8,0:0:0:0:
252,192,1807108,1,0,0:0:0:0:
252,192,1807235,1,8,0:0:0:0:
256,192,1807489,1,0,0:0:0:0:
256,192,1807616,1,8,0:0:0:0:
256,192,1807744,1,8,0:0:0:0:
252,192,1807871,1,0,0:0:0:0:
252,192,1807998,1,12,0:0:0:0:
256,192,1808252,1,8,0:0:0:0:
256,192,1808506,1,8,0:0:0:0:
256,192,1808633,1,0,0:0:0:0:
252,192,1808888,1,0,0:0:0:0:
252,192,1809015,1,8,0:0:0:0:
256,192,1809269,1,0,0:0:0:0:
256,192,1809396,1,8,0:0:0:0:
256,192,1809650,1,8,0:0:0:0:
256,192,1809777,1,0,0:0:0:0:
256,192,1810032,1,12,0:0:0:0:
256,192,1810286,1,8,0:0:0:0:
256,192,1810413,1,0,0:0:0:0:
256,192,1810667,1,0,0:0:0:0:
256,192,1810794,1,8,0:0:0:0:
256,192,1810922,1,8,0:0:0:0:
256,192,1811049,1,0,0:0:0:0:
256,192,1811176,1,8,0:0:0:0:
256,192,1811303,1,0,0:0:0:0:
256,192,1811557,1,8,0:0:0:0:
256,192,1811684,1,8,0:0:0:0:
256,192,1811811,1,0,0:0:0:0:
256,192,1812066,1,4,0:0:0:0:
256,192,1812574,1,8,0:0:0:0:
256,192,1812828,1,0,0:0:0:0:
260,204,1812955,1,0,0:0:0:0:
256,192,1813083,1,8,0:0:0:0:
256,192,1813464,1,0,0:0:0:0:
256,196,1813845,1,8,0:0:0:0:
256,196,1813972,1,0,0:0:0:0:
256,196,1814100,1,8,0:0:0:0:
256,196,1814481,1,0,0:0:0:0:
256,196,1814862,1,0,0:0:0:0:
256,196,1814989,1,8,0:0:0:0:
256,196,1815116,1,8,0:0:0:0:
256,196,1815371,1,8,0:0:0:0:
256,196,1815498,1,0,0:0:0:0:
256,196,1815625,1,8,0:0:0:0:
256,196,1815879,1,0,0:0:0:0:
256,196,1816133,1,12,0:0:0:0:
256,196,1816642,1,8,0:0:0:0:
256,192,1816896,1,0,0:0:0:0:
252,184,1817023,1,8,0:0:0:0:
251,185,1817150,1,0,0:0:0:0:
256,196,1817405,1,8,0:0:0:0:
256,196,1817532,1,0,0:0:0:0:
256,196,1817659,1,8,0:0:0:0:
256,192,1817786,1,0,0:0:0:0:
256,192,1818040,1,0,0:0:0:0:
256,192,1818167,1,8,0:0:0:0:
256,196,1818422,1,0,0:0:0:0:
256,196,1818549,1,8,0:0:0:0:
256,192,1818803,1,8,0:0:0:0:
256,192,1818930,1,0,0:0:0:0:
256,192,1819057,1,0,0:0:0:0:
256,192,1819184,1,8,0:0:0:0:
256,192,1819439,1,0,0:0:0:0:
256,196,1819566,1,0,0:0:0:0:
256,192,1819693,1,8,0:0:0:0:
256,192,1819947,1,0,0:0:0:0:
256,192,1820201,1,12,0:0:0:0:
256,196,1820964,1,0,0:0:0:0:
256,196,1821091,1,0,0:0:0:0:
256,196,1821218,1,8,0:0:0:0:
256,196,1821472,1,8,0:0:0:0:
256,196,1821601,1,0,0:0:0:0:
256,196,1821727,1,8,0:0:0:0:
256,196,1821981,1,8,0:0:0:0:
256,196,1822235,1,0,0:0:0:0:
256,196,1822489,1,0,0:0:0:0:
256,196,1822744,1,8,0:0:0:0:
251,208,1822998,1,0,0:0:0:0:
240,203,1823252,1,8,0:0:0:0:
252,207,1823506,1,8,0:0:0:0:
256,196,1823633,1,0,0:0:0:0:
251,208,1824015,1,8,0:0:0:0:
252,207,1824269,1,4,0:0:0:0:
256,192,1825031,1,8,0:0:0:0:
256,192,1825158,1,0,0:0:0:0:
256,192,1825285,1,0,0:0:0:0:
256,192,1826048,1,0,0:0:0:0:
256,192,1826175,1,0,0:0:0:0:
256,192,1826302,1,8,0:0:0:0:
256,192,1826557,1,0,0:0:0:0:
256,192,1826684,1,8,0:0:0:0:
256,192,1827065,1,8,0:0:0:0:
256,192,1827192,1,0,0:0:0:0:
256,192,1827319,1,8,0:0:0:0:
256,192,1827573,1,8,0:0:0:0:
256,192,1827700,1,0,0:0:0:0:
256,192,1827827,1,8,0:0:0:0:
256,192,1827912,1,8,0:0:0:0:
256,192,1827997,1,8,0:0:0:0:
256,192,1828082,1,0,0:0:0:0:
256,192,1828167,1,0,0:0:0:0:
256,192,1828252,1,0,0:0:0:0:
256,192,1828336,1,12,0:0:0:0:
256,192,1829099,1,8,0:0:0:0:
256,192,1829226,1,0,0:0:0:0:
256,192,1829353,1,8,0:0:0:0:
256,192,1829693,1,8,0:0:0:0:
256,192,1830115,1,8,0:0:0:0:
250,187,1830243,1,0,0:0:0:0:
256,192,1830370,1,8,0:0:0:0:
256,192,1830751,1,8,0:0:0:0:
256,192,1831132,1,0,0:0:0:0:
256,192,1831260,1,0,0:0:0:0:
256,192,1831387,1,8,0:0:0:0:
256,192,1831641,1,0,0:0:0:0:
256,192,1831895,1,8,0:0:0:0:
256,192,1832149,1,8,0:0:0:0:
256,192,1832276,1,8,0:0:0:0:
256,192,1832404,1,4,0:0:0:0:
256,192,1832785,1,8,0:0:0:0:
256,192,1833166,1,8,0:0:0:0:
256,192,1833293,1,0,0:0:0:0:
256,192,1833421,1,8,0:0:0:0:
256,192,1833761,1,8,0:0:0:0:
256,192,1834183,1,0,0:0:0:0:
256,192,1834311,1,0,0:0:0:0:
256,192,1834438,1,8,0:0:0:0:
256,192,1834819,1,8,0:0:0:0:
256,192,1835200,1,8,0:0:0:0:
250,187,1835327,1,0,0:0:0:0:
256,192,1835454,1,8,0:0:0:0:
248,191,1835710,1,0,0:0:0:0:
256,192,1835836,1,0,0:0:0:0:
250,187,1835963,1,8,0:0:0:0:
256,192,1836217,1,8,0:0:0:0:
256,192,1836471,1,4,0:0:0:0:
252,188,1837234,1,8,0:0:0:0:
252,188,1837361,1,8,0:0:0:0:
252,188,1837488,1,0,0:0:0:0:
252,188,1837615,1,8,0:0:0:0:
252,188,1837743,1,0,0:0:0:0:
252,188,1837997,1,0,0:0:0:0:
252,188,1838251,1,0,0:0:0:0:
252,188,1838378,1,0,0:0:0:0:
252,188,1838505,1,8,0:0:0:0:
252,188,1838760,1,8,0:0:0:0:
252,188,1838887,1,0,0:0:0:0:
252,188,1839015,1,0,0:0:0:0:
256,196,1839268,1,8,0:0:0:0:
256,192,1839522,1,8,0:0:0:0:
256,192,1839692,1,0,0:0:0:0:
256,192,1839861,1,0,0:0:0:0:
256,192,1840031,1,8,0:0:0:0:
256,192,1840200,1,0,0:0:0:0:
256,192,1840370,1,8,0:0:0:0:
256,192,1840539,1,4,0:0:0:0:
256,196,1840793,1,4,0:0:0:0:
256,196,1841048,1,4,0:0:0:0:
256,196,1841302,1,4,0:0:0:0:
256,196,1841556,1,4,0:0:0:0:
256,196,1841810,1,4,0:0:0:0:
256,196,1842065,1,4,0:0:0:0:
256,196,1842319,1,4,0:0:0:0:
256,192,1842574,12,0,1848167,0:0:0:0:
256,192,1848843,5,12,0:0:0:0:
256,192,1849886,1,0,0:0:0:0:
256,192,1850929,1,0,0:0:0:0:
256,192,1851973,1,0,0:0:0:0:
256,192,1853011,1,8,0:0:0:0:
256,192,1854109,1,0,0:0:0:0:
256,192,1855201,1,0,0:0:0:0:
256,192,1856343,1,0,0:0:0:0:
256,192,1857480,1,8,0:0:0:0:
256,192,1858680,1,0,0:0:0:0:
256,192,1859880,1,0,0:0:0:0:
256,192,1861080,1,0,0:0:0:0:
256,192,1862280,1,8,0:0:0:0:
256,192,1863544,1,0,0:0:0:0:
256,192,1864813,1,0,0:0:0:0:
256,192,1866066,1,0,0:0:0:0:
256,192,1867320,1,8,0:0:0:0:
256,192,1867477,12,0,1870455,0:0:0:0:
