osu file format v14

[General]
AudioFilename: audio.mp3
AudioLeadIn: 0
PreviewTime: 55578
Countdown: 0
SampleSet: Soft
StackLeniency: 0.4
Mode: 0
LetterboxInBreaks: 0
WidescreenStoryboard: 1

[Editor]
DistanceSpacing: 1
BeatDivisor: 2
GridSize: 32
TimelineZoom: 1.4

[Metadata]
Title:THE WORLD ORIGIN
TitleUnicode:THE WORLD ORIGIN
Artist:KINEMA106
ArtistUnicode:キネマ106
Creator:aundy
Version:Normal
Source:
Tags:Zawajiro kinema 106 memory of grand order kurousagi uru 黒兎ウル tom jun-jun コミックマーケット99 comiket 99 c99 fate fgo f/go fate/grand type-moon fan anime original song gudako fujimaru ritsuka 藤丸 立香 short tv size version fa featured artist japanese j-pop jpop j pop video game female vocals vocalist
BeatmapID:4022503
BeatmapSetID:1944397

[Difficulty]
HPDrainRate:3
CircleSize:3
OverallDifficulty:4
ApproachRate:5.3
SliderMultiplier:1
SliderTickRate:1

[Events]
//Background and Video events
0,0,"FANci0tUcAMx6tf.jpg",0,0
Video,0,"vid.mp4"
//Break Periods
//Storyboard Layer 0 (Background)
//Storyboard Layer 1 (Fail)
//Storyboard Layer 2 (Pass)
//Storyboard Layer 3 (Foreground)
//Storyboard Layer 4 (Overlay)
//Storyboard Sound Samples

[TimingPoints]
79,333.333333333333,4,2,1,70,1,0
79,-100,4,2,1,70,0,0
5412,-100,4,2,1,80,0,0
18745,-111.111111111111,4,2,1,60,0,0
29412,-111.111111111111,4,2,1,62,0,0
38745,-111.111111111111,4,2,1,65,0,0
40078,-111.111111111111,4,2,1,60,0,0
50412,-111.111111111111,4,2,1,65,0,0
50745,-111.111111111111,4,2,1,70,0,0
53412,-111.111111111111,4,2,1,60,0,0
53745,-111.111111111111,4,2,1,64,0,0
54078,-111.111111111111,4,2,1,69,0,0
54412,-111.111111111111,4,2,1,70,0,0
54578,-111.111111111111,4,2,1,75,0,0
56078,-90.9090909090909,4,2,1,80,0,1
76912,-90.9090909090909,4,2,1,80,0,0
77412,-90.9090909090909,4,2,1,85,0,1
88078,-90.9090909090909,4,2,1,85,0,0
89412,-90.9090909090909,4,2,1,5,0,0

[Colours]
Combo1 : 133,169,254
Combo2 : 255,125,125
Combo3 : 184,255,113
Combo4 : 140,255,255

[HitObjects]
392,307,79,6,0,L|382:362,2,50,6|2|0,1:2|1:2|0:0,0:0:0:0:
433,279,578,2,0,P|462:243|453:191,1,100,14|2,0:0|1:2,0:0:0:0:
426,150,1078,1,6,0:3:0:0:
372,66,1412,2,0,L|317:76,1,50,6|2,1:2|0:0,0:0:0:0:
279,49,1745,1,2,0:0:0:0:
279,49,1912,2,0,L|266:153,1,100,10|10,0:0|0:0,0:0:0:0:
261,198,2412,1,10,0:0:0:0:
213,285,2745,6,0,P|151:306|80:267,1,150,6|2,1:2|0:0,0:0:0:0:
51,226,3412,2,0,L|63:126,1,100,6|2,1:2|0:0,0:0:0:0:
88,83,3912,1,6,1:2:0:0:
169,24,4245,1,10,0:0:0:0:
244,98,4578,1,10,0:0:0:0:
244,98,4745,1,10,0:0:0:0:
285,287,5412,6,0,P|332:295|371:265,1,100,4|8,1:2|0:0,0:0:0:0:
433,186,6078,2,0,L|424:136,2,50,0|0|10,0:0|1:0|0:0,0:0:0:0:
477,209,6578,2,0,L|465:309,1,100,2|0,0:0|0:0,0:0:0:0:
438,350,7078,1,8,0:0:0:0:
340,328,7412,2,0,P|301:297|253:305,1,100,0|10,0:0|0:0,0:0:0:0:
219,340,7912,5,2,0:0:0:0:
219,340,8078,2,0,L|169:331,1,50,2|0,1:2|0:0,0:0:0:0:
142,294,8412,1,8,0:0:0:0:
76,218,8745,2,0,L|85:168,2,50,0|0|8,0:0|1:0|0:0,0:0:0:0:
30,238,9245,2,0,L|42:338,1,100,2|2,0:0|0:0,0:0:0:0:
72,376,9745,1,8,0:0:0:0:
159,327,10078,2,0,L|209:336,2,50,2|2|10,0:0|1:2|0:0,0:0:0:0:
127,231,10745,6,0,P|119:182|149:144,1,100,2|8,1:2|0:0,0:0:0:0:
217,71,11412,2,0,L|208:21,2,50,0|0|10,0:0|1:0|0:0,0:0:0:0:
260,96,11912,2,0,L|360:84,1,100,2|0,0:0|0:0,0:0:0:0:
395,49,12412,1,8,0:0:0:0:
477,105,12745,2,0,L|486:55,2,50,0|0|10,0:0|1:0|0:0,0:0:0:0:
443,142,13245,5,2,0:0:0:0:
443,142,13412,2,0,L|455:242,1,100,2|8,1:2|0:0,0:0:0:0:
401,327,14078,2,0,L|451:336,2,50,0|0|8,0:0|1:0|0:0,0:0:0:0:
367,364,14578,2,0,P|318:371|280:341,1,100,2|2,0:0|0:0,0:0:0:0:
268,293,15078,1,8,0:0:0:0:
188,231,15412,2,0,L|197:181,1,50,2|2,0:0|1:2,0:0:0:0:
233,147,15745,1,10,0:0:0:0:
190,56,16078,5,10,0:0:0:0:
68,142,16578,1,10,0:0:0:0:
68,142,16744,1,10,0:0:0:0:
188,231,17245,1,10,0:0:0:0:
188,231,17412,2,0,L|197:181,2,50,10|2|2,0:0|0:0|0:0,0:0:0:0:
217,278,17912,1,2,0:0:0:0:
217,278,18078,1,10,0:0:0:0:
427,363,18745,6,0,P|447:323|440:279,1,89.9999972534181,6|8,1:2|0:0,0:0:0:0:
365,229,19412,2,0,L|376:139,1,89.9999972534181,2|8,1:2|0:0,0:0:0:0:
410,110,19912,1,2,0:0:0:0:
366,31,20245,1,2,0:0:0:0:
293,84,20578,1,2,0:0:0:0:
293,84,20745,2,0,L|203:73,1,89.9999972534181,2|8,1:2|0:0,0:0:0:0:
125,118,21412,6,0,P|118:161|138:201,1,89.9999972534181,2|10,1:2|0:0,0:0:0:0:
174,227,21912,2,0,L|264:216,1,89.9999972534181,2|2,0:0|0:0,0:0:0:0:
351,189,22578,1,2,0:0:0:0:
351,189,22745,2,0,L|344:145,2,44.999998626709,2|0|10,1:2|0:0|0:0,0:0:0:0:
392,207,23245,2,0,L|381:297,1,89.9999972534181,2|2,0:0|0:0,0:0:0:0:
366,338,23745,1,10,0:0:0:0:
271,358,24078,6,0,P|227:364|187:344,1,89.9999972534181,6|8,1:2|0:0,0:0:0:0:
110,295,24745,2,0,L|121:205,1,89.9999972534181,2|10,1:2|0:0,0:0:0:0:
174,132,25412,2,0,P|134:112|90:118,2,89.9999972534181,2|10|2,1:2|0:0|1:2,0:0:0:0:
231,201,26412,1,10,0:0:0:0:
302,146,26745,2,0,L|291:56,1,89.9999972534181,2|8,1:2|0:0,0:0:0:0:
380,44,27412,6,0,L|387:0,2,44.999998626709,2|2|10,1:2|0:0|0:0,0:0:0:0:
405,87,27912,1,2,0:0:0:0:
405,87,28078,2,0,P|447:100|473:136,1,89.9999972534181,0|8,1:0|0:0,0:0:0:0:
420,210,28745,1,0,1:0:0:0:
420,210,28912,2,0,L|427:254,2,44.999998626709,2|10|10,0:0|0:0|0:0,0:0:0:0:
384,184,29412,6,0,L|294:195,1,89.9999972534181,6|10,1:2|0:0,0:0:0:0:
264,169,29912,1,2,0:0:0:0:
264,169,30078,2,0,P|244:129|249:85,1,89.9999972534181,2|8,1:2|0:0,0:0:0:0:
280,0,30745,2,0,P|324:7|386:19,2,89.9999972534181,0|8|0,1:0|0:0|1:0,0:0:0:0:
240,7,31578,1,2,0:0:0:0:
240,7,31745,1,10,0:0:0:0:
182,86,32078,6,0,L|171:176,1,89.9999972534181,2|10,1:2|0:0,0:0:0:0:
142,208,32578,1,2,0:0:0:0:
142,208,32745,2,0,L|153:298,1,89.9999972534181,2|8,1:2|0:0,0:0:0:0:
232,339,33412,2,0,L|322:328,2,89.9999972534181,0|8|0,1:0|0:0|1:0,0:0:0:0:
197,304,34245,2,0,L|153:297,2,44.999998626709,2|10|10,0:0|0:0|0:0,0:0:0:0:
220,265,34745,6,0,L|209:175,1,89.9999972534181,6|8,1:2|0:0,0:0:0:0:
225,136,35245,1,2,0:0:0:0:
225,136,35412,2,0,P|264:116|308:121,1,89.9999972534181,2|10,1:2|0:0,0:0:0:0:
392,88,36078,2,0,L|381:-2,2,89.9999972534181,2|10|2,1:2|0:0|1:2,0:0:0:0:
456,150,37078,1,10,0:0:0:0:
396,217,37412,6,0,P|352:222|312:202,1,89.9999972534181,2|10,1:2|0:0,0:0:0:0:
273,120,38078,2,0,P|229:114|189:134,1,89.9999972534181,2|10,1:2|0:0,0:0:0:0:
150,215,38745,1,10,0:0:0:0:
19,205,39245,1,2,0:0:0:0:
19,205,39412,2,0,L|26:161,2,44.999998626709,10|10|10,1:2|1:2|1:2,0:0:0:0:
47,241,39912,5,10,1:2:0:0:
47,241,40078,2,0,P|86:260|130:255,1,89.9999972534181,6|0,1:2|0:0,0:0:0:0:
188,184,40745,2,0,P|232:178|272:197,1,89.9999972534181,10|0,0:0|0:0,0:0:0:0:
303,229,41245,1,2,1:2:0:0:
340,310,41578,2,0,L|384:303,1,44.999998626709,2|0,1:2|0:0,0:0:0:0:
419,273,41912,1,2,0:0:0:0:
419,273,42078,2,0,L|408:183,1,89.9999972534181,10|0,0:0|0:0,0:0:0:0:
459,109,42745,6,0,P|418:89|374:95,1,89.9999972534181,0|2,1:0|1:2,0:0:0:0:
319,165,43412,2,0,L|229:154,1,89.9999972534181,10|0,0:0|0:0,0:0:0:0:
186,168,43912,2,0,P|149:142|132:101,1,89.9999972534181,2|0,1:2|1:0,0:0:0:0:
124,57,44412,1,2,1:2:0:0:
194,1,44745,2,0,L|284:12,1,89.9999972534181,10|10,0:0|0:0,0:0:0:0:
336,87,45412,6,0,L|380:80,2,44.999998626709,10|8|8,0:0|0:0|0:0,0:0:0:0:
311,125,45912,1,2,1:2:0:0:
311,125,46078,2,0,L|300:215,1,89.9999972534181,6|0,1:2|0:0,0:0:0:0:
318,302,46745,1,2,0:0:0:0:
231,326,47078,1,2,0:0:0:0:
208,238,47412,1,10,0:0:0:0:
187,150,47745,2,0,L|143:157,1,44.999998626709,2|0,0:0|0:0,0:0:0:0:
101,175,48078,6,0,P|81:215|87:259,1,89.9999972534181,6|0,1:2|0:0,0:0:0:0:
103,306,48578,1,2,1:2:0:0:
103,306,48745,2,0,L|193:295,1,89.9999972534181,8|2,0:0|0:0,0:0:0:0:
257,357,49412,2,0,L|347:346,1,89.9999972534181,2|0,0:0|0:0,0:0:0:0:
383,319,49912,1,2,1:2:0:0:
428,241,50245,2,0,L|421:197,2,44.999998626709,2|10|2,1:2|0:0|0:0,0:0:0:0:
458,273,50745,5,10,1:2:0:0:
336,213,51245,1,10,1:2:0:0:
336,213,51412,1,10,1:2:0:0:
442,129,51912,5,10,1:2:0:0:
442,129,52078,2,0,L|435:85,2,44.999998626709,10|6|6,1:2|0:3|0:3,0:0:0:0:
473,161,52578,1,2,1:2:0:0:
473,161,52745,2,0,L|462:251,1,89.9999972534181,10|8,1:2|1:2,0:0:0:0:
402,317,53412,6,0,P|358:322|318:302,1,89.9999972534181,2|2,1:2|1:2,0:0:0:0:
293,216,54078,2,0,P|249:210|209:230,1,89.9999972534181,2|10,1:2|1:2,0:0:0:0:
181,265,54578,1,10,1:2:0:0:
104,312,54912,2,0,L|111:356,2,44.999998626709,10|2|10,1:2|0:0|1:2,0:0:0:0:
71,280,55412,1,10,1:2:0:0:
53,191,55745,1,2,0:0:0:0:
35,102,56078,6,0,P|76:66|133:69,1,110.000003356934,6|8,1:2|0:0,0:0:0:0:
213,137,56745,2,0,L|206:191,2,55.0000016784668,2|2|10,1:2|1:2|0:0,0:0:0:0:
255,101,57245,1,2,0:0:0:0:
255,101,57412,1,2,1:2:0:0:
363,83,57745,1,10,0:0:0:0:
471,63,58078,2,0,L|457:173,1,110.000003356934,2|8,1:2|0:0,0:0:0:0:
407,271,58745,6,0,P|366:306|312:306,1,110.000003356934,0|10,1:0|0:0,0:0:0:0:
262,322,59245,1,2,0:0:0:0:
262,322,59412,2,0,L|276:212,1,110.000003356934,0|10,1:0|0:0,0:0:0:0:
287,103,60078,2,0,P|252:61|199:53,1,110.000003356934,2|8,1:2|0:0,0:0:0:0:
154,64,60578,1,2,0:0:0:0:
154,64,60745,1,2,1:2:0:0:
70,135,61078,1,14,0:0:0:0:
142,217,61412,6,0,B|149:281|113:254|122:322,1,110.000003356934,6|8,1:2|0:0,0:0:0:0:
217,375,62078,2,0,P|271:375|311:340,1,110.000003356934,2|10,1:2|0:0,0:0:0:0:
326,289,62578,1,2,0:0:0:0:
326,289,62745,1,2,1:2:0:0:
297,182,63078,1,10,0:0:0:0:
275,73,63412,2,0,P|329:73|369:108,1,110.000003356934,2|8,1:2|0:0,0:0:0:0:
448,184,64078,6,0,L|394:191,1,55.0000016784668,2|2,1:2|0:0,0:0:0:0:
358,234,64412,2,0,L|304:227,1,55.0000016784668,10|2,0:0|0:0,0:0:0:0:
265,187,64745,2,0,B|197:178|224:214|160:207,1,110.000003356934,2|10,1:2|0:0,0:0:0:0:
115,174,65245,1,10,0:0:0:0:
45,89,65578,1,10,0:0:0:0:
156,68,65912,1,10,0:0:0:0:
156,68,66078,1,2,1:2:0:0:
263,43,66412,2,0,L|270:97,1,55.0000016784668,2|2,1:2|0:0,0:0:0:0:
309,135,66745,6,0,P|309:189|274:229,1,110.000003356934,6|8,1:2|0:0,0:0:0:0:
231,262,67245,1,2,0:0:0:0:
231,262,67412,2,0,L|177:255,2,55.0000016784668,2|2|10,1:2|1:2|0:0,0:0:0:0:
260,308,67912,1,2,0:0:0:0:
260,308,68078,2,0,L|370:294,1,110.000003356934,2|10,1:2|0:0,0:0:0:0:
449,218,68745,2,0,L|456:164,2,55.0000016784668,2|0|8,1:2|1:0|0:0,0:0:0:0:
463,329,69412,6,0,P|409:329|368:293,1,110.000003356934,0|10,1:0|0:0,0:0:0:0:
349,247,69912,1,2,0:0:0:0:
349,247,70078,2,0,B|281:238|308:274|244:267,1,110.000003356934,2|10,1:2|0:0,0:0:0:0:
152,327,70745,2,0,L|138:217,1,110.000003356934,2|8,1:2|0:0,0:0:0:0:
109,171,71245,1,2,0:0:0:0:
109,171,71412,1,2,1:2:0:0:
155,71,71745,1,14,0:0:0:0:
251,123,72078,6,0,P|304:123|345:87,1,110.000003356934,6|8,1:2|0:0,0:0:0:0:
389,53,72578,1,2,0:0:0:0:
389,53,72745,2,0,L|382:-1,2,55.0000016784668,2|2|10,1:2|1:2|0:0,0:0:0:0:
435,82,73245,1,2,0:0:0:0:
435,82,73412,2,0,L|421:192,1,110.000003356934,2|10,1:2|0:0,0:0:0:0:
436,299,74078,2,0,P|382:299|341:263,1,110.000003356934,2|8,1:2|0:0,0:0:0:0:
328,154,74745,5,2,1:2:0:0:
218,165,75078,2,0,L|211:111,1,55.0000016784668,10|2,0:0|0:0,0:0:0:0:
180,64,75412,2,0,L|126:71,2,55.0000016784668,2|2|10,1:2|1:2|0:0,0:0:0:0:
215,21,75912,1,10,0:0:0:0:
323,37,76245,1,8,0:0:0:0:
436,54,76578,1,8,0:0:0:0:
436,54,76745,2,0,P|436:107|400:148,1,110.000003356934,8|2,1:2|1:2,0:0:0:0:
303,201,77412,6,0,L|289:311,1,110.000003356934,6|10,1:2|0:0,0:0:0:0:
258,356,77912,1,2,0:0:0:0:
258,356,78078,2,0,L|148:342,1,110.000003356934,10|10,0:0|0:0,0:0:0:0:
135,232,78745,1,8,0:0:0:0:
47,298,79078,1,10,0:0:0:0:
2,197,79412,2,0,L|9:143,1,55.0000016784668,10|2,0:0|1:2,0:0:0:0:
46,102,79745,1,10,0:0:0:0:
146,56,80078,6,0,L|256:42,1,110.000003356934,8|10,0:0|0:0,0:0:0:0:
312,58,80578,1,2,0:0:0:0:
312,58,80745,2,0,P|311:111|275:152,1,110.000003356934,10|10,0:0|0:0,0:0:0:0:
227,175,81245,1,2,1:2:0:0:
227,175,81412,1,8,0:0:0:0:
196,284,81745,1,10,0:0:0:0:
302,257,82078,2,0,L|356:264,1,55.0000016784668,14|0,0:0|1:0,0:0:0:0:
382,312,82412,2,0,L|436:319,1,55.0000016784668,14|0,0:0|1:0,0:0:0:0:
485,293,82745,1,4,1:2:0:0:
452,191,83078,6,0,L|445:137,1,55.0000016784668,10|2,0:0|0:0,0:0:0:0:
414,89,83412,2,0,P|360:89|319:125,1,110.000003356934,8|8,0:0|0:0,0:0:0:0:
294,173,83912,1,2,1:2:0:0:
294,173,84078,1,8,0:0:0:0:
201,113,84412,1,10,0:0:0:0:
113,179,84745,2,0,L|120:233,1,55.0000016784668,10|2,0:0|1:2,0:0:0:0:
156,274,85078,1,10,0:0:0:0:
226,358,85412,6,0,B|290:365|263:329|331:338,1,110.000003356934,8|10,0:0|0:0,0:0:0:0:
377,306,85912,1,2,0:0:0:0:
377,306,86078,2,0,P|376:252|340:211,1,110.000003356934,10|10,0:0|0:0,0:0:0:0:
232,192,86745,1,8,0:0:0:0:
252,84,87078,1,10,0:0:0:0:
360,103,87412,2,0,L|414:96,1,55.0000016784668,14|0,0:0|1:0,0:0:0:0:
456,131,87745,2,0,L|463:185,1,55.0000016784668,14|0,0:0|1:0,0:0:0:0:
494,230,88078,6,0,B|417:222|417:222|369:256|369:256|283:248,1,220.000006713867,6|2,1:2|0:0,0:0:0:0:
