osu file format v14

[General]
AudioFilename: audio.mp3
AudioLeadIn: 0
PreviewTime: 55578
Countdown: 0
SampleSet: Soft
StackLeniency: 0.4
Mode: 0
LetterboxInBreaks: 0
WidescreenStoryboard: 0

[Editor]
DistanceSpacing: 1.2
BeatDivisor: 4
GridSize: 32
TimelineZoom: 1.4

[Metadata]
Title:THE WORLD ORIGIN
TitleUnicode:THE WORLD ORIGIN
Artist:KINEMA106
ArtistUnicode:キネマ106
Creator:aundy
Version:Memories
Source:
Tags:Zawajiro kinema 106 memory of grand order kurousagi uru 黒兎ウル tom jun-jun コミックマーケット99 comiket 99 c99 fate fgo f/go fate/grand type-moon fan anime original song gudako fujimaru ritsuka 藤丸 立香 short tv size version fa featured artist japanese j-pop jpop j pop video game female vocals vocalist
BeatmapID:4022504
BeatmapSetID:1944397

[Difficulty]
HPDrainRate:6
CircleSize:3.8
OverallDifficulty:8.5
ApproachRate:9.2
SliderMultiplier:1.8
SliderTickRate:1

[Events]
//Background and Video events
0,0,"FANci0tUcAMx6tf.jpg",0,0
Video,0,"vid.mp4"
//Break Periods
//Storyboard Layer 0 (Background)
//Storyboard Layer 1 (Fail)
//Storyboard Layer 2 (Pass)
//Storyboard Layer 3 (Foreground)
//Storyboard Layer 4 (Overlay)
//Storyboard Sound Samples

[TimingPoints]
79,333.333333333333,4,2,1,70,1,0
79,-100,4,2,1,70,0,0
1912,-100,4,2,1,70,0,0
3912,-200,4,2,1,70,0,0
4578,-100,4,2,1,70,0,0
5412,-100,4,2,1,80,0,0
15745,-200,4,2,1,80,0,0
16078,-100,4,2,1,80,0,0
18745,-111.111111111111,4,2,1,60,0,0
29412,-111.111111111111,4,2,1,62,0,0
38745,-111.111111111111,4,2,1,65,0,0
40078,-111.111111111111,4,2,1,60,0,0
50412,-111.111111111111,4,2,1,65,0,0
50745,-111.111111111111,4,2,1,70,0,0
53412,-111.111111111111,4,2,1,60,0,0
53745,-111.111111111111,4,2,1,64,0,0
54078,-111.111111111111,4,2,1,69,0,0
54412,-111.111111111111,4,2,1,70,0,0
54578,-83.3333333333333,4,2,1,75,0,0
55745,-200,4,2,1,75,0,0
56078,-90.9090909090909,4,2,1,80,0,1
61078,-200,4,2,1,80,0,1
61412,-90.9090909090909,4,2,1,80,0,1
71745,-200,4,2,1,80,0,1
72078,-90.9090909090909,4,2,1,80,0,1
76912,-200,4,2,1,80,0,0
77412,-90.9090909090909,4,2,1,85,0,1
88078,-181.818181818182,4,2,1,85,0,0
89412,-181.818181818182,4,2,1,5,0,0

[Colours]
Combo1 : 133,169,254
Combo2 : 255,125,125
Combo3 : 184,255,113
Combo4 : 140,255,255

[HitObjects]
102,319,79,6,0,P|147:311|200:302,1,90,6|2,1:2|1:2,0:0:0:0:
219,301,328,1,2,0:0:0:0:
219,301,412,1,0,0:0:0:0:
351,207,578,2,0,P|284:149|198:162,1,180,14|2,0:0|1:2,0:0:0:0:
114,21,1078,1,6,0:3:0:0:
114,21,1162,1,4,0:3:0:0:
114,21,1245,1,6,0:3:0:0:
73,214,1412,5,6,1:2:0:0:
221,51,1578,1,2,0:0:0:0:
15,0,1745,1,2,0:0:0:0:
199,163,1912,38,1,B|238:132|291:151|291:151|312:194|354:196,1,180,10|10,0:0|0:0,0:0:0:0:
512,275,2412,1,10,0:0:0:0:
368,108,2578,1,10,0:0:0:0:
471,10,2745,6,0,P|463:54|442:191,1,180,6|2,1:2|0:0,0:0:0:0:
442,187,3245,1,2,0:0:0:0:
381,362,3412,5,6,1:2:0:0:
282,373,3579,1,2,0:0:0:0:
222,294,3745,1,2,0:0:0:0:
241,196,3912,2,0,P|274:201|307:207,1,67.5,6|0,1:2|0:0,0:0:0:0:
382,261,4245,5,10,0:0:0:0:
382,261,4578,2,0,P|389:216|391:202,1,45,10|0,0:0|0:0,0:0:0:0:
301,86,4745,5,10,0:0:0:0:
481,45,4912,1,0,1:0:0:0:
481,45,4995,1,0,1:0:0:0:
481,45,5078,2,0,P|493:110|452:168,1,135,4|0,1:2|0:0,0:0:0:0:
388,216,5412,6,0,P|343:208|300:200,1,90,4|0,1:2|0:0,0:0:0:0:
153,16,5745,2,0,P|197:8|241:0,1,90,8|0,0:0|1:0,0:0:0:0:
401,91,6078,1,0,0:0:0:0:
215,242,6245,1,0,1:0:0:0:
342,367,6412,5,10,0:0:0:0:
342,367,6495,1,0,0:0:0:0:
342,367,6578,2,0,P|399:301|387:215,1,180,2|0,0:0|0:0,0:0:0:0:
198,153,7078,2,0,P|206:197|214:241,1,90,8|0,0:0|1:0,0:0:0:0:
126,384,7412,1,0,0:0:0:0:
310,271,7578,1,0,1:0:0:0:
99,159,7745,5,10,0:0:0:0:
76,163,7828,1,2,0:0:0:0:
54,167,7911,1,2,0:0:0:0:
32,171,7994,1,2,0:0:0:0:
10,175,8078,6,0,P|17:130|24:86,1,90,2|0,1:2|0:0,0:0:0:0:
198,153,8412,1,8,0:0:0:0:
43,278,8578,1,0,1:0:0:0:
195,29,8745,1,0,0:0:0:0:
246,270,8912,1,0,1:0:0:0:
10,175,9078,1,8,0:0:0:0:
85,384,9245,5,2,0:0:0:0:
85,384,9328,1,0,0:0:0:0:
85,384,9412,2,0,P|139:345|204:351,1,135,0|0,1:0|0:0,0:0:0:0:
232,359,9745,6,0,P|238:315|245:271,1,90,8|2,0:0|1:2,0:0:0:0:
341,107,10078,1,2,0:0:0:0:
136,196,10245,1,2,1:2:0:0:
333,327,10412,2,1,B|397:315|397:315|439:340|439:340|504:329,1,180,10|2,0:0|1:2,0:0:0:0:
504,328,10912,5,0,0:0:0:0:
337,210,11078,1,8,0:0:0:0:
505,118,11245,1,0,1:0:0:0:
359,20,11412,2,0,P|366:64|372:109,1,90,0|0,0:0|1:0,0:0:0:0:
394,308,11745,5,10,0:0:0:0:
394,308,11828,1,0,0:0:0:0:
394,308,11911,2,0,P|307:320|241:263,1,180,2|0,0:0|0:0,0:0:0:0:
126,99,12412,1,8,0:0:0:0:
337,210,12578,1,0,1:0:0:0:
141,349,12745,1,0,0:0:0:0:
238,140,12912,1,0,1:0:0:0:
9,52,13078,5,10,0:0:0:0:
12,74,13161,1,2,0:0:0:0:
16,96,13244,1,2,0:0:0:0:
19,118,13328,1,2,0:0:0:0:
22,141,13412,6,0,P|65:135|111:127,1,90,2|0,1:2|0:0,0:0:0:0:
241,263,13745,2,0,P|196:256|151:249,1,90,8|0,0:0|1:0,0:0:0:0:
32,24,14078,1,0,0:0:0:0:
238,140,14245,1,0,1:0:0:0:
36,290,14412,1,8,0:0:0:0:
183,56,14578,38,1,B|222:25|275:44|275:44|296:87|338:89,1,180,2|2,0:0|0:0,0:0:0:0:
467,7,15078,2,0,P|459:51|453:95,1,90,8|2,0:0|1:2,0:0:0:0:
238,140,15412,1,2,0:0:0:0:
357,0,15578,1,2,1:2:0:0:
451,184,15745,2,0,P|417:178|384:174,1,67.5,10|0,0:0|0:0,0:0:0:0:
338,89,16078,5,10,0:0:0:0:
338,89,16578,5,10,0:0:0:0:
419,271,16744,1,10,0:0:0:0:
217,349,17245,5,10,0:0:0:0:
275,155,17412,1,10,0:0:0:0:
242,148,17496,1,0,0:0:0:0:
209,153,17579,1,2,0:0:0:0:
180,170,17662,1,0,0:0:0:0:
159,196,17745,2,0,P|114:189|70:182,1,90,2|2,0:0|0:0,0:0:0:0:
246,249,18078,5,10,0:0:0:0:
62,384,18745,6,0,P|12:322|23:244,1,161.999995056153,6|8,1:2|0:0,0:0:0:0:
120,99,19245,1,2,0:0:0:0:
159,196,19412,2,0,P|119:189|79:183,1,80.9999975280763,2|0,1:2|0:0,0:0:0:0:
41,45,19745,1,8,0:0:0:0:
234,0,19912,6,0,P|227:41|212:135,1,121.499996292114,2|0,0:0|0:0,0:0:0:0:
223,149,20245,2,0,P|262:142|302:136,1,80.9999975280763,2|8,0:0|0:0,0:0:0:0:
450,14,20578,1,2,0:0:0:0:
503,96,20745,2,0,P|424:106|363:56,1,161.999995056153,2|8,1:2|0:0,0:0:0:0:
223,149,21245,5,8,0:0:0:0:
223,149,21328,1,8,0:0:0:0:
223,149,21412,2,0,P|229:188|235:228,1,80.9999975280763,2|0,1:2|0:0,0:0:0:0:
195,384,21745,1,10,0:0:0:0:
303,319,21912,2,0,P|222:307|142:295,1,161.999995056153,2|2,0:0|0:0,0:0:0:0:
23,200,22412,1,8,0:0:0:0:
23,200,22578,1,2,0:0:0:0:
119,131,22745,6,0,P|112:170|106:210,1,80.9999975280763,2|0,1:2|0:0,0:0:0:0:
27,369,23078,1,10,0:0:0:0:
3,285,23245,2,0,B|90:273|63:327|161:314,1,161.999995056153,2|2,0:0|0:0,0:0:0:0:
237,274,23745,5,10,0:0:0:0:
201,195,23912,1,10,0:0:0:0:
201,195,23995,1,8,0:0:0:0:
201,195,24078,2,0,P|212:114|224:34,1,161.999995056153,6|8,1:2|0:0,0:0:0:0:
375,142,24578,1,2,0:0:0:0:
375,142,24745,2,0,P|335:148|296:155,1,80.9999975280763,2|0,1:2|0:0,0:0:0:0:
362,19,25078,2,0,P|402:25|441:32,1,80.9999975280763,10|0,0:0|0:0,0:0:0:0:
463,214,25412,6,0,P|473:292|423:353,2,161.999995056153,2|10|2,1:2|0:0|1:2,0:0:0:0:
295,155,26245,1,0,0:0:0:0:
395,104,26412,2,0,P|388:145|380:187,1,80.9999975280763,10|0,0:0|0:0,0:0:0:0:
338,322,26745,6,0,P|257:309|177:299,1,161.999995056153,2|8,1:2|0:0,0:0:0:0:
88,365,27245,1,0,0:0:0:0:
88,365,27412,2,0,P|81:325|73:285,1,80.9999975280763,2|2,1:2|0:0,0:0:0:0:
118,120,27745,1,10,0:0:0:0:
3,206,27912,1,2,0:0:0:0:
170,213,28078,6,0,P|220:152|210:73,1,161.999995056153,0|8,1:0|0:0,0:0:0:0:
33,76,28578,1,0,0:0:0:0:
111,11,28745,2,0,P|118:50|125:90,1,80.9999975280763,0|2,1:0|0:0,0:0:0:0:
77,191,29078,1,10,0:0:0:0:
173,255,29245,5,10,0:0:0:0:
173,255,29328,1,8,0:0:0:0:
173,255,29412,2,0,P|212:246|252:239,1,80.9999975280763,6|2,1:2|0:0,0:0:0:0:
315,110,29745,2,0,P|275:116|235:125,1,80.9999975280763,10|2,0:0|0:0,0:0:0:0:
382,269,30078,1,2,1:2:0:0:
382,269,30245,2,0,P|388:229|395:190,1,80.9999975280763,2|8,0:0|0:0,0:0:0:0:
441,23,30578,1,2,0:0:0:0:
504,120,30745,6,0,P|424:107|343:97,1,161.999995056153,0|8,1:0|0:0,0:0:0:0:
189,147,31245,1,0,0:0:0:0:
240,2,31412,2,0,P|247:41|253:81,1,80.9999975280763,0|2,1:0|0:0,0:0:0:0:
289,173,31745,1,10,0:0:0:0:
219,254,31912,5,10,0:0:0:0:
219,254,31995,1,8,0:0:0:0:
219,254,32079,2,0,P|180:245|140:238,1,80.9999975280763,2|2,1:2|0:0,0:0:0:0:
31,357,32412,2,0,P|70:349|110:341,1,80.9999975280763,10|2,0:0|0:0,0:0:0:0:
62,179,32745,1,2,1:2:0:0:
62,179,32912,2,0,P|54:218|46:258,1,80.9999975280763,2|8,0:0|0:0,0:0:0:0:
200,384,33245,1,2,0:0:0:0:
110,340,33412,6,0,P|170:290|249:299,2,161.999995056153,0|8|0,1:0|0:0|1:0,0:0:0:0:
45,258,34245,2,0,P|53:218|62:179,1,80.9999975280763,2|10,0:0|0:0,0:0:0:0:
6,93,34578,1,10,0:0:0:0:
6,93,34662,1,8,0:0:0:0:
6,93,34745,2,0,P|86:103|166:115,1,161.999995056153,6|8,1:2|0:0,0:0:0:0:
322,141,35245,1,2,0:0:0:0:
256,255,35412,2,0,P|248:215|239:175,1,80.9999975280763,2|0,1:2|0:0,0:0:0:0:
352,51,35745,1,10,0:0:0:0:
352,51,35912,1,0,0:0:0:0:
401,157,36078,6,0,P|361:149|321:140,1,80.9999975280763,2|0,1:2|0:0,0:0:0:0:
176,272,36412,2,0,P|215:264|255:255,1,80.9999975280763,10|0,0:0|0:0,0:0:0:0:
236,85,36745,2,0,P|227:124|219:164,1,80.9999975280763,2|0,1:2|0:0,0:0:0:0:
334,312,37078,2,0,P|341:272|350:232,1,80.9999975280763,10|0,0:0|0:0,0:0:0:0:
321,140,37412,5,2,1:2:0:0:
414,106,37578,1,2,0:0:0:0:
447,203,37745,1,10,0:0:0:0:
350,233,37912,1,2,0:0:0:0:
228,111,38078,5,2,0:0:0:0:
258,14,38245,1,10,0:0:0:0:
355,47,38412,1,2,0:0:0:0:
321,140,38578,1,2,1:2:0:0:
290,236,38745,6,0,P|208:239|148:186,1,161.999995056153,10|2,0:0|0:0,0:0:0:0:
149,189,39245,1,2,0:0:0:0:
69,34,39412,1,10,1:2:0:0:
242,143,39578,1,10,1:2:0:0:
75,253,39745,1,10,1:2:0:0:
156,85,39912,1,10,1:2:0:0:
187,339,40078,6,1,B|126:329|126:329|92:349|92:349|32:339,1,161.999995056153,6|0,1:2|0:0,0:0:0:0:
149,189,40578,1,2,0:0:0:0:
41,94,40745,2,0,P|49:133|75:254,1,161.999995056153,10|0,0:0|0:0,0:0:0:0:
187,339,41245,6,0,P|229:303|296:303,1,121.499996292114,2|0,1:2|0:0,0:0:0:0:
329,372,41578,2,0,P|336:332|351:248,1,121.499996292114,2|0,1:2|0:0,0:0:0:0:
358,221,41912,1,2,0:0:0:0:
482,92,42078,6,0,B|396:76|420:136|326:115,1,161.999995056153,10|0,0:0|0:0,0:0:0:0:
211,41,42578,1,8,0:0:0:0:
211,41,42662,1,8,0:0:0:0:
211,41,42745,2,0,P|218:80|225:120,1,80.9999975280763,0|2,1:0|0:0,0:0:0:0:
197,224,43078,1,2,1:2:0:0:
326,115,43245,1,2,0:0:0:0:
124,66,43412,6,0,P|53:91|27:170,1,161.999995056153,10|0,0:0|0:0,0:0:0:0:
89,317,43912,2,0,P|95:277|103:237,1,80.9999975280763,2|0,1:2|0:0,0:0:0:0:
225,120,44245,1,0,1:0:0:0:
276,238,44412,2,0,P|236:231|196:223,1,80.9999975280763,2|2,1:2|1:2,0:0:0:0:
11,88,44745,6,0,P|18:127|25:167,1,80.9999975280763,10|0,0:0|0:0,0:0:0:0:
25,167,44995,1,0,0:0:0:0:
25,167,45078,1,10,0:0:0:0:
196,223,45245,1,8,0:0:0:0:
77,334,45412,5,10,0:0:0:0:
140,129,45578,1,8,0:0:0:0:
288,281,45745,1,8,0:0:0:0:
105,232,45912,1,2,1:2:0:0:
280,89,46078,6,1,B|340:79|340:79|374:99|374:99|435:89,1,161.999995056153,6|0,1:2|0:0,0:0:0:0:
434,89,46578,1,0,1:0:0:0:
288,281,46745,2,0,P|281:241|273:201,1,80.9999975280763,2|0,0:0|1:0,0:0:0:0:
418,26,47078,2,0,P|410:65|403:105,1,80.9999975280763,2|0,0:0|1:0,0:0:0:0:
460,235,47412,2,0,P|420:227|380:220,1,80.9999975280763,10|0,0:0|0:0,0:0:0:0:
213,100,47745,2,0,P|252:92|292:85,1,80.9999975280763,2|0,0:0|0:0,0:0:0:0:
288,281,48078,6,0,P|206:284|146:231,1,161.999995056153,6|0,1:2|0:0,0:0:0:0:
0,147,48578,1,2,1:2:0:0:
100,79,48745,2,0,P|82:158|66:237,1,161.999995056153,8|2,0:0|0:0,0:0:0:0:
132,384,49245,1,0,1:0:0:0:
0,334,49412,6,0,P|39:326|79:319,1,80.9999975280763,2|0,0:0|1:0,0:0:0:0:
245,215,49745,2,0,P|205:207|165:200,1,80.9999975280763,0|2,0:0|1:2,0:0:0:0:
0,147,50078,1,8,0:0:0:0:
192,66,50245,1,2,1:2:0:0:
86,0,50412,2,0,P|93:39|100:79,1,80.9999975280763,10|2,0:0|0:0,0:0:0:0:
66,237,50745,5,10,1:2:0:0:
66,237,51245,5,10,1:2:0:0:
276,117,51412,1,10,1:2:0:0:
257,272,51911,5,10,1:2:0:0:
100,79,52078,1,10,1:2:0:0:
328,36,52245,5,6,0:3:0:0:
328,36,52328,1,4,0:3:0:0:
328,36,52412,1,6,0:3:0:0:
177,173,52578,1,2,1:2:0:0:
377,250,52745,2,0,P|370:210|362:170,1,80.9999975280763,10|0,1:2|1:0,0:0:0:0:
276,117,52995,1,0,1:0:0:0:
276,117,53078,2,0,P|282:156|290:196,1,80.9999975280763,8|0,1:2|1:0,0:0:0:0:
226,348,53412,6,0,P|186:340|146:333,1,80.9999975280763,2|0,1:2|0:0,0:0:0:0:
0,167,53745,2,0,P|39:173|79:181,1,80.9999975280763,2|0,1:2|0:0,0:0:0:0:
189,258,54078,1,2,1:2:0:0:
115,80,54245,1,8,1:2:0:0:
0,257,54412,1,10,1:2:0:0:
205,142,54578,6,0,B|291:126|267:186|361:165,1,161.999995056153,10|0,1:2|0:0,0:0:0:0:
431,131,54912,1,10,1:2:0:0:
280,277,55245,5,10,1:2:0:0:
225,58,55412,1,10,1:2:0:0:
395,280,55745,6,0,P|399:246|404:213,1,67.5,2|0,0:0|0:0,0:0:0:0:
459,337,56078,38,1,B|420:296|356:317|356:317|334:363|285:362,1,198.000006042481,6|8,1:2|0:0,0:0:0:0:
111,146,56578,1,2,0:0:0:0:
280,277,56745,1,2,1:2:0:0:
85,360,56912,1,2,1:2:0:0:
237,163,57078,1,10,0:0:0:0:
0,86,57245,1,2,0:0:0:0:
128,48,57412,6,0,P|120:88|110:146,1,99.0000030212403,2|0,1:2|0:0,0:0:0:0:
280,277,57745,2,0,P|333:229|405:236,1,148.50000453186,10|0,0:0|0:0,0:0:0:0:
365,317,58078,2,1,B|291:303|291:303|249:328|249:328|173:314,1,198.000006042481,2|8,1:2|0:0,0:0:0:0:
0,213,58578,1,0,0:0:0:0:
110,145,58745,6,0,P|102:185|92:243,1,99.0000030212403,0|2,1:0|0:0,0:0:0:0:
28,337,59078,1,10,0:0:0:0:
195,220,59245,1,2,0:0:0:0:
195,220,59328,1,0,0:0:0:0:
195,220,59412,1,0,1:0:0:0:
18,118,59578,1,2,1:2:0:0:
147,339,59745,2,0,P|187:331|245:321,1,99.0000030212403,10|2,0:0|0:0,0:0:0:0:
454,120,60078,6,0,P|387:50|291:56,1,198.000006042481,2|8,1:2|0:0,0:0:0:0:
111,128,60578,1,2,0:0:0:0:
195,220,60745,2,0,P|203:171|212:122,1,99.0000030212403,2|0,1:2|1:0,0:0:0:0:
453,119,61078,6,0,P|448:152|444:186,1,67.5,14|0,0:0|0:0,0:0:0:0:
512,232,61412,6,1,B|438:218|438:218|396:243|396:243|320:229,1,198.000006042481,6|8,1:2|0:0,0:0:0:0:
174,15,61912,1,2,0:0:0:0:
366,148,62078,1,2,1:2:0:0:
161,267,62245,1,2,1:2:0:0:
332,343,62412,1,10,0:0:0:0:
212,122,62578,1,2,0:0:0:0:
51,316,62745,6,0,P|99:306|148:298,1,99.0000030212403,2|0,1:2|0:0,0:0:0:0:
366,148,63078,2,0,P|373:76|325:22,1,148.50000453186,10|0,0:0|0:0,0:0:0:0:
276,3,63412,2,0,P|286:51|294:100,1,99.0000030212403,2|0,1:2|1:0,0:0:0:0:
148,297,63745,2,0,P|139:248|129:199,1,99.0000030212403,8|0,0:0|0:0,0:0:0:0:
76,53,64078,5,2,1:2:0:0:
230,214,64245,1,2,0:0:0:0:
51,27,64412,1,10,0:0:0:0:
0,264,64578,1,2,0:0:0:0:
233,103,64745,5,2,1:2:0:0:
116,125,64912,1,0,1:0:0:0:
0,150,65078,1,10,0:0:0:0:
252,302,65245,6,0,P|302:256|307:178,1,148.50000453186,10|0,0:0|0:0,0:0:0:0:
233,103,65578,2,0,P|223:151|214:200,1,99.0000030212403,10|2,0:0|0:0,0:0:0:0:
97,371,65912,5,10,0:0:0:0:
0,150,66078,1,2,1:2:0:0:
158,275,66245,6,0,L|110:266,1,49.5000015106202,2|2,0:0|0:0,0:0:0:0:
143,61,66412,5,2,1:2:0:0:
177,25,66495,1,2,0:0:0:0:
223,10,66578,1,2,0:0:0:0:
272,16,66661,1,2,0:0:0:0:
314,44,66745,6,0,B|304:92|293:172|293:172|289:138|261:114,1,198.000006042481,6|8,1:2|0:0,0:0:0:0:
30,10,67245,1,2,0:0:0:0:
205,182,67412,1,2,1:2:0:0:
0,244,67578,1,2,1:2:0:0:
143,61,67745,1,10,0:0:0:0:
228,282,67912,1,2,0:0:0:0:
82,182,68078,6,0,P|130:172|179:163,1,99.0000030212403,2|0,1:2|0:0,0:0:0:0:
394,126,68412,2,0,P|345:72|353:0,1,148.50000453186,10|0,0:0|0:0,0:0:0:0:
439,40,68745,2,0,P|429:88|397:243,1,198.000006042481,2|8,1:2|0:0,0:0:0:0:
254,343,69245,1,0,0:0:0:0:
178,163,69412,6,0,P|227:172|276:182,1,99.0000030212403,0|2,1:0|0:0,0:0:0:0:
367,372,69745,1,10,0:0:0:0:
193,252,69912,1,2,0:0:0:0:
416,135,70078,2,0,P|406:184|398:233,1,99.0000030212403,2|2,1:2|1:2,0:0:0:0:
336,44,70412,1,10,0:0:0:0:
512,211,70578,1,2,0:0:0:0:
254,343,70745,6,0,P|158:349|91:281,1,198.000006042481,2|8,1:2|0:0,0:0:0:0:
13,112,71245,1,2,0:0:0:0:
193,252,71412,1,2,1:2:0:0:
0,343,71578,1,0,1:0:0:0:
122,101,71745,6,0,P|126:67|131:34,1,67.5,14|0,0:0|0:0,0:0:0:0:
40,138,72078,6,0,B|142:107|119:197|229:160,1,198.000006042481,6|8,1:2|0:0,0:0:0:0:
227,160,72578,1,2,0:0:0:0:
419,67,72745,1,2,1:2:0:0:
465,279,72912,1,2,1:2:0:0:
411,37,73079,1,10,0:0:0:0:
324,215,73245,1,2,0:0:0:0:
512,177,73412,6,0,P|467:169|414:159,1,99.0000030212403,2|0,1:2|0:0,0:0:0:0:
190,242,73745,2,0,P|142:187|149:116,1,148.50000453186,10|0,0:0|0:0,0:0:0:0:
244,62,74078,2,0,P|235:111|227:160,1,99.0000030212403,2|0,1:2|1:0,0:0:0:0:
363,378,74412,2,0,P|371:329|380:280,1,99.0000030212403,8|0,0:0|0:0,0:0:0:0:
512,16,74745,6,0,P|440:9|385:56,1,148.50000453186,2|0,1:2|0:0,0:0:0:0:
385,56,75078,1,10,0:0:0:0:
227,159,75245,1,2,0:0:0:0:
379,280,75412,5,2,1:2:0:0:
342,167,75578,1,2,1:2:0:0:
303,54,75745,1,10,0:0:0:0:
147,210,75912,6,0,P|204:253|275:243,1,148.50000453186,10|0,0:0|0:0,0:0:0:0:
342,167,76245,1,8,0:0:0:0:
448,7,76578,5,8,0:0:0:0:
227,159,76745,1,8,1:2:0:0:
429,303,76912,5,2,1:2:0:0:
429,303,76995,1,0,1:0:0:0:
429,303,77078,2,0,P|433:269|438:236,1,67.5,2|4,1:2|0:3,0:0:0:0:
512,173,77412,6,0,P|467:165|412:157,1,99.0000030212403,6|2,1:2|0:0,0:0:0:0:
267,368,77745,2,0,P|315:359|364:352,1,99.0000030212403,10|2,0:0|0:0,0:0:0:0:
287,89,78078,5,10,0:0:0:0:
437,236,78245,1,2,1:2:0:0:
250,280,78412,5,10,0:0:0:0:
423,77,78578,1,2,1:2:0:0:
151,0,78745,6,0,P|159:48|166:97,1,99.0000030212403,8|2,0:0|0:0,0:0:0:0:
320,345,79078,2,0,P|342:301|336:253,1,99.0000030212403,10|2,0:0|0:0,0:0:0:0:
287,89,79412,5,10,0:0:0:0:
163,310,79578,1,2,1:2:0:0:
26,95,79745,5,10,0:0:0:0:
250,280,79912,1,0,1:0:0:0:
81,359,80078,6,0,P|70:287|115:230,1,148.50000453186,8|0,0:0|0:0,0:0:0:0:
147,212,80412,2,0,P|154:260|162:309,1,99.0000030212403,10|2,0:0|0:0,0:0:0:0:
184,71,80745,1,10,0:0:0:0:
16,225,80912,1,2,1:2:0:0:
250,280,81078,1,10,0:0:0:0:
98,119,81245,1,2,1:2:0:0:
265,30,81412,6,0,P|314:35|363:41,1,99.0000030212403,8|2,0:0|0:0,0:0:0:0:
250,280,81745,2,0,P|245:231|239:182,1,99.0000030212403,10|2,0:0|1:2,0:0:0:0:
238,181,81995,1,0,1:0:0:0:
238,181,82078,1,14,0:0:0:0:
184,71,82245,1,0,1:0:0:0:
379,203,82412,2,0,L|331:213,1,49.5000015106202,14|0,0:0|0:0,0:0:0:0:
122,316,82578,2,0,L|170:326,1,49.5000015106202,0|0,1:0|0:0,0:0:0:0:
442,384,82745,6,0,P|447:334|453:285,1,99.0000030212403,4|2,1:2|0:0,0:0:0:0:
238,181,83078,2,0,P|244:230|249:279,1,99.0000030212403,10|2,0:0|0:0,0:0:0:0:
477,162,83412,5,8,0:0:0:0:
265,30,83578,1,2,1:2:0:0:
249,279,83745,5,8,0:0:0:0:
379,79,83912,1,2,1:2:0:0:
442,384,84078,6,0,P|392:377|343:372,1,99.0000030212403,8|2,0:0|0:0,0:0:0:0:
215,152,84412,2,0,P|265:157|314:163,1,99.0000030212403,10|2,0:0|0:0,0:0:0:0:
379,79,84745,5,10,0:0:0:0:
249,279,84912,1,2,1:2:0:0:
125,27,85078,5,10,0:0:0:0:
314,163,85245,1,0,1:0:0:0:
45,323,85412,6,0,P|33:251|78:194,1,148.50000453186,8|0,0:0|0:0,0:0:0:0:
115,172,85745,2,0,P|121:224|126:270,1,99.0000030212403,10|2,0:0|0:0,0:0:0:0:
265,30,86078,1,10,0:0:0:0:
9,124,86245,1,2,1:2:0:0:
249,279,86412,1,10,0:0:0:0:
125,27,86578,1,2,1:2:0:0:
45,323,86745,5,8,0:0:0:0:
210,132,86912,1,2,0:0:0:0:
274,377,87078,5,10,0:0:0:0:
76,194,87245,1,2,1:2:0:0:
366,82,87412,6,0,L|355:134,1,49.5000015106202,14|0,0:0|0:0,0:0:0:0:
249,279,87578,2,0,L|238:230,1,49.5000015106202,0|0,1:0|0:0,0:0:0:0:
125,27,87745,6,0,L|173:37,1,49.5000015106202,14|0,0:0|0:0,0:0:0:0:
76,194,87912,2,0,L|27:183,1,49.5000015106202,0|0,1:0|0:0,0:0:0:0:
338,238,88078,6,0,P|303:150|210:132,1,198.000006042481,6|2,1:2|0:0,0:0:0:0:
