osu file format v14

[General]
AudioFilename: audio.mp3
AudioLeadIn: 0
PreviewTime: 55578
Countdown: 0
SampleSet: Soft
StackLeniency: 0.4
Mode: 0
LetterboxInBreaks: 0
WidescreenStoryboard: 1

[Editor]
DistanceSpacing: 1.2
BeatDivisor: 4
GridSize: 32
TimelineZoom: 1.4

[Metadata]
Title:THE WORLD ORIGIN
TitleUnicode:THE WORLD ORIGIN
Artist:KINEMA106
ArtistUnicode:キネマ106
Creator:aundy
Version:Insane
Source:
Tags:Zawajiro kinema 106 memory of grand order kurousagi uru 黒兎ウル tom jun-jun コミックマーケット99 comiket 99 c99 fate fgo f/go fate/grand type-moon fan anime original song gudako fujimaru ritsuka 藤丸 立香 short tv size version fa featured artist japanese j-pop jpop j pop video game female vocals vocalist
BeatmapID:4022502
BeatmapSetID:1944397

[Difficulty]
HPDrainRate:5
CircleSize:3.8
OverallDifficulty:8
ApproachRate:9
SliderMultiplier:1.7
SliderTickRate:1

[Events]
//Background and Video events
0,0,"FANci0tUcAMx6tf.jpg",0,0
Video,0,"vid.mp4"
//Break Periods
//Storyboard Layer 0 (Background)
//Storyboard Layer 1 (Fail)
//Storyboard Layer 2 (Pass)
//Storyboard Layer 3 (Foreground)
//Storyboard Layer 4 (Overlay)
//Storyboard Sound Samples

[TimingPoints]
79,333.333333333333,4,2,1,70,1,0
79,-100,4,2,1,70,0,0
5412,-100,4,2,1,80,0,0
15745,-200,4,2,1,80,0,0
17578,-100,4,2,1,80,0,0
18745,-111.111111111111,4,2,1,60,0,0
29412,-111.111111111111,4,2,1,62,0,0
38745,-111.111111111111,4,2,1,65,0,0
40078,-111.111111111111,4,2,1,60,0,0
50412,-111.111111111111,4,2,1,65,0,0
50745,-111.111111111111,4,2,1,70,0,0
53412,-111.111111111111,4,2,1,60,0,0
53745,-111.111111111111,4,2,1,64,0,0
54078,-111.111111111111,4,2,1,69,0,0
54412,-111.111111111111,4,2,1,70,0,0
54578,-76.9230769230769,4,2,1,75,0,0
55745,-200,4,2,1,75,0,0
56078,-90.9090909090909,4,2,1,80,0,1
76912,-200,4,2,1,80,0,0
77412,-90.9090909090909,4,2,1,85,0,1
88078,-181.818181818182,4,2,1,85,0,0
89412,-181.818181818182,4,2,1,5,0,0

[Colours]
Combo1 : 133,169,254
Combo2 : 255,125,125
Combo3 : 184,255,113
Combo4 : 140,255,255

[HitObjects]
116,267,79,6,0,P|166:258|208:251,1,85,6|2,1:2|1:2,0:0:0:0:
199,252,328,1,2,0:0:0:0:
199,252,412,1,0,0:0:0:0:
271,337,578,2,0,P|307:263|275:187,1,170,14|2,0:0|1:2,0:0:0:0:
199,37,1078,1,6,0:3:0:0:
199,37,1162,1,4,0:3:0:0:
199,37,1245,1,6,0:3:0:0:
116,138,1412,6,0,P|157:130|199:123,1,85,6|2,1:2|0:0,0:0:0:0:
376,116,1745,1,2,0:0:0:0:
298,17,1912,2,0,P|286:101|274:186,1,170,10|10,0:0|0:0,0:0:0:0:
274,185,2412,1,10,0:0:0:0:
342,358,2578,1,10,0:0:0:0:
427,315,2745,6,0,P|361:264|280:279,1,170,6|2,1:2|0:0,0:0:0:0:
125,344,3245,1,2,0:0:0:0:
191,239,3412,2,0,P|198:281|206:322,2,85,6|2|2,1:2|0:0|0:0,0:0:0:0:
23,120,3912,6,0,P|74:160|144:148,1,127.5,6|0,1:2|0:0,0:0:0:0:
154,131,4245,1,10,0:0:0:0:
154,131,4578,1,10,0:0:0:0:
212,27,4745,6,0,P|253:33|295:42,1,85,10|0,0:0|1:0,0:0:0:0:
381,4,4995,1,0,1:0:0:0:
381,4,5078,2,0,P|369:88|362:139,1,127.5,4|0,1:2|0:0,0:0:0:0:
333,221,5412,6,0,P|375:213|417:207,1,85,4|0,1:2|0:0,0:0:0:0:
348,365,5745,2,0,P|306:371|264:379,1,85,8|0,0:0|1:0,0:0:0:0:
110,212,6078,1,0,0:0:0:0:
273,286,6245,1,0,1:0:0:0:
134,381,6412,5,10,0:0:0:0:
134,381,6495,1,0,0:0:0:0:
134,381,6578,2,0,P|125:317|110:212,1,170,2|0,0:0|0:0,0:0:0:0:
46,148,7078,2,0,P|78:124|122:121,1,85,8|0,0:0|1:0,0:0:0:0:
284,163,7412,1,0,0:0:0:0:
284,163,7578,1,0,1:0:0:0:
217,42,7745,2,0,L|209:83,3,42.5,10|2|2|2,0:0|0:0|0:0|0:0,0:0:0:0:
200,176,8078,6,0,P|242:168|284:162,1,85,2|0,1:2|0:0,0:0:0:0:
427,31,8412,2,0,P|385:23|343:17,1,85,8|0,0:0|1:0,0:0:0:0:
343,17,8745,1,0,0:0:0:0:
404,198,8912,1,0,1:0:0:0:
478,118,9078,1,8,0:0:0:0:
457,288,9245,6,0,P|397:300|309:237,1,170,2|2,0:0|0:0,0:0:0:0:
200,176,9745,2,0,P|242:168|284:162,1,85,8|2,0:0|1:2,0:0:0:0:
478,118,10078,1,2,0:0:0:0:
478,118,10245,1,2,1:2:0:0:
363,25,10412,6,0,P|375:109|386:193,1,170,10|2,0:0|1:2,0:0:0:0:
386,193,10912,1,0,0:0:0:0:
429,299,11078,2,0,P|387:291|345:285,1,85,8|0,0:0|1:0,0:0:0:0:
200,176,11412,2,0,P|232:152|276:149,1,85,0|0,0:0|1:0,0:0:0:0:
178,276,11745,5,10,0:0:0:0:
178,276,11828,1,0,0:0:0:0:
178,276,11912,2,0,P|166:191|154:107,1,170,2|0,0:0|0:0,0:0:0:0:
185,11,12412,2,0,P|142:17|101:24,1,85,8|0,0:0|1:0,0:0:0:0:
34,223,12745,1,0,0:0:0:0:
154,107,12912,1,0,1:0:0:0:
0,87,13078,2,0,L|8:128,3,42.5,10|2|2|2,0:0|0:0|0:0|0:0,0:0:0:0:
34,223,13412,6,0,P|76:215|118:209,1,85,2|0,1:2|0:0,0:0:0:0:
218,340,13745,2,0,P|176:332|134:326,1,85,8|0,0:0|1:0,0:0:0:0:
83,137,14078,1,0,0:0:0:0:
216,233,14245,1,0,1:0:0:0:
58,302,14412,1,8,0:0:0:0:
203,142,14578,6,1,B|261:149|261:149|295:185|295:185|357:195,1,170,2|2,0:0|0:0,0:0:0:0:
463,153,15078,2,0,P|456:195|449:237,1,85,8|2,0:0|1:2,0:0:0:0:
359,368,15412,1,2,0:0:0:0:
359,368,15578,1,2,1:2:0:0:
293,267,15745,2,0,P|335:274|372:280,1,63.75,10|0,0:0|0:0,0:0:0:0:
432,317,16078,5,10,0:0:0:0:
432,317,16578,5,10,0:0:0:0:
463,153,16745,1,10,0:0:0:0:
463,153,17245,5,10,0:0:0:0:
288,75,17412,1,10,0:0:0:0:
353,250,17578,1,2,0:0:0:0:
353,250,17661,1,0,0:0:0:0:
353,250,17745,2,0,P|311:243|269:236,1,85,2|2,0:0|0:0,0:0:0:0:
159,169,18078,5,10,0:0:0:0:
7,67,18745,6,0,P|15:109|35:221,1,152.999995330811,6|8,1:2|0:0,0:0:0:0:
62,327,19245,1,2,0:0:0:0:
62,327,19412,2,0,P|97:278|192:269,1,152.999995330811,2|8,1:2|0:0,0:0:0:0:
236,367,19912,6,0,P|198:359|160:353,1,76.4999976654053,2|0,0:0|1:0,0:0:0:0:
269,201,20245,2,0,P|276:242|282:276,1,76.4999976654053,2|8,0:0|0:0,0:0:0:0:
353,361,20578,1,2,0:0:0:0:
353,361,20745,2,0,P|366:285|380:210,1,152.999995330811,2|8,1:2|0:0,0:0:0:0:
494,151,21245,5,8,0:0:0:0:
494,151,21328,1,8,0:0:0:0:
494,151,21412,2,0,P|419:146|371:89,1,152.999995330811,2|10,1:2|0:0,0:0:0:0:
288,16,21912,2,0,P|329:9|363:2,1,76.4999976654053,2|0,0:0|1:0,0:0:0:0:
293,135,22245,1,2,0:0:0:0:
293,135,22412,2,0,P|255:127|217:121,1,76.4999976654053,8|2,0:0|0:0,0:0:0:0:
56,81,22745,5,2,1:2:0:0:
56,81,22912,1,0,0:0:0:0:
129,150,23078,1,10,0:0:0:0:
157,0,23245,2,0,P|142:75|129:150,1,152.999995330811,2|2,0:0|0:0,0:0:0:0:
55,254,23745,1,10,0:0:0:0:
13,173,23912,5,10,0:0:0:0:
13,173,23995,1,8,0:0:0:0:
13,173,24078,2,0,P|87:166|142:216,1,152.999995330811,6|8,1:2|0:0,0:0:0:0:
205,318,24578,1,2,0:0:0:0:
205,318,24745,2,0,P|167:310|129:304,1,76.4999976654053,2|0,1:2|0:0,0:0:0:0:
241,152,25078,2,0,P|233:189|227:227,1,76.4999976654053,10|0,0:0|0:0,0:0:0:0:
338,197,25412,6,0,P|344:122|294:67,2,152.999995330811,2|10|2,1:2|0:0|1:2,0:0:0:0:
307,301,26245,1,0,0:0:0:0:
307,301,26412,2,0,P|344:293|382:287,1,76.4999976654053,10|0,0:0|0:0,0:0:0:0:
480,330,26745,2,0,P|465:254|452:179,1,152.999995330811,2|8,1:2|0:0,0:0:0:0:
452,179,27245,1,0,0:0:0:0:
400,104,27412,6,0,P|435:96|475:89,2,76.4999976654053,2|2|10,1:2|0:0|0:0,0:0:0:0:
327,11,27912,2,0,P|261:36|241:113,1,152.999995330811,2|0,0:0|0:0,0:0:0:0:
220,209,28412,2,0,P|255:201|295:194,1,76.4999976654053,8|0,0:0|0:0,0:0:0:0:
402,84,28745,2,0,P|364:90|326:98,1,76.4999976654053,0|2,1:0|0:0,0:0:0:0:
326,98,29078,1,10,0:0:0:0:
192,58,29245,5,10,0:0:0:0:
192,58,29328,1,8,0:0:0:0:
192,58,29412,2,0,P|206:133|219:208,1,152.999995330811,6|10,1:2|0:0,0:0:0:0:
244,301,29912,1,2,0:0:0:0:
244,301,30078,2,0,P|206:293|168:287,1,76.4999976654053,2|2,1:2|0:0,0:0:0:0:
54,196,30412,2,0,P|91:188|129:182,1,76.4999976654053,8|2,0:0|0:0,0:0:0:0:
235,187,30745,6,0,P|241:112|191:57,2,152.999995330811,0|8|0,1:0|0:0|1:0,0:0:0:0:
143,257,31578,1,2,0:0:0:0:
143,257,31744,2,0,P|136:219|129:181,1,76.4999976654053,10|10,0:0|0:0,0:0:0:0:
110,161,31995,5,8,0:0:0:0:
110,161,32078,2,0,P|72:154|34:148,1,76.4999976654053,2|2,1:2|0:0,0:0:0:0:
116,44,32412,2,0,P|153:49|191:57,1,76.4999976654053,10|2,0:0|0:0,0:0:0:0:
266,175,32745,1,2,1:2:0:0:
266,175,32912,2,0,P|271:137|279:99,1,76.4999976654053,2|8,0:0|0:0,0:0:0:0:
436,25,33245,1,2,0:0:0:0:
481,107,33412,6,0,P|407:113|352:64,2,152.999995330811,0|8|0,1:0|0:0|1:0,0:0:0:0:
400,207,34245,1,2,0:0:0:0:
400,207,34412,2,0,P|407:244|413:282,1,76.4999976654053,10|10,0:0|0:0,0:0:0:0:
430,314,34662,5,8,0:0:0:0:
430,314,34745,2,0,B|341:294|372:353|285:334,1,152.999995330811,6|8,1:2|0:0,0:0:0:0:
195,384,35245,1,2,0:0:0:0:
195,384,35412,2,0,P|189:346|181:308,1,76.4999976654053,2|0,1:2|0:0,0:0:0:0:
299,243,35745,2,0,P|305:205|313:168,1,76.4999976654053,10|0,0:0|0:0,0:0:0:0:
196,85,36078,6,0,P|122:79|67:128,2,152.999995330811,2|10|2,1:2|0:0|1:2,0:0:0:0:
226,181,36912,1,0,0:0:0:0:
226,181,37078,2,0,P|188:173|150:167,1,76.4999976654053,10|0,0:0|0:0,0:0:0:0:
0,181,37412,6,0,P|14:256|27:331,1,152.999995330811,2|10,1:2|0:0,0:0:0:0:
126,384,37912,1,2,0:0:0:0:
126,384,38078,2,0,P|131:346|139:308,1,76.4999976654053,2|2,1:2|0:0,0:0:0:0:
150,167,38412,1,10,0:0:0:0:
49,253,38578,1,2,0:0:0:0:
254,320,38745,6,0,P|323:294|348:217,1,152.999995330811,10|2,0:0|0:0,0:0:0:0:
349,224,39245,1,2,0:0:0:0:
232,137,39412,5,10,1:2:0:0:
150,167,39578,1,10,1:2:0:0:
180,250,39745,1,10,1:2:0:0:
263,220,39912,1,10,1:2:0:0:
438,269,40078,6,0,P|451:193|465:118,1,152.999995330811,6|0,1:2|0:0,0:0:0:0:
385,21,40578,1,2,0:0:0:0:
340,104,40745,2,0,P|414:109|469:60,1,152.999995330811,10|0,0:0|0:0,0:0:0:0:
240,0,41245,6,0,P|246:38|252:75,1,76.4999976654053,2|0,1:2|0:0,0:0:0:0:
340,104,41578,2,0,P|270:101|229:138,1,114.749996498108,2|0,1:2|0:0,0:0:0:0:
236,126,41912,1,2,0:0:0:0:
154,235,42078,2,0,P|141:159|127:84,1,152.999995330811,10|0,0:0|0:0,0:0:0:0:
0,40,42578,5,8,0:0:0:0:
0,40,42662,1,8,0:0:0:0:
0,40,42745,2,0,P|14:115|26:190,1,152.999995330811,0|2,1:0|1:2,0:0:0:0:
26,190,43245,1,2,0:0:0:0:
28,312,43412,2,0,P|83:261|157:266,1,152.999995330811,10|0,0:0|0:0,0:0:0:0:
241,364,43912,6,0,P|247:326|253:289,1,76.4999976654053,2|0,1:2|0:0,0:0:0:0:
168,190,44245,1,0,1:0:0:0:
168,190,44412,2,0,P|162:228|156:265,1,76.4999976654053,2|2,1:2|1:2,0:0:0:0:
66,370,44745,2,0,P|104:364|142:358,1,76.4999976654053,10|0,0:0|0:0,0:0:0:0:
141,358,44995,1,0,0:0:0:0:
141,358,45078,1,10,0:0:0:0:
330,384,45245,1,8,0:0:0:0:
253,288,45412,6,0,P|247:326|241:364,1,76.4999976654053,10|8,0:0|0:0,0:0:0:0:
397,300,45745,1,8,0:0:0:0:
271,194,45912,1,2,1:2:0:0:
397,300,46078,2,0,P|447:245|443:171,1,152.999995330811,6|0,1:2|0:0,0:0:0:0:
443,171,46578,1,0,1:0:0:0:
341,68,46745,6,0,P|347:106|353:144,1,76.4999976654053,2|0,0:0|1:0,0:0:0:0:
259,269,47078,2,0,P|265:231|271:193,1,76.4999976654053,2|0,0:0|1:0,0:0:0:0:
184,118,47412,2,0,P|222:112|260:106,1,76.4999976654053,10|0,0:0|0:0,0:0:0:0:
425,242,47745,2,0,P|387:236|349:230,1,76.4999976654053,2|0,0:0|0:0,0:0:0:0:
157,268,48078,6,0,P|170:192|183:117,1,152.999995330811,6|0,1:2|0:0,0:0:0:0:
155,16,48578,1,2,1:2:0:0:
155,16,48745,2,0,P|92:56|77:128,1,152.999995330811,8|2,0:0|0:0,0:0:0:0:
157,268,49245,1,0,1:0:0:0:
17,223,49412,6,0,P|55:217|93:211,1,76.4999976654053,2|0,0:0|1:0,0:0:0:0:
258,129,49745,2,0,P|220:123|182:117,1,76.4999976654053,0|2,0:0|1:2,0:0:0:0:
19,89,50078,1,8,0:0:0:0:
19,89,50245,1,2,1:2:0:0:
113,32,50412,2,0,P|107:70|101:108,1,76.4999976654053,10|2,0:0|0:0,0:0:0:0:
92,211,50745,5,10,1:2:0:0:
92,211,51245,5,10,1:2:0:0:
258,129,51412,1,10,1:2:0:0:
258,129,51912,5,10,1:2:0:0:
113,32,52078,1,10,1:2:0:0:
203,222,52245,5,6,0:3:0:0:
203,222,52328,1,4,0:3:0:0:
203,222,52412,2,0,P|241:216|279:210,1,76.4999976654053,6|2,0:3|1:2,0:0:0:0:
392,138,52745,2,0,P|386:176|380:214,1,76.4999976654053,10|0,1:2|1:0,0:0:0:0:
380,213,52995,1,0,1:0:0:0:
380,213,53078,1,8,1:2:0:0:
371,373,53245,1,0,1:0:0:0:
246,311,53412,6,0,P|284:305|322:299,1,76.4999976654053,2|0,1:2|0:0,0:0:0:0:
467,149,53745,2,0,P|429:143|391:137,1,76.4999976654053,2|0,1:2|0:0,0:0:0:0:
215,79,54078,2,0,P|221:117|227:155,1,76.4999976654053,2|8,1:2|1:2,0:0:0:0:
236,334,54412,1,10,1:2:0:0:
321,299,54578,2,0,P|261:249|178:265,1,165.749992412568,10|0,1:2|0:0,0:0:0:0:
156,288,54912,5,10,1:2:0:0:
156,288,55245,5,10,1:2:0:0:
72,145,55412,1,10,1:2:0:0:
15,318,55745,6,0,P|53:312|87:308,1,63.75,2|0,0:0|0:0,0:0:0:0:
107,382,56078,6,0,P|120:306|141:190,1,187.000005706787,6|8,1:2|0:0,0:0:0:0:
233,54,56578,1,2,0:0:0:0:
292,152,56745,2,0,P|245:144|199:139,1,93.5000028533936,2|2,1:2|1:2,0:0:0:0:
47,56,57078,1,10,0:0:0:0:
47,56,57245,1,2,0:0:0:0:
142,0,57412,6,0,P|135:46|129:92,1,93.5000028533936,2|0,1:2|0:0,0:0:0:0:
13,231,57745,2,0,P|6:184|0:138,1,93.5000028533936,10|0,0:0|0:0,0:0:0:0:
199,139,58078,2,0,P|244:217|218:304,1,187.000005706787,2|8,1:2|0:0,0:0:0:0:
140,230,58578,1,0,0:0:0:0:
30,344,58745,6,0,P|77:337|123:331,1,93.5000028533936,0|2,1:0|0:0,0:0:0:0:
247,226,59078,1,10,0:0:0:0:
247,226,59245,1,2,0:0:0:0:
127,137,59412,2,0,P|133:183|139:229,1,93.5000028533936,0|2,1:0|1:2,0:0:0:0:
321,298,59745,2,0,P|345:259|343:213,1,93.5000028533936,10|2,0:0|0:0,0:0:0:0:
505,90,60078,6,0,B|403:72|433:138|324:116,1,187.000005706787,2|8,1:2|0:0,0:0:0:0:
160,42,60578,1,2,0:0:0:0:
258,1,60745,2,0,P|251:47|245:93,1,93.5000028533936,2|0,1:2|1:0,0:0:0:0:
222,245,61078,2,0,P|277:202|348:215,1,140.25000428009,14|0,0:0|0:0,0:0:0:0:
300,285,61412,6,0,B|230:297|230:297|192:272|192:272|122:281,1,187.000005706787,6|8,1:2|0:0,0:0:0:0:
0,184,61912,1,2,0:0:0:0:
104,103,62078,2,0,P|97:149|91:195,1,93.5000028533936,2|2,1:2|1:2,0:0:0:0:
38,26,62412,1,10,0:0:0:0:
203,147,62578,1,2,0:0:0:0:
12,276,62745,6,0,P|6:229|0:183,1,93.5000028533936,2|0,1:2|0:0,0:0:0:0:
190,54,63078,2,0,P|197:100|202:146,1,93.5000028533936,10|0,0:0|0:0,0:0:0:0:
311,288,63412,2,0,P|224:314|145:269,1,187.000005706787,2|8,1:2|0:0,0:0:0:0:
145,269,63912,1,0,0:0:0:0:
0,183,64078,6,0,P|46:176|92:170,1,93.5000028533936,2|2,1:2|0:0,0:0:0:0:
293,211,64412,1,10,0:0:0:0:
293,211,64578,1,2,0:0:0:0:
214,53,64745,2,0,P|208:99|202:145,1,93.5000028533936,2|0,1:2|1:0,0:0:0:0:
201,145,65078,1,10,0:0:0:0:
158,293,65245,6,0,B|226:283|226:283|265:306|265:306|337:296,1,187.000005706787,10|10,0:0|0:0,0:0:0:0:
492,190,65745,2,0,P|486:236|480:282,1,93.5000028533936,2|10,0:0|0:0,0:0:0:0:
356,102,66078,1,2,1:2:0:0:
293,211,66245,6,0,L|346:201,1,46.7500014266968,2|2,0:0|0:0,0:0:0:0:
441,124,66412,1,2,1:2:0:0:
444,89,66495,1,2,0:0:0:0:
433,56,66578,1,2,0:0:0:0:
410,29,66661,1,2,0:0:0:0:
379,14,66745,6,0,B|276:1|309:65|199:49,1,187.000005706787,6|8,1:2|0:0,0:0:0:0:
77,161,67245,1,2,0:0:0:0:
164,231,67412,2,0,P|170:185|176:139,1,93.5000028533936,2|2,1:2|1:2,0:0:0:0:
93,0,67745,1,10,0:0:0:0:
93,0,67912,1,2,0:0:0:0:
0,144,68078,6,0,P|46:138|92:132,1,93.5000028533936,2|0,1:2|0:0,0:0:0:0:
213,315,68412,2,0,P|167:321|121:327,1,93.5000028533936,10|0,0:0|0:0,0:0:0:0:
283,219,68745,2,0,P|330:296|308:384,1,187.000005706787,2|8,1:2|0:0,0:0:0:0:
213,315,69245,1,0,0:0:0:0:
395,202,69412,6,0,P|441:208|487:214,1,93.5000028533936,0|2,1:0|0:0,0:0:0:0:
332,319,69745,1,10,0:0:0:0:
332,319,69912,1,2,0:0:0:0:
429,384,70078,2,0,P|423:338|417:292,1,93.5000028533936,2|2,1:2|1:2,0:0:0:0:
287,150,70412,2,0,P|281:196|275:242,1,93.5000028533936,10|2,0:0|0:0,0:0:0:0:
443,84,70745,6,0,B|334:99|367:35|264:48,1,187.000005706787,2|8,1:2|0:0,0:0:0:0:
99,100,71245,1,2,0:0:0:0:
201,181,71412,2,0,P|195:135|189:89,1,93.5000028533936,2|0,1:2|1:0,0:0:0:0:
60,17,71745,2,0,P|13:66|14:135,1,140.25000428009,14|0,0:0|0:0,0:0:0:0:
9,211,72078,6,0,B|77:201|77:201|116:224|116:224|188:214,1,187.000005706787,6|8,1:2|0:0,0:0:0:0:
364,216,72578,1,2,0:0:0:0:
265,48,72745,2,0,P|271:94|277:140,1,93.5000028533936,2|2,1:2|1:2,0:0:0:0:
267,278,73078,1,10,0:0:0:0:
378,122,73245,1,2,0:0:0:0:
188,213,73412,6,0,P|182:167|176:121,1,93.5000028533936,2|0,1:2|0:0,0:0:0:0:
390,29,73745,2,0,P|384:75|378:121,1,93.5000028533936,10|0,0:0|0:0,0:0:0:0:
433,297,74078,2,0,P|354:251|266:277,1,187.000005706787,2|8,1:2|0:0,0:0:0:0:
266,277,74578,1,0,0:0:0:0:
109,384,74745,6,0,P|103:338|97:292,1,93.5000028533936,2|0,1:2|0:0,0:0:0:0:
29,186,75078,1,10,0:0:0:0:
186,301,75245,1,2,0:0:0:0:
9,368,75412,5,2,1:2:0:0:
129,198,75578,2,0,P|175:204|221:210,1,93.5000028533936,2|10,1:2|0:0,0:0:0:0:
11,46,75912,6,0,P|17:92|29:190,1,140.25000428009,10|0,0:0|0:0,0:0:0:0:
33,216,76245,1,8,0:0:0:0:
33,216,76578,5,8,0:0:0:0:
186,301,76745,1,8,1:2:0:0:
84,384,76912,5,2,1:2:0:0:
84,384,76995,1,0,1:0:0:0:
84,384,77078,2,0,P|90:338|94:307,1,63.75,2|4,1:2|0:3,0:0:0:0:
128,222,77412,6,0,P|174:216|220:210,1,93.5000028533936,6|2,1:2|0:0,0:0:0:0:
337,384,77745,2,0,P|291:378|245:372,1,93.5000028533936,10|2,0:0|0:0,0:0:0:0:
313,199,78078,5,10,0:0:0:0:
186,301,78245,1,2,1:2:0:0:
312,225,78412,5,10,0:0:0:0:
185,327,78579,1,2,1:2:0:0:
208,117,78745,6,0,P|214:163|220:209,1,93.5000028533936,8|2,0:0|0:0,0:0:0:0:
422,293,79078,2,0,P|416:247|410:201,1,93.5000028533936,10|2,0:0|0:0,0:0:0:0:
365,384,79412,5,10,0:0:0:0:
512,282,79578,1,2,1:2:0:0:
300,133,79745,6,0,P|306:179|312:225,1,93.5000028533936,10|0,0:0|1:0,0:0:0:0:
471,137,80078,6,0,P|431:112|385:112,1,93.5000028533936,8|2,0:0|0:0,0:0:0:0:
249,294,80412,2,0,P|288:318|334:318,1,93.5000028533936,10|2,0:0|0:0,0:0:0:0:
409,200,80745,5,10,0:0:0:0:
461,367,80912,1,2,1:2:0:0:
425,179,81078,5,10,0:0:0:0:
477,346,81245,1,2,1:2:0:0:
312,225,81412,6,0,P|318:179|324:133,1,93.5000028533936,8|2,0:0|0:0,0:0:0:0:
482,0,81745,2,0,P|488:46|494:92,1,93.5000028533936,10|2,0:0|1:2,0:0:0:0:
494,92,81995,1,0,1:0:0:0:
494,92,82078,1,14,0:0:0:0:
425,179,82245,1,0,1:0:0:0:
324,132,82412,1,14,0:0:0:0:
333,30,82578,1,0,1:0:0:0:
244,204,82745,6,0,P|198:198|152:192,1,93.5000028533936,4|2,1:2|0:0,0:0:0:0:
26,56,83078,2,0,P|65:32|111:32,1,93.5000028533936,10|2,0:0|0:0,0:0:0:0:
152,280,83412,5,8,0:0:0:0:
91,118,83578,1,2,1:2:0:0:
0,261,83745,5,8,0:0:0:0:
151,191,83911,1,2,1:2:0:0:
84,384,84078,6,0,P|78:338|72:292,1,93.5000028533936,8|2,0:0|0:0,0:0:0:0:
244,204,84412,2,0,P|238:250|232:296,1,93.5000028533936,10|2,0:0|0:0,0:0:0:0:
195,86,84745,5,10,0:0:0:0:
338,215,84912,1,2,1:2:0:0:
139,289,85078,6,0,P|93:283|47:277,1,93.5000028533936,10|0,0:0|1:0,0:0:0:0:
279,104,85412,6,0,P|279:57|255:18,1,93.5000028533936,8|2,0:0|0:0,0:0:0:0:
115,203,85745,2,0,P|114:249|138:288,1,93.5000028533936,10|2,0:0|0:0,0:0:0:0:
355,337,86078,5,10,0:0:0:0:
198,224,86245,1,2,1:2:0:0:
360,146,86412,5,10,0:0:0:0:
254,316,86578,1,2,1:2:0:0:
459,346,86745,6,0,P|453:300|447:254,1,93.5000028533936,8|2,0:0|0:0,0:0:0:0:
278,72,87078,2,0,P|272:118|266:164,1,93.5000028533936,10|2,0:0|1:2,0:0:0:0:
355,337,87412,5,14,0:0:0:0:
461,163,87578,1,0,1:0:0:0:
265,164,87745,5,14,0:0:0:0:
446,253,87912,1,0,1:0:0:0:
274,383,88078,6,0,B|253:255|253:255|247:288|217:312,1,187.000005706787,6|2,1:2|0:0,0:0:0:0:
