osu file format v14

[General]
AudioFilename: audio.mp3
AudioLeadIn: 0
PreviewTime: 55578
Countdown: 0
SampleSet: Soft
StackLeniency: 0.4
Mode: 0
LetterboxInBreaks: 0
WidescreenStoryboard: 1

[Editor]
DistanceSpacing: 1.4
BeatDivisor: 4
GridSize: 32
TimelineZoom: 1.4

[Metadata]
Title:THE WORLD ORIGIN
TitleUnicode:THE WORLD ORIGIN
Artist:KINEMA106
ArtistUnicode:キネマ106
Creator:aundy
Version:Hard
Source:
Tags:Zawajiro kinema 106 memory of grand order kurousagi uru 黒兎ウル tom jun-jun コミックマーケット99 comiket 99 c99 fate fgo f/go fate/grand type-moon fan anime original song gudako fujimaru ritsuka 藤丸 立香 short tv size version fa featured artist japanese j-pop jpop j pop video game female vocals vocalist
BeatmapID:4022501
BeatmapSetID:1944397

[Difficulty]
HPDrainRate:4
CircleSize:3.5
OverallDifficulty:6
ApproachRate:8
SliderMultiplier:1.5
SliderTickRate:1

[Events]
//Background and Video events
0,0,"FANci0tUcAMx6tf.jpg",0,0
Video,0,"vid.mp4"
//Break Periods
//Storyboard Layer 0 (Background)
//Storyboard Layer 1 (Fail)
//Storyboard Layer 2 (Pass)
//Storyboard Layer 3 (Foreground)
//Storyboard Layer 4 (Overlay)
//Storyboard Sound Samples

[TimingPoints]
79,333.333333333333,4,2,1,70,1,0
79,-100,4,2,1,70,0,0
5412,-100,4,2,1,80,0,0
18745,-111.111111111111,4,2,1,60,0,0
29412,-111.111111111111,4,2,1,62,0,0
38745,-111.111111111111,4,2,1,65,0,0
40078,-111.111111111111,4,2,1,60,0,0
50412,-111.111111111111,4,2,1,65,0,0
50745,-111.111111111111,4,2,1,70,0,0
53412,-111.111111111111,4,2,1,60,0,0
53745,-111.111111111111,4,2,1,64,0,0
54078,-111.111111111111,4,2,1,69,0,0
54412,-111.111111111111,4,2,1,70,0,0
54578,-100,4,2,1,75,0,0
55745,-111.111111111111,4,2,1,75,0,0
56078,-90.9090909090909,4,2,1,80,0,1
76912,-90.9090909090909,4,2,1,80,0,0
77412,-90.9090909090909,4,2,1,85,0,1
88078,-200,4,2,1,85,0,0
89412,-200,4,2,1,5,0,0

[Colours]
Combo1 : 133,169,254
Combo2 : 255,125,125
Combo3 : 184,255,113
Combo4 : 140,255,255

[HitObjects]
104,326,79,6,0,P|67:318|30:312,2,75,6|2|0,1:2|1:2|0:0,0:0:0:0:
147,247,578,2,0,P|219:236|275:282,1,150,14|2,0:0|1:2,0:0:0:0:
317,361,1078,2,0,L|357:351,2,37.5,6|4|6,0:3|0:3|0:3,0:0:0:0:
414,283,1412,6,0,P|420:248|427:209,1,75,6|2,1:2|0:0,0:0:0:0:
455,126,1745,1,2,0:0:0:0:
455,126,1912,2,0,B|368:106|398:165|309:144,1,150,10|10,0:0|0:0,0:0:0:0:
270,64,2412,1,10,0:0:0:0:
190,103,2578,1,10,0:0:0:0:
231,182,2745,6,0,P|157:186|104:137,1,150,6|2,1:2|0:0,0:0:0:0:
67,54,3245,1,2,0:0:0:0:
67,54,3412,2,0,P|17:107|22:180,1,150,6|2,1:2|0:0,0:0:0:0:
16,270,3912,2,0,P|52:263|89:257,1,75,6|0,1:2|0:0,0:0:0:0:
122,340,4245,2,0,P|158:346|195:352,1,75,10|0,0:0|0:0,0:0:0:0:
275,307,4578,1,10,0:0:0:0:
275,307,4745,1,10,0:0:0:0:
442,325,5412,6,0,P|448:290|455:251,1,75,4|0,1:2|0:0,0:0:0:0:
502,174,5745,1,8,0:0:0:0:
502,174,5912,2,0,P|430:162|373:209,1,150,0|0,1:0|1:0,0:0:0:0:
317,279,6412,1,10,0:0:0:0:
237,237,6578,5,2,0:0:0:0:
237,237,6662,1,0,0:0:0:0:
237,237,6745,2,0,P|243:200|249:163,1,75,2|0,1:2|0:0,0:0:0:0:
332,126,7078,2,0,P|325:89|319:52,1,75,8|0,0:0|1:0,0:0:0:0:
238,11,7412,2,0,B|151:-7|179:46|93:28,1,150,0|10,0:0|0:0,0:0:0:0:
24,82,7912,5,2,0:0:0:0:
24,82,7996,1,2,0:0:0:0:
24,82,8079,2,0,P|30:119|36:156,1,75,2|0,1:2|0:0,0:0:0:0:
115,197,8412,2,0,P|109:234|103:271,1,75,8|0,0:0|1:0,0:0:0:0:
39,352,8745,1,0,0:0:0:0:
39,352,8912,2,0,P|76:358|113:364,1,75,0|8,1:0|0:0,0:0:0:0:
184,305,9245,6,0,P|255:292|312:338,1,150,2|2,0:0|0:0,0:0:0:0:
399,317,9745,2,0,P|405:280|411:243,1,75,8|2,0:0|1:2,0:0:0:0:
364,165,10078,1,2,0:0:0:0:
443,119,10245,1,2,1:2:0:0:
443,119,10412,2,0,P|386:73|314:85,1,150,10|2,0:0|1:2,0:0:0:0:
251,150,10912,5,0,0:0:0:0:
251,150,11078,2,0,P|214:144|177:138,1,75,8|0,0:0|1:0,0:0:0:0:
99,91,11412,2,0,P|93:128|87:165,1,75,0|0,0:0|1:0,0:0:0:0:
68,259,11745,1,10,0:0:0:0:
68,259,11828,1,0,0:0:0:0:
68,259,11912,2,0,B|161:237|161:237|207:265,1,150,2|0,0:0|0:0,0:0:0:0:
256,341,12412,6,0,P|293:335|330:329,1,75,8|0,0:0|1:0,0:0:0:0:
402,279,12745,2,0,P|396:242|390:205,1,75,0|0,0:0|1:0,0:0:0:0:
406,116,13078,2,0,L|452:110,3,37.5,10|2|2|2,0:0|0:0|0:0|0:0,0:0:0:0:
384,84,13412,6,0,P|349:69|312:75,1,75,2|0,1:2|0:0,0:0:0:0:
235,28,13745,2,0,P|220:62|226:99,1,75,8|0,0:0|1:0,0:0:0:0:
182,179,14078,1,0,0:0:0:0:
182,179,14245,2,0,P|216:194|253:188,1,75,0|8,1:0|0:0,0:0:0:0:
339,165,14578,6,0,B|361:258|361:258|333:304,1,150,2|2,0:0|0:0,0:0:0:0:
268,368,15078,2,0,P|231:362|194:356,1,75,8|2,0:0|1:2,0:0:0:0:
105,375,15412,1,2,0:0:0:0:
82,288,15578,1,2,1:2:0:0:
169,265,15745,2,0,P|179:210|156:160,1,112.5,10|0,0:0|0:0,0:0:0:0:
130,138,16078,5,10,0:0:0:0:
26,62,16578,5,10,0:0:0:0:
26,62,16745,1,10,0:0:0:0:
131,2,17245,5,10,0:0:0:0:
131,2,17412,2,0,P|168:8|205:14,1,75,10|2,0:0|0:0,0:0:0:0:
205,14,17662,1,0,0:0:0:0:
205,14,17745,1,2,0:0:0:0:
269,87,17912,5,2,0:0:0:0:
346,44,18079,1,10,0:0:0:0:
489,20,18745,6,0,B|510:104|510:104|484:151,1,134.999995880127,6|8,1:2|0:0,0:0:0:0:
425,209,19245,1,2,0:0:0:0:
425,209,19412,2,0,P|372:169|307:178,1,134.999995880127,2|8,1:2|0:0,0:0:0:0:
231,222,19912,6,0,P|237:259|241:290,1,67.4999979400635,2|0,0:0|1:0,0:0:0:0:
196,364,20245,2,0,P|162:368|129:373,1,67.4999979400635,2|8,0:0|0:0,0:0:0:0:
52,330,20578,1,2,0:0:0:0:
52,330,20745,2,0,B|31:246|31:246|54:203,1,134.999995880127,2|8,1:2|0:0,0:0:0:0:
88,117,21245,5,8,0:0:0:0:
88,117,21328,1,8,0:0:0:0:
88,117,21412,2,0,P|141:157|206:148,1,134.999995880127,2|10,1:2|0:0,0:0:0:0:
244,69,21912,2,0,B|319:56|295:104|373:91,1,134.999995880127,2|2,0:0|0:0,0:0:0:0:
446,138,22412,2,0,P|440:175|436:206,1,67.4999979400635,8|2,0:0|0:0,0:0:0:0:
448,296,22745,5,2,1:2:0:0:
448,296,22912,2,0,P|414:290|381:286,1,67.4999979400635,0|10,0:0|0:0,0:0:0:0:
333,359,23245,2,0,P|267:367|215:327,1,134.999995880127,2|2,0:0|0:0,0:0:0:0:
161,258,23745,2,0,P|166:224|170:191,1,67.4999979400635,10|10,0:0|0:0,0:0:0:0:
191,161,23995,5,8,0:0:0:0:
191,161,24078,2,0,B|275:140|275:140|317:163,1,134.999995880127,6|8,1:2|0:0,0:0:0:0:
408,155,24578,1,2,0:0:0:0:
408,155,24745,2,0,P|412:121|417:88,1,67.4999979400635,2|0,1:2|0:0,0:0:0:0:
373,12,25078,2,0,P|339:16|306:21,1,67.4999979400635,10|0,0:0|0:0,0:0:0:0:
255,93,25412,6,0,P|188:83|121:73,2,134.999995880127,2|10|2,1:2|0:0|1:2,0:0:0:0:
306,170,26245,1,0,0:0:0:0:
306,170,26412,2,0,P|300:203|297:236,1,67.4999979400635,10|0,0:0|0:0,0:0:0:0:
230,293,26745,2,0,P|177:253|112:261,1,134.999995880127,2|8,1:2|0:0,0:0:0:0:
0,148,27412,5,2,1:2:0:0:
0,148,27579,2,0,P|33:142|66:139,1,67.4999979400635,2|10,0:0|0:0,0:0:0:0:
116,66,27912,2,0,B|191:53|167:101|245:88,1,134.999995880127,2|0,0:0|0:0,0:0:0:0:
331,73,28412,2,0,P|321:140|311:207,2,134.999995880127,8|0|10,0:0|1:0|0:0,0:0:0:0:
409,28,29245,5,10,0:0:0:0:
409,28,29328,1,8,0:0:0:0:
409,28,29412,2,0,P|445:24|475:37,1,67.4999979400635,6|2,1:2|0:0,0:0:0:0:
426,110,29745,2,0,P|429:146|416:176,1,67.4999979400635,10|2,0:0|0:0,0:0:0:0:
339,133,30078,1,2,1:2:0:0:
339,133,30245,2,0,P|273:141|221:101,1,134.999995880127,2|2,0:0|0:0,0:0:0:0:
139,132,30745,6,0,P|129:65|119:-2,2,134.999995880127,0|8|0,1:0|0:0|1:0,0:0:0:0:
113,218,31578,1,2,0:0:0:0:
113,218,31745,2,0,P|79:212|46:209,1,67.4999979400635,10|10,0:0|0:0,0:0:0:0:
18,230,31995,5,8,0:0:0:0:
18,230,32078,2,0,P|14:264|9:296,1,67.4999979400635,2|2,1:2|0:0,0:0:0:0:
60,368,32412,2,0,P|94:372|126:376,1,67.4999979400635,10|2,0:0|0:0,0:0:0:0:
184,308,32745,1,2,1:2:0:0:
184,308,32912,2,0,P|249:317|301:277,1,134.999995880127,2|2,0:0|0:0,0:0:0:0:
373,215,33412,2,0,B|396:257|396:257|375:341,2,134.999995880127,0|8|0,1:0|0:0|1:0,0:0:0:0:
291,166,34245,6,0,P|257:169|224:174,2,67.4999979400635,2|10|10,0:0|0:0|0:0,0:0:0:0:
321,142,34662,1,8,0:0:0:0:
321,142,34745,2,0,P|329:76|289:24,1,134.999995880127,6|8,1:2|0:0,0:0:0:0:
218,85,35245,1,2,0:0:0:0:
218,85,35412,2,0,B|143:72|167:120|89:107,1,134.999995880127,2|10,1:2|0:0,0:0:0:0:
14,58,35912,5,0,0:0:0:0:
14,58,36078,2,0,P|9:92|4:125,1,67.4999979400635,2|0,1:2|0:0,0:0:0:0:
66,196,36412,2,0,P|60:229|56:262,1,67.4999979400635,10|0,0:0|0:0,0:0:0:0:
92,350,36745,2,0,B|176:329|176:329|218:352,1,134.999995880127,2|10,1:2|0:0,0:0:0:0:
407,336,37412,6,0,P|417:269|427:202,1,134.999995880127,2|10,1:2|0:0,0:0:0:0:
361,143,37912,1,2,0:0:0:0:
361,143,38078,2,0,P|327:148|294:153,1,67.4999979400635,2|2,1:2|0:0,0:0:0:0:
253,228,38412,2,0,P|219:222|186:218,1,67.4999979400635,10|2,0:0|0:0,0:0:0:0:
115,166,38745,2,0,P|107:100|147:48,1,134.999995880127,10|2,0:0|0:0,0:0:0:0:
231,18,39245,5,2,0:0:0:0:
231,18,39412,2,0,P|264:23|297:27,1,67.4999979400635,10|10,1:2|1:2,0:0:0:0:
383,9,39745,1,10,1:2:0:0:
403,94,39912,1,10,1:2:0:0:
319,119,40078,6,0,B|298:203|298:203|321:245,1,134.999995880127,6|0,1:2|0:0,0:0:0:0:
360,329,40578,1,2,0:0:0:0:
360,329,40745,2,0,P|294:337|242:297,1,134.999995880127,10|0,0:0|0:0,0:0:0:0:
198,221,41245,6,0,P|164:225|55:243,2,134.999995880127,2|2|2,1:2|1:2|0:0,0:0:0:0:
266,165,42078,2,0,P|274:99|234:47,1,134.999995880127,10|0,0:0|0:0,0:0:0:0:
152,0,42578,5,8,0:0:0:0:
152,0,42662,1,8,0:0:0:0:
152,0,42745,2,0,P|141:66|131:133,1,134.999995880127,0|2,1:0|1:2,0:0:0:0:
152,223,43245,1,2,0:0:0:0:
152,223,43412,2,0,B|68:202|68:202|26:225,1,134.999995880127,10|0,0:0|0:0,0:0:0:0:
11,311,43912,6,0,P|15:344|20:377,1,67.4999979400635,2|0,1:2|0:0,0:0:0:0:
108,384,44245,1,0,1:0:0:0:
108,384,44412,2,0,P|102:350|98:317,1,67.4999979400635,2|2,1:2|1:2,0:0:0:0:
140,239,44745,2,0,P|206:231|258:271,1,134.999995880127,10|10,0:0|0:0,0:0:0:0:
293,351,45245,5,8,0:0:0:0:
293,351,45412,2,0,P|326:345|359:341,1,67.4999979400635,10|8,0:0|0:0,0:0:0:0:
443,368,45745,1,8,0:0:0:0:
474,286,45912,1,2,1:2:0:0:
393,253,46078,2,0,P|385:187|425:135,1,134.999995880127,6|0,1:2|0:0,0:0:0:0:
509,111,46578,6,0,P|503:77|499:44,1,67.4999979400635,0|2,1:0|0:0,0:0:0:0:
426,4,46912,1,0,1:0:0:0:
426,4,47078,2,0,P|392:8|359:13,1,67.4999979400635,2|0,0:0|1:0,0:0:0:0:
309,86,47412,2,0,B|225:65|225:65|183:88,1,134.999995880127,10|2,0:0|0:0,0:0:0:0:
17,28,48078,6,0,P|28:94|38:161,1,134.999995880127,6|0,1:2|0:0,0:0:0:0:
105,226,48578,1,2,1:2:0:0:
105,226,48745,2,0,P|157:186|222:194,1,134.999995880127,8|2,0:0|0:0,0:0:0:0:
309,203,49245,6,0,P|303:236|299:269,1,67.4999979400635,0|2,1:0|0:0,0:0:0:0:
238,333,49578,2,0,P|204:327|171:323,1,67.4999979400635,0|0,1:0|0:0,0:0:0:0:
114,262,49912,1,2,1:2:0:0:
114,262,50078,2,0,B|135:178|135:178|112:136,1,134.999995880127,8|10,0:0|0:0,0:0:0:0:
159,61,50578,1,2,0:0:0:0:
92,3,50745,1,10,1:2:0:0:
35,172,51245,5,10,1:2:0:0:
35,172,51412,1,10,1:2:0:0:
159,61,51912,5,10,1:2:0:0:
159,61,52078,2,0,P|192:65|225:70,1,67.4999979400635,10|6,1:2|0:3,0:0:0:0:
251,98,52328,1,4,0:3:0:0:
251,98,52412,2,0,P|245:131|241:164,1,67.4999979400635,6|2,0:3|1:2,0:0:0:0:
178,226,52745,1,10,1:2:0:0:
248,295,52912,1,0,1:0:0:0:
248,295,52995,1,0,1:0:0:0:
248,295,53078,2,0,P|281:289|314:285,1,67.4999979400635,8|0,1:2|1:0,0:0:0:0:
400,346,53412,6,0,P|410:282|421:212,1,134.999995880127,2|2,1:2|1:2,0:0:0:0:
382,55,54078,2,0,P|354:42|315:45,1,67.4999979400635,2|8,1:2|1:2,0:0:0:0:
255,112,54412,1,10,1:2:0:0:
255,112,54578,6,0,P|260:145|268:192,1,75,10|0,1:2|0:0,0:0:0:0:
343,235,54912,2,0,P|337:268|331:313,1,75,10|2,1:2|0:0,0:0:0:0:
263,366,55245,1,10,1:2:0:0:
263,366,55412,1,10,1:2:0:0:
101,368,55745,6,0,P|96:318|128:281,1,101.249996910095,2|0,0:0|0:0,0:0:0:0:
168,285,56078,6,0,B|193:187|193:187|156:131,1,165.000005035401,6|8,1:2|0:0,0:0:0:0:
90,68,56578,1,2,0:0:0:0:
90,68,56745,2,0,P|127:40|167:41,1,82.5000025177003,2|2,1:2|1:2,0:0:0:0:
245,92,57078,1,10,0:0:0:0:
245,92,57245,1,2,0:0:0:0:
294,6,57412,6,0,P|333:12|387:20,1,82.5000025177003,2|0,1:2|0:0,0:0:0:0:
436,96,57745,2,0,P|429:136|423:177,1,82.5000025177003,10|0,0:0|0:0,0:0:0:0:
484,256,58078,2,0,P|403:274|338:229,1,165.000005035401,2|8,1:2|0:0,0:0:0:0:
342,135,58578,5,0,0:0:0:0:
342,135,58745,2,0,P|303:141|249:149,1,82.5000025177003,0|2,1:0|0:0,0:0:0:0:
193,220,59078,2,0,P|152:213|111:207,1,82.5000025177003,10|2,0:0|0:0,0:0:0:0:
13,226,59412,2,0,P|19:185|25:144,1,82.5000025177003,0|2,1:0|1:2,0:0:0:0:
88,68,59745,1,10,0:0:0:0:
170,122,59912,1,2,0:0:0:0:
111,207,60078,6,0,P|138:289|210:308,1,165.000005035401,2|8,1:2|0:0,0:0:0:0:
293,367,60578,1,2,0:0:0:0:
293,367,60745,2,0,P|299:326|305:285,1,82.5000025177003,2|0,1:2|1:0,0:0:0:0:
367,208,61078,2,0,P|411:248|474:246,1,123.75000377655,14|0,0:0|0:0,0:0:0:0:
501,226,61412,6,0,P|495:185|474:51,1,165.000005035401,6|8,1:2|0:0,0:0:0:0:
398,10,61912,1,2,0:0:0:0:
398,10,62079,2,0,P|357:12|326:38,1,82.5000025177003,2|2,1:2|1:2,0:0:0:0:
313,140,62412,1,10,0:0:0:0:
313,140,62578,1,2,0:0:0:0:
216,117,62745,6,0,P|222:76|228:35,1,82.5000025177003,2|0,1:2|0:0,0:0:0:0:
111,118,63078,2,0,P|117:159|123:200,1,82.5000025177003,10|0,0:0|0:0,0:0:0:0:
187,283,63412,2,0,P|109:302|42:258,1,165.000005035401,2|8,1:2|0:0,0:0:0:0:
111,118,64078,6,0,P|152:124|193:130,1,82.5000025177003,2|2,1:2|0:0,0:0:0:0:
295,118,64412,1,10,0:0:0:0:
295,118,64578,1,2,0:0:0:0:
335,208,64745,2,0,P|332:248|306:279,1,82.5000025177003,2|0,1:2|1:0,0:0:0:0:
202,281,65078,5,10,0:0:0:0:
202,281,65245,2,0,B|227:183|227:183|190:127,1,165.000005035401,10|10,0:0|0:0,0:0:0:0:
117,64,65745,2,0,P|147:37|188:34,1,82.5000025177003,2|10,0:0|0:0,0:0:0:0:
281,1,66078,2,0,P|275:42|269:83,1,82.5000025177003,2|2,1:2|0:0,0:0:0:0:
291,114,66328,1,2,0:0:0:0:
291,114,66412,2,0,L|331:107,3,41.2500012588501,2|2|2|2,1:2|0:0|0:0|0:0,0:0:0:0:
368,130,66745,6,0,P|387:207|342:275,1,165.000005035401,6|8,1:2|0:0,0:0:0:0:
283,355,67245,1,2,0:0:0:0:
283,355,67412,2,0,P|242:349|201:343,1,82.5000025177003,2|2,1:2|1:2,0:0:0:0:
108,376,67745,1,10,0:0:0:0:
78,281,67912,1,2,0:0:0:0:
172,254,68078,6,0,P|178:213|184:172,1,82.5000025177003,2|0,1:2|0:0,0:0:0:0:
89,139,68412,2,0,P|83:98|77:57,1,82.5000025177003,10|0,0:0|0:0,0:0:0:0:
161,5,68745,2,0,B|254:-10|225:49|321:33,1,165.000005035401,2|8,1:2|0:0,0:0:0:0:
414,0,69245,5,0,0:0:0:0:
414,0,69412,2,0,P|408:41|402:82,1,82.5000025177003,0|2,1:0|0:0,0:0:0:0:
314,128,69745,2,0,P|320:169|326:210,1,82.5000025177003,10|2,0:0|0:0,0:0:0:0:
385,288,70078,2,0,P|425:288|458:264,1,82.5000025177003,2|2,1:2|1:2,0:0:0:0:
503,175,70412,1,10,0:0:0:0:
425,114,70578,1,2,0:0:0:0:
360,188,70745,6,0,B|267:173|296:232|200:216,1,165.000005035401,2|8,1:2|0:0,0:0:0:0:
121,273,71245,1,2,0:0:0:0:
121,273,71412,2,0,P|115:232|109:191,1,82.5000025177003,2|0,1:2|1:0,0:0:0:0:
62,103,71745,2,0,P|106:62|167:64,1,123.75000377655,14|0,0:0|0:0,0:0:0:0:
195,96,72078,6,0,B|293:121|293:121|349:84,1,165.000005035401,6|8,1:2|0:0,0:0:0:0:
421,21,72578,1,2,0:0:0:0:
421,21,72745,2,0,P|445:53|445:94,1,82.5000025177003,2|2,1:2|1:2,0:0:0:0:
436,193,73078,1,10,0:0:0:0:
337,184,73245,1,2,0:0:0:0:
346,85,73412,6,0,P|305:84|272:60,1,82.5000025177003,2|0,1:2|0:0,0:0:0:0:
176,84,73745,2,0,P|151:116|151:157,1,82.5000025177003,10|0,0:0|0:0,0:0:0:0:
194,246,74078,2,0,P|260:201|338:220,1,165.000005035401,2|8,1:2|0:0,0:0:0:0:
430,384,74745,6,0,P|389:378|348:372,1,82.5000025177003,2|0,1:2|0:0,0:0:0:0:
282,297,75078,1,10,0:0:0:0:
282,297,75245,1,2,0:0:0:0:
338,220,75412,6,0,P|332:179|326:138,1,82.5000025177003,2|2,1:2|1:2,0:0:0:0:
386,61,75745,1,10,0:0:0:0:
386,61,75912,2,0,P|308:41|241:86,1,165.000005035401,10|8,0:0|0:0,0:0:0:0:
214,236,76578,5,8,0:0:0:0:
214,236,76745,2,0,P|173:230|132:224,1,82.5000025177003,8|2,1:2|1:2,0:0:0:0:
99,244,76995,5,0,1:0:0:0:
99,244,77078,2,0,P|93:203|81:112,1,123.75000377655,2|4,1:2|0:3,0:0:0:0:
96,91,77412,6,0,P|131:70|171:75,1,82.5000025177003,6|2,1:2|0:0,0:0:0:0:
257,26,77745,2,0,P|277:61|272:101,1,82.5000025177003,10|2,0:0|0:0,0:0:0:0:
244,199,78078,1,10,0:0:0:0:
244,199,78245,1,2,1:2:0:0:
152,174,78412,1,10,0:0:0:0:
152,174,78578,1,2,1:2:0:0:
79,241,78745,6,0,P|85:282|91:323,1,82.5000025177003,8|2,0:0|0:0,0:0:0:0:
170,381,79078,2,0,P|211:375|252:369,1,82.5000025177003,10|2,0:0|0:0,0:0:0:0:
318,294,79412,1,10,0:0:0:0:
399,349,79578,1,2,1:2:0:0:
446,262,79745,2,0,P|450:221|430:186,1,82.5000025177003,10|0,0:0|1:0,0:0:0:0:
446,88,80078,6,0,P|405:94|364:100,1,82.5000025177003,8|2,0:0|0:0,0:0:0:0:
303,179,80412,2,0,P|262:173|221:167,1,82.5000025177003,10|2,0:0|0:0,0:0:0:0:
145,111,80745,1,10,0:0:0:0:
145,111,80912,2,0,P|125:146|129:186,1,82.5000025177003,2|10,1:2|0:0,0:0:0:0:
114,276,81245,5,2,1:2:0:0:
114,276,81412,2,0,P|155:270|196:264,1,82.5000025177003,8|2,0:0|0:0,0:0:0:0:
236,354,81745,2,0,P|277:360|318:366,1,82.5000025177003,10|2,0:0|1:2,0:0:0:0:
350,379,81995,1,0,1:0:0:0:
350,379,82078,2,0,P|356:338|362:297,1,82.5000025177003,14|0,0:0|1:0,0:0:0:0:
456,267,82412,1,14,0:0:0:0:
434,170,82578,1,0,1:0:0:0:
337,190,82745,6,0,P|296:184|255:178,1,82.5000025177003,4|2,1:2|0:0,0:0:0:0:
159,205,83078,2,0,P|154:164|174:129,1,82.5000025177003,10|2,0:0|0:0,0:0:0:0:
260,77,83412,1,8,0:0:0:0:
260,77,83578,1,2,1:2:0:0:
180,27,83745,1,8,0:0:0:0:
180,27,83912,1,2,1:2:0:0:
95,77,84078,6,0,P|54:71|13:65,1,82.5000025177003,8|2,0:0|0:0,0:0:0:0:
103,175,84412,2,0,P|144:169|185:163,1,82.5000025177003,10|2,0:0|0:0,0:0:0:0:
256,230,84745,1,10,0:0:0:0:
205,315,84912,1,2,1:2:0:0:
106,307,85078,2,0,P|105:347|129:380,1,82.5000025177003,10|0,0:0|1:0,0:0:0:0:
160,223,85412,6,0,P|154:182|148:141,1,82.5000025177003,8|2,0:0|0:0,0:0:0:0:
183,48,85745,2,0,P|224:42|265:36,1,82.5000025177003,10|2,0:0|0:0,0:0:0:0:
344,94,86078,1,10,0:0:0:0:
344,94,86245,1,2,1:2:0:0:
290,178,86412,1,10,0:0:0:0:
290,178,86579,1,2,1:2:0:0:
366,239,86745,6,0,P|360:280|354:321,1,82.5000025177003,8|2,0:0|0:0,0:0:0:0:
266,366,87078,2,0,P|225:370|190:350,1,82.5000025177003,10|2,0:0|1:2,0:0:0:0:
113,286,87412,1,14,0:0:0:0:
175,209,87578,1,0,1:0:0:0:
252,270,87745,1,14,0:0:0:0:
190,350,87912,1,0,1:0:0:0:
113,286,88078,6,0,P|83:243|99:146,1,150,6|2,1:2|0:0,0:0:0:0:
