osu file format v14

[General]
AudioFilename: audio.mp3
AudioLeadIn: 0
PreviewTime: 55724
Countdown: 0
SampleSet: Soft
StackLeniency: 0.7
Mode: 0
LetterboxInBreaks: 0
WidescreenStoryboard: 0

[Editor]
Bookmarks: 53745
DistanceSpacing: 1.5
BeatDivisor: 4
GridSize: 32
TimelineZoom: 1.8

[Metadata]
Title:THE WORLD ORIGIN
TitleUnicode:THE WORLD ORIGIN
Artist:KINEMA106
ArtistUnicode:キネマ106
Creator:Zawajiro
Version:SEKAI!
Source:
Tags:kinema 106 memory of grand order kurousagi uru 黒兎ウル tom jun-jun コミックマーケット99 comiket 99 c99 fate fgo f/go fate/grand type-moon fan anime original song gudako fujimaru ritsuka 藤丸 立香 short tv size version fa featured artist japanese j-pop jpop j pop video game female vocals vocalist nevertary majk00 majko vanya2 vanya jeby
BeatmapID:3547996
BeatmapSetID:1735967

[Difficulty]
HPDrainRate:5.7
CircleSize:4
OverallDifficulty:8.8
ApproachRate:9.3
SliderMultiplier:1.8
SliderTickRate:1

[Events]
//Background and Video events
0,0,"bg.jpg",0,0
Video,0,"vid.mp4"
//Break Periods
//Storyboard Layer 0 (Background)
//Storyboard Layer 1 (Fail)
//Storyboard Layer 2 (Pass)
//Storyboard Layer 3 (Foreground)
//Storyboard Layer 4 (Overlay)
//Storyboard Sound Samples

[TimingPoints]
79,333.333333333333,4,2,1,70,1,0
5412,-83.3333333333333,4,2,1,80,0,0
18745,-125,4,2,1,60,0,0
29412,-125,4,2,1,62,0,0
38745,-125,4,2,1,65,0,0
39745,-100,4,2,1,65,0,0
40078,-125,4,2,1,60,0,0
50412,-125,4,2,1,65,0,0
50745,-125,4,2,1,70,0,0
53412,-111.111111111111,4,2,1,60,0,0
53745,-111.111111111111,4,2,1,64,0,0
54078,-111.111111111111,4,2,1,69,0,0
54412,-111.111111111111,4,2,1,70,0,0
54578,-111.111111111111,4,2,1,75,0,0
55745,-333.333333333333,4,2,1,75,0,0
55995,-333.333333333333,4,2,1,5,0,0
56078,-83.3333333333333,4,2,1,80,0,1
76912,-83.3333333333333,4,2,1,80,0,0
77412,-76.9230769230769,4,2,1,85,0,1
88078,-71.4285714285714,4,2,1,85,0,0
89412,-76.9230769230769,4,2,1,5,0,0

[Colours]
Combo1 : 255,228,202
Combo2 : 255,170,130

[HitObjects]
414,49,79,6,0,P|401:100|392:160,1,90,6|2,1:2|1:2,0:0:0:0:
395,157,328,1,2,0:0:0:0:
395,157,412,1,2,0:0:0:0:
512,328,578,2,0,P|472:274|348:312,1,180,14|2,0:0|1:2,0:0:0:0:
305,384,1078,5,6,0:3:0:0:
324,377,1162,1,4,0:3:0:0:
346,370,1245,1,6,0:3:0:0:
178,190,1412,2,0,P|195:254|202:291,1,90,6|2,1:2|0:0,0:0:0:0:
305,142,1745,1,2,0:0:0:0:
130,73,1912,6,0,P|75:98|-29:132,1,135,14|0,0:0|0:0,0:0:0:0:
0,105,2245,2,0,P|15:137|21:165,1,45,10|0,0:0|0:0,0:0:0:0:
38,268,2412,2,0,P|45:246|55:226,1,45,10|0,0:0|0:0,0:0:0:0:
166,147,2578,2,0,P|140:162|116:176,1,45,10|0,0:0|0:0,0:0:0:0:
181,322,2745,6,0,B|249:308|263:360|263:360|308:309|256:260|340:201,1,270,6|2,1:2|0:0,0:0:0:0:
512,50,3412,6,0,B|463:31|429:75|435:80|440:83|422:130|352:118,1,180,6|2,1:2|0:0,0:0:0:0:
284,37,3912,6,0,P|307:104|329:219,1,180,6|10,1:2|0:0,0:0:0:0:
328,210,4579,1,10,0:0:0:0:
328,210,4745,1,10,0:0:0:0:
461,358,4912,5,0,1:0:0:0:
470,343,4995,1,0,1:0:0:0:
479,329,5078,2,0,P|409:312|334:288,1,135,4|0,1:2|0:0,0:0:0:0:
291,343,5412,6,0,P|234:311|230:249,1,107.999996704102,4|0,1:2|0:0,0:0:0:0:
389,60,5745,2,0,P|405:130|413:181,1,107.999996704102,8|0,0:0|1:0,0:0:0:0:
111,116,6078,1,0,0:0:0:0:
260,20,6245,1,0,1:0:0:0:
323,208,6412,1,10,0:0:0:0:
226,125,6578,1,2,0:0:0:0:
48,303,6745,6,0,P|104:277|150:262,1,107.999996704102,2|0,1:2|0:0,0:0:0:0:
32,81,7078,2,0,P|61:140|81:189,1,107.999996704102,8|0,0:0|1:0,0:0:0:0:
215,384,7412,1,0,0:0:0:0:
331,190,7578,1,0,1:0:0:0:
218,247,7745,1,10,0:0:0:0:
266,270,7828,1,2,0:0:0:0:
313,296,7911,1,2,0:0:0:0:
358,326,7994,1,2,0:0:0:0:
405,346,8078,6,0,P|470:293|413:164,1,215.999993408203,2|8,1:2|0:0,0:0:0:0:
288,69,8578,1,0,1:0:0:0:
425,3,8745,1,0,0:0:0:0:
313,196,8912,1,0,1:0:0:0:
151,28,9078,1,8,0:0:0:0:
40,236,9245,6,0,P|98:217|149:207,1,107.999996704102,2|0,0:0|1:0,0:0:0:0:
268,79,9578,2,0,P|210:60|159:50,1,107.999996704102,2|8,0:0|0:0,0:0:0:0:
28,113,9912,1,2,1:2:0:0:
212,289,10078,1,2,0:0:0:0:
41,373,10245,1,2,1:2:0:0:
135,196,10412,2,0,P|188:148|273:177,1,161.999995056153,10|0,0:0|0:0,0:0:0:0:
318,236,10745,6,0,P|303:286|290:344,1,107.999996704102,2|0,1:2|0:0,0:0:0:0:
486,201,11078,2,0,P|497:148|513:96,1,107.999996704102,8|0,0:0|1:0,0:0:0:0:
377,0,11412,1,0,0:0:0:0:
268,171,11578,1,0,1:0:0:0:
384,122,11745,1,10,0:0:0:0:
141,32,11912,1,2,0:0:0:0:
141,32,11995,1,2,0:0:0:0:
141,32,12078,6,0,P|205:52|249:68,1,107.999996704102,2|0,1:2|0:0,0:0:0:0:
77,238,12412,2,0,P|1:200|8:156,1,107.999996704102,8|0,0:0|1:0,0:0:0:0:
275,275,12745,1,0,0:0:0:0:
79,376,12912,1,0,1:0:0:0:
146,151,13078,1,10,0:0:0:0:
159,203,13161,1,2,0:0:0:0:
169,256,13244,1,2,0:0:0:0:
175,309,13328,1,2,0:0:0:0:
184,360,13412,6,0,B|253:386|283:326|281:321|276:318|314:266|396:306,1,215.999993408203,2|8,1:2|0:0,0:0:0:0:
503,377,13912,1,0,1:0:0:0:
356,127,14078,1,0,0:0:0:0:
512,221,14245,1,0,1:0:0:0:
372,297,14412,1,8,0:0:0:0:
452,121,14578,6,0,P|470:62|488:10,1,107.999996704102,2|0,0:0|1:0,0:0:0:0:
243,137,14912,2,0,P|260:188|276:239,1,107.999996704102,2|8,0:0|0:0,0:0:0:0:
137,14,15245,1,2,1:2:0:0:
332,89,15412,1,2,0:0:0:0:
131,211,15578,1,2,1:2:0:0:
313,98,15745,2,0,B|358:96|374:50|374:50|361:93|394:145,1,161.999995056153,10|0,0:0|0:0,0:0:0:0:
262,37,16078,5,10,0:0:0:0:
313,98,16578,5,10,0:0:0:0:
54,0,16745,1,10,0:0:0:0:
23,172,17245,5,10,0:0:0:0:
355,1,17412,1,10,0:0:0:0:
402,24,17495,1,2,0:0:0:0:
429,70,17578,1,2,0:0:0:0:
426,123,17661,1,2,0:0:0:0:
394,166,17745,2,0,P|383:98|380:49,1,107.999996704102,2|2,0:0|0:0,0:0:0:0:
207,0,18078,5,10,0:0:0:0:
465,302,18745,6,0,P|421:274|351:297,1,108,6|0,1:2|0:0,0:0:0:0:
358,301,19078,2,0,P|370:339|379:382,1,72,8|2,0:0|0:0,0:0:0:0:
240,316,19412,2,0,P|256:254|271:172,1,144,2|8,1:2|0:0,0:0:0:0:
86,225,19912,6,0,P|121:218|156:211,1,72,2|0,0:0|1:0,0:0:0:0:
99,65,20245,2,0,P|106:100|113:135,1,72,2|8,0:0|0:0,0:0:0:0:
26,284,20578,1,2,0:0:0:0:
206,137,20745,2,0,B|297:149|227:203|342:215,1,144,2|8,1:2|0:0,0:0:0:0:
445,319,21245,5,8,0:0:0:0:
445,319,21328,1,8,0:0:0:0:
445,319,21412,2,0,P|415:276|458:188,1,144,2|10,1:2|0:0,0:0:0:0:
511,89,21912,2,0,P|460:105|427:112,1,72,2|0,0:0|1:0,0:0:0:0:
250,185,22245,2,0,P|301:201|334:208,1,72,2|8,0:0|0:0,0:0:0:0:
365,25,22578,1,2,0:0:0:0:
307,85,22745,6,0,P|256:62|250:40,1,72,2|0,1:2|0:0,0:0:0:0:
68,108,23078,1,10,0:0:0:0:
171,0,23245,2,0,P|164:40|150:87,1,72,2|0,0:0|1:0,0:0:0:0:
88,300,23578,1,2,0:0:0:0:
30,200,23745,1,10,0:0:0:0:
185,222,23912,5,10,0:0:0:0:
185,222,23995,1,8,0:0:0:0:
185,222,24078,2,0,P|249:240|296:249,1,108,6|0,1:2|0:0,0:0:0:0:
304,258,24412,2,0,P|353:237|351:205,1,72,8|2,0:0|0:0,0:0:0:0:
187,312,24745,2,0,P|201:352|207:386,1,72,2|0,1:2|0:0,0:0:0:0:
287,147,25078,2,0,P|279:111|267:77,1,72,10|0,0:0|0:0,0:0:0:0:
373,324,25412,6,0,P|418:337|491:362,1,108,2|0,1:2|0:0,0:0:0:0:
489,347,25745,2,0,P|481:297|479:270,1,72,10|0,0:0|0:0,0:0:0:0:
403,114,26078,2,0,P|361:144|294:131,1,108,2|0,1:2|0:0,0:0:0:0:
287,147,26412,2,0,P|300:96|304:71,1,72,10|0,0:0|0:0,0:0:0:0:
512,35,26745,6,0,P|495:104|479:190,1,144,2|8,1:2|0:0,0:0:0:0:
317,234,27412,1,2,1:2:0:0:
403,114,27579,1,2,0:0:0:0:
207,117,27745,2,0,P|256:138|289:149,1,72,10|2,0:0|0:0,0:0:0:0:
167,10,28078,2,0,P|101:38|9:67,1,144,0|8,1:0|0:0,0:0:0:0:
151,283,28745,2,0,P|129:222|94:136,1,144,0|10,1:0|0:0,0:0:0:0:
0,261,29245,5,10,0:0:0:0:
0,261,29328,1,8,0:0:0:0:
0,261,29412,2,0,P|48:278|78:292,1,72,6|2,1:2|0:0,0:0:0:0:
244,359,29745,2,0,P|196:376|166:390,1,72,10|2,0:0|0:0,0:0:0:0:
293,150,30078,1,2,1:2:0:0:
211,203,30245,2,0,P|231:251|237:282,1,72,2|8,0:0|0:0,0:0:0:0:
459,384,30578,5,2,0:0:0:0:
459,384,30662,1,2,0:0:0:0:
459,384,30745,2,0,P|413:336|325:348,2,144,0|8|0,1:0|0:0|1:0,0:0:0:0:
486,266,31578,2,0,P|501:215|513:178,1,72,2|10,0:0|0:0,0:0:0:0:
318,54,31912,1,10,0:0:0:0:
318,54,31995,1,8,0:0:0:0:
318,54,32078,6,0,P|277:67|249:74,1,72,2|2,1:2|0:0,0:0:0:0:
346,166,32412,2,0,P|387:179|415:186,1,72,10|2,0:0|0:0,0:0:0:0:
151,89,32745,1,2,1:2:0:0:
234,253,32912,2,0,P|229:217|222:181,1,72,2|8,0:0|0:0,0:0:0:0:
56,35,33245,5,2,0:0:0:0:
56,35,33328,1,2,0:0:0:0:
56,35,33412,2,0,B|41:59|29:74|29:74|48:107|78:184,2,144,0|8|0,1:0|0:0|1:0,0:0:0:0:
137,228,34245,2,0,P|102:261|60:264,1,72,2|10,0:0|0:0,0:0:0:0:
245,129,34578,1,10,0:0:0:0:
245,129,34662,1,8,0:0:0:0:
245,129,34745,6,0,P|292:145|395:173,1,144,6|8,1:2|0:0,0:0:0:0:
448,85,35245,1,2,0:0:0:0:
303,252,35412,2,0,P|293:290|281:343,1,72,2|0,1:2|0:0,0:0:0:0:
482,276,35745,1,10,0:0:0:0:
397,183,35912,1,0,0:0:0:0:
273,343,36078,6,0,P|325:332|355:328,1,72,2|0,1:2|0:0,0:0:0:0:
221,190,36412,2,0,P|169:179|139:175,1,72,10|0,0:0|0:0,0:0:0:0:
34,338,36745,1,2,1:2:0:0:
145,279,36912,1,0,0:0:0:0:
17,118,37078,2,0,P|28:151|41:194,1,72,10|0,0:0|0:0,0:0:0:0:
127,362,37412,5,2,1:2:0:0:
202,380,37578,1,2,0:0:0:0:
296,172,37745,5,10,0:0:0:0:
221,190,37911,1,2,0:0:0:0:
387,346,38078,5,2,1:2:0:0:
475,131,38245,1,2,0:0:0:0:
296,171,38412,1,10,0:0:0:0:
502,291,38578,1,2,0:0:0:0:
330,58,38745,6,0,P|290:73|178:100,1,144,10|2,0:0|0:0,0:0:0:0:
194,101,39412,2,0,P|202:123|210:151,1,36,10|0,1:2|0:0,0:0:0:0:
133,49,39578,2,0,P|138:31|144:14,1,36,10|0,1:2|0:0,0:0:0:0:
351,54,39745,6,0,P|320:66|300:78,1,45,10|0,1:2|0:0,0:0:0:0:
68,192,39912,2,0,P|99:204|119:216,1,45,10|0,1:2|0:0,0:0:0:0:
270,343,40078,6,0,P|290:278|235:204,1,144,6|0,1:2|0:0,0:0:0:0:
200,287,40578,2,0,P|147:316|125:329,1,72,2|10,0:0|0:0,0:0:0:0:
378,204,40912,2,0,P|431:229|503:257,1,108,2|0,0:0|0:0,0:0:0:0:
482,268,41245,6,0,P|464:202|484:165,1,108,2|0,1:2|0:0,0:0:0:0:
457,98,41578,2,0,P|445:47|436:18,1,72,2|0,1:2|0:0,0:0:0:0:
303,47,41912,1,2,0:0:0:0:
281,155,42078,2,0,P|329:136|353:129,1,72,10|0,0:0|0:0,0:0:0:0:
204,14,42412,1,0,0:0:0:0:
121,95,42578,1,8,0:0:0:0:
126,108,42662,1,8,0:0:0:0:
132,123,42745,6,0,P|125:158|118:207,2,72,0|2|2,1:0|0:0|1:2,0:0:0:0:
38,61,43245,1,2,0:0:0:0:
209,184,43412,2,0,P|282:162|379:140,1,144,10|2,0:0|0:0,0:0:0:0:
443,78,43912,1,2,1:2:0:0:
430,225,44078,6,0,P|419:269|415:298,1,72,0|0,0:0|1:0,0:0:0:0:
300,172,44412,2,0,P|294:136|285:101,1,72,2|2,1:2|1:2,0:0:0:0:
187,320,44745,2,0,P|225:287|290:300,1,108,10|0,0:0|0:0,0:0:0:0:
286,311,45078,6,0,P|313:322|337:326,1,36,10|0,0:0|0:0,0:0:0:0:
143,142,45245,2,0,P|116:153|92:157,1,36,8|0,0:0|0:0,0:0:0:0:
45,347,45412,5,10,0:0:0:0:
88,285,45578,1,8,0:0:0:0:
46,66,45745,5,8,0:0:0:0:
3,128,45911,1,2,1:2:0:0:
283,114,46078,6,0,P|212:140|135:167,1,144,6|0,1:2|0:0,0:0:0:0:
197,48,46578,1,0,1:0:0:0:
341,189,46745,2,0,P|328:219|316:260,1,72,2|0,0:0|1:0,0:0:0:0:
275,101,47078,2,0,P|285:66|299:33,1,72,2|0,0:0|1:0,0:0:0:0:
508,124,47412,2,0,P|458:128|408:49,1,144,10|2,0:0|0:0,0:0:0:0:
494,229,48078,6,0,B|434:298|508:283|435:359,1,144,6|0,1:2|0:0,0:0:0:0:
298,384,48578,1,2,1:2:0:0:
273,246,48745,2,0,P|320:259|354:273,1,72,8|0,0:0|0:0,0:0:0:0:
183,366,49078,2,0,P|130:336|125:276,1,108,2|0,0:0|0:0,0:0:0:0:
133,277,49412,5,2,0:0:0:0:
1,168,49578,2,0,P|15:235|28:318,1,144,0|2,1:0|1:2,0:0:0:0:
159,151,50078,2,0,P|209:140|239:133,1,72,8|2,0:0|1:2,0:0:0:0:
153,7,50412,1,10,0:0:0:0:
27,89,50578,1,2,0:0:0:0:
208,213,50745,5,10,1:2:0:0:
159,151,51245,5,10,1:2:0:0:
279,377,51412,1,10,1:2:0:0:
327,299,51912,5,10,1:2:0:0:
106,384,52079,1,10,1:2:0:0:
246,174,52245,1,6,0:3:0:0:
246,174,52328,1,4,0:3:0:0:
246,174,52412,1,6,0:3:0:0:
373,384,52578,1,2,1:2:0:0:
480,187,52745,6,0,P|434:208|406:218,1,72,10|0,1:2|1:0,0:0:0:0:
356,268,52995,1,0,1:0:0:0:
340,277,53078,2,0,P|294:256|266:246,1,72,8|0,1:2|1:0,0:0:0:0:
318,163,53412,6,0,P|308:117|295:51,1,80.9999975280763,2|0,1:2|0:0,0:0:0:0:
423,235,53745,2,0,P|414:274|406:314,1,80.9999975280763,2|0,1:2|0:0,0:0:0:0:
215,54,54078,1,2,1:2:0:0:
238,21,54161,1,2,0:0:0:0:
272,0,54245,1,10,1:2:0:0:
312,0,54328,1,2,0:0:0:0:
351,6,54412,2,0,P|382:24|405:29,1,40.4999987640381,10|0,1:2|0:0,0:0:0:0:
165,166,54578,5,10,1:2:0:0:
150,179,54912,1,10,1:2:0:0:
63,113,55245,1,10,1:2:0:0:
221,258,55412,1,10,1:2:0:0:
46,365,55745,6,0,P|63:342|66:324,1,40.4999987640381,2|0,0:0|0:0,0:0:0:0:
7,280,56078,6,0,B|79:266|98:332|94:336|88:342|130:404|215:379,1,215.999993408203,6|8,1:2|0:0,0:0:0:0:
400,144,56578,1,2,0:0:0:0:
221,258,56745,1,2,1:2:0:0:
431,381,56912,1,2,1:2:0:0:
360,235,57078,1,10,0:0:0:0:
195,372,57245,1,2,0:0:0:0:
450,245,57412,6,0,P|373:217|298:188,1,161.999995056153,2|0,1:2|0:0,0:0:0:0:
261,125,57745,2,0,P|253:58|355:20,1,161.999995056153,10|0,0:0|0:0,0:0:0:0:
385,55,58078,1,2,1:2:0:0:
137,142,58245,1,0,1:0:0:0:
336,289,58412,2,0,P|312:221|291:174,1,107.999996704102,8|0,0:0|0:0,0:0:0:0:
138,37,58745,6,0,P|63:75|77:227,1,215.999993408203,0|10,1:0|0:0,0:0:0:0:
200,278,59245,2,0,P|138:306|95:333,1,107.999996704102,2|0,0:0|1:0,0:0:0:0:
137,142,59578,1,2,1:2:0:0:
321,306,59745,1,10,0:0:0:0:
103,326,59912,1,2,0:0:0:0:
392,168,60078,6,0,P|447:193|514:217,1,107.999996704102,2|0,1:2|0:0,0:0:0:0:
396,66,60412,1,8,0:0:0:0:
193,199,60578,1,2,0:0:0:0:
261,0,60745,2,0,P|269:53|275:106,1,107.999996704102,2|0,1:2|1:0,0:0:0:0:
434,324,61078,2,0,B|403:277|352:281|352:281|336:313|297:320,1,161.999995056153,14|0,0:0|0:0,0:0:0:0:
254,375,61412,6,0,B|302:362|317:339|317:339|270:196,1,215.999993408203,6|8,1:2|0:0,0:0:0:0:
24,51,61912,1,2,0:0:0:0:
142,225,62078,1,2,1:2:0:0:
304,1,62245,1,2,1:2:0:0:
167,88,62412,1,10,0:0:0:0:
316,19,62578,1,2,0:0:0:0:
473,124,62745,6,0,P|413:145|363:161,1,107.999996704102,2|0,1:2|0:0,0:0:0:0:
155,241,63078,2,0,P|215:262|265:278,1,107.999996704102,10|0,0:0|0:0,0:0:0:0:
222,0,63412,2,0,P|242:64|255:125,1,107.999996704102,2|0,1:2|1:0,0:0:0:0:
390,328,63745,2,0,P|329:269|237:289,1,161.999995056153,8|0,0:0|0:0,0:0:0:0:
224,339,64078,5,2,1:2:0:0:
59,214,64245,1,2,0:0:0:0:
263,120,64412,1,10,0:0:0:0:
81,222,64578,1,2,0:0:0:0:
390,328,64745,6,0,P|450:307|512:296,1,107.999996704102,2|0,1:2|1:0,0:0:0:0:
307,384,65078,1,10,0:0:0:0:
376,111,65245,2,0,P|406:183|421:230,1,107.999996704102,10|0,0:0|0:0,0:0:0:0:
227,241,65578,6,0,P|140:174|169:108,1,161.999995056153,10|0,0:0|0:0,0:0:0:0:
160,128,65912,1,10,0:0:0:0:
370,0,66078,1,2,1:2:0:0:
274,152,66245,1,2,0:0:0:0:
90,0,66412,1,2,1:2:0:0:
140,19,66495,1,2,0:0:0:0:
191,35,66578,1,2,0:0:0:0:
243,50,66661,1,2,0:0:0:0:
295,69,66745,6,0,B|368:98|419:131|419:131|426:75|468:57,1,215.999993408203,6|8,1:2|0:0,0:0:0:0:
501,257,67245,1,2,0:0:0:0:
217,384,67412,1,2,1:2:0:0:
343,205,67578,1,2,1:2:0:0:
496,381,67745,2,0,P|443:356|396:344,1,107.999996704102,10|2,0:0|0:0,0:0:0:0:
137,132,68078,6,0,P|182:188|121:263,1,161.999995056153,2|0,1:2|0:0,0:0:0:0:
69,256,68412,2,0,P|52:185|29:85,1,161.999995056153,10|0,0:0|0:0,0:0:0:0:
74,33,68745,1,2,1:2:0:0:
277,161,68912,1,0,1:0:0:0:
370,0,69078,2,0,P|310:28|259:46,1,107.999996704102,8|0,0:0|0:0,0:0:0:0:
165,322,69412,6,0,P|260:251|340:290,1,215.999993408203,0|10,1:0|0:0,0:0:0:0:
496,384,69912,1,2,0:0:0:0:
260,336,70078,1,2,1:2:0:0:
511,153,70245,1,2,1:2:0:0:
416,298,70412,2,0,P|409:234|398:189,1,107.999996704102,10|2,0:0|0:0,0:0:0:0:
282,60,70745,6,0,B|217:37|184:92|190:98|194:102|163:167|64:143,1,215.999993408203,2|8,1:2|0:0,0:0:0:0:
53,55,71245,1,2,0:0:0:0:
243,200,71412,1,2,1:2:0:0:
27,315,71578,1,0,1:0:0:0:
263,188,71745,2,0,B|308:190|324:236|324:236|311:193|344:141,1,161.999995056153,14|0,0:0|0:0,0:0:0:0:
207,131,72078,6,0,P|141:154|143:298,1,215.999993408203,6|8,1:2|0:0,0:0:0:0:
330,365,72578,1,2,0:0:0:0:
198,226,72745,1,2,1:2:0:0:
72,384,72912,1,2,1:2:0:0:
208,339,73078,1,10,0:0:0:0:
45,170,73245,1,2,0:0:0:0:
361,277,73412,6,0,P|430:253|472:240,1,107.999996704102,2|0,1:2|0:0,0:0:0:0:
291,89,73745,2,0,P|222:65|180:52,1,107.999996704102,10|0,0:0|0:0,0:0:0:0:
256,226,74078,1,2,1:2:0:0:
419,64,74245,1,0,1:0:0:0:
478,334,74412,2,0,P|450:253|437:219,1,107.999996704102,8|0,0:0|0:0,0:0:0:0:
260,5,74745,6,0,P|198:45|226:145,1,161.999995056153,2|0,1:2|0:0,0:0:0:0:
291,89,75078,1,10,0:0:0:0:
119,33,75245,1,2,0:0:0:0:
15,252,75412,1,2,1:2:0:0:
138,170,75578,1,2,1:2:0:0:
1,108,75745,1,10,0:0:0:0:
176,320,75912,6,0,P|273:291|351:273,1,161.999995056153,10|0,0:0|0:0,0:0:0:0:
383,334,76245,1,8,0:0:0:0:
289,206,76578,6,0,P|272:171|262:140,1,53.9999983520508,8|0,0:0|0:0,0:0:0:0:
383,334,76745,2,0,P|373:359|360:383,1,53.9999983520508,8|0,1:2|0:0,0:0:0:0:
506,117,76912,5,2,1:2:0:0:
489,128,76995,1,0,1:0:0:0:
475,140,77078,2,0,P|429:188|356:191,1,107.999996704102,2|6,1:2|0:3,0:0:0:0:
126,55,77412,6,0,P|45:30|-8:11,1,116.999994644165,6|2,1:2|0:0,0:0:0:0:
194,233,77745,2,0,P|249:214|305:197,1,116.999994644165,10|2,0:0|0:0,0:0:0:0:
0,297,78078,5,10,0:0:0:0:
224,116,78245,1,2,1:2:0:0:
265,358,78412,5,10,0:0:0:0:
38,176,78578,1,2,1:2:0:0:
360,74,78745,6,0,P|331:140|313:198,1,116.999994644165,8|2,0:0|0:0,0:0:0:0:
512,352,79078,2,0,P|493:296|469:243,1,116.999994644165,10|2,0:0|0:0,0:0:0:0:
189,299,79412,5,10,0:0:0:0:
419,160,79578,1,2,1:2:0:0:
361,382,79745,6,0,P|372:337|381:308,1,58.4999973220826,10|0,0:0|0:0,0:0:0:0:
238,131,79912,2,0,P|227:86|218:57,1,58.4999973220826,0|0,1:0|0:0,0:0:0:0:
70,347,80078,6,0,P|147:321|196:308,1,116.999994644165,8|2,0:0|0:0,0:0:0:0:
401,165,80412,2,0,P|457:181|512:200,1,116.999994644165,10|2,0:0|0:0,0:0:0:0:
98,147,80745,5,10,0:0:0:0:
255,378,80912,1,2,1:2:0:0:
307,86,81078,5,10,0:0:0:0:
65,272,81245,1,2,1:2:0:0:
65,272,81328,1,2,0:0:0:0:
65,272,81412,1,10,0:0:0:0:
139,68,81578,5,2,0:0:0:0:
344,238,81745,1,10,0:0:0:0:
464,31,81912,1,2,1:2:0:0:
464,31,81995,1,0,1:0:0:0:
464,31,82078,6,0,P|420:48|392:56,1,58.4999973220826,14|0,0:0|0:0,0:0:0:0:
209,222,82245,2,0,P|236:210|263:201,1,58.4999973220826,0|0,1:0|0:0,0:0:0:0:
485,13,82412,6,0,P|441:30|413:38,1,58.4999973220826,14|0,0:0|0:0,0:0:0:0:
193,240,82578,2,0,P|220:228|247:219,1,58.4999973220826,0|0,1:0|0:0,0:0:0:0:
502,384,82745,6,0,P|484:328|462:274,1,116.999994644165,4|2,1:2|0:0,0:0:0:0:
315,133,83078,2,0,P|333:77|355:23,1,116.999994644165,10|2,0:0|0:0,0:0:0:0:
97,55,83412,5,8,0:0:0:0:
349,222,83578,1,2,1:2:0:0:
26,183,83745,5,8,0:0:0:0:
286,0,83912,1,2,1:2:0:0:
382,134,84078,6,0,P|301:162|235:181,1,116.999994644165,8|2,0:0|0:0,0:0:0:0:
76,344,84412,2,0,P|157:372|223:391,1,116.999994644165,10|2,0:0|0:0,0:0:0:0:
82,46,84745,5,10,0:0:0:0:
200,271,84912,1,2,1:2:0:0:
340,55,85078,6,0,P|299:74|284:81,1,58.4999973220826,10|0,0:0|0:0,0:0:0:0:
52,203,85245,2,0,P|25:190|-1:178,1,58.4999973220826,0|0,1:0|0:0,0:0:0:0:
323,358,85412,6,0,P|304:298|287:241,1,116.999994644165,8|2,0:0|0:0,0:0:0:0:
506,71,85745,2,0,P|489:127|471:182,1,116.999994644165,10|2,0:0|0:0,0:0:0:0:
449,329,86078,5,10,0:0:0:0:
203,164,86245,1,2,1:2:0:0:
389,161,86412,5,10,0:0:0:0:
112,331,86578,1,2,1:2:0:0:
112,331,86662,1,2,0:0:0:0:
112,331,86745,1,10,0:0:0:0:
281,357,86912,5,2,0:0:0:0:
124,141,87078,1,10,0:0:0:0:
294,372,87245,1,2,1:2:0:0:
410,166,87412,6,0,P|384:180|358:193,1,58.4999973220826,14|0,0:0|0:0,0:0:0:0:
153,316,87578,2,0,P|126:328|101:343,1,58.4999973220826,0|0,1:0|0:0,0:0:0:0:
473,323,87745,6,0,P|439:314|407:302,1,58.4999973220826,14|0,0:0|0:0,0:0:0:0:
111,127,87911,2,0,P|78:115|45:106,1,58.4999973220826,0|0,1:0|0:0,0:0:0:0:
336,103,88078,6,0,B|244:138|270:306|270:306|239:209|153:201,1,377.999988464356,6|2,1:2|0:0,0:0:0:0:
103,224,88662,1,2,0:0:0:0:
103,224,88745,1,2,0:0:0:0:
