osu file format v14

[General]
AudioFilename: audio.mp3
AudioLeadIn: 0
PreviewTime: 55724
Countdown: 0
SampleSet: Soft
StackLeniency: 0.2
Mode: 0
LetterboxInBreaks: 0
WidescreenStoryboard: 1

[Editor]
DistanceSpacing: 1.5
BeatDivisor: 4
GridSize: 32
TimelineZoom: 7.799995

[Metadata]
Title:THE WORLD ORIGIN
TitleUnicode:THE WORLD ORIGIN
Artist:KINEMA106
ArtistUnicode:キネマ106
Creator:Zawajiro
Version:NEVERTARY'S EXTRA
Source:
Tags:kinema 106 memory of grand order kurousagi uru 黒兎ウル tom jun-jun コミックマーケット99 comiket 99 c99 fate fgo f/go fate/grand type-moon fan anime original song gudako fujimaru ritsuka 藤丸 立香 short tv size version fa featured artist japanese j-pop jpop j pop video game female vocals vocalist nevertary majk00 majko vanya2 vanya jeby
BeatmapID:3552172
BeatmapSetID:1735967

[Difficulty]
HPDrainRate:5
CircleSize:4
OverallDifficulty:8.3
ApproachRate:9.1
SliderMultiplier:1.7
SliderTickRate:1

[Events]
//Background and Video events
0,0,"bg.jpg",0,0
Video,0,"vid.mp4"
//Break Periods
//Storyboard Layer 0 (Background)
//Storyboard Layer 1 (Fail)
//Storyboard Layer 2 (Pass)
//Storyboard Layer 3 (Foreground)
//Storyboard Layer 4 (Overlay)
//Storyboard Sound Samples

[TimingPoints]
79,333.333333333333,4,2,1,70,1,0
79,-100,4,2,1,70,0,0
828,-100,4,2,1,5,0,0
912,-100,4,2,1,70,0,0
2162,-100,4,2,1,5,0,0
2245,-100,4,2,1,70,0,0
5078,-1000,4,2,1,70,0,0
5328,-1000,4,2,1,5,0,0
5412,-83.3333333333333,4,2,1,80,0,0
9495,-83.3333333333333,4,2,1,5,0,0
9578,-83.3333333333333,4,2,1,80,0,0
10662,-83.3333333333333,4,2,1,5,0,0
10745,-83.3333333333333,4,2,1,80,0,0
14828,-83.3333333333333,4,2,1,5,0,0
14912,-83.3333333333333,4,2,1,80,0,0
18745,-100,4,2,1,60,0,0
21662,-100,4,2,1,5,0,0
21745,-100,4,2,1,60,0,0
25995,-100,4,2,1,5,0,0
26078,-100,4,2,1,60,0,0
26662,-100,4,2,1,5,0,0
26745,-100,4,2,1,60,0,0
28328,-100,4,2,1,5,0,0
28412,-100,4,2,1,60,0,0
29412,-100,4,2,1,62,0,0
30995,-100,4,2,1,5,0,0
31078,-100,4,2,1,62,0,0
31328,-100,4,2,1,5,0,0
31412,-100,4,2,1,62,0,0
33662,-100,4,2,1,5,0,0
33745,-100,4,2,1,62,0,0
33995,-100,4,2,1,5,0,0
34078,-100,4,2,1,62,0,0
36662,-100,4,2,1,5,0,0
36745,-100,4,2,1,62,0,0
37328,-100,4,2,1,5,0,0
37412,-100,4,2,1,62,0,0
38745,-100,4,2,1,65,0,0
40078,-125,4,2,1,60,0,0
41495,-125,4,2,1,5,0,0
41578,-125,4,2,1,60,0,0
41828,-125,4,2,1,5,0,0
41912,-125,4,2,1,60,0,0
43662,-125,4,2,1,5,0,0
43745,-125,4,2,1,60,0,0
44162,-125,4,2,1,5,0,0
44245,-125,4,2,1,60,0,0
50412,-125,4,2,1,65,0,0
50745,-125,4,2,1,70,0,0
53078,-71.4285714285714,4,2,1,70,0,0
53328,-71.4285714285714,4,2,1,5,0,0
53412,-100,4,2,1,60,0,0
53662,-100,4,2,1,5,0,0
53745,-76.9230769230769,4,2,1,64,0,0
53995,-76.9230769230769,4,2,1,5,0,0
54078,-62.5,4,2,1,69,0,0
54328,-62.5,4,2,1,5,0,0
54412,-62.5,4,2,1,70,0,0
54578,-62.5,4,2,1,75,0,0
55745,-1000,4,2,1,75,0,0
55995,-1000,4,2,1,5,0,0
56078,-55.5555555555556,4,2,1,80,0,1
57412,-62.5,4,2,1,80,0,1
57662,-62.5,4,2,1,5,0,1
57745,-62.5,4,2,1,80,0,1
57995,-62.5,4,2,1,5,0,1
58078,-62.5,4,2,1,80,0,1
58662,-62.5,4,2,1,5,0,1
58745,-62.5,4,2,1,80,0,1
60328,-62.5,4,2,1,5,0,1
60412,-62.5,4,2,1,80,0,1
61078,-1000,4,2,1,80,0,1
61328,-1000,4,2,1,5,0,1
61412,-55.5555555555556,4,2,1,80,0,1
62745,-62.5,4,2,1,80,0,1
62995,-62.5,4,2,1,5,0,1
63078,-50,4,2,1,80,0,1
63328,-50,4,2,1,5,0,1
63412,-55.5555555555556,4,2,1,80,0,1
63995,-55.5555555555556,4,2,1,5,0,1
64078,-62.5,4,2,1,80,0,1
66412,-62.5,4,2,1,80,0,0
66745,-55.5555555555556,4,2,1,80,0,1
68078,-62.5,4,2,1,80,0,1
68328,-62.5,4,2,1,5,0,1
68412,-62.5,4,2,1,80,0,1
68662,-62.5,4,2,1,5,0,1
68745,-62.5,4,2,1,80,0,1
69328,-62.5,4,2,1,5,0,1
69412,-62.5,4,2,1,80,0,1
70995,-62.5,4,2,1,5,0,1
71078,-62.5,4,2,1,80,0,1
71745,-1000,4,2,1,80,0,1
71995,-1000,4,2,1,5,0,1
72078,-55.5555555555556,4,2,1,80,0,1
73412,-62.5,4,2,1,80,0,1
73662,-62.5,4,2,1,5,0,1
73745,-50,4,2,1,80,0,1
73995,-50,4,2,1,5,0,1
74078,-55.5555555555556,4,2,1,80,0,1
74662,-55.5555555555556,4,2,1,5,0,1
74745,-62.5,4,2,1,80,0,1
74995,-62.5,4,2,1,5,0,1
75078,-62.5,4,2,1,80,0,1
76162,-62.5,4,2,1,5,0,1
76245,-62.5,4,2,1,80,0,1
77078,-1000,4,2,1,80,0,0
77328,-1000,4,2,1,5,0,0
77412,-62.5,4,2,1,85,0,1
77745,-50,4,2,1,85,0,1
77995,-50,4,2,1,5,0,1
78078,-62.5,4,2,1,85,0,1
79828,-62.5,4,2,1,5,0,1
79912,-62.5,4,2,1,85,0,1
79995,-62.5,4,2,1,5,0,1
80078,-62.5,4,2,1,85,0,1
82078,-50,4,2,1,85,0,1
82328,-50,4,2,1,5,0,1
82412,-50,4,2,1,85,0,1
82662,-50,4,2,1,5,0,1
82745,-62.5,4,2,1,85,0,1
83078,-50,4,2,1,85,0,1
83328,-50,4,2,1,5,0,1
83412,-62.5,4,2,1,85,0,1
85162,-62.5,4,2,1,5,0,1
85245,-62.5,4,2,1,85,0,1
85328,-62.5,4,2,1,5,0,1
85412,-62.5,4,2,1,85,0,1
87412,-50,4,2,1,85,0,1
87662,-50,4,2,1,5,0,1
87745,-50,4,2,1,85,0,1
87995,-50,4,2,1,5,0,1
88078,-71.4285714285714,4,2,1,85,0,0
88745,-1000,4,2,1,85,0,0
89412,-1000,4,2,1,5,0,0

[Colours]
Combo1 : 255,228,202
Combo2 : 255,170,130

[HitObjects]
399,126,79,6,0,P|435:129|487:142,1,85,6|2,1:2|1:2,0:0:0:0:
501,149,328,1,2,0:0:0:0:
510,154,412,1,2,0:0:0:0:
339,23,578,6,0,P|383:61|399:129,1,127.5,14|0,0:0|0:0,0:0:0:0:
383,205,912,5,2,1:2:0:0:
383,205,1078,1,6,0:3:0:0:
383,205,1245,1,6,0:3:0:0:
435,369,1412,6,0,P|468:339|478:296,1,85,6|2,1:2|0:0,0:0:0:0:
477,280,1662,1,2,0:0:0:0:
475,270,1745,1,2,0:0:0:0:
276,310,1912,6,0,B|241:314|223:285|223:285|204:248|166:255,1,127.5,14|0,0:0|0:0,0:0:0:0:
94,272,2245,5,10,0:0:0:0:
237,239,2412,1,10,0:0:0:0:
383,205,2578,1,10,0:0:0:0:
25,325,2745,5,6,1:2:0:0:
12,303,2912,1,2,0:0:0:0:
7,279,3078,1,2,0:0:0:0:
8,254,3245,1,2,0:0:0:0:
181,275,3412,5,6,1:2:0:0:
178,249,3579,1,2,0:0:0:0:
169,226,3745,1,2,0:0:0:0:
119,377,3912,5,6,1:2:0:0:
75,157,4245,5,10,0:0:0:0:
119,377,4578,5,10,0:0:0:0:
75,157,4745,1,10,0:0:0:0:
371,252,4912,5,0,1:0:0:0:
380,251,4995,1,0,1:0:0:0:
388,250,5078,2,0,L|401:248,1,12.75,4|0,1:2|0:0,0:0:0:0:
495,215,5412,6,0,B|512:194|493:196|496:166|496:166|482:196|466:184|477:215,1,101.999996887207,4|0,1:2|0:0,0:0:0:0:
326,372,5745,5,8,0:0:0:0:
244,318,5912,1,0,1:0:0:0:
388,250,6078,5,0,0:0:0:0:
233,316,6245,2,0,L|182:308,1,50.9999984436036,0|0,1:0|0:0,0:0:0:0:
71,350,6412,5,10,0:0:0:0:
58,344,6495,1,2,0:0:0:0:
45,343,6578,2,0,B|11:339|-6:370|-6:370|-1:309|55:288|100:301,1,203.999993774414,2|0,0:0|0:0,0:0:0:0:
216,90,7078,5,8,0:0:0:0:
167,172,7245,1,0,1:0:0:0:
51,53,7412,5,0,0:0:0:0:
170,182,7578,1,0,1:0:0:0:
376,25,7745,5,10,0:0:0:0:
417,21,7828,1,2,0:0:0:0:
455,39,7911,1,2,0:0:0:0:
479,74,7994,1,2,0:0:0:0:
483,114,8078,6,0,B|481:140|451:156|451:156|468:136|469:111,1,101.999996887207,2|0,1:2|0:0,0:0:0:0:
457,343,8412,5,8,0:0:0:0:
407,247,8578,1,0,1:0:0:0:
279,367,8745,5,0,0:0:0:0:
412,241,8912,1,0,1:0:0:0:
279,367,9078,5,8,0:0:0:0:
211,302,9245,2,0,B|172:276|138:290|138:290|115:322|67:318,1,152.999995330811,2|0,0:0|0:0,0:0:0:0:
58,320,9578,2,0,P|40:334|28:363,1,50.9999984436036,2|0,0:0|0:0,0:0:0:0:
78,237,9745,1,8,0:0:0:0:
305,280,9912,5,2,1:2:0:0:
370,163,10078,1,2,0:0:0:0:
508,175,10245,1,2,1:2:0:0:
298,45,10412,6,0,B|281:22|251:16|251:16|349:34,1,152.999995330811,10|0,0:0|0:0,0:0:0:0:
419,47,10745,5,2,1:2:0:0:
231,105,10912,2,0,B|212:123|212:123|221:148|221:148|240:130|240:130|233:107,1,101.999996887207,0|8,0:0|0:0,0:0:0:0:
298,45,11245,5,0,1:0:0:0:
370,163,11412,1,0,0:0:0:0:
124,118,11578,6,0,L|72:110,1,50.9999984436036,0|0,1:0|0:0,0:0:0:0:
49,28,11745,5,10,0:0:0:0:
38,21,11828,1,2,0:0:0:0:
28,13,11912,2,0,B|43:97|43:97|28:134|28:134|41:217,1,203.999993774414,2|0,0:0|0:0,0:0:0:0:
181,339,12412,5,8,0:0:0:0:
106,276,12578,1,0,1:0:0:0:
292,221,12745,5,0,0:0:0:0:
97,280,12912,1,0,1:0:0:0:
359,357,13078,5,10,0:0:0:0:
398,346,13161,1,2,0:0:0:0:
427,315,13244,1,2,0:0:0:0:
437,274,13327,1,2,0:0:0:0:
432,231,13412,6,0,B|428:202|428:202|397:193|397:193|410:213|410:213|419:232,1,101.999996887207,2|0,1:2|0:0,0:0:0:0:
510,368,13745,5,8,0:0:0:0:
427,315,13912,1,0,1:0:0:0:
178,347,14078,5,0,0:0:0:0:
334,256,14245,1,0,1:0:0:0:
119,124,14412,5,8,0:0:0:0:
198,69,14578,2,0,B|207:37|235:26|260:57|247:106|226:127|206:137,1,152.999995330811,2|0,0:0|0:0,0:0:0:0:
205,137,14912,2,0,P|191:161|190:190,1,50.9999984436036,2|0,0:0|0:0,0:0:0:0:
331,49,15078,1,8,0:0:0:0:
283,291,15245,5,2,1:2:0:0:
434,155,15412,1,2,0:0:0:0:
392,355,15578,1,2,1:2:0:0:
309,169,15745,1,10,0:0:0:0:
484,269,15912,1,0,0:0:0:0:
381,246,16078,5,10,0:0:0:0:
357,10,16578,5,10,0:0:0:0:
381,246,16745,1,10,0:0:0:0:
34,122,17245,6,0,P|21:98|20:71,1,50.9999984436036,10|0,0:0|0:0,0:0:0:0:
235,144,17412,6,0,P|258:155|275:176,1,50.9999984436036,10|0,0:0|0:0,0:0:0:0:
185,258,17578,6,0,P|181:283|166:306,1,50.9999984436036,2|0,0:0|0:0,0:0:0:0:
60,244,17745,6,0,P|34:248|7:241,1,50.9999984436036,2|0,0:0|0:0,0:0:0:0:
143,58,17912,6,0,P|161:39|186:29,1,50.9999984436036,2|0,0:0|0:0,0:0:0:0:
132,167,18078,5,10,0:0:0:0:
418,104,18245,5,2,0:0:0:0:
432,108,18328,5,2,0:0:0:0:
432,124,18412,5,2,0:0:0:0:
418,128,18495,5,2,0:0:0:0:
409,116,18578,5,2,0:0:0:0:
427,332,18745,6,0,B|457:298|450:250|450:250|458:298|501:320,1,170,6|8,1:2|0:0,0:0:0:0:
294,197,19245,5,2,0:0:0:0:
361,272,19412,2,0,P|300:239|196:241,1,170,2|8,1:2|0:0,0:0:0:0:
52,162,19912,6,0,P|95:178|121:215,1,85,2|0,0:0|1:0,0:0:0:0:
132,298,20245,2,0,P|115:341|78:367,1,85,2|8,0:0|0:0,0:0:0:0:
281,189,20578,5,2,0:0:0:0:
201,239,20745,2,0,B|220:210|268:204|295:213|312:247|295:278|268:291|250:283,1,170,2|8,1:2|0:0,0:0:0:0:
71,41,21328,5,8,0:0:0:0:
66,50,21412,2,0,B|52:76|33:81|33:81|117:57,1,127.5,2|0,1:2|0:0,0:0:0:0:
125,56,21745,1,10,0:0:0:0:
312,100,21912,6,0,P|296:153|270:169,1,85,2|0,0:0|1:0,0:0:0:0:
204,124,22245,2,0,P|220:71|246:55,1,85,2|8,0:0|0:0,0:0:0:0:
488,3,22578,5,2,0:0:0:0:
374,29,22745,1,2,1:2:0:0:
399,143,22912,1,0,0:0:0:0:
512,118,23078,1,10,0:0:0:0:
445,73,23245,5,2,0:0:0:0:
445,73,23578,5,2,0:0:0:0:
512,118,23745,1,10,0:0:0:0:
467,183,23912,2,0,L|476:226,1,42.5,10|8,0:0|0:0,0:0:0:0:
479,246,24078,6,0,B|445:214|403:225|403:225|376:265|326:260,1,170,6|8,1:2|0:0,0:0:0:0:
181,253,24578,5,2,0:0:0:0:
181,253,24745,2,0,P|234:269|250:295,1,85,2|0,1:2|0:0,0:0:0:0:
205,361,25078,2,0,P|152:345|136:319,1,85,10|0,0:0|0:0,0:0:0:0:
43,113,25412,6,0,B|23:100|16:79|16:79|22:100|13:124,1,85,2|0,1:2|0:0,0:0:0:0:
0,229,25745,2,0,P|49:197|125:191,1,127.5,10|0,0:0|0:0,0:0:0:0:
194,202,26078,6,0,B|213:189|220:168|220:168|214:189|223:213,1,85,2|0,1:2|0:0,0:0:0:0:
237,318,26411,2,0,P|188:286|112:280,1,127.5,10|0,0:0|0:0,0:0:0:0:
12,342,26745,6,0,P|75:358|119:274,2,170,2|8|2,1:2|0:0|1:2,0:0:0:0:
32,244,27578,1,2,0:0:0:0:
237,318,27745,5,10,0:0:0:0:
315,276,27912,1,2,0:0:0:0:
326,271,27995,1,2,0:0:0:0:
338,269,28078,2,0,B|378:263|396:297|396:297|412:329|447:325,1,127.5,2|0,1:2|0:0,0:0:0:0:
471,336,28412,2,0,P|433:338|391:377,1,85,8|0,0:0|0:0,0:0:0:0:
465,242,28745,1,0,1:0:0:0:
465,242,28912,1,2,0:0:0:0:
237,318,29078,5,10,0:0:0:0:
152,285,29245,1,10,0:0:0:0:
141,281,29328,1,8,0:0:0:0:
131,277,29412,5,6,1:2:0:0:
217,218,29578,1,2,0:0:0:0:
381,182,29745,5,10,0:0:0:0:
295,123,29911,1,2,0:0:0:0:
107,78,30078,5,2,1:2:0:0:
162,9,30245,2,0,B|191:20|191:20|202:83,1,85,2|8,0:0|0:0,0:0:0:0:
131,277,30578,5,2,0:0:0:0:
131,277,30745,2,0,B|97:272|73:297|73:297|66:264|34:249,1,127.5,0|0,1:0|0:0,0:0:0:0:
34,249,31078,2,0,B|68:254|92:229|92:229|99:262|131:277,1,127.5,8|0,0:0|0:0,0:0:0:0:
203,305,31412,1,0,1:0:0:0:
121,147,31578,5,2,0:0:0:0:
121,147,31745,1,10,0:0:0:0:
330,46,31912,5,10,0:0:0:0:
341,50,31995,1,8,0:0:0:0:
351,54,32079,5,2,1:2:0:0:
265,113,32245,1,2,0:0:0:0:
426,161,32412,5,10,0:0:0:0:
512,220,32578,1,2,0:0:0:0:
303,293,32745,5,2,1:2:0:0:
358,362,32912,2,0,B|387:351|387:351|398:288,1,85,2|8,0:0|0:0,0:0:0:0:
265,113,33245,5,2,0:0:0:0:
265,113,33412,2,0,B|267:86|232:62|232:62|194:68|183:98,1,127.5,0|0,1:0|0:0,0:0:0:0:
183,97,33745,2,0,B|181:124|216:148|216:148|254:142|265:112,1,127.5,8|0,0:0|0:0,0:0:0:0:
238,36,34078,1,0,1:0:0:0:
201,235,34245,5,2,0:0:0:0:
201,235,34412,1,10,0:0:0:0:
52,156,34578,5,10,0:0:0:0:
47,147,34662,1,8,0:0:0:0:
40,140,34745,2,0,B|22:124|1:123|1:123|47:114|96:141|100:186,1,170,6|8,1:2|0:0,0:0:0:0:
11,371,35245,1,2,0:0:0:0:
11,371,35412,2,0,P|19:326|48:299,1,85,2|0,1:2|0:0,0:0:0:0:
135,267,35745,1,10,0:0:0:0:
346,263,35912,5,0,0:0:0:0:
346,263,36078,2,0,P|374:270|410:311,1,85,2|0,1:2|0:0,0:0:0:0:
242,319,36412,2,0,B|282:325|300:291|300:291|316:259|351:263,1,127.5,10|0,0:0|0:0,0:0:0:0:
408,191,36745,6,0,P|380:184|344:143,1,85,2|0,1:2|0:0,0:0:0:0:
512,135,37079,2,0,B|472:129|454:163|454:163|438:195|403:191,1,127.5,10|0,0:0|0:0,0:0:0:0:
344,143,37412,5,2,1:2:0:0:
332,141,37578,1,2,0:0:0:0:
265,203,37745,5,10,0:0:0:0:
246,207,37911,1,2,0:0:0:0:
196,110,38078,5,2,1:2:0:0:
164,103,38244,1,2,0:0:0:0:
124,240,38412,5,10,0:0:0:0:
78,251,38578,1,2,0:0:0:0:
0,66,38745,5,10,0:0:0:0:
0,66,38912,1,2,0:0:0:0:
0,66,39078,1,2,0:0:0:0:
0,162,39245,5,2,0:0:0:0:
78,251,39412,5,10,1:2:0:0:
206,275,39578,5,10,1:2:0:0:
342,195,39745,5,10,1:2:0:0:
359,18,39912,5,10,1:2:0:0:
181,86,40078,6,0,P|194:130|185:86,1,136,6|0,1:2|0:0,0:0:0:0:
179,8,40578,1,2,0:0:0:0:
80,149,40745,5,10,0:0:0:0:
80,149,40912,2,0,P|52:172|41:206,1,68,2|0,0:0|0:0,0:0:0:0:
222,305,41245,6,0,B|179:314|179:314|160:307|160:307|122:315,1,102,2|0,1:2|0:0,0:0:0:0:
114,306,41578,6,0,B|151:298|151:298|170:305|170:305|213:296,1,102,2|0,1:2|0:0,0:0:0:0:
292,273,41912,5,2,0:0:0:0:
447,366,42078,6,0,B|455:383|484:382|509:364|511:331|497:301|462:287|417:286|386:324,1,204,10|8,0:0|0:0,0:0:0:0:
335,367,42662,1,8,0:0:0:0:
332,378,42745,1,0,1:0:0:0:
472,259,42912,6,0,P|482:234|479:193,2,68,2|2|2,0:0|1:2|0:0,0:0:0:0:
292,273,43412,6,0,P|257:266|190:254,1,102,10|0,0:0|0:0,0:0:0:0:
181,251,43745,1,2,0:0:0:0:
22,203,43912,6,0,P|59:198|99:144,1,102,2|0,1:2|0:0,0:0:0:0:
100,137,44245,2,0,P|98:113|72:75,1,68,0|2,1:0|1:2,0:0:0:0:
0,119,44578,5,2,1:2:0:0:
176,76,44745,1,10,0:0:0:0:
176,76,45078,5,10,0:0:0:0:
122,255,45245,1,8,0:0:0:0:
325,156,45412,5,10,0:0:0:0:
399,170,45578,1,8,0:0:0:0:
438,235,45745,1,8,0:0:0:0:
330,333,45912,5,2,1:2:0:0:
249,295,46078,2,0,B|206:285|188:320|188:320|166:357|128:347,1,136,6|0,1:2|0:0,0:0:0:0:
30,307,46578,5,0,1:0:0:0:
30,307,46745,2,0,P|36:336|43:375,1,68,2|0,0:0|1:0,0:0:0:0:
99,197,47078,2,0,P|105:226|112:265,1,68,2|0,0:0|1:0,0:0:0:0:
289,134,47412,6,0,P|283:163|276:202,1,68,10|0,0:0|0:0,0:0:0:0:
220,24,47745,2,0,P|214:53|207:92,1,68,2|0,0:0|0:0,0:0:0:0:
1,53,48078,6,0,P|52:42|115:97,1,136,6|0,1:2|0:0,0:0:0:0:
83,269,48578,5,2,1:2:0:0:
22,208,48745,2,0,B|35:187|35:187|85:180,1,68,8|0,0:0|0:0,0:0:0:0:
169,118,49078,2,0,B|156:97|156:97|106:90,1,68,2|0,0:0|1:0,0:0:0:0:
230,179,49412,5,2,0:0:0:0:
279,41,49578,2,0,B|258:54|258:54|251:104,1,68,0|0,1:0|0:0,0:0:0:0:
354,187,49912,5,2,1:2:0:0:
384,92,50078,1,8,0:0:0:0:
512,187,50245,5,2,1:2:0:0:
482,92,50411,1,10,0:0:0:0:
324,282,50578,5,2,0:0:0:0:
384,92,50744,1,10,1:2:0:0:
294,377,51245,5,10,1:2:0:0:
354,187,51412,1,10,1:2:0:0:
56,335,51912,6,0,B|39:342|39:342|43:326,1,34,10|0,1:2|0:0,0:0:0:0:
215,254,52078,6,0,B|232:258|232:258|220:268,1,34,10|0,1:2|0:0,0:0:0:0:
39,231,52245,6,0,B|27:216|27:216|43:215,1,34,6|4,0:3|0:3,0:0:0:0:
166,349,52412,6,0,B|167:367|167:367|153:358,1,34,6|0,0:3|0:0,0:0:0:0:
136,179,52578,6,0,B|145:163|145:163|151:178,1,34,2|0,1:2|0:0,0:0:0:0:
122,269,52745,5,10,1:2:0:0:
370,204,52912,5,0,1:0:0:0:
378,197,52995,1,0,1:0:0:0:
387,193,53078,2,0,B|414:181|445:184|465:198|484:219|485:243|470:264|437:275|418:266|411:245,1,178.499994552612,8|0,1:2|0:0,0:0:0:0:
259,118,53412,6,0,P|211:123|146:166,1,127.5,2|0,1:2|0:0,0:0:0:0:
136,179,53745,6,0,P|203:183|283:241,1,165.749992412568,2|0,1:2|0:0,0:0:0:0:
288,253,54078,6,0,P|200:259|103:328,1,204,2|0,1:2|0:0,0:0:0:0:
58,379,54412,5,10,1:2:0:0:
4,189,54578,1,10,1:2:0:0:
465,215,54912,5,10,1:2:0:0:
512,51,55079,1,2,0:0:0:0:
295,165,55245,1,10,1:2:0:0:
342,1,55412,1,10,1:2:0:0:
409,95,55578,5,2,0:0:0:0:
406,105,55662,1,2,0:0:0:0:
404,115,55745,2,0,L|400:127,1,12.75,2|0,0:0|0:0,0:0:0:0:
377,217,56078,6,0,B|311:175|253:223|253:223|214:198|214:198|150:250|93:213,1,305.999990661621,6|8,1:2|0:0,0:0:0:0:
0,308,56578,5,2,0:0:0:0:
46,125,56745,1,2,1:2:0:0:
99,217,56912,1,2,1:2:0:0:
185,64,57078,1,10,0:0:0:0:
231,247,57245,1,2,0:0:0:0:
351,68,57412,6,0,B|416:21|484:69|484:69|448:59|417:84,1,204,2|0,1:2|0:0,0:0:0:0:
244,115,57745,6,0,B|190:152|158:139|130:124|113:101|130:61|156:53|180:50|195:73,1,204,10|0,0:0|0:0,0:0:0:0:
378,256,58078,6,0,B|431:238|477:276|477:276|425:183|327:170|327:170|273:246|301:350,1,476,2|0,1:2|0:0,0:0:0:0:
410,347,58745,5,0,1:0:0:0:
244,115,58912,5,2,0:0:0:0:
99,155,59078,1,10,0:0:0:0:
68,273,59245,1,2,0:0:0:0:
0,9,59412,5,0,1:0:0:0:
72,77,59578,1,2,1:2:0:0:
161,83,59745,1,10,0:0:0:0:
225,37,59912,1,2,0:0:0:0:
448,202,60078,6,0,B|474:177|512:186|512:186|372:154,1,204,2|0,1:2|0:0,0:0:0:0:
360,151,60412,1,8,0:0:0:0:
141,370,60578,5,2,0:0:0:0:
188,203,60745,1,2,1:2:0:0:
309,328,60912,1,0,1:0:0:0:
213,300,61078,6,0,L|200:297,1,12.75,14|0,0:0|0:0,0:0:0:0:
123,281,61412,6,0,B|23:286|16:338|16:338|65:324|78:270|78:270|90:201|70:172,1,305.999990661621,6|8,1:2|0:0,0:0:0:0:
20,25,61912,5,2,0:0:0:0:
79,193,62078,1,2,1:2:0:0:
0,125,62245,1,2,1:2:0:0:
260,37,62412,1,10,0:0:0:0:
95,89,62578,1,2,0:0:0:0:
340,164,62745,6,0,B|421:188|420:269|420:269|409:230|359:220,1,204,2|0,1:2|0:0,0:0:0:0:
183,147,63078,6,0,B|108:117|93:67|105:32|111:3|160:1|186:15|205:47|183:92,1,255,10|0,0:0|0:0,0:0:0:0:
93,284,63412,6,0,B|42:272|11:314|11:314|47:249|128:237|201:273|190:305|195:326|237:348|289:336|313:293|323:243|278:229|231:207|200:248,1,535.499983657837,2|0,1:2|0:0,0:0:0:0:
122,375,64078,5,2,1:2:0:0:
237,274,64245,1,2,0:0:0:0:
494,278,64412,5,10,0:0:0:0:
379,177,64579,1,2,0:0:0:0:
108,175,64745,6,0,B|66:175|63:122|63:122|79:154|112:160,1,136,2|0,1:2|1:0,0:0:0:0:
308,339,65078,5,10,0:0:0:0:
379,177,65245,1,10,0:0:0:0:
350,15,65578,5,10,0:0:0:0:
279,177,65744,1,2,0:0:0:0:
440,248,65911,1,10,0:0:0:0:
512,87,66078,1,2,1:2:0:0:
384,138,66245,5,2,0:0:0:0:
374,140,66328,5,2,0:0:0:0:
363,144,66412,5,2,1:2:0:0:
400,170,66495,5,2,0:0:0:0:
435,141,66578,5,2,0:0:0:0:
419,99,66662,5,2,0:0:0:0:
374,101,66745,6,0,B|243:105|214:223|214:223|258:192|303:214,1,305.999990661621,6|8,1:2|0:0,0:0:0:0:
37,151,67245,5,2,0:0:0:0:
214,223,67412,1,2,1:2:0:0:
108,228,67578,1,2,1:2:0:0:
269,300,67745,1,10,0:0:0:0:
91,372,67912,1,2,0:0:0:0:
359,273,68078,6,0,B|436:267|447:346|447:346|427:304|375:303,1,204,2|0,1:2|0:0,0:0:0:0:
237,159,68412,6,0,B|201:183|156:171|156:171|280:205,1,204,10|0,0:0|0:0,0:0:0:0:
482,71,68745,6,0,B|428:14|428:14|345:34|345:34|328:111|328:111|382:167|382:167|463:147|463:147|484:71,1,476,2|0,1:2|0:0,0:0:0:0:
405,91,69412,5,0,1:0:0:0:
467,374,69578,5,2,0:0:0:0:
364,262,69744,1,10,0:0:0:0:
245,288,69911,1,2,0:0:0:0:
149,83,70078,5,2,1:2:0:0:
235,130,70244,1,2,1:2:0:0:
269,213,70411,1,10,0:0:0:0:
245,288,70578,1,2,0:0:0:0:
79,361,70745,6,0,B|45:352|16:381|16:381|42:324|94:309|132:319,1,204,2|0,1:2|0:0,0:0:0:0:
142,321,71078,1,8,0:0:0:0:
397,369,71245,5,2,0:0:0:0:
245,288,71412,1,2,1:2:0:0:
476,206,71578,1,0,1:0:0:0:
324,125,71745,6,0,L|319:136,1,12.75,14|0,0:0|0:0,0:0:0:0:
283,211,72078,6,0,B|273:174|226:164|226:164|291:155|342:188|331:230|343:280|420:277,1,305.999990661621,6|8,1:2|0:0,0:0:0:0:
457,13,72578,5,2,0:0:0:0:
421,186,72745,1,2,1:2:0:0:
495,109,72912,1,2,1:2:0:0:
247,38,73078,1,10,0:0:0:0:
283,211,73245,1,2,0:0:0:0:
63,104,73412,6,0,B|46:70|7:63|7:63|143:92,1,204,2|0,1:2|0:0,0:0:0:0:
130,327,73745,6,0,B|92:388|65:342|19:375|19:375|42:322|-11:301|54:248,1,255,10|0,0:0|0:0,0:0:0:0:
361,198,74078,6,0,B|406:177|446:207|446:207|397:158|360:149|287:170|273:193|290:244|278:282|217:306|108:261|145:181|200:136|256:188,1,535.499983657837,2|0,1:2|0:0,0:0:0:0:
393,356,74745,6,0,B|414:368|450:356|450:356|425:285|352:288|327:307,1,204,2|0,1:2|0:0,0:0:0:0:
264,339,75078,1,10,0:0:0:0:
361,198,75245,1,2,0:0:0:0:
163,59,75412,5,2,1:2:0:0:
202,167,75578,1,2,1:2:0:0:
361,198,75745,1,10,0:0:0:0:
76,218,75912,6,0,B|-4:233|7:312|7:312|19:268|65:257,1,204,10|0,0:0|0:0,0:0:0:0:
86,334,76245,1,8,0:0:0:0:
448,123,76578,5,8,0:0:0:0:
408,296,76744,1,8,1:2:0:0:
189,158,76912,5,2,1:2:0:0:
178,155,76996,1,0,1:0:0:0:
166,153,77079,2,0,L|153:150,1,12.75,2|4,1:2|0:3,0:0:0:0:
71,135,77412,5,6,1:2:0:0:
60,132,77578,1,2,0:0:0:0:
63,295,77745,6,0,B|31:283|2:311|2:311|37:247|114:231|184:261,1,255,10|0,0:0|0:0,0:0:0:0:
237,273,78078,5,10,0:0:0:0:
71,135,78245,1,2,1:2:0:0:
314,104,78412,5,10,0:0:0:0:
238,164,78578,2,0,B|202:175|172:129|172:129|197:149|226:145,1,136,2|8,1:2|0:0,0:0:0:0:
445,235,78912,5,2,0:0:0:0:
351,200,79078,1,10,0:0:0:0:
500,148,79245,1,2,0:0:0:0:
313,290,79412,5,10,0:0:0:0:
407,325,79578,1,2,1:2:0:0:
258,377,79745,6,0,P|235:373|186:365,1,68,10|0,0:0|0:0,0:0:0:0:
62,305,79912,2,0,P|85:301|134:293,1,68,0|0,1:0|0:0,0:0:0:0:
189,217,80078,1,8,0:0:0:0:
50,44,80245,5,2,0:0:0:0:
76,206,80412,1,10,0:0:0:0:
16,132,80578,1,2,0:0:0:0:
205,99,80745,5,10,0:0:0:0:
109,115,80912,1,2,1:2:0:0:
298,83,81078,1,10,0:0:0:0:
189,217,81245,6,0,B|152:224|147:278|147:278|159:249|187:239,1,136,2|8,1:2|0:0,0:0:0:0:
393,64,81578,5,2,0:0:0:0:
366,159,81745,1,10,0:0:0:0:
35,81,81912,5,2,1:2:0:0:
40,71,81995,1,0,1:0:0:0:
45,62,82078,2,0,B|75:19|167:5|213:73|193:139|127:138|99:106,1,255,14|0,0:0|0:0,0:0:0:0:
0,301,82412,6,0,P|46:257|231:241,1,255,14|0,0:0|0:0,0:0:0:0:
322,309,82745,5,4,1:2:0:0:
323,320,82911,1,2,0:0:0:0:
434,373,83078,6,0,B|320:350|320:350|292:364|292:364|175:342,1,255,10|0,0:0|0:0,0:0:0:0:
114,331,83412,5,8,0:0:0:0:
286,220,83578,1,2,1:2:0:0:
10,175,83745,5,8,0:0:0:0:
100,186,83912,2,0,B|114:223|143:238|143:238|113:223|75:238,1,136,2|8,1:2|0:0,0:0:0:0:
226,7,84245,5,2,0:0:0:0:
188,155,84411,1,10,0:0:0:0:
265,94,84578,1,2,0:0:0:0:
402,234,84745,5,10,0:0:0:0:
364,86,84911,1,2,1:2:0:0:
325,173,85078,6,0,P|310:199|307:239,1,68,10|0,0:0|0:0,0:0:0:0:
373,377,85245,2,0,P|370:343|354:313,1,68,0|0,1:0|0:0,0:0:0:0:
306,236,85412,1,8,0:0:0:0:
104,378,85578,5,2,0:0:0:0:
265,321,85745,1,10,0:0:0:0:
167,298,85912,1,2,0:0:0:0:
205,126,86078,5,10,0:0:0:0:
44,183,86245,1,2,1:2:0:0:
142,206,86412,1,10,0:0:0:0:
76,67,86578,6,0,B|61:29|32:14|32:14|62:29|100:14,1,136,2|8,1:2|0:0,0:0:0:0:
339,166,86912,5,2,0:0:0:0:
282,5,87079,1,10,0:0:0:0:
362,68,87246,1,2,1:2:0:0:
142,206,87412,6,0,B|131:178|88:175|88:175|139:156|196:179|171:224|207:253|264:243,1,255,14|0,0:0|0:0,0:0:0:0:
374,303,87745,6,0,B|385:275|427:272|427:272|376:253|319:276|345:321|308:350|252:340,1,255,14|0,0:0|0:0,0:0:0:0:
258,86,88078,6,0,B|286:21|379:17|379:17|419:90|395:152|395:152|381:111|340:100,1,356.999989105225,6|2,1:2|0:0,0:0:0:0:
176,67,88662,5,2,0:0:0:0:
166,65,88745,2,0,L|133:59,1,34,2|0,0:0|0:0,0:0:0:0:
