osu file format v14

[General]
AudioFilename: audio.mp3
AudioLeadIn: 0
PreviewTime: 55724
Countdown: 0
SampleSet: Soft
StackLeniency: 0.7
Mode: 0
LetterboxInBreaks: 0
WidescreenStoryboard: 1

[Editor]
Bookmarks: 53745
DistanceSpacing: 1
BeatDivisor: 2
GridSize: 32
TimelineZoom: 1

[Metadata]
Title:THE WORLD ORIGIN
TitleUnicode:THE WORLD ORIGIN
Artist:KINEMA106
ArtistUnicode:キネマ106
Creator:Zawajiro
Version:ADVANCED
Source:
Tags:kinema 106 memory of grand order kurousagi uru 黒兎ウル tom jun-jun コミックマーケット99 comiket 99 c99 fate fgo f/go fate/grand type-moon fan anime original song gudako fujimaru ritsuka 藤丸 立香 short tv size version fa featured artist japanese j-pop jpop j pop video game female vocals vocalist nevertary majk00 majko vanya2 vanya jeby
BeatmapID:3547995
BeatmapSetID:1735967

[Difficulty]
HPDrainRate:4
CircleSize:3
OverallDifficulty:4
ApproachRate:6
SliderMultiplier:1.5
SliderTickRate:1

[Events]
//Background and Video events
0,0,"bg.jpg",0,0
Video,0,"vid.mp4"
//Break Periods
//Storyboard Layer 0 (Background)
//Storyboard Layer 1 (Fail)
//Storyboard Layer 2 (Pass)
//Storyboard Layer 3 (Foreground)
//Storyboard Layer 4 (Overlay)
//Storyboard Sound Samples

[TimingPoints]
79,333.333333333333,4,2,1,70,1,0
79,-133.333333333333,4,2,1,70,0,0
5412,-125,4,2,1,80,0,0
18745,-133.333333333333,4,2,1,60,0,0
29412,-133.333333333333,4,2,1,62,0,0
38745,-166.666666666667,4,2,1,65,0,0
39745,-133.333333333333,4,2,1,65,0,0
40078,-142.857142857143,4,2,1,60,0,0
50412,-142.857142857143,4,2,1,65,0,0
50745,-133.333333333333,4,2,1,70,0,0
53412,-133.333333333333,4,2,1,60,0,0
53745,-133.333333333333,4,2,1,64,0,0
54078,-133.333333333333,4,2,1,69,0,0
54245,-125,4,2,1,69,0,0
54412,-125,4,2,1,70,0,0
54578,-125,4,2,1,75,0,0
56078,-111.111111111111,4,2,1,80,0,1
76912,-111.111111111111,4,2,1,80,0,0
77412,-105.263157894737,4,2,1,85,0,1
88078,-105.263157894737,4,2,1,85,0,0
89412,-105.263157894737,4,2,1,5,0,0
90078,-76.9230769230769,4,2,1,5,0,0

[Colours]
Combo1 : 255,228,202
Combo2 : 255,170,130

[HitObjects]
438,4,79,6,0,P|427:54|416:119,1,112.500004291535,6|0,1:2|0:0,0:0:0:0:
434,167,578,2,0,P|393:133|330:153,1,112.500004291535,14|2,0:0|1:2,0:0:0:0:
298,184,1078,1,6,0:3:0:0:
219,102,1412,6,0,P|163:112|108:125,1,112.500004291535,6|2,1:2|0:0,0:0:0:0:
54,109,1912,2,0,P|89:153|51:205,1,112.500004291535,14|10,0:0|0:0,0:0:0:0:
16,223,2412,2,0,P|28:260|32:288,1,56.2500021457673,10|10,0:0|0:0,0:0:0:0:
66,320,2745,5,6,1:2:0:0:
281,383,3412,1,6,1:2:0:0:
361,234,3912,2,0,P|303:250|237:268,1,112.500004291535,6|10,1:2|0:0,0:0:0:0:
352,325,4578,1,10,0:0:0:0:
352,325,4745,2,0,P|399:312|426:306,1,56.2500021457673,10|0,0:0|1:0,0:0:0:0:
461,299,5078,1,4,1:2:0:0:
504,187,5412,6,0,P|446:193|405:143,1,120,4|8,1:2|0:0,0:0:0:0:
409,94,5912,1,0,1:0:0:0:
409,94,6078,2,0,P|455:83|483:74,1,60,0|0,0:0|1:0,0:0:0:0:
511,37,6412,1,10,0:0:0:0:
396,0,6745,6,0,P|343:8|277:23,1,120,2|8,1:2|0:0,0:0:0:0:
247,74,7245,1,0,1:0:0:0:
247,74,7412,2,0,P|195:64|187:42,1,60,0|0,0:0|1:0,0:0:0:0:
162,11,7745,1,10,0:0:0:0:
67,85,8078,6,0,P|84:144|95:208,1,120,2|8,1:2|0:0,0:0:0:0:
133,247,8578,1,0,1:0:0:0:
133,247,8745,2,0,P|124:287|121:311,2,60,0|0|8,0:0|1:0|0:0,0:0:0:0:
180,209,9245,5,2,0:0:0:0:
281,272,9578,2,0,P|331:280|399:297,1,120,2|2,0:0|1:2,0:0:0:0:
454,274,10078,2,0,P|477:241|470:205,1,60,2|2,0:0|1:2,0:0:0:0:
457,165,10412,1,10,0:0:0:0:
367,84,10745,6,0,B|282:98|357:122|261:144,1,120,2|8,1:2|0:0,0:0:0:0:
228,107,11245,1,0,1:0:0:0:
228,107,11412,2,0,P|179:91|150:85,1,60,0|0,0:0|1:0,0:0:0:0:
114,110,11745,1,10,0:0:0:0:
38,202,12078,6,0,P|67:252|23:303,1,120,2|8,1:2|0:0,0:0:0:0:
19,356,12578,1,0,1:0:0:0:
19,356,12745,2,0,P|70:348|95:345,1,60,0|0,0:0|1:0,0:0:0:0:
135,329,13078,1,10,0:0:0:0:
252,353,13412,6,0,P|328:373|386:390,1,120,2|8,1:2|0:0,0:0:0:0:
415,348,13912,1,0,1:0:0:0:
415,348,14078,2,0,P|429:301|439:278,1,60,0|0,0:0|1:0,0:0:0:0:
411,234,14412,1,8,0:0:0:0:
411,234,14578,5,2,0:0:0:0:
465,126,14912,2,0,P|405:127|359:71,1,120,2|2,0:0|1:2,0:0:0:0:
326,40,15412,1,2,0:0:0:0:
326,40,15578,2,0,P|272:25|242:16,1,60,2|10,1:2|0:0,0:0:0:0:
190,115,16078,5,10,0:0:0:0:
20,176,16578,2,0,P|54:186|84:195,1,60,10|10,0:0|0:0,0:0:0:0:
124,366,17245,1,10,0:0:0:0:
124,366,17412,2,0,P|153:374|182:383,1,60,10|2,0:0|0:0,0:0:0:0:
229,345,17745,2,0,P|274:331|302:327,1,60,2|2,0:0|0:0,0:0:0:0:
335,363,18078,1,10,0:0:0:0:
441,164,18745,6,0,P|426:106|413:38,1,112.500004291535,6|8,1:2|0:0,0:0:0:0:
314,5,19412,2,0,P|267:44|202:24,1,112.500004291535,2|8,1:2|0:0,0:0:0:0:
172,5,19912,1,2,0:0:0:0:
117,103,20245,1,2,0:0:0:0:
13,74,20578,1,2,0:0:0:0:
13,74,20745,2,0,P|25:139|31:194,1,112.500004291535,2|8,1:2|0:0,0:0:0:0:
5,294,21412,6,0,P|57:312|115:335,1,112.500004291535,2|10,1:2|0:0,0:0:0:0:
158,303,21912,2,0,P|209:309|252:257,1,112.500004291535,2|2,0:0|0:0,0:0:0:0:
352,219,22578,1,2,0:0:0:0:
352,219,22745,2,0,P|364:264|378:342,1,112.500004291535,2|10,1:2|0:0,0:0:0:0:
360,383,23245,1,2,0:0:0:0:
503,294,23745,1,10,0:0:0:0:
454,192,24078,6,0,P|476:122|495:74,1,112.500004291535,6|8,1:2|0:0,0:0:0:0:
477,35,24578,1,2,0:0:0:0:
477,35,24745,2,0,P|437:19|419:6,1,56.2500021457673,2|0,1:2|0:0,0:0:0:0:
376,37,25078,1,10,0:0:0:0:
281,12,25412,6,0,P|211:33|157:49,1,112.500004291535,2|10,1:2|0:0,0:0:0:0:
62,22,26078,2,0,P|77:84|88:149,1,112.500004291535,2|10,1:2|0:0,0:0:0:0:
140,230,26745,6,0,P|120:286|103:358,1,112.500004291535,2|8,1:2|0:0,0:0:0:0:
214,384,27412,1,2,1:2:0:0:
214,384,27578,2,0,P|253:369|344:346,1,112.500004291535,2|2,0:0|0:0,0:0:0:0:
374,369,28078,2,0,P|440:339|438:290,2,112.500004291535,0|8|0,1:0|0:0|1:0,0:0:0:0:
328,265,29078,1,10,0:0:0:0:
378,164,29412,6,0,P|432:152|498:137,1,112.500004291535,6|10,1:2|0:0,0:0:0:0:
445,40,30078,1,2,1:2:0:0:
445,40,30245,2,0,P|413:46|328:66,1,112.500004291535,2|2,0:0|0:0,0:0:0:0:
293,26,30745,2,0,P|249:39|162:58,2,112.500004291535,0|8|0,1:0|0:0|1:0,0:0:0:0:
278,137,31745,1,10,0:0:0:0:
272,249,32078,6,0,P|229:235|211:233,1,56.2500021457673,2|2,1:2|0:0,0:0:0:0:
162,223,32412,2,0,P|131:190|144:165,1,56.2500021457673,10|2,0:0|0:0,0:0:0:0:
96,161,32745,1,2,1:2:0:0:
96,161,32912,2,0,P|107:116|132:51,1,112.500004291535,2|2,0:0|0:0,0:0:0:0:
94,10,33412,2,0,P|15:15|1:57,2,112.500004291535,0|8|0,1:0|0:0|1:0,0:0:0:0:
206,4,34412,1,10,0:0:0:0:
287,80,34745,6,0,P|357:101|400:119,1,112.500004291535,6|8,1:2|0:0,0:0:0:0:
456,96,35245,1,2,0:0:0:0:
456,96,35412,2,0,P|421:135|441:200,1,112.500004291535,2|10,1:2|0:0,0:0:0:0:
466,294,36078,2,0,P|409:280|348:266,1,112.500004291535,2|10,1:2|0:0,0:0:0:0:
292,360,36745,2,0,P|220:374|167:389,1,112.500004291535,2|10,1:2|0:0,0:0:0:0:
90,318,37412,6,0,P|108:273|114:250,2,56.2500021457673,2|2|10,1:2|0:0|0:0,0:0:0:0:
28,224,38078,2,0,P|22:184|13:160,2,56.2500021457673,2|2|10,1:2|0:0|0:0,0:0:0:0:
135,189,38745,6,0,P|195:168|226:162,1,89.9999972534181,10|2,0:0|0:0,0:0:0:0:
305,193,39412,2,0,P|335:184|345:166,1,44.999998626709,10|10,1:2|1:2,0:0:0:0:
354,118,39745,2,0,P|346:83|342:62,1,56.2500021457673,10|10,1:2|1:2,0:0:0:0:
382,28,40078,6,0,P|445:33|491:126,1,157.499995193482,6|2,1:2|0:0,0:0:0:0:
473,156,40745,1,10,0:0:0:0:
402,296,41245,2,0,P|350:279|292:266,1,104.999996795654,2|2,1:2|1:2,0:0:0:0:
207,311,41912,1,2,0:0:0:0:
207,311,42078,2,0,P|146:320|123:366,1,104.999996795654,10|0,0:0|0:0,0:0:0:0:
38,293,42745,6,0,P|26:231|-4:133,1,157.499995193482,0|2,1:0|0:0,0:0:0:0:
26,95,43412,2,0,B|103:100|57:128|135:141,1,104.999996795654,10|0,0:0|0:0,0:0:0:0:
168,120,43912,1,2,1:2:0:0:
316,68,44412,2,0,P|325:37|332:17,2,52.4999983978272,2|2|10,1:2|1:2|0:0,0:0:0:0:
386,146,45078,1,10,0:0:0:0:
381,251,45412,6,0,P|353:269|331:269,2,52.4999983978272,10|8|8,0:0|0:0|0:0,0:0:0:0:
433,276,45912,1,2,1:2:0:0:
433,276,46078,2,0,P|488:312|496:365,1,104.999996795654,6|0,1:2|0:0,0:0:0:0:
399,383,46745,6,0,P|362:369|290:354,1,104.999996795654,2|2,0:0|0:0,0:0:0:0:
220,283,47412,2,0,P|159:296|146:344,1,104.999996795654,10|2,0:0|0:0,0:0:0:0:
47,370,48078,2,0,B|33:344|20:332|20:332|48:274|70:224,1,157.499995193482,6|2,1:2|1:2,0:0:0:0:
99,194,48745,2,0,P|82:139|21:122,1,104.999996795654,8|2,0:0|0:0,0:0:0:0:
107,37,49412,2,0,P|161:27|222:13,1,104.999996795654,2|0,0:0|0:0,0:0:0:0:
258,35,49912,2,0,P|319:51|369:68,1,104.999996795654,2|2,1:2|1:2,0:0:0:0:
407,45,50412,1,10,0:0:0:0:
454,138,50745,5,10,1:2:0:0:
315,234,51245,2,0,P|342:226|370:223,1,56.2500021457673,10|10,1:2|1:2,0:0:0:0:
431,381,51912,2,0,P|403:374|375:371,1,56.2500021457673,10|10,1:2|1:2,0:0:0:0:
325,359,52245,1,6,0:3:0:0:
325,359,52412,2,0,P|283:372|256:384,1,56.2500021457673,6|2,0:3|1:2,0:0:0:0:
223,348,52745,1,10,1:2:0:0:
285,254,53078,1,8,1:2:0:0:
210,172,53412,6,0,P|156:191|96:207,2,112.500004291535,2|2|2,1:2|1:2|1:2,0:0:0:0:
258,142,54245,2,0,P|292:118|292:89,1,60,8|10,1:2|1:2,0:0:0:0:
272,46,54578,1,10,1:2:0:0:
160,0,54912,1,10,1:2:0:0:
62,69,55245,2,0,P|72:99|83:142,1,60,10|10,1:2|1:2,0:0:0:0:
276,311,56078,6,0,P|332:324|423:353,1,134.999995880127,6|8,1:2|0:0,0:0:0:0:
465,315,56578,1,2,0:0:0:0:
465,315,56745,2,0,P|498:288|496:257,1,67.4999979400635,2|2,1:2|1:2,0:0:0:0:
463,208,57078,2,0,P|443:171|452:142,1,67.4999979400635,10|2,0:0|0:0,0:0:0:0:
479,87,57412,1,2,1:2:0:0:
359,149,57745,1,10,0:0:0:0:
253,65,58078,2,0,P|268:26|274:-5,2,67.4999979400635,2|0|8,1:2|1:0|0:0,0:0:0:0:
141,142,58745,6,0,P|166:195|186:280,1,134.999995880127,0|10,1:0|0:0,0:0:0:0:
171,335,59245,2,0,P|226:298|291:307,1,134.999995880127,2|2,0:0|1:2,0:0:0:0:
340,353,59745,2,0,P|386:366|421:380,1,67.4999979400635,10|2,0:0|0:0,0:0:0:0:
446,319,60078,5,2,1:2:0:0:
351,139,60578,1,2,0:0:0:0:
351,139,60745,2,0,P|371:91|381:55,1,67.4999979400635,2|0,1:2|1:0,0:0:0:0:
336,21,61078,1,14,0:0:0:0:
218,88,61412,6,0,P|145:110|101:71,1,134.999995880127,6|8,1:2|0:0,0:0:0:0:
51,33,61912,1,2,0:0:0:0:
51,33,62078,2,0,P|34:77|16:111,1,67.4999979400635,2|2,1:2|1:2,0:0:0:0:
43,160,62412,2,0,P|60:207|66:232,1,67.4999979400635,10|2,0:0|0:0,0:0:0:0:
31,283,62745,1,2,1:2:0:0:
123,381,63078,1,10,0:0:0:0:
233,302,63412,2,0,P|270:291|303:285,1,67.4999979400635,2|0,1:2|1:0,0:0:0:0:
355,322,63745,1,8,0:0:0:0:
459,237,64078,6,0,P|473:196|485:166,1,67.4999979400635,2|2,1:2|0:0,0:0:0:0:
471,106,64412,2,0,P|461:64|450:33,1,67.4999979400635,10|2,0:0|0:0,0:0:0:0:
396,3,64745,2,0,B|315:22|383:57|278:76,1,134.999995880127,2|10,1:2|0:0,0:0:0:0:
230,39,65245,1,10,0:0:0:0:
97,14,65578,1,10,0:0:0:0:
9,117,65912,1,10,0:0:0:0:
9,117,66078,1,2,1:2:0:0:
143,134,66412,2,0,P|152:166|158:206,1,67.4999979400635,2|2,1:2|0:0,0:0:0:0:
189,259,66745,6,0,P|145:247|74:302,1,134.999995880127,6|8,1:2|0:0,0:0:0:0:
113,358,67245,1,2,0:0:0:0:
113,358,67412,2,0,P|158:375|179:387,1,67.4999979400635,2|2,1:2|1:2,0:0:0:0:
234,351,67745,2,0,P|278:336|305:334,1,67.4999979400635,10|2,0:0|0:0,0:0:0:0:
354,372,68078,5,2,1:2:0:0:
459,287,68412,1,10,0:0:0:0:
367,187,68745,2,0,P|356:144|345:113,2,67.4999979400635,2|0|8,1:2|1:0|0:0,0:0:0:0:
236,222,69412,6,0,P|180:198|95:169,1,134.999995880127,0|10,1:0|0:0,0:0:0:0:
48,200,69912,1,2,0:0:0:0:
48,200,70078,2,0,P|17:157|31:122,1,67.4999979400635,2|2,1:2|1:2,0:0:0:0:
56,89,70412,2,0,P|74:46|80:24,1,67.4999979400635,10|2,0:0|0:0,0:0:0:0:
144,6,70745,5,2,1:2:0:0:
305,137,71245,1,2,0:0:0:0:
305,137,71412,2,0,P|357:121|380:115,1,67.4999979400635,2|0,1:2|1:0,0:0:0:0:
435,100,71745,1,14,0:0:0:0:
474,228,72078,6,0,P|433:272|457:336,1,134.999995880127,6|8,1:2|0:0,0:0:0:0:
400,374,72578,1,2,0:0:0:0:
400,374,72745,2,0,P|348:357|321:351,1,67.4999979400635,2|2,1:2|1:2,0:0:0:0:
297,298,73078,2,0,P|254:311|221:318,1,67.4999979400635,10|2,0:0|0:0,0:0:0:0:
183,363,73412,5,2,1:2:0:0:
83,271,73745,1,10,0:0:0:0:
138,148,74078,2,0,P|161:101|169:74,1,67.4999979400635,2|0,1:2|1:0,0:0:0:0:
113,42,74412,1,8,0:0:0:0:
247,29,74745,6,0,P|339:6|404:-5,1,134.999995880127,2|10,1:2|0:0,0:0:0:0:
439,28,75245,1,2,0:0:0:0:
439,28,75412,2,0,P|474:63|478:90,1,67.4999979400635,2|2,1:2|1:2,0:0:0:0:
395,186,75912,2,0,P|378:226|352:326,1,134.999995880127,10|8,0:0|0:0,0:0:0:0:
489,287,76578,1,8,0:0:0:0:
489,287,76745,1,8,1:2:0:0:
235,155,77412,6,0,P|183:169|83:195,2,142.49999619484,6|10|10,1:2|0:0|0:0,0:0:0:0:
286,105,78245,1,2,1:2:0:0:
286,105,78412,2,0,P|306:68|294:36,1,71.2499980974198,10|2,0:0|1:2,0:0:0:0:
238,3,78745,6,0,P|172:38|105:15,1,142.49999619484,8|10,0:0|0:0,0:0:0:0:
189,138,79412,2,0,P|206:182|214:212,1,71.2499980974198,10|2,0:0|1:2,0:0:0:0:
251,265,79745,2,0,P|232:311|225:344,1,71.2499980974198,10|0,0:0|1:0,0:0:0:0:
166,369,80078,6,0,P|124:329|35:340,2,142.49999619484,8|10|10,0:0|0:0|0:0,0:0:0:0:
227,331,80912,1,2,1:2:0:0:
227,331,81078,2,0,P|277:318|305:317,1,71.2499980974198,10|2,0:0|1:2,0:0:0:0:
363,342,81412,6,0,P|412:357|475:276,1,142.49999619484,8|10,0:0|0:0,0:0:0:0:
396,181,82078,2,0,P|384:135|374:104,1,71.2499980974198,14|0,0:0|1:0,0:0:0:0:
425,59,82412,1,14,0:0:0:0:
290,12,82745,6,0,P|239:29|145:57,1,142.49999619484,4|10,1:2|0:0,0:0:0:0:
14,23,83412,2,0,P|37:55|28:93,1,71.2499980974198,8|2,0:0|1:2,0:0:0:0:
7,151,83745,2,0,P|25:202|33:235,1,71.2499980974198,8|2,0:0|1:2,0:0:0:0:
77,271,84078,6,0,P|132:226|214:243,1,142.49999619484,8|10,0:0|0:0,0:0:0:0:
270,356,84745,2,0,P|309:368|343:383,1,71.2499980974198,10|2,0:0|1:2,0:0:0:0:
395,338,85078,2,0,P|440:326|455:283,1,71.2499980974198,10|0,0:0|1:0,0:0:0:0:
434,237,85412,6,0,P|363:212|302:183,2,142.49999619484,8|10|10,0:0|0:0|0:0,0:0:0:0:
492,194,86245,1,2,1:2:0:0:
492,194,86412,2,0,P|506:144|517:115,1,71.2499980974198,10|2,0:0|1:2,0:0:0:0:
476,64,86745,6,0,P|420:13|342:42,1,142.49999619484,8|10,0:0|0:0,0:0:0:0:
254,121,87412,2,0,P|205:141|183:154,1,71.2499980974198,14|0,0:0|1:0,0:0:0:0:
136,101,87745,2,0,P|96:88|55:70,1,71.2499980974198,14|0,0:0|1:0,0:0:0:0:
3,48,88078,6,0,P|41:134|73:330,1,284.999992389679,6|2,1:2|0:0,0:0:0:0:
