osu file format v14

[General]
AudioFilename: audio.mp3
AudioLeadIn: 0
PreviewTime:67272
Countdown: 0
SampleSet: Soft
StackLeniency: 0.2
Mode: 0
LetterboxInBreaks: 0
WidescreenStoryboard: 1

[Editor]
Bookmarks: 33624,37921,108867
DistanceSpacing: 0.6
BeatDivisor: 4
GridSize: 4
TimelineZoom: 2.2

[Metadata]
Title:Rekka no Suiryoku
TitleUnicode:烈花の翠緑
Artist:KINEMA106
ArtistUnicode:キネマ106
Creator:-Atri-
Version:yf's Expert
Source:
Tags:KuranteMelodii krt Firis Mistlud yf_bmp Hollow Wings midorijeon 黒兎ウル Kurousagi Uru 火焔ノ水彩 艦隊これくしょん -艦これ- kancolle c92 tom jun-jun ゆ吉 厨房ちゃうよ 艦あにvol.6 赫灼のレジスト Japanese rock fa Featured Artist mappers mappers' guild jrock j-rock
BeatmapID:3469684
BeatmapSetID:1524363

[Difficulty]
HPDrainRate:6
CircleSize:4
OverallDifficulty:8
ApproachRate:9
SliderMultiplier:1.8
SliderTickRate:1

[Events]
//Background and Video events
0,0,"uruchan suki.jpg",0,0
Video,-570,"rekka no suiryoku.mp4"
//Break Periods
//Storyboard Layer 0 (Background)
//Storyboard Layer 1 (Fail)
//Storyboard Layer 2 (Pass)
//Storyboard Layer 3 (Foreground)
//Storyboard Layer 4 (Overlay)
//Storyboard Sound Samples

[TimingPoints]
1240,444.444444444444,4,2,2,55,1,0
15017,-66.6666666666667,4,2,2,55,0,0
15462,324.324324324324,4,2,1,75,1,0
15786,-100,4,2,6,75,0,0
15948,-100,4,2,2,75,0,0
16110,-100,4,2,6,75,0,0
16272,-100,4,2,2,75,0,0
16434,-100,4,2,6,75,0,0
16597,-100,4,2,3,75,0,0
17083,-100,4,2,6,75,0,0
17245,-100,4,2,2,75,0,0
17407,-100,4,2,6,75,0,0
17570,-100,4,2,2,75,0,0
17732,-100,4,2,6,75,0,0
18056,-100,4,2,2,75,0,0
18380,-100,4,2,6,75,0,0
18543,-100,4,2,2,75,0,0
18705,-100,4,2,6,75,0,0
18867,-100,4,2,2,75,0,0
19029,-100,4,2,6,75,0,0
19191,-100,4,2,3,75,0,0
19678,-100,4,2,6,75,0,0
19840,-100,4,2,2,75,0,0
20002,-100,4,2,6,75,0,0
20164,-100,4,2,2,75,0,0
20326,-100,4,2,6,75,0,0
20651,-100,4,2,1,75,0,0
20975,-100,4,2,6,75,0,0
21137,-100,4,2,2,75,0,0
21299,-100,4,2,6,75,0,0
21461,-100,4,2,2,75,0,0
21624,-100,4,2,6,75,0,0
21786,-100,4,2,3,75,0,0
22272,-100,4,2,6,75,0,0
22434,-100,4,2,2,75,0,0
22597,-100,4,2,6,75,0,0
22759,-100,4,2,2,75,0,0
22921,-100,4,2,6,75,0,0
23245,-100,4,2,2,75,0,0
23570,-100,4,2,6,75,0,0
23732,-100,4,2,2,75,0,0
23894,-100,4,2,6,75,0,0
24056,-100,4,2,2,75,0,0
24218,-100,4,2,6,75,0,0
24380,-66.6666666666667,4,2,3,75,0,0
24867,-66.6666666666667,4,2,6,75,0,0
25029,-66.6666666666667,4,2,2,75,0,0
25191,-100,4,2,1,75,0,0
25353,-100,4,2,2,75,0,0
25678,-100,4,2,3,75,0,0
25840,-100,4,2,1,75,0,0
26164,-100,4,2,6,75,0,0
26326,-100,4,2,2,75,0,0
26489,-100,4,2,6,75,0,0
26651,-100,4,2,2,75,0,0
26813,-100,4,2,6,75,0,0
26975,-100,4,2,3,75,0,0
27461,-100,4,2,6,75,0,0
27624,-100,4,2,2,75,0,0
27786,-100,4,2,6,75,0,0
27948,-100,4,2,2,75,0,0
28110,-100,4,2,6,75,0,0
28434,-100,4,2,2,75,0,0
28759,-100,4,2,6,75,0,0
28921,-100,4,2,2,75,0,0
29083,-100,4,2,6,75,0,0
29245,-100,4,2,2,75,0,0
29407,-100,4,2,6,75,0,0
29570,-100,4,2,3,75,0,0
30056,-100,4,2,6,75,0,0
30218,-100,4,2,2,75,0,0
30380,-100,4,2,6,75,0,0
30543,-100,4,2,2,75,0,0
30705,-100,4,2,6,75,0,0
31029,-100,4,2,1,75,0,0
31353,-100,4,2,6,75,0,0
31516,-100,4,2,2,75,0,0
31678,-100,4,2,6,75,0,0
31840,-100,4,2,2,75,0,0
32002,-100,4,2,6,75,0,0
32164,-100,4,2,3,75,0,0
32651,-100,4,2,6,75,0,0
32813,-100,4,2,2,75,0,0
32975,-100,4,2,6,75,0,0
33137,-100,4,2,2,75,0,0
33299,-100,4,2,6,75,0,0
33624,-83.3333333333333,4,2,2,75,0,0
34110,-83.3333333333333,4,2,3,75,0,0
34597,-83.3333333333333,4,2,2,75,0,0
35083,-83.3333333333333,4,2,12,75,0,0
35245,-83.3333333333333,4,2,2,75,0,0
35570,-100,4,2,5,75,0,0
35732,-100,4,2,2,75,0,0
35813,-100,4,2,3,75,0,0
35894,-100,4,2,12,75,0,0
36056,-100,4,2,2,75,0,0
36218,-100,4,2,1,70,0,0
36543,-100,4,2,2,70,0,0
36705,-100,4,2,8,70,0,0
36786,-100,4,2,2,70,0,0
37029,-100,4,2,8,70,0,0
37191,-100,4,2,2,70,0,0
37353,-100,4,2,9,70,0,0
37516,-100,4,2,2,70,0,0
37678,-100,4,2,8,70,0,0
37840,-100,4,2,2,70,0,0
38002,-100,4,2,8,70,0,0
38083,-100,4,2,2,70,0,0
38326,-100,4,2,8,70,0,0
38489,-100,4,2,2,70,0,0
38651,-100,4,2,8,70,0,0
38813,-100,4,2,2,70,0,0
39299,-100,4,2,8,70,0,0
39380,-100,4,2,2,70,0,0
39624,-100,4,2,8,70,0,0
39786,-100,4,2,2,70,0,0
39948,-100,4,2,9,70,0,0
40110,-100,4,2,2,70,0,0
40272,-100,4,2,8,70,0,0
40434,-100,4,2,2,70,0,0
40597,-100,4,2,8,70,0,0
40678,-100,4,2,2,70,0,0
40921,-100,4,2,8,70,0,0
41083,-100,4,2,2,70,0,0
41245,-100,4,2,8,70,0,0
41407,-100,4,2,1,70,0,0
41732,-100,4,2,2,70,0,0
41894,-100,4,2,8,70,0,0
41975,-100,4,2,2,70,0,0
42218,-100,4,2,8,70,0,0
42380,-100,4,2,2,70,0,0
42543,-100,4,2,9,70,0,0
42705,-100,4,2,2,70,0,0
43516,-100,4,2,5,70,0,0
44002,-100,4,2,2,70,0,0
44164,-100,4,2,9,70,0,0
44326,-100,4,2,2,70,0,0
44489,-100,4,2,8,70,0,0
44570,-100,4,2,2,70,0,0
44813,-100,4,2,8,70,0,0
44975,-100,4,2,2,70,0,0
45137,-100,4,2,9,70,0,0
45299,-100,4,2,2,70,0,0
45461,-100,4,2,8,70,0,0
45624,-100,4,2,2,70,0,0
45786,-100,4,2,8,70,0,0
45867,-100,4,2,2,70,0,0
46110,-100,4,2,8,70,0,0
46272,-100,4,2,2,70,0,0
46597,-100,4,2,1,70,0,0
46759,-100,4,2,9,70,0,0
46921,-100,4,2,2,70,0,0
47083,-100,4,2,8,70,0,0
47164,-100,4,2,2,70,0,0
47407,-100,4,2,8,70,0,0
47570,-100,4,2,2,70,0,0
47732,-100,4,2,9,70,0,0
47894,-100,4,2,2,70,0,0
48056,-100,4,2,8,70,0,0
48218,-100,4,2,2,70,0,0
48380,-100,4,2,8,70,0,0
48461,-100,4,2,2,70,0,0
48705,-100,4,2,8,70,0,0
48867,-100,4,2,2,70,0,0
49029,-100,4,2,8,70,0,0
49191,-100,4,2,2,70,0,0
49353,-100,4,2,9,70,0,0
49516,-100,4,2,2,70,0,0
49678,-100,4,2,8,70,0,0
49759,-100,4,2,2,70,0,0
50002,-100,4,2,8,70,0,0
50164,-100,4,2,2,70,0,0
50326,-100,4,2,9,70,0,0
50489,-100,4,2,2,70,0,0
50651,-100,4,2,8,70,0,0
50813,-100,4,2,2,70,0,0
50975,-100,4,2,8,70,0,0
51056,-100,4,2,2,70,0,0
51299,-100,4,2,8,70,0,0
51461,-100,4,2,2,70,0,0
51624,-100,4,2,8,70,0,0
51786,-100,4,2,1,70,0,0
52110,-100,4,2,2,70,0,0
52272,-100,4,2,8,70,0,0
52353,-100,4,2,2,70,0,0
52597,-100,4,2,8,70,0,0
52759,-100,4,2,2,70,0,0
52921,-100,4,2,9,70,0,0
53083,-100,4,2,2,70,0,0
53894,-100,4,2,5,70,0,0
54380,-100,4,2,2,70,0,0
54705,-100,4,2,6,70,0,0
54867,-100,4,2,2,70,0,0
55029,-100,4,2,6,70,0,0
55191,-100,4,2,2,70,0,0
55353,-100,4,2,6,70,0,0
55840,-100,4,2,2,70,0,0
56002,-100,4,2,6,70,0,0
56164,-100,4,2,3,70,0,0
56434,-100,4,2,2,70,0,0
56651,-100,4,2,3,70,0,0
56867,-100,4,2,4,70,0,0
56975,-133.333333333333,4,2,1,70,0,0
57299,-133.333333333333,4,2,10,70,0,0
57461,-133.333333333333,4,2,2,70,0,0
57948,-133.333333333333,4,2,11,70,0,0
58272,-133.333333333333,4,2,2,70,0,0
58596,-133.333333333333,4,2,11,70,0,0
58759,-133.333333333333,4,2,2,70,0,0
59245,-133.333333333333,4,2,10,70,0,0
59407,-133.333333333333,4,2,4,70,0,0
59570,-133.333333333333,4,2,3,70,0,0
59894,-133.333333333333,4,2,11,70,0,0
60056,-133.333333333333,4,2,2,70,0,0
60542,-133.333333333333,4,2,10,70,0,0
60867,-133.333333333333,4,2,2,70,0,0
61191,-133.333333333333,4,2,11,70,0,0
61353,-133.333333333333,4,2,2,70,0,0
61840,-133.333333333333,4,2,11,70,0,0
62002,-133.333333333333,4,2,2,70,0,0
62164,-133.333333333333,4,2,1,70,0,0
62488,-133.333333333333,4,2,11,70,0,0
62651,-133.333333333333,4,2,2,70,0,0
63137,-133.333333333333,4,2,10,70,0,0
63461,-133.333333333333,4,2,2,70,0,0
63785,-133.333333333333,4,2,10,70,0,0
63948,-133.333333333333,4,2,2,70,0,0
64434,-133.333333333333,4,2,11,70,0,0
64516,-133.333333333333,4,2,2,70,0,0
64597,-133.333333333333,4,2,3,70,0,0
64759,-100,4,2,1,70,0,0
65083,-100,4,2,6,70,0,0
65245,-100,4,2,2,70,0,0
65407,-100,4,2,6,70,0,0
65570,-100,4,2,2,70,0,0
65732,-100,4,2,6,70,0,0
65894,-100,4,2,2,70,0,0
66056,-100,4,2,16,70,0,0
67353,-100,4,2,1,80,0,1
67678,-90.9090909090909,4,2,6,80,0,1
67840,-90.9090909090909,4,2,2,80,0,1
68002,-90.9090909090909,4,2,6,80,0,1
68164,-90.9090909090909,4,2,2,80,0,1
68326,-90.9090909090909,4,2,6,80,0,1
68489,-90.9090909090909,4,2,2,80,0,1
68651,-90.9090909090909,4,2,3,80,0,1
68975,-90.9090909090909,4,2,6,80,0,1
69137,-90.9090909090909,4,2,2,80,0,1
69299,-90.9090909090909,4,2,6,80,0,1
69786,-90.9090909090909,4,2,2,80,0,1
70272,-90.9090909090909,4,2,6,80,0,1
70434,-90.9090909090909,4,2,2,80,0,1
70597,-90.9090909090909,4,2,6,80,0,1
70759,-90.9090909090909,4,2,2,80,0,1
70921,-90.9090909090909,4,2,6,80,0,1
71083,-90.9090909090909,4,2,2,80,0,1
71245,-90.9090909090909,4,2,3,80,0,1
71570,-90.9090909090909,4,2,6,80,0,1
71732,-90.9090909090909,4,2,2,80,0,1
71894,-90.9090909090909,4,2,6,80,0,1
72137,-90.9090909090909,4,2,2,80,0,1
72218,-90.9090909090909,4,2,6,80,0,1
72380,-90.9090909090909,4,2,2,80,0,1
72867,-90.9090909090909,4,2,6,80,0,1
73029,-90.9090909090909,4,2,2,80,0,1
73191,-90.9090909090909,4,2,6,80,0,1
73353,-90.9090909090909,4,2,2,80,0,1
73516,-90.9090909090909,4,2,6,80,0,1
73678,-90.9090909090909,4,2,2,80,0,1
73840,-90.9090909090909,4,2,3,80,0,1
74164,-90.9090909090909,4,2,6,80,0,1
74326,-90.9090909090909,4,2,2,80,0,1
74489,-90.9090909090909,4,2,6,80,0,1
74651,-90.9090909090909,4,2,2,80,0,1
74813,-90.9090909090909,4,2,6,80,0,1
74975,-90.9090909090909,4,2,2,80,0,1
75461,-90.9090909090909,4,2,6,80,0,1
75624,-90.9090909090909,4,2,2,80,0,1
75786,-90.9090909090909,4,2,6,80,0,1
75948,-90.9090909090909,4,2,2,80,0,1
76110,-90.9090909090909,4,2,6,80,0,1
76272,-90.9090909090909,4,2,2,80,0,1
76434,-90.9090909090909,4,2,3,80,0,1
76759,-90.9090909090909,4,2,6,80,0,1
76921,-90.9090909090909,4,2,3,80,0,1
77245,-90.9090909090909,4,2,4,80,0,1
77407,-90.9090909090909,4,2,5,80,0,1
77732,-76.9230769230769,4,2,1,80,0,1
78056,-76.9230769230769,4,2,6,80,0,1
78218,-76.9230769230769,4,2,2,80,0,1
78380,-76.9230769230769,4,2,6,80,0,1
78543,-76.9230769230769,4,2,2,80,0,1
78705,-76.9230769230769,4,2,6,80,0,1
78867,-76.9230769230769,4,2,2,80,0,1
79029,-76.9230769230769,4,2,3,80,0,1
79353,-76.9230769230769,4,2,6,80,0,1
79516,-76.9230769230769,4,2,2,80,0,1
79678,-76.9230769230769,4,2,6,80,0,1
79840,-76.9230769230769,4,2,2,80,0,1
80002,-76.9230769230769,4,2,6,80,0,1
80164,-76.9230769230769,4,2,2,80,0,1
80651,-76.9230769230769,4,2,6,80,0,1
80813,-76.9230769230769,4,2,2,80,0,1
80975,-76.9230769230769,4,2,6,80,0,1
81137,-76.9230769230769,4,2,2,80,0,1
81299,-76.9230769230769,4,2,6,80,0,1
81461,-76.9230769230769,4,2,2,80,0,1
81624,-76.9230769230769,4,2,3,80,0,1
81948,-76.9230769230769,4,2,6,80,0,1
82110,-76.9230769230769,4,2,2,80,0,1
82272,-76.9230769230769,4,2,6,80,0,1
82434,-76.9230769230769,4,2,3,80,0,1
82597,-76.9230769230769,4,2,6,80,0,1
82759,-76.9230769230769,4,2,3,80,0,1
82921,-76.9230769230769,4,2,2,80,0,1
83245,-76.9230769230769,4,2,6,80,0,1
83407,-76.9230769230769,4,2,2,80,0,1
83570,-76.9230769230769,4,2,6,80,0,1
83732,-76.9230769230769,4,2,2,80,0,1
83894,-76.9230769230769,4,2,6,80,0,1
84056,-76.9230769230769,4,2,2,80,0,1
84218,-76.9230769230769,4,2,3,80,0,1
84543,-76.9230769230769,4,2,6,80,0,1
84705,-76.9230769230769,4,2,2,80,0,1
84867,-76.9230769230769,4,2,6,80,0,1
85029,-76.9230769230769,4,2,2,80,0,1
85191,-76.9230769230769,4,2,6,80,0,1
85353,-76.9230769230769,4,2,2,80,0,1
85840,-76.9230769230769,4,2,6,80,0,1
86002,-76.9230769230769,4,2,2,80,0,1
86164,-76.9230769230769,4,2,3,80,0,1
86489,-76.9230769230769,4,2,2,80,0,1
86651,-76.9230769230769,4,2,3,80,0,1
86813,-133.333333333333,4,2,16,80,0,0
87380,-133.333333333333,4,2,16,5,0,0
87461,-133.333333333333,4,2,16,80,0,0
88028,-133.333333333333,4,2,16,5,0,0
88110,-100,4,2,1,75,0,0
88434,-100,4,2,6,75,0,0
88597,-100,4,2,2,75,0,0
88759,-100,4,2,6,75,0,0
88921,-100,4,2,2,75,0,0
89083,-100,4,2,6,75,0,0
89245,-100,4,2,3,75,0,0
89732,-100,4,2,6,75,0,0
89894,-100,4,2,2,75,0,0
90056,-100,4,2,6,75,0,0
90218,-100,4,2,2,75,0,0
90380,-100,4,2,6,75,0,0
90705,-100,4,2,2,75,0,0
91029,-100,4,2,6,75,0,0
91191,-100,4,2,2,75,0,0
91353,-100,4,2,6,75,0,0
91516,-100,4,2,2,75,0,0
91678,-100,4,2,6,75,0,0
91840,-100,4,2,3,75,0,0
92326,-100,4,2,6,75,0,0
92489,-100,4,2,2,75,0,0
92651,-100,4,2,6,75,0,0
92813,-100,4,2,2,75,0,0
92975,-100,4,2,6,75,0,0
93299,-100,4,2,1,75,0,0
93624,-100,4,2,6,75,0,0
93786,-100,4,2,2,75,0,0
93948,-100,4,2,6,75,0,0
94110,-100,4,2,2,75,0,0
94272,-100,4,2,6,75,0,0
94434,-100,4,2,3,75,0,0
94921,-100,4,2,6,75,0,0
95083,-100,4,2,2,75,0,0
95245,-100,4,2,6,75,0,0
95407,-100,4,2,2,75,0,0
95570,-100,4,2,6,75,0,0
95894,-100,4,2,2,75,0,0
96218,-100,4,2,6,75,0,0
96380,-100,4,2,2,75,0,0
96542,-100,4,2,6,75,0,0
96705,-100,4,2,2,75,0,0
96867,-100,4,2,6,75,0,0
97029,-66.6666666666667,4,2,3,75,0,0
97516,-66.6666666666667,4,2,6,75,0,0
97678,-66.6666666666667,4,2,2,75,0,0
97840,-100,4,2,1,75,0,0
98002,-100,4,2,2,75,0,0
98326,-100,4,2,3,75,0,0
98489,-100,4,2,1,75,0,0
98813,-100,4,2,6,75,0,0
98975,-100,4,2,2,75,0,0
99137,-100,4,2,6,75,0,0
99299,-100,4,2,2,75,0,0
99461,-100,4,2,6,75,0,0
99624,-100,4,2,3,75,0,0
100110,-100,4,2,6,75,0,0
100272,-100,4,2,2,75,0,0
100434,-100,4,2,6,75,0,0
100597,-100,4,2,2,75,0,0
100759,-100,4,2,6,75,0,0
101083,-100,4,2,2,75,0,0
101407,-100,4,2,6,75,0,0
101570,-100,4,2,2,75,0,0
101732,-100,4,2,6,75,0,0
101894,-100,4,2,2,75,0,0
102056,-100,4,2,6,75,0,0
102218,-100,4,2,3,75,0,0
102705,-100,4,2,6,75,0,0
102867,-100,4,2,2,75,0,0
103029,-100,4,2,6,75,0,0
103191,-100,4,2,2,75,0,0
103353,-100,4,2,6,75,0,0
103678,-100,4,2,1,75,0,0
104002,-100,4,2,6,75,0,0
104164,-100,4,2,2,75,0,0
104326,-100,4,2,6,75,0,0
104489,-100,4,2,2,75,0,0
104651,-100,4,2,6,75,0,0
104813,-100,4,2,3,75,0,0
105299,-100,4,2,6,75,0,0
105461,-100,4,2,2,75,0,0
105624,-100,4,2,6,75,0,0
105786,-100,4,2,2,75,0,0
105948,-100,4,2,6,75,0,0
106272,-83.3333333333333,4,2,2,75,0,0
106759,-83.3333333333333,4,2,3,75,0,0
107245,-83.3333333333333,4,2,2,75,0,0
107732,-83.3333333333333,4,2,12,75,0,0
107894,-83.3333333333333,4,2,2,75,0,0
108218,-100,4,2,5,75,0,0
108380,-100,4,2,2,75,0,0
108461,-100,4,2,3,75,0,0
108543,-100,4,2,12,75,0,0
108705,-100,4,2,2,75,0,0
108867,-100,4,2,1,70,0,0
109191,-100,4,2,8,70,0,0
109353,-100,4,2,2,70,0,0
109516,-100,4,2,8,70,0,0
109678,-100,4,2,2,70,0,0
109840,-100,4,2,8,70,0,0
110651,-100,4,2,2,70,0,0
110813,-100,4,2,8,70,0,0
110975,-100,4,2,2,70,0,0
111137,-100,4,2,8,70,0,0
111461,-100,4,2,2,70,0,0
111786,-100,4,2,8,70,0,0
111948,-100,4,2,2,70,0,0
112110,-100,4,2,8,70,0,0
112272,-100,4,2,2,70,0,0
112434,-100,4,2,8,70,0,0
113245,-100,4,2,2,70,0,0
113407,-100,4,2,8,70,0,0
113570,-100,4,2,2,70,0,0
113732,-100,4,2,8,70,0,0
114056,-100,4,2,1,70,0,0
114380,-100,4,2,8,70,0,0
114543,-100,4,2,2,70,0,0
114705,-100,4,2,8,70,0,0
114867,-100,4,2,2,70,0,0
115029,-100,4,2,8,70,0,0
115353,-100,4,2,2,70,0,0
116164,-100,4,2,5,70,0,0
116651,-100,4,2,2,70,0,0
116975,-100,4,2,8,70,0,0
117137,-100,4,2,2,70,0,0
117299,-100,4,2,8,70,0,0
117461,-100,4,2,2,70,0,0
117624,-100,4,2,8,70,0,0
118272,-100,4,2,6,70,0,0
118434,-100,4,2,2,70,0,0
118597,-100,4,2,6,70,0,0
118759,-100,4,2,2,70,0,0
118921,-100,4,2,6,70,0,0
119245,-100,4,2,1,70,0,0
119570,-100,4,2,6,70,0,0
119732,-100,4,2,2,70,0,0
119894,-100,4,2,6,70,0,0
120056,-100,4,2,2,70,0,0
120218,-100,4,2,6,70,0,0
121029,-100,4,2,2,70,0,0
121191,-100,4,2,6,70,0,0
121353,-100,4,2,2,70,0,0
121516,-100,4,2,6,70,0,0
121840,-100,4,2,2,70,0,0
122164,-100,4,2,6,70,0,0
122326,-100,4,2,2,70,0,0
122489,-100,4,2,6,70,0,0
122651,-100,4,2,2,70,0,0
122813,-100,4,2,6,70,0,0
123624,-100,4,2,2,70,0,0
123786,-100,4,2,6,70,0,0
123948,-100,4,2,2,70,0,0
124110,-100,4,2,6,70,0,0
124434,-100,4,2,1,70,0,0
124759,-100,4,2,6,70,0,0
124921,-100,4,2,2,70,0,0
125083,-100,4,2,6,70,0,0
125245,-100,4,2,2,70,0,0
125407,-100,4,2,6,70,0,0
125732,-100,4,2,2,70,0,0
126543,-100,4,2,5,70,0,0
127029,-100,4,2,2,70,0,0
127353,-100,4,2,6,70,0,0
127516,-100,4,2,2,70,0,0
127678,-100,4,2,6,70,0,0
127840,-100,4,2,2,70,0,0
128002,-100,4,2,5,70,0,0
128164,-100,4,2,2,70,0,0
128813,-100,4,2,3,70,0,0
129083,-100,4,2,2,70,0,0
129299,-100,4,2,3,70,0,0
129516,-100,4,2,4,70,0,0
129624,-133.333333333333,4,2,1,70,0,0
129948,-133.333333333333,4,2,10,70,0,0
130110,-133.333333333333,4,2,2,70,0,0
130596,-133.333333333333,4,2,11,70,0,0
130921,-133.333333333333,4,2,2,70,0,0
131245,-133.333333333333,4,2,11,70,0,0
131407,-133.333333333333,4,2,2,70,0,0
131894,-133.333333333333,4,2,10,70,0,0
132056,-133.333333333333,4,2,4,70,0,0
132218,-133.333333333333,4,2,3,70,0,0
132542,-133.333333333333,4,2,11,70,0,0
132705,-133.333333333333,4,2,2,70,0,0
133191,-133.333333333333,4,2,10,70,0,0
133516,-133.333333333333,4,2,2,70,0,0
133840,-133.333333333333,4,2,11,70,0,0
134002,-133.333333333333,4,2,2,70,0,0
134489,-133.333333333333,4,2,11,70,0,0
134651,-133.333333333333,4,2,2,70,0,0
134813,-133.333333333333,4,2,1,70,0,0
135137,-133.333333333333,4,2,11,70,0,0
135299,-133.333333333333,4,2,2,70,0,0
135785,-133.333333333333,4,2,10,70,0,0
136110,-133.333333333333,4,2,2,70,0,0
136434,-133.333333333333,4,2,10,70,0,0
136597,-133.333333333333,4,2,2,70,0,0
137083,-133.333333333333,4,2,11,70,0,0
137164,-133.333333333333,4,2,2,70,0,0
137245,-133.333333333333,4,2,3,70,0,0
137407,-100,4,2,1,70,0,0
137732,-100,4,2,6,70,0,0
137894,-100,4,2,2,70,0,0
138056,-100,4,2,6,70,0,0
138218,-100,4,2,2,70,0,0
138380,-100,4,2,6,70,0,0
138543,-100,4,2,2,70,0,0
138705,-100,4,2,6,70,0,0
138867,-100,4,2,1,70,0,0
139029,-100,4,2,2,70,0,0
139191,-100,4,2,3,70,0,0
139353,-100,4,2,16,70,0,0
139434,-100,4,2,2,70,0,0
139678,-100,4,2,16,70,0,0
139759,-100,4,2,2,70,0,0
140002,-100,4,2,1,75,0,0
140326,-100,4,2,6,75,0,0
140489,-100,4,2,2,75,0,0
140651,-100,4,2,6,75,0,0
140813,-100,4,2,2,75,0,0
140975,-100,4,2,6,75,0,0
141137,-100,4,2,2,75,0,0
141299,-100,4,2,3,75,0,0
141624,-100,4,2,6,75,0,0
141786,-100,4,2,2,75,0,0
141948,-100,4,2,6,75,0,0
142110,-100,4,2,2,75,0,0
142272,-100,4,2,6,75,0,0
142434,-100,4,2,2,75,0,0
142921,-100,4,2,6,75,0,0
143083,-100,4,2,2,75,0,0
143245,-100,4,2,6,75,0,0
143407,-100,4,2,2,75,0,0
143570,-100,4,2,6,75,0,0
143732,-100,4,2,2,75,0,0
143894,-100,4,2,3,75,0,0
144218,-100,4,2,6,75,0,0
144380,-100,4,2,2,75,0,0
144543,-100,4,2,6,75,0,0
144705,-100,4,2,2,75,0,0
145029,-100,4,2,3,75,0,0
145191,-100,4,2,1,75,0,0
145516,-100,4,2,6,75,0,0
145678,-100,4,2,2,75,0,0
145840,-100,4,2,6,75,0,0
146002,-100,4,2,2,75,0,0
146164,-100,4,2,6,75,0,0
146326,-100,4,2,2,75,0,0
146489,-100,4,2,3,75,0,0
146813,-100,4,2,6,75,0,0
146975,-100,4,2,2,75,0,0
147137,-100,4,2,6,75,0,0
147624,-100,4,2,2,75,0,0
148110,-100,4,2,6,75,0,0
148272,-100,4,2,2,75,0,0
148434,-100,4,2,6,75,0,0
148597,-100,4,2,2,75,0,0
148759,-100,4,2,6,75,0,0
148921,-100,4,2,2,75,0,0
149083,-100,4,2,3,75,0,0
149245,-100,4,2,2,75,0,0
149407,-100,4,2,6,75,0,0
149569,-100,4,2,2,75,0,0
149732,-100,4,2,6,75,0,0
149894,-100,4,2,2,75,0,0
150380,-100,4,2,1,75,0,0
150705,-100,4,2,6,75,0,0
150867,-100,4,2,2,75,0,0
151029,-100,4,2,6,75,0,0
151191,-100,4,2,2,75,0,0
151353,-100,4,2,6,75,0,0
151516,-100,4,2,2,75,0,0
151678,-100,4,2,3,75,0,0
152002,-100,4,2,6,75,0,0
152164,-100,4,2,2,75,0,0
152326,-100,4,2,6,75,0,0
152488,-100,4,2,2,75,0,0
152651,-100,4,2,6,75,0,0
152813,-100,4,2,2,75,0,0
153299,-100,4,2,6,75,0,0
153461,-100,4,2,2,75,0,0
153624,-100,4,2,6,75,0,0
153786,-100,4,2,2,75,0,0
153948,-100,4,2,6,75,0,0
154110,-100,4,2,2,75,0,0
154272,-100,4,2,3,75,0,0
154597,-100,4,2,6,75,0,0
154759,-100,4,2,2,75,0,0
154921,-100,4,2,6,75,0,0
155083,-100,4,2,2,75,0,0
155570,-100,4,2,1,75,0,0
155894,-100,4,2,6,75,0,0
156056,-100,4,2,2,75,0,0
156218,-100,4,2,6,75,0,0
156705,-100,4,2,2,75,0,0
156867,-100,4,2,3,75,0,0
157191,-100,4,2,6,75,0,0
157353,-100,4,2,2,75,0,0
157516,-100,4,2,6,75,0,0
157678,-100,4,2,2,75,0,0
157840,-100,4,2,6,75,0,0
158002,-100,4,2,2,75,0,0
158489,-100,4,2,6,75,0,0
158651,-100,4,2,2,75,0,0
158813,-100,4,2,3,75,0,0
158975,-100,4,2,2,75,0,0
159137,-100,4,2,6,75,0,0
159299,-100,4,2,2,75,0,0
159786,-100,4,2,16,75,0,0
159894,-100,4,2,2,75,0,0
160110,-100,4,2,16,75,0,0
160434,-100,4,2,2,75,0,0
160759,-200,4,2,2,55,0,0
165461,-200,4,2,2,35,0,0
165705,-200,4,2,2,45,0,0
165948,-200,4,2,2,55,0,0
169678,-66.6666666666667,4,2,2,55,0,0
169840,-66.6666666666667,4,2,1,80,0,1
170164,-80,4,2,6,80,0,1
170326,-80,4,2,2,80,0,1
170489,-80,4,2,6,80,0,1
170651,-80,4,2,2,80,0,1
170813,-80,4,2,6,80,0,1
170975,-80,4,2,2,80,0,1
171137,-80,4,2,3,80,0,1
171461,-80,4,2,6,80,0,1
171624,-80,4,2,2,80,0,1
171786,-80,4,2,6,80,0,1
172272,-80,4,2,2,80,0,1
172759,-80,4,2,6,80,0,1
172921,-80,4,2,2,80,0,1
173083,-80,4,2,6,80,0,1
173245,-80,4,2,2,80,0,1
173407,-80,4,2,6,80,0,1
173570,-80,4,2,2,80,0,1
173732,-80,4,2,3,80,0,1
174056,-80,4,2,6,80,0,1
174218,-80,4,2,2,80,0,1
174380,-80,4,2,6,80,0,1
174542,-80,4,2,2,80,0,1
174705,-80,4,2,6,80,0,1
174867,-80,4,2,2,80,0,1
175353,-80,4,2,6,80,0,1
175516,-80,4,2,2,80,0,1
175678,-80,4,2,6,80,0,1
175840,-80,4,2,2,80,0,1
176002,-80,4,2,6,80,0,1
176164,-80,4,2,2,80,0,1
176326,-80,4,2,3,80,0,1
176651,-80,4,2,6,80,0,1
176813,-80,4,2,2,80,0,1
176975,-80,4,2,6,80,0,1
177137,-80,4,2,2,80,0,1
177299,-80,4,2,6,80,0,1
177461,-80,4,2,2,80,0,1
177948,-80,4,2,6,80,0,1
178110,-80,4,2,2,80,0,1
178272,-80,4,2,6,80,0,1
178434,-80,4,2,2,80,0,1
178597,-80,4,2,6,80,0,1
178759,-80,4,2,2,80,0,1
178921,-80,4,2,3,80,0,1
179245,-80,4,2,6,80,0,1
179407,-80,4,2,3,80,0,1
179651,-80,4,2,5,80,0,1
179732,-80,4,2,4,80,0,1
179894,-80,4,2,5,80,0,1
180218,-71.4285714285714,4,2,1,80,0,1
180543,-71.4285714285714,4,2,6,80,0,1
180705,-71.4285714285714,4,2,2,80,0,1
180867,-71.4285714285714,4,2,6,80,0,1
181029,-71.4285714285714,4,2,2,80,0,1
181191,-71.4285714285714,4,2,6,80,0,1
181353,-71.4285714285714,4,2,2,80,0,1
181516,-71.4285714285714,4,2,3,80,0,1
181840,-71.4285714285714,4,2,6,80,0,1
182002,-71.4285714285714,4,2,2,80,0,1
182164,-71.4285714285714,4,2,6,80,0,1
182326,-71.4285714285714,4,2,2,80,0,1
182489,-71.4285714285714,4,2,6,80,0,1
182651,-71.4285714285714,4,2,2,80,0,1
183137,-71.4285714285714,4,2,6,80,0,1
183299,-71.4285714285714,4,2,2,80,0,1
183461,-71.4285714285714,4,2,6,80,0,1
183624,-71.4285714285714,4,2,2,80,0,1
183786,-71.4285714285714,4,2,6,80,0,1
183948,-71.4285714285714,4,2,2,80,0,1
184110,-71.4285714285714,4,2,3,80,0,1
184434,-71.4285714285714,4,2,6,80,0,1
184597,-71.4285714285714,4,2,2,80,0,1
184759,-71.4285714285714,4,2,6,80,0,1
184921,-71.4285714285714,4,2,3,80,0,1
185083,-71.4285714285714,4,2,6,80,0,1
185245,-71.4285714285714,4,2,3,80,0,1
185407,-71.4285714285714,4,2,2,80,0,1
185732,-71.4285714285714,4,2,6,80,0,1
185894,-71.4285714285714,4,2,2,80,0,1
186056,-71.4285714285714,4,2,6,80,0,1
186218,-71.4285714285714,4,2,2,80,0,1
186380,-71.4285714285714,4,2,6,80,0,1
186543,-71.4285714285714,4,2,2,80,0,1
186705,-71.4285714285714,4,2,3,80,0,1
187029,-71.4285714285714,4,2,6,80,0,1
187191,-71.4285714285714,4,2,2,80,0,1
187353,-71.4285714285714,4,2,6,80,0,1
187515,-71.4285714285714,4,2,2,80,0,1
187678,-71.4285714285714,4,2,6,80,0,1
187840,-71.4285714285714,4,2,2,80,0,1
188326,-71.4285714285714,4,2,6,80,0,1
188489,-71.4285714285714,4,2,2,80,0,1
188651,-71.4285714285714,4,2,3,80,0,1
188975,-71.4285714285714,4,2,2,80,0,1
189137,-71.4285714285714,4,2,3,80,0,1
189299,-172.413793103448,4,2,16,80,0,0
190028,-172.413793103448,4,2,16,5,0,0
190110,-222.222222222222,4,2,16,80,0,0
191082,-222.222222222222,4,2,16,5,0,0
191127,750,4,2,16,45,1,0

[Colours]
Combo1 : 153,153,153
Combo2 : 0,238,0
Combo3 : 12,222,222
Combo4 : 0,185,0

[HitObjects]
0,232,1017,5,0,2:0:0:0:
20,256,1128,1,0,2:0:0:0:
52,264,1240,2,0,B|100:284|104:332|104:332|132:372|184:360,1,180,2|2,2:0|2:0,2:0:0:0:
264,328,1906,1,0,2:0:0:0:
276,300,2017,1,0,2:0:0:0:
276,268,2128,2,0,P|268:232|244:176,1,90,2|0,2:0|2:0,2:0:0:0:
156,180,2573,2,0,P|164:216|188:272,1,90,0|2,2:0|2:0,2:0:0:0:
264,328,3017,6,0,P|220:332|176:348,1,90,2|0,2:0|2:0,2:0:0:0:
352,308,3462,2,0,P|396:304|440:288,1,90,2|0,2:0|2:0,2:0:0:0:
476,204,3906,2,0,L|448:112,2,90,2|0|0,2:0|2:0|2:0,2:0:0:0:
388,212,4573,1,0,2:0:0:0:
404,368,4795,6,0,P|416:324|444:276,1,90,2|0,2:0|2:0,2:0:0:0:
352,132,5239,2,0,P|373:171|385:214,1,90,0|2,2:0|2:0,2:0:0:0:
276,268,5684,2,0,P|222:281|88:220,1,180,2|0,2:0|2:0,2:0:0:0:
36,184,6351,1,2,2:0:0:0:
76,324,6573,6,0,P|26:349|-8:380,1,90,2|0,2:0|2:0,2:0:0:0:
108,244,7017,2,0,P|111:194|128:144,1,90,2|0,2:0|2:0,2:0:0:0:
0,48,7462,2,0,L|96:72,1,90,2|0,2:0|2:0,2:0:0:0:
144,0,7795,1,2,2:0:0:0:
164,16,7906,1,0,2:0:0:0:
172,52,8017,1,2,2:0:0:0:
212,76,8128,2,0,P|246:73|276:60,1,45,0|2,2:0|2:0,2:0:0:0:
368,84,8351,6,0,B|329:4|329:4|261:64,1,180,2|0,2:0|2:0,2:0:0:0:
302,144,9017,1,2,2:0:0:0:
379,83,9239,6,0,B|324:8|324:8|250:59,1,180,2|0,2:0|2:0,2:0:0:0:
300,152,9906,1,2,2:0:0:0:
432,228,10128,2,0,L|464:120,1,90,2|0,2:0|2:0,2:0:0:0:
456,64,10462,1,2,2:0:0:0:
456,64,10573,2,0,L|424:172,1,90,2|0,2:0|2:0,2:0:0:0:
396,304,11017,6,0,P|440:316|480:300,1,90,2|2,2:0|2:0,2:0:0:0:
432,228,11351,2,0,P|420:208|396:188,1,45,2|0,2:0|2:0,2:0:0:0:
328,244,11573,2,0,P|284:264|208:268,1,90,2|0,2:0|2:0,2:0:0:0:
176,204,11906,6,0,P|94:242|68:152,1,180,2|2,2:0|2:0,2:0:0:0:
176,328,12573,1,0,2:0:0:0:
176,204,12795,6,0,P|94:212|96:294,1,180,2|0,2:0|2:0,2:0:0:0:
256,356,13462,1,2,2:0:0:0:
256,112,13684,6,0,P|146:132|256:260,1,360,2|0,2:0|2:0,2:0:0:0:
256,260,15017,6,0,B|208:240|168:264|168:264|160:280|160:280|116:300|69:281,1,202.5,0|0,2:0|2:0,2:0:0:0:
4,224,15462,6,0,L|48:136,1,90,14|0,2:1|2:0,2:0:0:0:
152,36,15786,1,8,2:0:0:0:
112,200,15948,1,10,2:1:0:0:
112,200,16029,2,0,L|148:152,1,45,10|8,2:0|2:1,2:0:0:0:
252,104,16272,1,10,2:1:0:0:
48,96,16434,1,8,2:0:0:0:
168,264,16597,5,14,2:1:0:0:
168,264,16921,1,10,2:1:0:0:
0,384,17083,1,10,2:0:0:0:
104,336,17245,1,8,2:1:0:0:
76,328,17326,1,10,2:0:0:0:
104,336,17407,1,10,2:1:0:0:
4,256,17570,5,8,2:1:0:0:
200,372,17732,1,10,2:0:0:0:
4,256,17894,1,0,2:0:0:0:
264,292,18056,6,0,L|352:248,1,90,14|0,2:1|2:0,2:0:0:0:
452,144,18380,1,10,2:0:0:0:
288,184,18543,1,10,2:1:0:0:
288,184,18624,2,0,L|336:148,1,45,10|8,2:0|2:1,2:0:0:0:
384,44,18867,1,10,2:1:0:0:
392,248,19029,1,8,2:0:0:0:
224,128,19191,5,14,2:1:0:0:
224,128,19516,1,10,2:1:0:0:
104,296,19678,1,10,2:0:0:0:
152,192,19840,1,8,2:1:0:0:
160,220,19921,1,10,2:0:0:0:
152,192,20002,1,10,2:1:0:0:
232,292,20164,5,8,2:1:0:0:
116,96,20326,1,10,2:0:0:0:
232,292,20489,1,0,2:0:0:0:
448,160,20651,6,0,L|404:248,1,90,14|0,2:1|2:0,2:0:0:0:
300,348,20975,1,10,2:0:0:0:
340,184,21137,1,10,2:1:0:0:
340,184,21218,2,0,L|304:232,1,45,10|8,2:0|2:1,2:0:0:0:
200,280,21461,1,10,2:1:0:0:
404,288,21624,1,8,2:0:0:0:
284,120,21786,5,14,2:1:0:0:
284,120,22110,1,10,2:1:0:0:
452,0,22272,1,10,2:0:0:0:
348,48,22434,1,8,2:1:0:0:
376,56,22516,1,10,2:0:0:0:
348,48,22597,1,10,2:1:0:0:
448,128,22759,5,8,2:1:0:0:
252,12,22921,1,10,2:0:0:0:
448,128,23083,1,0,2:0:0:0:
216,192,23245,6,0,L|260:280,1,90,14|0,2:1|2:0,2:0:0:0:
364,380,23570,1,10,2:0:0:0:
324,216,23732,1,10,2:1:0:0:
324,216,23813,2,0,L|360:264,1,45,10|8,2:0|2:1,2:0:0:0:
464,312,24056,1,10,2:1:0:0:
260,320,24218,1,8,2:0:0:0:
356,128,24380,6,0,B|388:216|388:216|380:224|380:224|415:317,1,202.5,14|0,2:1|2:0,2:0:0:0:
296,188,24705,1,10,2:1:0:0:
408,12,24867,1,8,2:0:0:0:
408,12,25029,1,10,2:1:0:0:
464,212,25191,2,0,P|458:182|440:152,1,45,6|4,2:3|2:3,2:0:0:0:
280,112,25353,5,8,2:3:0:0:
240,120,25434,1,8,2:3:0:0:
212,144,25516,1,4,2:3:0:0:
204,176,25597,1,4,2:3:0:0:
184,196,25678,1,8,2:3:0:0:
160,200,25759,1,8,2:3:0:0:
144,196,25840,6,0,L|124:76,1,90,14|0,2:1|2:0,2:0:0:0:
64,0,26164,1,10,2:0:0:0:
48,208,26326,1,10,2:1:0:0:
60,228,26407,1,10,2:0:0:0:
72,248,26489,1,8,2:1:0:0:
129,107,26651,1,10,2:1:0:0:
0,212,26813,1,8,2:0:0:0:
204,260,26975,5,14,2:1:0:0:
200,264,27299,5,10,2:1:0:0:
0,296,27461,1,10,2:0:0:0:
264,324,27624,1,8,2:1:0:0:
256,344,27705,1,10,2:0:0:0:
236,352,27786,1,10,2:1:0:0:
148,336,27948,5,8,2:1:0:0:
160,160,28110,1,10,2:0:0:0:
116,360,28272,1,0,2:0:0:0:
308,248,28434,6,0,L|428:228,1,90,14|0,2:1|2:0,2:0:0:0:
504,168,28759,1,10,2:0:0:0:
296,152,28921,1,8,2:1:0:0:
276,164,29002,1,10,2:0:0:0:
256,176,29083,1,10,2:1:0:0:
397,233,29245,1,10,2:1:0:0:
292,104,29407,1,8,2:0:0:0:
244,308,29570,5,14,2:1:0:0:
240,304,29894,5,10,2:1:0:0:
208,104,30056,1,10,2:0:0:0:
180,368,30218,1,8,2:1:0:0:
160,360,30299,1,10,2:0:0:0:
152,340,30380,1,10,2:1:0:0:
168,252,30543,5,8,2:1:0:0:
344,264,30705,1,10,2:0:0:0:
144,220,30867,1,0,2:0:0:0:
348,120,31029,6,0,L|228:140,1,90,14|0,2:1|2:0,2:0:0:0:
152,200,31353,1,10,2:0:0:0:
360,216,31516,1,10,2:1:0:0:
380,204,31597,1,10,2:0:0:0:
400,192,31678,1,8,2:1:0:0:
259,135,31840,1,10,2:1:0:0:
364,264,32002,1,8,2:0:0:0:
412,60,32164,5,14,2:1:0:0:
416,64,32489,5,10,2:1:0:0:
448,264,32651,1,10,2:0:0:0:
476,0,32813,1,8,2:1:0:0:
496,8,32894,1,10,2:0:0:0:
504,28,32975,1,10,2:1:0:0:
488,116,33137,5,8,2:1:0:0:
312,104,33299,1,10,2:0:0:0:
512,148,33461,1,0,2:0:0:0:
236,160,33624,6,2,L|128:164,1,108,14|10,2:1|2:3,2:1:0:0:
92,140,33867,1,4,2:3:0:0:
92,140,33948,1,8,2:0:0:0:
293,4,34110,6,2,P|313:32|297:124,1,108,14|10,2:1|2:3,2:1:0:0:
236,160,34353,1,4,2:3:0:0:
236,160,34434,1,8,2:0:0:0:
0,256,34597,6,2,P|64:304|99:274,1,108,14|10,2:1|2:3,2:1:0:0:
164,240,34840,1,4,2:3:0:0:
164,240,34921,1,8,2:0:0:0:
66,0,35083,6,2,L|82:128,1,108,10|10,2:1|2:0,2:1:0:0:
86,184,35326,1,8,2:0:0:0:
94,260,35407,1,8,2:0:0:0:
156,80,35570,6,0,P|162:109|152:144,1,45,14|8,2:1|2:3,2:0:0:0:
4,136,35732,2,0,P|-2:107|8:72,1,45,4|8,2:3|2:3,2:0:0:0:
66,0,35894,1,10,2:1:0:0:
264,8,36056,5,8,2:0:0:0:
296,32,36137,1,8,2:0:0:0:
328,56,36218,1,14,2:1:0:0:
332,292,36543,5,10,2:0:0:0:
420,188,36705,1,8,2:1:0:0:
404,224,36786,2,0,L|432:340,1,90,8|0,2:0|2:0,2:0:0:0:
456,340,37029,1,10,2:1:0:0:
500,248,37191,1,8,2:0:0:0:
500,248,37353,1,2,2:3:0:0:
376,116,37516,5,10,2:1:0:0:
196,88,37678,1,2,2:3:0:0:
128,256,37840,1,8,2:0:0:0:
232,168,38002,1,10,2:1:0:0:
196,184,38083,2,0,L|80:156,1,90,10|0,2:0|2:0,2:0:0:0:
80,132,38326,1,10,2:1:0:0:
172,88,38489,1,10,2:0:0:0:
252,252,38651,1,2,2:3:0:0:
252,252,38732,1,2,2:3:0:0:
252,252,38813,5,12,2:1:0:0:
485,112,39137,1,10,2:0:0:0:
397,8,39299,1,10,2:1:0:0:
413,44,39380,2,0,L|385:160,1,90,10|0,2:0|2:0,2:0:0:0:
361,160,39624,1,10,2:1:0:0:
317,68,39786,1,8,2:0:0:0:
317,68,39948,1,2,2:3:0:0:
500,196,40110,5,10,2:1:0:0:
392,132,40272,1,2,2:3:0:0:
304,216,40434,1,8,2:0:0:0:
408,304,40597,1,8,2:1:0:0:
372,288,40678,2,0,L|256:316,1,90,8|0,2:0|2:0,2:0:0:0:
256,340,40921,1,8,2:1:0:0:
348,384,41083,1,8,2:0:0:0:
216,252,41245,1,2,2:3:0:0:
216,252,41326,1,2,2:3:0:0:
216,252,41407,5,14,2:1:0:0:
8,52,41732,1,10,2:0:0:0:
96,156,41894,1,10,2:1:0:0:
80,120,41975,2,0,L|108:4,1,90,10|0,2:0|2:0,2:0:0:0:
132,4,42218,1,10,2:1:0:0:
176,92,42380,1,8,2:0:0:0:
8,52,42543,1,2,2:3:0:0:
56,220,42705,5,14,2:1:0:0:
32,316,42867,1,8,2:0:0:0:
32,316,42948,1,8,2:0:0:0:
32,316,43029,2,0,P|54:338|94:348,1,45,10|4,2:3|2:3,2:0:0:0:
152,300,43191,6,0,P|215:318|250:374,1,135,10|0,2:1|2:0,2:0:0:0:
256,360,43516,2,0,P|267:337|284:320,1,45,14|0,2:1|2:0,2:0:0:0:
376,316,43678,2,0,P|416:336|492:272,1,135,8|0,2:0|2:0,2:0:0:0:
468,260,44002,6,0,P|452:222|444:172,1,90,14|2,2:1|2:3,2:0:0:0:
460,80,44326,1,8,2:0:0:0:
368,232,44489,1,10,2:1:0:0:
368,232,44570,1,10,2:0:0:0:
368,232,44651,1,10,2:1:0:0:
488,293,44813,1,10,2:1:0:0:
360,148,44975,2,0,L|376:48,1,90,8|2,2:0|2:3,2:0:0:0:
194,51,45299,6,0,P|231:66|282:75,1,90,10|2,2:1|2:3,2:0:0:0:
374,59,45624,1,8,2:0:0:0:
216,160,45786,1,8,2:1:0:0:
216,160,45867,1,8,2:0:0:0:
216,160,45948,1,8,2:1:0:0:
194,51,46110,1,8,2:1:0:0:
360,148,46272,2,0,P|348:208|280:220,1,135,8|0,2:0|2:0,2:0:0:0:
216,160,46597,6,0,P|175:141|130:138,1,90,14|2,2:1|2:3,2:0:0:0:
16,232,46921,1,10,2:0:0:0:
200,244,47083,1,8,2:1:0:0:
200,244,47164,2,0,P|191:264|185:286,2,45,8|10|0,2:0|2:1|2:0,2:0:0:0:
216,160,47407,1,10,2:1:0:0:
268,324,47570,1,8,2:0:0:0:
96,280,47732,1,2,2:3:0:0:
292,240,47894,6,0,P|332:258|377:261,1,90,10|2,2:1|2:3,2:0:0:0:
492,168,48218,1,8,2:0:0:0:
308,157,48380,1,10,2:1:0:0:
308,157,48461,2,0,P|316:136|322:114,2,45,10|10|0,2:0|2:1|2:0,2:0:0:0:
292,240,48705,1,10,2:1:0:0:
240,76,48867,1,10,2:0:0:0:
412,120,49029,1,2,2:3:0:0:
308,0,49191,6,0,P|326:40|329:85,1,90,12|2,2:1|2:3,2:0:0:0:
208,232,49516,1,10,2:0:0:0:
240,76,49678,1,10,2:1:0:0:
240,76,49759,2,0,P|219:67|197:61,2,45,10|10|0,2:0|2:1|2:0,2:0:0:0:
329,85,50002,1,10,2:1:0:0:
116,24,50164,1,8,2:0:0:0:
192,148,50326,1,2,2:3:0:0:
16,188,50489,5,10,2:1:0:0:
16,188,50651,1,2,2:3:0:0:
32,40,50813,1,10,2:0:0:0:
112,192,50975,1,8,2:1:0:0:
112,192,51056,1,8,2:0:0:0:
112,192,51137,6,0,L|104:256,1,45,10|0,2:1|2:0,2:0:0:0:
172,280,51299,2,0,L|164:344,1,45,10|0,2:1|2:0,2:0:0:0:
32,264,51461,2,0,L|24:328,1,45,10|0,2:0|2:0,2:0:0:0:
92,360,51624,1,2,2:3:0:0:
256,248,51786,6,0,P|304:265|336:352,1,135,14|0,2:1|2:0,2:0:0:0:
252,336,52110,1,10,2:0:0:0:
320,176,52272,1,8,2:1:0:0:
320,176,52353,1,10,2:0:0:0:
320,176,52434,1,10,2:1:0:0:
424,316,52597,2,0,P|427:285|444:248,1,45,10|0,2:1|2:0,2:0:0:0:
496,212,52759,1,8,2:0:0:0:
408,192,52921,1,2,2:3:0:0:
512,72,53083,5,14,2:1:0:0:
352,52,53245,1,8,2:0:0:0:
380,52,53326,1,8,2:0:0:0:
404,64,53407,1,10,2:3:0:0:
424,84,53489,1,4,2:3:0:0:
428,112,53570,6,0,P|363:115|324:200,1,135,10|0,2:1|2:0,2:0:0:0:
312,180,53894,2,0,P|288:184|267:180,1,45,14|0,2:1|2:0,2:0:0:0:
180,144,54056,6,0,B|107:121|123:185|51:161,1,135,8|0,2:0|2:0,2:0:0:0:
40,192,54380,6,0,L|64:280,1,90,14|2,2:1|2:3,2:0:0:0:
152,252,54705,1,8,2:0:0:0:
72,84,54867,1,10,2:1:0:0:
72,84,54948,1,10,2:0:0:0:
72,84,55029,1,10,2:1:0:0:
64,279,55191,1,8,2:1:0:0:
164,160,55353,2,0,L|180:48,1,90,8|2,2:0|2:0,2:0:0:0:
332,0,55678,5,10,2:1:0:0:
272,124,55840,1,8,2:3:0:0:
416,16,56002,5,8,2:1:0:0:
356,140,56164,1,4,2:3:0:0:
432,100,56326,6,0,P|453:92|500:92,2,60,8|8|4,2:1|2:3|2:3,2:0:0:0:
500,172,56651,2,0,P|478:179|432:180,2,60,8|4|8,2:3|2:3|2:3,2:0:0:0:
365,227,56975,6,0,P|322:279|307:344,1,135,14|2,2:1|2:3,2:0:0:0:
440,272,57461,1,8,2:1:0:0:
307,343,57624,6,0,P|322:278|365:227,1,135,8|2,2:0|2:3,2:0:0:0:
129,288,58272,6,0,P|60:293|-11:260,1,135,10|2,2:1|2:3,2:0:0:0:
76,184,58759,1,10,2:1:0:0:
0,268,58921,6,0,P|69:263|140:296,1,135,8|2,2:0|2:3,2:0:0:0:
147,156,59407,1,4,2:3:0:0:
147,156,59489,1,4,2:3:0:0:
147,156,59570,6,0,P|190:104|205:39,1,135,14|2,2:1|2:3,2:0:0:0:
72,112,60056,1,8,2:1:0:0:
205,40,60218,6,0,P|190:105|147:156,1,135,8|2,2:0|2:3,2:0:0:0:
324,48,60867,6,0,P|393:43|464:76,1,135,10|2,2:1|2:3,2:0:0:0:
376,152,61353,1,8,2:1:0:0:
324,48,61516,5,10,2:0:0:0:
272,108,61678,1,8,2:3:0:0:
376,152,61840,5,2,2:3:0:0:
324,212,62002,1,4,2:3:0:0:
440,276,62164,6,0,P|374:276|326:321,1,135,14|2,2:1|2:3,2:0:0:0:
252,356,62651,1,8,2:1:0:0:
172,368,62813,2,0,P|107:363|40:332,1,135,8|2,2:0|2:3,2:0:0:0:
83,127,63461,6,0,P|149:127|197:82,1,135,10|2,2:1|2:3,2:0:0:0:
260,28,63948,1,8,2:1:0:0:
344,40,64110,2,0,P|339:104|308:172,1,135,8|10,2:0|2:3,2:0:0:0:
280,172,64516,1,4,2:3:0:0:
252,188,64597,1,10,2:3:0:0:
232,212,64678,1,4,2:3:0:0:
200,220,64759,6,0,P|200:196|192:164,1,45,12|0,2:1|2:0,2:0:0:0:
128,112,64921,1,10,2:1:0:0:
140,288,65083,5,8,2:0:0:0:
288,192,65245,1,10,2:1:0:0:
96,272,65407,5,8,2:0:0:0:
268,264,65570,1,10,2:1:0:0:
52,256,65732,5,8,2:0:0:0:
248,336,65894,1,10,2:1:0:0:
8,240,66056,5,8,2:0:0:0:
308,120,66218,1,8,2:0:0:0:
308,120,67353,5,14,2:1:0:0:
212,8,67516,1,8,2:1:0:0:
384,64,67678,2,0,L|432:172,1,99,8|10,2:0|2:1,2:0:0:0:
260,196,68002,1,10,2:0:0:0:
300,36,68164,1,8,2:1:0:0:
424,154,68326,1,8,2:0:0:0:
424,154,68489,1,10,2:1:0:0:
220,104,68651,5,14,2:0:0:0:
332,259,68813,1,10,2:1:0:0:
150,200,68975,1,10,2:0:0:0:
332,140,69137,1,8,2:1:0:0:
219,296,69299,6,0,B|252:276|261:240|261:240|300:232|332:258,1,148.5,10|0,2:0|2:0,2:0:0:0:
300,340,69624,2,0,P|240:340|224:280,1,99,8|8,2:0|2:1,2:0:0:0:
128,152,69948,5,14,2:0:0:0:
16,248,70110,1,10,2:1:0:0:
72,76,70272,2,0,L|180:28,1,99,8|10,2:0|2:1,2:0:0:0:
204,200,70597,1,10,2:0:0:0:
44,160,70759,1,8,2:1:0:0:
162,36,70921,1,10,2:0:0:0:
162,36,71083,1,10,2:1:0:0:
196,212,71245,5,14,2:0:0:0:
367,89,71407,1,10,2:1:0:0:
302,289,71570,1,10,2:0:0:0:
236,89,71732,1,8,2:1:0:0:
408,214,71894,6,2,B|456:224|480:180|480:180|468:128|420:152,1,148.5,10|8,2:0|2:1,2:1:0:0:
367,89,72218,6,2,P|339:89|303:73,1,49.5,8|0,2:0|2:0,2:1:0:0:
480,20,72380,2,2,P|466:44|434:67,1,49.5,8|0,2:1|2:0,2:1:0:0:
256,150,72543,5,14,2:0:0:0:
408,214,72705,1,8,2:1:0:0:
280,270,72867,5,8,2:0:0:0:
424,174,73029,1,10,2:1:0:0:
376,362,73191,5,8,2:0:0:0:
328,194,73353,1,10,2:1:0:0:
512,256,73516,1,8,2:0:0:0:
512,256,73678,1,10,2:1:0:0:
316,276,73840,5,14,2:0:0:0:
204,121,74002,1,8,2:1:0:0:
386,180,74164,1,10,2:0:0:0:
204,240,74326,1,8,2:1:0:0:
317,84,74489,6,0,P|265:70|236:124,1,99,10|8,2:0|2:1,2:0:0:0:
280,304,74813,2,0,P|332:318|361:264,1,99,10|8,2:0|2:1,2:0:0:0:
128,232,75137,5,14,2:0:0:0:
296,192,75299,1,8,2:1:0:0:
296,192,75380,1,8,2:1:0:0:
296,192,75461,1,8,2:0:0:0:
212,212,75624,1,10,2:1:0:0:
140,320,75786,5,10,2:0:0:0:
152,148,75948,1,8,2:1:0:0:
56,284,76110,1,8,2:0:0:0:
212,212,76272,1,10,2:1:0:0:
41,89,76434,5,14,2:0:0:0:
212,212,76597,2,0,P|208:184|208:136,1,49.5,8|8,2:3|2:3,2:0:0:0:
147,12,76759,1,8,2:0:0:0:
81,212,76921,2,0,P|96:184|120:168,1,49.5,4|4,2:3|2:3,2:0:0:0:
253,87,77083,5,10,2:0:0:0:
288,96,77164,1,0,2:0:0:0:
316,120,77245,1,8,2:3:0:0:
332,152,77326,1,8,2:3:0:0:
328,188,77407,6,0,P|349:186|392:172,1,49.5,12|0,2:0|2:0,2:0:0:0:
496,228,77570,2,0,P|474:229|432:244,1,49.5,8|8,2:0|2:0,2:0:0:0:
272,272,77732,6,0,B|344:263|405:315|405:315|361:316,1,175.5,14|0,2:1|2:0,2:0:0:0:
384,324,78056,2,0,L|412:188,1,117,8|8,2:0|2:1,2:0:0:0:
480,52,78380,5,8,2:0:0:0:
496,228,78543,1,10,2:1:0:0:
480,52,78705,2,0,P|468:85|468:120,1,58.5,8|0,2:0|2:0,2:0:0:0:
496,228,78867,2,0,P|507:194|508:160,1,58.5,10|0,2:1|2:0,2:0:0:0:
308,40,79029,5,14,2:0:0:0:
173,226,79191,1,10,2:1:0:0:
392,155,79353,1,10,2:0:0:0:
173,83,79516,1,8,2:1:0:0:
340,234,79678,6,0,B|341:266|317:282|317:282|285:287|264:260,1,117,10|8,2:0|2:1,2:0:0:0:
276,176,79921,1,0,2:0:0:0:
276,176,80002,1,8,2:0:0:0:
416,276,80164,1,8,2:1:0:0:
224,332,80326,6,0,B|152:323|91:375|91:375|135:376,1,175.5,14|0,2:0|2:0,2:0:0:0:
112,384,80651,2,0,L|84:248,1,117,8|10,2:0|2:1,2:0:0:0:
176,92,80975,5,10,2:0:0:0:
0,76,81137,1,8,2:1:0:0:
220,112,81299,2,0,P|186:123|152:124,1,58.5,8|0,2:0|2:0,2:0:0:0:
44,96,81461,2,0,P|77:84|112:84,1,58.5,10|0,2:1|2:0,2:0:0:0:
278,208,81624,5,14,2:0:0:0:
92,343,81786,1,10,2:1:0:0:
163,124,81948,1,10,2:0:0:0:
235,343,82110,1,8,2:1:0:0:
84,175,82272,6,2,B|52:174|35:198|35:198|31:230|58:251,1,117,10|8,2:0|2:3,2:1:0:0:
142,240,82516,1,8,2:3:0:0:
142,240,82597,2,2,P|152:211|156:184,1,58.5,8|0,2:0|2:0,2:1:0:0:
112,24,82759,2,2,P|101:52|98:80,1,58.5,4|0,2:3|2:0,2:1:0:0:
228,232,82921,5,14,2:0:0:0:
380,168,83083,1,8,2:1:0:0:
252,112,83245,5,8,2:0:0:0:
396,208,83407,1,10,2:1:0:0:
348,20,83570,5,10,2:0:0:0:
300,188,83732,1,8,2:1:0:0:
484,126,83894,1,8,2:0:0:0:
484,126,84056,1,10,2:1:0:0:
288,106,84218,5,12,2:0:0:0:
176,261,84380,1,10,2:1:0:0:
358,202,84543,1,10,2:0:0:0:
176,142,84705,1,8,2:1:0:0:
289,298,84867,6,0,P|237:312|196:252,1,117,8|10,2:0|2:1,2:0:0:0:
248,72,85191,2,0,P|300:58|341:118,1,117,8|10,2:0|2:1,2:0:0:0:
380,296,85516,5,14,2:0:0:0:
492,240,85678,1,8,2:1:0:0:
496,228,85759,1,8,2:1:0:0:
504,216,85840,1,8,2:0:0:0:
358,202,86002,1,10,2:1:0:0:
468,24,86164,6,0,P|428:64|456:132,1,117,14|8,2:0|2:1,2:0:0:0:
476,152,86407,1,8,2:1:0:0:
496,184,86489,1,8,2:3:0:0:
500,216,86570,1,4,2:3:0:0:
492,240,86651,1,10,2:3:0:0:
488,256,86732,1,4,2:3:0:0:
488,268,86813,6,0,B|419:302|427:207|299:236|357:317|280:315,1,236.250000000001,10|0,2:0|2:0,2:0:0:0:
264,240,87461,6,0,P|235:157|141:230,1,236.250000000001,0|0,2:0|2:0,2:0:0:0:
4,160,88110,6,2,L|48:248,1,90,14|0,2:1|2:0,2:1:0:0:
152,348,88434,1,10,2:0:0:0:
112,184,88597,1,10,2:1:0:0:
112,184,88678,2,0,L|148:232,1,45,10|10,2:0|2:1,2:0:0:0:
252,280,88921,1,10,2:1:0:0:
48,288,89083,1,8,2:0:0:0:
168,120,89245,1,14,2:1:0:0:
0,160,89407,6,2,L|8:100,1,45,0|0,2:0|2:0,2:1:0:0:
13,41,89570,1,10,2:1:0:0:
84,140,89732,6,2,L|92:80,1,45,8|0,2:1|2:1,2:1:0:0:
97,21,89894,1,10,2:1:0:0:
168,120,90056,6,2,L|176:60,1,45,8|0,2:1|2:0,2:1:0:0:
181,1,90218,1,8,2:1:0:0:
304,24,90380,6,2,P|352:16|308:72,1,135,10|0,2:0|2:0,2:1:0:0:
264,92,90705,6,0,L|352:136,1,90,14|0,2:1|2:0,2:0:0:0:
452,240,91029,1,10,2:0:0:0:
288,200,91191,1,10,2:1:0:0:
288,200,91272,2,0,L|336:236,1,45,10|10,2:0|2:1,2:0:0:0:
384,340,91516,1,10,2:1:0:0:
392,136,91678,1,10,2:0:0:0:
224,256,91840,5,14,2:1:0:0:
384,340,92002,6,2,L|376:280,1,45,0|0,2:0|2:0,2:1:0:0:
371,221,92164,1,10,2:1:0:0:
300,320,92326,6,2,L|292:260,1,45,8|0,2:0|2:0,2:1:0:0:
287,201,92489,1,10,2:1:0:0:
216,300,92651,6,2,L|208:240,1,45,8|0,2:1|2:0,2:1:0:0:
203,181,92813,1,10,2:1:0:0:
36,116,92975,6,2,P|-21:132|0:188,1,135,10|0,2:0|2:0,2:1:0:0:
68,228,93299,6,0,L|112:140,1,90,14|0,2:1|2:0,2:0:0:0:
212,36,93624,1,10,2:0:0:0:
172,200,93786,1,10,2:1:0:0:
172,200,93867,2,0,L|208:152,1,45,10|10,2:0|2:1,2:0:0:0:
312,104,94110,1,10,2:1:0:0:
108,96,94272,1,8,2:0:0:0:
228,264,94434,5,14,2:1:0:0:
199,164,94597,6,2,L|139:172,1,45,0|0,2:0|2:0,2:1:0:0:
80,177,94759,1,10,2:1:0:0:
179,248,94921,6,2,L|119:256,1,45,8|0,2:0|2:0,2:1:0:0:
60,261,95083,1,10,2:1:0:0:
159,332,95245,6,2,L|99:340,1,45,8|0,2:1|2:0,2:1:0:0:
40,345,95407,1,8,2:1:0:0:
276,360,95570,6,2,P|300:292|232:268,1,135,10|0,2:0|2:0,2:1:0:0:
232,188,95894,6,0,L|276:100,1,90,14|0,2:1|2:0,2:0:0:0:
380,0,96218,1,10,2:0:0:0:
340,164,96380,1,10,2:1:0:0:
340,164,96461,2,0,L|376:116,1,45,10|10,2:0|2:1,2:0:0:0:
480,68,96705,1,10,2:1:0:0:
276,60,96867,1,8,2:0:0:0:
372,252,97029,6,2,B|404:164|404:164|396:156|396:156|431:63,1,202.5,14|0,2:1|2:0,2:1:0:0:
312,192,97353,1,10,2:1:0:0:
424,368,97516,1,10,2:0:0:0:
424,368,97678,1,10,2:1:0:0:
480,168,97840,2,0,P|474:198|456:228,1,45,6|4,2:3|2:3,2:0:0:0:
280,272,98002,5,10,2:3:0:0:
240,264,98083,1,8,2:3:0:0:
212,240,98164,1,6,2:3:0:0:
204,208,98245,1,4,2:3:0:0:
184,188,98326,1,10,2:3:0:0:
160,184,98407,1,8,2:3:0:0:
144,188,98489,6,2,L|124:308,1,90,14|0,2:1|2:0,2:1:0:0:
64,384,98813,1,10,2:0:0:0:
48,176,98975,1,10,2:1:0:0:
60,156,99056,1,10,2:0:0:0:
72,136,99137,1,10,2:1:0:0:
129,277,99299,1,10,2:1:0:0:
0,172,99461,1,8,2:0:0:0:
204,124,99624,1,14,2:1:0:0:
44,152,99786,6,2,P|21:149|1:138,1,45,0|0,2:0|2:0,2:1:0:0:
128,136,99948,1,10,2:1:0:0:
184,200,100110,6,2,P|192:220|193:243,1,45,8|0,2:0|2:0,2:1:0:0:
128,136,100272,1,10,2:1:0:0:
156,55,100434,6,2,P|169:37|188:25,1,45,8|0,2:1|2:0,2:1:0:0:
128,136,100597,1,8,2:1:0:0:
43,38,100759,6,2,P|51:54|87:78,1,45,10|0,2:0|2:0,2:1:0:0:
212,24,100921,1,0,2:0:0:0:
308,136,101083,6,2,L|428:156,1,90,14|0,2:1|2:0,2:1:0:0:
504,216,101407,1,10,2:0:0:0:
296,232,101570,1,10,2:1:0:0:
276,220,101651,1,10,2:0:0:0:
256,208,101732,1,10,2:1:0:0:
397,151,101894,1,10,2:1:0:0:
292,280,102056,1,8,2:0:0:0:
244,76,102218,5,14,2:1:0:0:
396,68,102380,6,2,P|404:47|405:24,1,45,0|0,2:0|2:0,2:1:0:0:
320,32,102543,1,10,2:1:0:0:
364,148,102705,6,2,P|341:150|321:161,1,45,8|0,2:0|2:0,2:1:0:0:
370,231,102867,1,10,2:1:0:0:
444,140,103029,6,2,P|457:157|476:169,1,45,8|0,2:1|2:0,2:1:0:0:
512,93,103191,1,10,2:1:0:0:
405,24,103353,6,2,P|404:47|396:68,1,45,10|0,2:0|2:0,2:1:0:0:
252,124,103516,1,0,2:0:0:0:
348,264,103678,6,2,L|228:244,1,90,14|0,2:1|2:0,2:1:0:0:
152,184,104002,1,10,2:0:0:0:
360,168,104164,1,10,2:1:0:0:
380,180,104245,1,10,2:0:0:0:
400,192,104326,1,10,2:1:0:0:
259,249,104489,1,10,2:1:0:0:
364,120,104651,1,8,2:0:0:0:
412,324,104813,1,14,2:1:0:0:
512,264,104975,6,2,P|481:257|460:260,1,45,0|0,2:0|2:0,2:1:0:0:
416,320,105137,1,10,2:1:0:0:
296,372,105299,6,2,P|265:378|244:376,1,45,8|0,2:0|2:0,2:1:0:0:
200,316,105461,1,10,2:1:0:0:
96,224,105624,6,2,P|65:217|44:220,1,45,8|0,2:1|2:0,2:1:0:0:
0,280,105786,1,8,2:1:0:0:
112,380,105948,6,2,L|120:324,1,45,10|0,2:0|2:0,2:1:0:0:
176,240,106110,1,0,2:0:0:0:
356,259,106272,6,2,L|360:151,1,108,14|10,2:1|2:3,2:1:0:0:
336,115,106516,1,4,2:3:0:0:
336,115,106597,1,8,2:0:0:0:
200,316,106759,6,2,P|228:336|320:320,1,108,14|10,2:1|2:3,2:1:0:0:
356,259,107002,1,4,2:3:0:0:
356,259,107083,1,8,2:0:0:0:
452,23,107245,6,2,P|500:87|470:122,1,108,14|10,2:1|2:3,2:1:0:0:
436,187,107489,1,4,2:3:0:0:
436,187,107570,1,8,2:0:0:0:
196,89,107732,6,2,L|324:105,1,108,10|10,2:1|2:0,2:1:0:0:
380,109,107975,1,8,2:0:0:0:
456,117,108056,1,8,2:0:0:0:
276,179,108218,6,0,P|305:185|340:175,1,45,14|8,2:1|2:3,2:0:0:0:
332,27,108380,2,0,P|303:21|268:31,1,45,4|8,2:3|2:3,2:0:0:0:
196,89,108543,1,10,2:1:0:0:
296,268,108705,5,8,2:0:0:0:
320,264,108786,1,8,2:0:0:0:
344,272,108867,1,14,2:1:0:0:
212,260,109029,6,0,P|189:263|168:258,1,45,2|2,2:0|2:0,2:0:0:0:
88,252,109191,1,10,2:0:0:0:
256,340,109353,1,10,2:1:0:0:
232,336,109434,1,10,2:0:0:0:
208,340,109516,2,0,P|185:343|164:338,1,45,10|0,2:1|2:0,2:0:0:0:
80,332,109678,1,10,2:1:0:0:
192,180,109840,1,8,2:0:0:0:
192,180,109921,1,2,2:0:0:0:
192,180,110002,1,2,2:0:0:0:
28,64,110164,6,0,P|25:87|30:108,1,45,10|0,2:1|2:0,2:0:0:0:
108,60,110326,2,0,P|113:81|110:104,1,45,2|2,2:0|2:0,2:0:0:0:
188,56,110489,1,8,2:0:0:0:
188,56,110570,1,0,2:0:0:0:
188,56,110651,2,0,P|185:79|190:100,1,45,10|10,2:1|2:0,2:0:0:0:
268,52,110813,2,0,P|273:73|270:96,1,45,10|0,2:1|2:0,2:0:0:0:
112,184,110975,1,10,2:1:0:0:
296,192,111137,6,0,L|336:144,1,45,10|2,2:0|2:0,2:0:0:0:
376,96,111299,2,0,L|416:48,1,45,0|0,2:0|2:0,2:0:0:0:
480,88,111461,5,12,2:1:0:0:
484,220,111624,2,0,P|481:243|486:264,1,45,2|2,2:0|2:0,2:0:0:0:
492,344,111786,1,10,2:0:0:0:
404,176,111948,1,8,2:1:0:0:
408,200,112029,1,8,2:0:0:0:
404,224,112110,2,0,P|401:247|406:268,1,45,10|0,2:1|2:0,2:0:0:0:
324,316,112272,2,0,P|321:339|326:360,1,45,8|0,2:1|2:0,2:0:0:0:
411,357,112434,2,0,P|403:325|407:265,1,90,10|2,2:0|2:0,2:0:0:0:
240,344,112759,5,10,2:1:0:0:
268,220,112921,2,0,P|241:221|216:216,1,45,2|2,2:0|2:0,2:0:0:0:
248,144,113083,1,8,2:0:0:0:
148,240,113245,2,0,L|100:256,1,45,10|10,2:1|2:0,2:0:0:0:
364,144,113407,2,0,L|412:128,1,45,8|0,2:1|2:0,2:0:0:0:
296,292,113570,1,8,2:1:0:0:
248,144,113732,1,10,2:0:0:0:
92,124,113894,2,0,L|28:116,1,45,0|2,2:0|2:0,2:0:0:0:
260,64,114056,5,14,2:1:0:0:
112,8,114218,2,0,P|120:24|124:52,2,45,2|0|10,2:0|2:0|2:0,2:0:0:0:
168,160,114543,2,0,L|140:216,1,45,10|10,2:1|2:0,2:0:0:0:
172,304,114705,2,0,L|200:248,1,45,10|0,2:1|2:0,2:0:0:0:
80,240,114867,1,10,2:1:0:0:
260,220,115029,1,8,2:0:0:0:
92,316,115191,2,0,L|24:328,1,45,2|0,2:0|2:0,2:0:0:0:
232,356,115353,5,14,2:1:0:0:
360,296,115516,1,8,2:0:0:0:
348,336,115597,1,8,2:0:0:0:
312,352,115678,1,10,2:3:0:0:
272,340,115759,1,4,2:3:0:0:
256,304,115840,6,0,P|272:256|356:216,1,135,10|0,2:1|2:0,2:0:0:0:
356,220,116164,2,0,P|380:216|400:208,1,45,12|0,2:1|2:0,2:0:0:0:
444,128,116326,2,0,P|449:83|362:34,1,135,8|0,2:0|2:0,2:0:0:0:
376,40,116651,6,0,P|338:56|288:64,1,90,14|2,2:1|2:0,2:0:0:0:
196,48,116975,1,8,2:0:0:0:
348,140,117137,1,8,2:1:0:0:
348,140,117218,1,10,2:0:0:0:
348,140,117299,1,8,2:1:0:0:
384,30,117461,1,10,2:1:0:0:
260,152,117624,2,0,L|160:136,1,90,8|2,2:0|2:0,2:0:0:0:
167,314,117948,6,0,P|182:277|191:226,1,90,10|0,2:1|2:0,2:0:0:0:
171,138,118272,1,10,2:0:0:0:
276,292,118434,1,8,2:1:0:0:
276,292,118516,1,8,2:0:0:0:
276,292,118597,1,10,2:1:0:0:
167,314,118759,1,8,2:1:0:0:
264,152,118921,2,0,P|324:164|336:232,1,135,10|0,2:0|2:0,2:0:0:0:
352,256,119245,6,0,P|408:240|472:280,1,135,14|0,2:1|2:0,2:0:0:0:
476,296,119570,1,10,2:0:0:0:
436,160,119732,1,10,2:1:0:0:
436,160,119813,1,10,2:0:0:0:
436,160,119894,2,0,P|442:134|460:104,1,45,10|0,2:1|2:0,2:0:0:0:
508,52,120056,1,10,2:1:0:0:
344,0,120218,1,8,2:0:0:0:
436,160,120380,2,0,P|442:134|460:104,1,45,2|0,2:0|2:0,2:0:0:0:
424,36,120543,6,0,B|357:52|393:99|325:120,1,135,10|0,2:1|2:0,2:0:0:0:
304,116,120867,1,8,2:0:0:0:
192,24,121029,1,10,2:1:0:0:
192,24,121110,1,10,2:0:0:0:
192,24,121191,2,0,L|260:16,1,45,10|0,2:1|2:0,2:0:0:0:
224,152,121353,2,0,L|156:160,1,45,10|0,2:1|2:0,2:0:0:0:
92,148,121516,1,10,2:0:0:0:
108,12,121678,1,0,2:0:0:0:
8,172,121840,6,0,P|32:216|112:236,1,135,12|0,2:1|2:0,2:0:0:0:
124,228,122164,1,10,2:0:0:0:
16,308,122326,1,10,2:1:0:0:
16,308,122407,1,10,2:0:0:0:
16,308,122489,2,0,P|10:334|-8:364,1,45,10|0,2:1|2:0,2:0:0:0:
100,320,122651,1,10,2:1:0:0:
8,172,122813,1,8,2:0:0:0:
124,228,122975,1,2,2:0:0:0:
120,128,123137,6,0,P|104:175|8:192,1,135,10|0,2:1|2:0,2:0:0:0:
8,172,123461,1,8,2:0:0:0:
192,180,123624,1,8,2:1:0:0:
192,180,123705,2,0,L|248:184,1,45,8|8,2:0|2:1,2:0:0:0:
168,60,123948,1,8,2:1:0:0:
320,156,124110,1,8,2:0:0:0:
296,36,124272,1,0,2:0:0:0:
272,256,124434,5,14,2:1:0:0:
272,256,124597,1,2,2:0:0:0:
308,332,124759,5,10,2:0:0:0:
308,332,124840,1,0,2:0:0:0:
344,300,124921,1,10,2:1:0:0:
344,300,125002,6,0,L|388:308,1,45,10|10,2:0|2:1,2:0:0:0:
424,228,125164,2,0,L|380:220,1,45,0|10,2:0|2:1,2:0:0:0:
428,384,125407,1,8,2:0:0:0:
508,248,125570,1,2,2:0:0:0:
376,224,125732,5,14,2:1:0:0:
344,64,125894,1,8,2:0:0:0:
356,24,125975,1,8,2:0:0:0:
392,8,126056,1,10,2:3:0:0:
432,20,126137,1,4,2:3:0:0:
448,56,126218,6,0,P|432:104|348:144,1,135,10|0,2:1|2:0,2:0:0:0:
348,144,126543,1,12,2:1:0:0:
224,108,126705,2,0,P|189:107|156:124,1,45,8|2,2:0|2:0,2:0:0:0:
116,180,126867,2,0,P|116:215|132:248,1,45,2|2,2:0|2:0,2:0:0:0:
148,304,127029,6,0,L|236:280,1,90,14|2,2:1|2:0,2:0:0:0:
208,192,127353,1,10,2:0:0:0:
40,272,127516,1,10,2:1:0:0:
40,272,127597,1,10,2:0:0:0:
40,272,127678,1,10,2:1:0:0:
235,280,127840,1,10,2:1:0:0:
116,180,128002,2,0,L|4:164,1,90,12|10,2:0|2:3,2:0:0:0:
10,243,128245,1,6,2:3:0:0:
2,283,128326,1,10,2:1:0:0:
188,52,128570,5,8,2:3:0:0:
196,12,128651,1,8,2:1:0:0:
176,128,128813,1,4,2:3:0:0:
320,92,128975,5,10,2:1:0:0:
368,72,129083,5,8,2:3:0:0:
416,84,129191,5,4,2:3:0:0:
440,120,129299,5,10,2:3:0:0:
440,156,129407,5,4,2:3:0:0:
420,180,129516,5,8,2:3:0:0:
400,188,129624,6,0,B|332:172|344:236|276:220,1,135,14|2,2:1|2:3,2:0:0:0:
392,272,130110,1,8,2:1:0:0:
304,364,130272,2,0,L|256:237,1,135,8|2,2:0|2:3,2:0:0:0:
84,32,130921,6,0,L|210:79,1,135,10|2,2:1|2:3,2:0:0:0:
119,168,131407,1,10,2:1:0:0:
67,52,131570,2,0,B|83:120|19:108|35:176,1,135,8|2,2:0|2:3,2:0:0:0:
84,244,132056,1,4,2:3:0:0:
84,244,132137,1,4,2:3:0:0:
84,244,132218,6,0,P|156:272|172:324,1,135,14|2,2:1|2:3,2:0:0:0:
32,312,132705,1,8,2:1:0:0:
84,244,132867,2,0,P|156:272|172:324,1,135,10|2,2:0|2:3,2:0:0:0:
508,300,133516,2,0,P|452:338|387:352,1,135,10|2,2:1|2:3,2:0:0:0:
488,220,134002,1,8,2:1:0:0:
508,300,134164,5,10,2:0:0:0:
424,320,134326,1,10,2:3:0:0:
344,280,134489,1,2,2:3:0:0:
308,200,134651,1,6,2:3:0:0:
328,116,134813,6,0,P|300:56|220:56,1,135,14|2,2:1|2:3,2:0:0:0:
164,88,135299,1,10,2:1:0:0:
328,116,135461,2,0,P|252:136|220:192,1,135,8|2,2:0|2:3,2:0:0:0:
452,316,136110,6,0,P|411:368|346:380,1,135,10|2,2:1|2:3,2:0:0:0:
320,296,136597,1,8,2:1:0:0:
452,316,136759,2,0,B|468:256|468:256|464:248|464:248|480:184,1,135,8|10,2:0|2:3,2:0:0:0:
460,112,137164,1,4,2:3:0:0:
432,128,137245,1,10,2:3:0:0:
412,152,137326,1,4,2:3:0:0:
380,160,137407,6,0,P|380:136|372:104,1,45,12|0,2:1|2:0,2:0:0:0:
308,52,137570,1,10,2:1:0:0:
320,228,137732,5,8,2:0:0:0:
468,132,137894,1,10,2:1:0:0:
276,212,138056,5,8,2:0:0:0:
448,204,138218,1,10,2:1:0:0:
232,196,138380,5,8,2:0:0:0:
428,276,138543,1,10,2:1:0:0:
188,180,138705,5,10,2:0:0:0:
488,60,138867,5,4,2:3:0:0:
464,48,138948,1,4,2:3:0:0:
436,48,139029,1,4,2:3:0:0:
412,60,139110,1,4,2:3:0:0:
396,84,139191,1,4,2:3:0:0:
396,112,139272,1,4,2:3:0:0:
384,136,139353,6,0,P|350:142|324:140,3,45,8|8|8|8,2:0|2:0|2:0|2:0,2:0:0:0:
308,120,139678,1,8,2:0:0:0:
272,104,139759,1,8,2:0:0:0:
232,108,139840,1,8,2:0:0:0:
196,128,139921,1,8,2:0:0:0:
176,163,140002,6,2,P|156:172|132:174,1,45,14|0,2:1|2:0,2:1:0:0:
56,192,140164,2,2,P|35:200|12:202,1,45,10|0,2:1|2:0,2:1:0:0:
180,180,140326,2,2,P|159:188|136:190,1,45,10|0,2:0|2:0,2:1:0:0:
56,208,140489,1,10,2:1:0:0:
164,332,140651,1,8,2:0:0:0:
0,352,140813,5,10,2:1:0:0:
116,268,140975,1,8,2:0:0:0:
0,352,141137,2,2,P|15:334|40:328,1,45,10|0,2:1|2:0,2:1:0:0:
164,332,141299,6,2,P|210:342|252:272,1,135,12|0,2:0|2:0,2:1:0:0:
236,190,141624,2,2,P|237:232|264:294,1,90,10|10,2:0|2:1,2:1:0:0:
328,336,141867,1,0,2:0:0:0:
328,336,141948,1,8,2:0:0:0:
336,136,142110,1,8,2:1:0:0:
408,320,142272,6,0,P|412:296|424:264,1,45,10|0,2:0|2:0,2:1:0:0:
496,296,142434,2,0,P|492:320|480:352,1,45,10|0,2:1|2:0,2:1:0:0:
335,220,142597,6,2,P|356:212|379:209,1,45,14|0,2:0|2:0,2:1:0:0:
456,192,142759,2,2,P|476:183|499:181,1,45,8|0,2:1|2:0,2:1:0:0:
332,204,142921,2,2,P|352:195|375:193,1,45,10|0,2:0|2:0,2:1:0:0:
456,176,143083,1,10,2:1:0:0:
348,52,143245,1,8,2:0:0:0:
512,32,143407,5,10,2:1:0:0:
396,116,143570,1,8,2:0:0:0:
512,32,143732,2,2,P|496:49|472:56,1,45,10|0,2:1|2:0,2:1:0:0:
348,52,143894,6,2,P|301:41|260:112,1,135,12|0,2:0|2:0,2:1:0:0:
276,192,144218,2,2,P|274:149|248:88,1,90,10|8,2:0|2:1,2:1:0:0:
184,48,144461,1,0,2:0:0:0:
184,48,144543,1,8,2:0:0:0:
216,260,144705,1,8,2:3:0:0:
204,292,144786,1,4,2:3:0:0:
176,312,144867,6,0,P|155:314|132:312,1,45,8|0,2:0|2:0,2:0:0:0:
40,240,145029,2,0,P|60:237|84:240,1,45,8|0,2:3|2:0,2:0:0:0:
136,124,145191,6,2,P|156:129|184:128,1,45,14|0,2:1|2:0,2:1:0:0:
258,106,145353,2,2,P|278:111|306:110,1,45,10|0,2:1|2:0,2:1:0:0:
436,28,145516,5,10,2:0:0:0:
420,44,145597,1,2,2:0:0:0:
400,52,145678,2,2,L|352:44,1,45,10|0,2:1|2:0,2:1:0:0:
472,116,145840,5,10,2:0:0:0:
452,135,145921,1,2,2:0:0:0:
428,144,146002,2,2,L|370:134,1,45,10|0,2:1|2:0,2:1:0:0:
496,212,146164,5,10,2:0:0:0:
472,235,146245,1,2,2:0:0:0:
442,245,146326,2,2,L|384:235,1,45,10|0,2:1|2:0,2:1:0:0:
512,312,146489,5,14,2:0:0:0:
483,339,146570,1,2,2:0:0:0:
448,351,146651,2,2,L|390:341,1,45,10|0,2:1|2:0,2:1:0:0:
304,200,146813,5,10,2:0:0:0:
271,234,146894,1,2,2:0:0:0:
257,276,146975,2,2,L|270:355,1,45,10|0,2:1|2:0,2:1:0:0:
448,351,147137,6,2,P|380:348|340:291,1,135,10|0,2:0|2:0,2:1:0:0:
398,237,147461,2,0,P|395:210|382:177,1,45,10|0,2:0|2:0,2:0:0:0:
320,132,147624,2,0,P|293:129|260:116,1,45,10|0,2:1|2:0,2:0:0:0:
196,84,147786,6,2,P|187:104|185:128,1,45,14|0,2:0|2:0,2:1:0:0:
167,204,147948,2,2,P|159:225|157:248,1,45,8|0,2:1|2:0,2:1:0:0:
179,80,148110,2,2,P|171:101|169:124,1,45,10|0,2:0|2:0,2:1:0:0:
151,204,148272,1,10,2:1:0:0:
27,96,148434,1,8,2:0:0:0:
7,260,148597,5,10,2:1:0:0:
91,144,148759,1,8,2:0:0:0:
7,260,148921,2,2,P|25:245|31:220,1,45,10|0,2:1|2:0,2:1:0:0:
27,96,149083,6,2,P|28:52|56:18,1,90,12|6,2:0|2:3,2:1:0:0:
136,28,149326,1,10,2:3:0:0:
136,28,149407,2,2,P|179:27|232:20,1,90,10|8,2:0|2:1,2:1:0:0:
328,128,149732,1,10,2:0:0:0:
432,20,149894,5,8,2:1:0:0:
436,32,149975,1,8,2:1:0:0:
440,48,150056,1,8,2:0:0:0:
440,72,150137,1,0,2:0:0:0:
436,100,150218,2,0,P|432:124|420:156,1,45,10|8,2:1|2:1,2:0:0:0:
364,208,150380,5,14,2:1:0:0:
484,240,150543,1,8,2:1:0:0:
240,224,150705,1,10,2:0:0:0:
508,272,150867,1,10,2:1:0:0:
260,256,151029,2,2,P|208:252|156:260,1,90,10|8,2:0|2:1,2:1:0:0:
364,208,151353,1,10,2:0:0:0:
216,332,151516,1,10,2:1:0:0:
148,148,151678,5,14,2:0:0:0:
28,116,151840,1,10,2:1:0:0:
272,132,152002,1,10,2:0:0:0:
4,84,152164,2,2,P|24:88|72:90,1,45,10|0,2:1|2:0,2:1:0:0:
252,100,152326,2,2,P|304:104|356:96,1,90,10|8,2:0|2:1,2:1:0:0:
148,148,152651,1,8,2:0:0:0:
40,4,152813,1,8,2:1:0:0:
72,176,152975,5,14,2:0:0:0:
4,84,153137,1,8,2:1:0:0:
100,292,153299,1,10,2:0:0:0:
0,64,153461,1,10,2:1:0:0:
96,272,153624,2,2,P|114:324|132:355,1,90,10|8,2:0|2:1,2:1:0:0:
172,232,153948,1,10,2:0:0:0:
32,344,154110,1,10,2:1:0:0:
252,280,154272,5,14,2:0:0:0:
150,356,154434,2,2,P|179:346|199:334,1,45,10|2,2:1|2:0,2:1:0:0:
358,260,154597,2,2,P|387:250|407:238,1,45,10|2,2:0|2:0,2:1:0:0:
131,354,154759,2,2,P|160:344|180:332,1,45,10|2,2:1|2:0,2:1:0:0:
334,261,154921,2,2,P|386:244|421:223,1,90,10|8,2:0|2:3,2:1:0:0:
472,176,155164,1,4,2:3:0:0:
472,176,155245,2,0,L|464:224,1,45,8|0,2:0|2:0,2:0:0:0:
452,304,155407,1,8,2:1:0:0:
288,348,155570,6,2,P|259:287|259:220,1,135,14|0,2:1|2:0,2:1:0:0:
272,192,155894,1,10,2:0:0:0:
412,272,156056,1,10,2:1:0:0:
288,348,156218,6,2,P|317:287|317:220,1,135,10|0,2:0|2:0,2:1:0:0:
304,168,156543,1,10,2:0:0:0:
160,288,156705,1,10,2:1:0:0:
288,348,156867,6,2,P|332:352|380:336,1,90,14|10,2:0|2:1,2:1:0:0:
472,164,157191,2,2,P|428:160|380:176,1,90,10|10,2:0|2:1,2:1:0:0:
224,152,157516,1,10,2:0:0:0:
188,12,157678,1,10,2:1:0:0:
152,196,157840,1,10,2:0:0:0:
116,56,158002,1,10,2:1:0:0:
268,80,158164,6,2,L|384:104,1,90,14|8,2:0|2:1,2:1:0:0:
492,88,158489,2,0,P|480:40|436:4,1,90,8|10,2:0|2:1,2:0:0:0:
373,29,158732,5,0,2:0:0:0:
367,54,158813,2,0,L|354:103,1,45,14|0,2:0|2:0,2:0:0:0:
452,220,158975,5,8,2:3:0:0:
446,195,159056,2,0,P|439:174|423:153,1,45,10|8,2:3|2:0,2:0:0:0:
324,224,159218,5,0,2:0:0:0:
288,240,159299,2,0,P|256:244|224:240,1,45,6|0,2:3|2:0,2:0:0:0:
24,132,159461,5,10,2:1:0:0:
83,178,159570,5,8,2:0:0:0:
145,136,159678,5,8,2:0:0:0:
123,64,159786,6,0,P|124:36|136:4,1,60,8|8,2:0|2:3,2:0:0:0:
48,60,160002,5,4,2:3:0:0:
24,132,160110,5,10,2:0:0:0:
242,90,160353,5,0,2:0:0:0:
242,90,160434,1,8,2:1:0:0:
152,212,160597,1,4,2:3:0:0:
260,340,160759,6,0,L|236:292,1,45,2|0,2:0|2:0,2:0:0:0:
232,180,161083,2,0,L|256:228,1,45,0|2,2:0|2:0,2:0:0:0:
328,384,161407,1,2,2:0:0:0:
120,284,161732,6,0,L|168:308,1,45,0|2,2:0|2:0,2:0:0:0:
328,384,162056,1,2,2:0:0:0:
360,316,162218,1,0,2:0:0:0:
432,292,162380,1,0,2:0:0:0:
464,224,162543,1,2,2:0:0:0:
444,152,162705,5,2,2:0:0:0:
464,116,162867,1,0,2:0:0:0:
484,152,163029,1,0,2:0:0:0:
316,16,163353,5,2,2:0:0:0:
340,20,163516,1,0,2:0:0:0:
336,44,163678,1,0,2:0:0:0:
312,40,163840,1,0,2:0:0:0:
356,120,164002,5,2,2:0:0:0:
368,154,164164,1,0,2:0:0:0:
334,166,164326,1,0,2:0:0:0:
321,132,164489,1,0,2:0:0:0:
288,240,164651,5,2,2:0:0:0:
259,272,164813,1,0,2:0:0:0:
226,244,164975,1,0,2:0:0:0:
254,210,165137,1,0,2:0:0:0:
212,348,165299,5,2,2:0:0:0:
300,344,165461,1,0,2:0:0:0:
324,352,165543,1,2,2:0:0:0:
352,352,165624,1,2,2:0:0:0:
380,344,165705,1,2,2:0:0:0:
404,324,165786,1,0,2:0:0:0:
432,304,165867,1,2,2:0:0:0:
468,304,165948,6,0,P|498:310|528:328,1,45,2|0,2:0|2:0,2:0:0:0:
480,224,166272,2,0,P|451:217|420:200,1,45,0|0,2:0|2:0,2:0:0:0:
360,248,166597,1,2,2:0:0:0:
360,248,166759,1,0,2:0:0:0:
264,164,166921,6,0,L|288:212,1,45,2|0,2:0|2:0,2:0:0:0:
288,332,167245,2,0,P|284:304|276:280,1,45,2|0,2:0|2:0,2:0:0:0:
172,152,167570,2,0,P|178:173|180:196,1,45,2|0,2:0|2:0,2:0:0:0:
84,344,167894,5,2,2:0:0:0:
156,316,168056,1,0,2:0:0:0:
96,268,168218,1,0,2:0:0:0:
36,36,168543,6,0,B|64:132|64:132|136:68|136:68|232:64,1,292.5,0|0,2:0|2:0,2:0:0:0:
248,64,169678,6,0,B|260:96|260:96|254:128,1,67.5,2|0,2:0|2:0,2:0:0:0:
204,264,169840,5,14,2:1:0:0:
300,376,170002,1,8,2:1:0:0:
128,320,170164,2,0,L|80:212,1,112.5,8|10,2:0|2:1,2:0:0:0:
252,188,170489,1,8,2:0:0:0:
212,348,170651,1,8,2:1:0:0:
88,230,170813,1,8,2:0:0:0:
292,280,170975,1,10,2:1:0:0:
292,280,171056,1,0,2:0:0:0:
292,280,171137,5,14,2:0:0:0:
180,125,171299,1,10,2:1:0:0:
362,184,171461,2,0,L|292:192,1,56.25,10|0,2:0|2:0,2:0:0:0:
180,244,171624,1,8,2:1:0:0:
293,88,171786,6,0,B|240:88|184:52|184:52|216:104,1,168.75,10|0,2:0|2:0,2:0:0:0:
204,112,172110,2,0,P|208:60|220:-8,1,112.5,8|8,2:0|2:1,2:0:0:0:
384,232,172434,5,14,2:0:0:0:
496,136,172597,1,10,2:1:0:0:
440,308,172759,2,0,L|332:356,1,112.5,8|10,2:0|2:1,2:0:0:0:
308,184,173083,1,10,2:0:0:0:
468,224,173245,1,8,2:1:0:0:
350,348,173407,1,8,2:0:0:0:
300,196,173570,1,10,2:1:0:0:
308,184,173651,1,0,2:0:0:0:
316,172,173732,5,14,2:0:0:0:
145,295,173894,1,10,2:1:0:0:
210,95,174056,2,0,P|208:128|216:160,1,56.25,10|0,2:0|2:0,2:0:0:0:
276,295,174218,1,8,2:1:0:0:
105,170,174380,6,2,B|65:161|45:198|45:198|55:241|95:221,1,112.5,10|8,2:0|2:1,2:1:0:0:
145,295,174624,1,8,2:1:0:0:
145,295,174705,6,2,P|173:295|209:311,1,56.25,8|0,2:0|2:0,2:1:0:0:
32,364,174867,2,2,P|46:340|78:317,1,56.25,8|0,2:1|2:0,2:1:0:0:
256,234,175029,5,14,2:0:0:0:
105,170,175191,1,8,2:1:0:0:
232,114,175353,5,8,2:0:0:0:
88,210,175516,1,10,2:1:0:0:
136,22,175678,5,8,2:0:0:0:
184,190,175840,1,10,2:1:0:0:
0,128,176002,2,0,P|27:126|60:116,1,56.25,8|0,2:0|2:0,2:0:0:0:
196,108,176164,1,10,2:1:0:0:
196,108,176245,1,0,2:0:0:0:
196,108,176326,5,14,2:0:0:0:
308,263,176489,1,8,2:1:0:0:
126,204,176651,2,0,P|100:220|72:224,1,56.25,10|0,2:0|2:0,2:0:0:0:
308,144,176813,1,8,2:1:0:0:
195,299,176975,6,0,P|248:314|284:260,1,112.5,8|10,2:0|2:1,2:0:0:0:
232,76,177299,2,0,P|178:61|143:115,1,112.5,8|10,2:0|2:1,2:0:0:0:
100,300,177624,5,14,2:0:0:0:
300,336,177786,1,8,2:1:0:0:
304,304,177867,1,8,2:1:0:0:
308,272,177948,1,8,2:0:0:0:
372,64,178110,1,10,2:1:0:0:
372,64,178191,1,2,2:0:0:0:
372,64,178272,5,10,2:0:0:0:
360,236,178434,1,8,2:1:0:0:
456,100,178597,1,8,2:0:0:0:
300,172,178759,1,10,2:1:0:0:
471,295,178921,5,14,2:0:0:0:
300,172,179083,2,0,P|304:200|304:248,1,56.25,8|8,2:1|2:1,2:0:0:0:
365,372,179245,1,8,2:0:0:0:
431,172,179407,2,0,P|416:200|392:216,1,56.25,8|8,2:1|2:1,2:0:0:0:
259,297,179570,5,10,2:0:0:0:
224,288,179651,1,8,2:3:0:0:
196,264,179732,1,8,2:3:0:0:
180,232,179813,1,8,2:1:0:0:
184,196,179894,6,0,P|163:198|116:212,1,56.25,10|8,2:1|2:3,2:0:0:0:
16,156,180056,2,0,P|38:155|80:140,1,56.25,8|8,2:0|2:0,2:0:0:0:
204,92,180218,6,0,B|128:101|64:46|64:46|110:45,1,189,14|0,2:1|2:0,2:0:0:0:
101,45,180543,2,0,B|121:57|121:57|59:77|19:49,1,126,8|10,2:0|2:1,2:0:0:0:
272,56,180867,5,8,2:0:0:0:
456,60,181029,1,10,2:1:0:0:
264,36,181191,2,0,P|276:69|276:104,1,63,8|0,2:0|2:0,2:0:0:0:
464,40,181353,2,0,P|453:74|452:108,1,63,10|0,2:1|2:0,2:0:0:0:
464,256,181516,5,12,2:0:0:0:
278,121,181678,1,10,2:1:0:0:
349,340,181840,1,10,2:0:0:0:
421,121,182002,2,0,P|424:156|408:184,1,63,8|0,2:1|2:0,2:0:0:0:
270,288,182164,6,0,B|235:286|219:259|219:259|216:224|247:203,1,126,10|8,2:0|2:1,2:0:0:0:
328,224,182407,1,8,2:1:0:0:
328,224,182489,1,8,2:0:0:0:
228,364,182651,1,8,2:1:0:0:
184,152,182813,6,0,B|108:143|44:198|44:198|90:199,1,189,14|0,2:0|2:0,2:0:0:0:
81,199,183137,2,0,B|101:187|101:187|39:167|-1:195,1,126,8|10,2:0|2:1,2:0:0:0:
176,304,183461,5,10,2:0:0:0:
0,328,183624,1,8,2:1:0:0:
220,284,183786,2,0,P|186:273|152:272,1,63,8|0,2:0|2:0,2:0:0:0:
44,308,183948,2,0,P|77:320|112:320,1,63,10|0,2:1|2:0,2:0:0:0:
232,208,184110,5,14,2:0:0:0:
418,343,184272,1,10,2:1:0:0:
347,124,184434,1,10,2:0:0:0:
275,343,184597,2,0,L|300:264,1,63,8|0,2:1|2:0,2:0:0:0:
426,175,184759,6,2,B|460:173|478:199|478:199|482:233|453:256,1,126,10|8,2:0|2:3,2:1:0:0:
372,272,185002,1,8,2:3:0:0:
372,272,185083,2,2,P|358:239|352:208,1,63,8|0,2:0|2:0,2:1:0:0:
424,80,185245,2,2,P|392:93|361:99,1,63,4|0,2:3|2:0,2:1:0:0:
228,84,185407,5,14,2:0:0:0:
164,236,185570,1,8,2:1:0:0:
108,108,185732,5,8,2:0:0:0:
204,252,185894,1,10,2:1:0:0:
16,204,186056,5,10,2:0:0:0:
184,156,186218,1,10,2:1:0:0:
122,340,186380,2,0,P|104:309|92:264,1,63,8|0,2:0|2:0,2:0:0:0:
102,144,186543,1,10,2:1:0:0:
102,144,186624,1,2,2:0:0:0:
102,144,186705,5,14,2:0:0:0:
257,32,186867,1,10,2:1:0:0:
198,214,187029,1,8,2:0:0:0:
138,32,187191,1,8,2:1:0:0:
294,145,187353,6,0,P|309:87|243:42,1,126,8|10,2:0|2:1,2:0:0:0:
72,100,187678,2,0,P|56:157|122:202,1,126,8|10,2:0|2:1,2:0:0:0:
280,232,188002,5,14,2:0:0:0:
332,352,188164,1,8,2:1:0:0:
344,356,188245,1,8,2:1:0:0:
356,364,188326,1,8,2:0:0:0:
374,210,188489,1,10,2:1:0:0:
464,364,188651,6,0,P|424:324|452:256,1,126,14|8,2:0|2:1,2:0:0:0:
476,232,188894,1,8,2:1:0:0:
496,200,188975,1,10,2:3:0:0:
500,168,189056,1,4,2:3:0:0:
492,144,189137,1,10,2:3:0:0:
488,128,189218,1,4,2:3:0:0:
488,116,189299,6,0,B|419:82|427:177|299:148|357:67|280:69,1,234.9,10|0,2:0|2:0,2:0:0:0:
264,144,190110,6,0,P|235:227|141:154,1,243,0|0,2:0|2:0,2:0:0:0:
100,96,191127,5,2,2:0:0:0:
