osu file format v14

[General]
AudioFilename: audio.mp3
AudioLeadIn: 0
PreviewTime: 67272
Countdown: 0
SampleSet: Soft
StackLeniency: 0.2
Mode: 0
LetterboxInBreaks: 0
WidescreenStoryboard: 1

[Editor]
Bookmarks: 5684,33624
DistanceSpacing: 1
BeatDivisor: 4
GridSize: 8
TimelineZoom: 1.2

[Metadata]
Title:Rekka no Suiryoku
TitleUnicode:烈花の翠緑
Artist:KINEMA106
ArtistUnicode:キネマ106
Creator:-Atri-
Version:Normal
Source:
Tags:KuranteMelodii krt Firis Mistlud yf_bmp Hollow Wings midorijeon 黒兎ウル Kurousagi Uru 火焔ノ水彩 艦隊これくしょん -艦これ- kancolle c92 tom jun-jun ゆ吉 厨房ちゃうよ 艦あにvol.6 赫灼のレジスト Japanese rock fa Featured Artist mappers mappers' guild jrock j-rock
BeatmapID:3389875
BeatmapSetID:1524363

[Difficulty]
HPDrainRate:4
CircleSize:3
OverallDifficulty:4
ApproachRate:5
SliderMultiplier:1.1
SliderTickRate:1

[Events]
//Background and Video events
0,0,"uruchan suki.jpg",0,0
Video,-570,"rekka no suiryoku.mp4"
//Break Periods
2,88310,97289
2,160959,168543
//Storyboard Layer 0 (Background)
//Storyboard Layer 1 (Fail)
//Storyboard Layer 2 (Pass)
//Storyboard Layer 3 (Foreground)
//Storyboard Layer 4 (Overlay)
//Storyboard Sound Samples

[TimingPoints]
1240,444.444444444444,4,2,2,55,1,0
1240,-125,4,2,2,55,0,0
15462,324.324324324324,4,2,1,75,1,0
15786,-100,4,2,6,75,0,0
15867,-100,4,2,2,75,0,0
16110,-100,4,2,6,75,0,0
16191,-100,4,2,2,75,0,0
16434,-100,4,2,6,75,0,0
16515,-100,4,2,2,75,0,0
16597,-100,4,2,3,75,0,0
17083,-100,4,2,6,75,0,0
17164,-100,4,2,2,75,0,0
17407,-100,4,2,6,75,0,0
17488,-100,4,2,2,75,0,0
17731,-100,4,2,6,75,0,0
17813,-100,4,2,2,75,0,0
18056,-100,4,2,2,75,0,0
18380,-100,4,2,6,75,0,0
18461,-100,4,2,2,75,0,0
18705,-100,4,2,6,75,0,0
18786,-100,4,2,2,75,0,0
19029,-100,4,2,6,75,0,0
19110,-100,4,2,2,75,0,0
19191,-100,4,2,3,75,0,0
19678,-100,4,2,6,75,0,0
19759,-100,4,2,2,75,0,0
20002,-100,4,2,6,75,0,0
20083,-100,4,2,2,75,0,0
20326,-100,4,2,6,75,0,0
20407,-100,4,2,2,75,0,0
20651,-100,4,2,1,75,0,0
20975,-100,4,2,6,75,0,0
21056,-100,4,2,2,75,0,0
21299,-100,4,2,6,75,0,0
21380,-100,4,2,2,75,0,0
21623,-100,4,2,6,75,0,0
21705,-100,4,2,2,75,0,0
21786,-100,4,2,3,75,0,0
22272,-100,4,2,6,75,0,0
22353,-100,4,2,2,75,0,0
22597,-100,4,2,6,75,0,0
22678,-100,4,2,2,75,0,0
22921,-100,4,2,6,75,0,0
23002,-100,4,2,2,75,0,0
23245,-100,4,2,2,75,0,0
23569,-100,4,2,6,75,0,0
23651,-100,4,2,2,75,0,0
23894,-100,4,2,6,75,0,0
23975,-100,4,2,2,75,0,0
24218,-100,4,2,6,75,0,0
24299,-100,4,2,2,75,0,0
24380,-100,4,2,3,75,0,0
24867,-100,4,2,6,75,0,0
24948,-100,4,2,2,75,0,0
25191,-100,4,2,1,75,0,0
25353,-100,4,2,2,75,0,0
25678,-100,4,2,3,75,0,0
25840,-100,4,2,1,75,0,0
26164,-100,4,2,6,75,0,0
26245,-100,4,2,2,75,0,0
26489,-100,4,2,6,75,0,0
26570,-100,4,2,2,75,0,0
26813,-100,4,2,6,75,0,0
26894,-100,4,2,2,75,0,0
26975,-100,4,2,3,75,0,0
27461,-100,4,2,6,75,0,0
27542,-100,4,2,2,75,0,0
27786,-100,4,2,6,75,0,0
27867,-100,4,2,2,75,0,0
28110,-100,4,2,6,75,0,0
28191,-100,4,2,2,75,0,0
28434,-100,4,2,2,75,0,0
28758,-100,4,2,6,75,0,0
28840,-100,4,2,2,75,0,0
29083,-100,4,2,6,75,0,0
29164,-100,4,2,2,75,0,0
29407,-100,4,2,6,75,0,0
29488,-100,4,2,2,75,0,0
29570,-100,4,2,3,75,0,0
30056,-100,4,2,6,75,0,0
30137,-100,4,2,2,75,0,0
30380,-100,4,2,6,75,0,0
30461,-100,4,2,2,75,0,0
30704,-100,4,2,6,75,0,0
30786,-100,4,2,2,75,0,0
31029,-100,4,2,1,75,0,0
31353,-100,4,2,6,75,0,0
31434,-100,4,2,2,75,0,0
31678,-100,4,2,6,75,0,0
31759,-100,4,2,2,75,0,0
32002,-100,4,2,6,75,0,0
32083,-100,4,2,2,75,0,0
32164,-100,4,2,3,75,0,0
32651,-100,4,2,6,75,0,0
32732,-100,4,2,2,75,0,0
32975,-100,4,2,6,75,0,0
33056,-100,4,2,2,75,0,0
33299,-100,4,2,6,75,0,0
33380,-100,4,2,2,75,0,0
33624,-100,4,2,2,75,0,0
34110,-100,4,2,3,75,0,0
34597,-100,4,2,2,75,0,0
35083,-100,4,2,12,75,0,0
35164,-100,4,2,2,75,0,0
35570,-100,4,2,5,75,0,0
35651,-100,4,2,2,75,0,0
35813,-100,4,2,3,75,0,0
35894,-100,4,2,12,75,0,0
35975,-100,4,2,2,75,0,0
36218,-100,4,2,1,70,0,0
36380,-100,4,2,9,70,0,0
36461,-100,4,2,2,70,0,0
36705,-100,4,2,8,70,0,0
36786,-100,4,2,2,70,0,0
37029,-100,4,2,8,70,0,0
37110,-100,4,2,2,70,0,0
37353,-100,4,2,9,70,0,0
37434,-100,4,2,2,70,0,0
37678,-100,4,2,8,70,0,0
37759,-100,4,2,2,70,0,0
38002,-100,4,2,8,70,0,0
38083,-100,4,2,2,70,0,0
38164,-100,4,2,2,70,0,0
38326,-100,4,2,8,70,0,0
38407,-100,4,2,2,70,0,0
38651,-100,4,2,8,70,0,0
38732,-100,4,2,2,70,0,0
38975,-100,4,2,9,70,0,0
39056,-100,4,2,2,70,0,0
39299,-100,4,2,8,70,0,0
39380,-100,4,2,2,70,0,0
39624,-100,4,2,8,70,0,0
39705,-100,4,2,2,70,0,0
39948,-100,4,2,9,70,0,0
40029,-100,4,2,2,70,0,0
40272,-100,4,2,8,70,0,0
40353,-100,4,2,2,70,0,0
40597,-100,4,2,8,70,0,0
40678,-100,4,2,2,70,0,0
40759,-100,4,2,2,70,0,0
40921,-100,4,2,8,70,0,0
41002,-100,4,2,2,70,0,0
41245,-100,4,2,8,70,0,0
41326,-100,4,2,2,70,0,0
41407,-100,4,2,1,70,0,0
41570,-100,4,2,9,70,0,0
41651,-100,4,2,2,70,0,0
41894,-100,4,2,8,70,0,0
41975,-100,4,2,2,70,0,0
42218,-100,4,2,8,70,0,0
42299,-100,4,2,2,70,0,0
42380,-100,4,2,2,70,0,0
42543,-100,4,2,9,70,0,0
42624,-100,4,2,2,70,0,0
43515,-100,4,2,5,70,0,0
44002,-100,4,2,2,70,0,0
44164,-100,4,2,9,70,0,0
44245,-100,4,2,2,70,0,0
44489,-100,4,2,8,70,0,0
44570,-100,4,2,2,70,0,0
44813,-100,4,2,8,70,0,0
44894,-100,4,2,2,70,0,0
44975,-100,4,2,2,70,0,0
45137,-100,4,2,9,70,0,0
45218,-100,4,2,2,70,0,0
45461,-100,4,2,8,70,0,0
45542,-100,4,2,2,70,0,0
45786,-100,4,2,8,70,0,0
45867,-100,4,2,2,70,0,0
46110,-100,4,2,8,70,0,0
46191,-100,4,2,2,70,0,0
46272,-100,4,2,2,70,0,0
46434,-100,4,2,8,70,0,0
46515,-100,4,2,2,70,0,0
46597,-100,4,2,1,70,0,0
46759,-100,4,2,9,70,0,0
46840,-100,4,2,2,70,0,0
47084,-100,4,2,8,70,0,0
47165,-100,4,2,2,70,0,0
47408,-100,4,2,8,70,0,0
47489,-100,4,2,2,70,0,0
47732,-100,4,2,9,70,0,0
47813,-100,4,2,2,70,0,0
48057,-100,4,2,8,70,0,0
48138,-100,4,2,2,70,0,0
48380,-100,4,2,8,70,0,0
48462,-100,4,2,2,70,0,0
48543,-100,4,2,2,70,0,0
48705,-100,4,2,8,70,0,0
48786,-100,4,2,2,70,0,0
49030,-100,4,2,8,70,0,0
49111,-100,4,2,2,70,0,0
49354,-100,4,2,9,70,0,0
49435,-100,4,2,2,70,0,0
49678,-100,4,2,8,70,0,0
49759,-100,4,2,2,70,0,0
50003,-100,4,2,8,70,0,0
50084,-100,4,2,2,70,0,0
50327,-100,4,2,9,70,0,0
50408,-100,4,2,2,70,0,0
50651,-100,4,2,8,70,0,0
50732,-100,4,2,2,70,0,0
50975,-100,4,2,8,70,0,0
51057,-100,4,2,2,70,0,0
51137,-100,4,2,2,70,0,0
51300,-100,4,2,8,70,0,0
51381,-100,4,2,2,70,0,0
51624,-100,4,2,8,70,0,0
51705,-100,4,2,2,70,0,0
51786,-100,4,2,1,70,0,0
51949,-100,4,2,9,70,0,0
52030,-100,4,2,2,70,0,0
52272,-100,4,2,8,70,0,0
52354,-100,4,2,2,70,0,0
52596,-100,4,2,8,70,0,0
52678,-100,4,2,2,70,0,0
52759,-100,4,2,2,70,0,0
52922,-100,4,2,9,70,0,0
53003,-100,4,2,2,70,0,0
53894,-100,4,2,5,70,0,0
54380,-100,4,2,2,70,0,0
54704,-100,4,2,6,70,0,0
54786,-100,4,2,2,70,0,0
54867,-100,4,2,2,70,0,0
55029,-100,4,2,6,70,0,0
55110,-100,4,2,2,70,0,0
55353,-100,4,2,6,70,0,0
55434,-100,4,2,2,70,0,0
55678,-100,4,2,6,70,0,0
55759,-100,4,2,2,70,0,0
56002,-100,4,2,6,70,0,0
56083,-100,4,2,2,70,0,0
56164,-100,4,2,3,70,0,0
56326,-100,4,2,2,70,0,0
56651,-100,4,2,3,70,0,0
56867,-100,4,2,4,70,0,0
56975,-125,4,2,1,70,0,0
57299,-125,4,2,10,70,0,0
57380,-125,4,2,2,70,0,0
57948,-125,4,2,11,70,0,0
58029,-125,4,2,2,70,0,0
58272,-125,4,2,2,70,0,0
58597,-125,4,2,11,70,0,0
58678,-125,4,2,2,70,0,0
59245,-125,4,2,10,70,0,0
59327,-125,4,2,2,70,0,0
59407,-125,4,2,4,70,0,0
59570,-125,4,2,3,70,0,0
59894,-125,4,2,11,70,0,0
59975,-125,4,2,2,70,0,0
60543,-125,4,2,10,70,0,0
60624,-125,4,2,2,70,0,0
60867,-125,4,2,2,70,0,0
61191,-125,4,2,11,70,0,0
61272,-125,4,2,2,70,0,0
61840,-125,4,2,11,70,0,0
61921,-125,4,2,2,70,0,0
62164,-125,4,2,1,70,0,0
62489,-125,4,2,11,70,0,0
62570,-125,4,2,2,70,0,0
63137,-125,4,2,10,70,0,0
63219,-125,4,2,2,70,0,0
63461,-125,4,2,2,70,0,0
63786,-125,4,2,10,70,0,0
63867,-125,4,2,2,70,0,0
64434,-125,4,2,11,70,0,0
64516,-125,4,2,2,70,0,0
64597,-125,4,2,3,70,0,0
64759,-125,4,2,1,70,0,0
65083,-125,4,2,6,70,0,0
65164,-125,4,2,2,70,0,0
65407,-125,4,2,6,70,0,0
65488,-125,4,2,2,70,0,0
65732,-125,4,2,6,70,0,0
65813,-125,4,2,2,70,0,0
66056,-100,4,2,16,70,0,0
67353,-100,4,2,1,80,0,0
67677,-100,4,2,6,80,0,0
67759,-100,4,2,2,80,0,0
67840,-100,4,2,2,80,0,0
68002,-100,4,2,6,80,0,0
68083,-100,4,2,2,80,0,0
68326,-100,4,2,6,80,0,0
68407,-100,4,2,2,80,0,0
68651,-100,4,2,3,80,0,0
68975,-100,4,2,6,80,0,0
69056,-100,4,2,2,80,0,0
69299,-100,4,2,6,80,0,0
69380,-100,4,2,2,80,0,0
69623,-100,4,2,6,80,0,0
69705,-100,4,2,2,80,0,0
69948,-100,4,2,2,80,0,0
70272,-100,4,2,6,80,0,0
70353,-100,4,2,2,80,0,0
70434,-100,4,2,2,80,0,0
70597,-100,4,2,6,80,0,0
70677,-100,4,2,2,80,0,0
70921,-100,4,2,6,80,0,0
71002,-100,4,2,2,80,0,0
71245,-100,4,2,3,80,0,0
71569,-100,4,2,6,80,0,0
71651,-100,4,2,2,80,0,0
71894,-100,4,2,6,80,0,0
71975,-100,4,2,2,80,0,0
72218,-100,4,2,6,80,0,0
72300,-100,4,2,2,80,0,0
72543,-100,4,2,2,80,0,0
72867,-100,4,2,6,80,0,0
72948,-100,4,2,2,80,0,0
73029,-100,4,2,2,80,0,0
73191,-100,4,2,6,80,0,0
73272,-100,4,2,2,80,0,0
73515,-100,4,2,6,80,0,0
73597,-100,4,2,2,80,0,0
73840,-100,4,2,3,80,0,0
74164,-100,4,2,6,80,0,0
74245,-100,4,2,2,80,0,0
74488,-100,4,2,6,80,0,0
74569,-100,4,2,2,80,0,0
74813,-100,4,2,6,80,0,0
74894,-100,4,2,2,80,0,0
74975,-100,4,2,2,80,0,0
75461,-100,4,2,6,80,0,0
75542,-100,4,2,2,80,0,0
75785,-100,4,2,6,80,0,0
75866,-100,4,2,2,80,0,0
76110,-100,4,2,6,80,0,0
76191,-100,4,2,2,80,0,0
76272,-100,4,2,2,80,0,0
76434,-100,4,2,3,80,0,0
76759,-100,4,2,6,80,0,0
76840,-100,4,2,2,80,0,0
76921,-100,4,2,3,80,0,0
77083,-100,4,2,5,80,0,0
77245,-100,4,2,4,80,0,0
77408,-100,4,2,5,80,0,0
77732,-100,4,2,1,80,0,0
78056,-100,4,2,6,80,0,0
78138,-100,4,2,2,80,0,0
78218,-100,4,2,2,80,0,0
78380,-100,4,2,6,80,0,0
78462,-100,4,2,2,80,0,0
78704,-100,4,2,6,80,0,0
78786,-100,4,2,2,80,0,0
79029,-100,4,2,3,80,0,0
79353,-100,4,2,6,80,0,0
79435,-100,4,2,2,80,0,0
79678,-100,4,2,6,80,0,0
79759,-100,4,2,2,80,0,0
80002,-100,4,2,6,80,0,0
80084,-100,4,2,2,80,0,0
80326,-100,4,2,2,80,0,0
80650,-100,4,2,6,80,0,0
80732,-100,4,2,2,80,0,0
80813,-100,4,2,2,80,0,0
80975,-100,4,2,6,80,0,0
81056,-100,4,2,2,80,0,0
81299,-100,4,2,6,80,0,0
81381,-100,4,2,2,80,0,0
81624,-100,4,2,3,80,0,0
81948,-100,4,2,6,80,0,0
82030,-100,4,2,2,80,0,0
82273,-100,4,2,6,80,0,0
82354,-100,4,2,2,80,0,0
82434,-100,4,2,3,80,0,0
82596,-100,4,2,6,80,0,0
82679,-100,4,2,2,80,0,0
82759,-100,4,2,3,80,0,0
82921,-100,4,2,2,80,0,0
83245,-100,4,2,6,80,0,0
83327,-100,4,2,2,80,0,0
83407,-100,4,2,2,80,0,0
83570,-100,4,2,6,80,0,0
83651,-100,4,2,2,80,0,0
83894,-100,4,2,6,80,0,0
83976,-100,4,2,2,80,0,0
84218,-100,4,2,3,80,0,0
84542,-100,4,2,6,80,0,0
84624,-100,4,2,2,80,0,0
84867,-100,4,2,6,80,0,0
84948,-100,4,2,2,80,0,0
85191,-100,4,2,6,80,0,0
85273,-100,4,2,2,80,0,0
85516,-100,4,2,2,80,0,0
85840,-100,4,2,6,80,0,0
85921,-100,4,2,2,80,0,0
86164,-100,4,2,3,80,0,0
86488,-100,4,2,2,80,0,0
86651,-100,4,2,3,80,0,0
86813,-100,4,2,16,80,0,0
88110,-100,4,2,1,75,0,0
88434,-100,4,2,6,75,0,0
88515,-100,4,2,2,75,0,0
88758,-100,4,2,6,75,0,0
88839,-100,4,2,2,75,0,0
89082,-100,4,2,6,75,0,0
89163,-100,4,2,2,75,0,0
89245,-100,4,2,3,75,0,0
89731,-100,4,2,6,75,0,0
89812,-100,4,2,2,75,0,0
90055,-100,4,2,6,75,0,0
90136,-100,4,2,2,75,0,0
90380,-100,4,2,6,75,0,0
90461,-100,4,2,2,75,0,0
91028,-100,4,2,6,75,0,0
91109,-100,4,2,2,75,0,0
91353,-100,4,2,6,75,0,0
91434,-100,4,2,2,75,0,0
91677,-100,4,2,6,75,0,0
91758,-100,4,2,2,75,0,0
91839,-100,4,2,3,75,0,0
92326,-100,4,2,6,75,0,0
92407,-100,4,2,2,75,0,0
92650,-100,4,2,6,75,0,0
92731,-100,4,2,2,75,0,0
92974,-100,4,2,6,75,0,0
93055,-100,4,2,2,75,0,0
93299,-100,4,2,1,75,0,0
93623,-100,4,2,6,75,0,0
93704,-100,4,2,2,75,0,0
93947,-100,4,2,6,75,0,0
94028,-100,4,2,2,75,0,0
94272,-100,4,2,6,75,0,0
94353,-100,4,2,2,75,0,0
94434,-100,4,2,3,75,0,0
94920,-100,4,2,6,75,0,0
95001,-100,4,2,2,75,0,0
95245,-100,4,2,6,75,0,0
95326,-100,4,2,2,75,0,0
95569,-100,4,2,6,75,0,0
95650,-100,4,2,2,75,0,0
96218,-100,4,2,6,75,0,0
96299,-100,4,2,2,75,0,0
96542,-100,4,2,6,75,0,0
96623,-100,4,2,2,75,0,0
96866,-100,4,2,6,75,0,0
96947,-100,4,2,2,75,0,0
97028,-100,4,2,3,75,0,0
97515,-100,4,2,6,75,0,0
97596,-100,4,2,2,75,0,0
97839,-100,4,2,1,75,0,0
98001,-100,4,2,2,75,0,0
98326,-100,4,2,3,75,0,0
98488,-100,4,2,1,75,0,0
98813,-100,4,2,6,75,0,0
98893,-100,4,2,2,75,0,0
99137,-100,4,2,6,75,0,0
99218,-100,4,2,2,75,0,0
99461,-100,4,2,6,75,0,0
99542,-100,4,2,2,75,0,0
99624,-100,4,2,3,75,0,0
100110,-100,4,2,6,75,0,0
100190,-100,4,2,2,75,0,0
100434,-100,4,2,6,75,0,0
100515,-100,4,2,2,75,0,0
100758,-100,4,2,6,75,0,0
100839,-100,4,2,2,75,0,0
101083,-100,4,2,2,75,0,0
101407,-100,4,2,6,75,0,0
101488,-100,4,2,2,75,0,0
101731,-100,4,2,6,75,0,0
101812,-100,4,2,2,75,0,0
102056,-100,4,2,6,75,0,0
102136,-100,4,2,2,75,0,0
102218,-100,4,2,3,75,0,0
102705,-100,4,2,6,75,0,0
102785,-100,4,2,2,75,0,0
103028,-100,4,2,6,75,0,0
103109,-100,4,2,2,75,0,0
103353,-100,4,2,6,75,0,0
103434,-100,4,2,2,75,0,0
103678,-100,4,2,1,75,0,0
104002,-100,4,2,6,75,0,0
104082,-100,4,2,2,75,0,0
104326,-100,4,2,6,75,0,0
104407,-100,4,2,2,75,0,0
104650,-100,4,2,6,75,0,0
104731,-100,4,2,2,75,0,0
104813,-100,4,2,3,75,0,0
105299,-100,4,2,6,75,0,0
105380,-100,4,2,2,75,0,0
105623,-100,4,2,6,75,0,0
105704,-100,4,2,2,75,0,0
105948,-100,4,2,6,75,0,0
106028,-100,4,2,2,75,0,0
106272,-100,4,2,2,75,0,0
106758,-100,4,2,3,75,0,0
107245,-100,4,2,2,75,0,0
107731,-100,4,2,12,75,0,0
107812,-100,4,2,2,75,0,0
108218,-100,4,2,5,75,0,0
108299,-100,4,2,2,75,0,0
108461,-100,4,2,3,75,0,0
108542,-100,4,2,12,75,0,0
108623,-100,4,2,2,75,0,0
108867,-100,4,2,1,70,0,0
109191,-100,4,2,8,70,0,0
109272,-100,4,2,2,70,0,0
109516,-100,4,2,8,70,0,0
109597,-100,4,2,2,70,0,0
109840,-100,4,2,8,70,0,0
109921,-100,4,2,2,70,0,0
110164,-100,4,2,8,70,0,0
110245,-100,4,2,2,70,0,0
110488,-100,4,2,8,70,0,0
110570,-100,4,2,2,70,0,0
110651,-100,4,2,2,70,0,0
110813,-100,4,2,8,70,0,0
110894,-100,4,2,2,70,0,0
111137,-100,4,2,8,70,0,0
111218,-100,4,2,2,70,0,0
111461,-100,4,2,2,70,0,0
111785,-100,4,2,8,70,0,0
111867,-100,4,2,2,70,0,0
112110,-100,4,2,8,70,0,0
112191,-100,4,2,2,70,0,0
112434,-100,4,2,8,70,0,0
112515,-100,4,2,2,70,0,0
112759,-100,4,2,8,70,0,0
112840,-100,4,2,2,70,0,0
113083,-100,4,2,8,70,0,0
113164,-100,4,2,2,70,0,0
113245,-100,4,2,2,70,0,0
113407,-100,4,2,8,70,0,0
113488,-100,4,2,2,70,0,0
113731,-100,4,2,8,70,0,0
113813,-100,4,2,2,70,0,0
114056,-100,4,2,1,70,0,0
114380,-100,4,2,8,70,0,0
114461,-100,4,2,2,70,0,0
114543,-100,4,2,2,70,0,0
114705,-100,4,2,8,70,0,0
114786,-100,4,2,2,70,0,0
115029,-100,4,2,8,70,0,0
115110,-100,4,2,2,70,0,0
115353,-100,4,2,2,70,0,0
116164,-100,4,2,5,70,0,0
116651,-100,4,2,2,70,0,0
116975,-100,4,2,8,70,0,0
117056,-100,4,2,2,70,0,0
117137,-100,4,2,2,70,0,0
117299,-100,4,2,8,70,0,0
117380,-100,4,2,2,70,0,0
117624,-100,4,2,8,70,0,0
117705,-100,4,2,2,70,0,0
117948,-100,4,2,8,70,0,0
118029,-100,4,2,2,70,0,0
118272,-100,4,2,6,70,0,0
118353,-100,4,2,2,70,0,0
118434,-100,4,2,2,70,0,0
118597,-100,4,2,6,70,0,0
118678,-100,4,2,2,70,0,0
118921,-100,4,2,6,70,0,0
119002,-100,4,2,2,70,0,0
119245,-100,4,2,1,70,0,0
119569,-100,4,2,6,70,0,0
119651,-100,4,2,2,70,0,0
119894,-100,4,2,6,70,0,0
119975,-100,4,2,2,70,0,0
120218,-100,4,2,6,70,0,0
120299,-100,4,2,2,70,0,0
120543,-100,4,2,6,70,0,0
120624,-100,4,2,2,70,0,0
120867,-100,4,2,6,70,0,0
120948,-100,4,2,2,70,0,0
121029,-100,4,2,2,70,0,0
121191,-100,4,2,6,70,0,0
121272,-100,4,2,2,70,0,0
121515,-100,4,2,6,70,0,0
121597,-100,4,2,2,70,0,0
121840,-100,4,2,2,70,0,0
122164,-100,4,2,6,70,0,0
122245,-100,4,2,2,70,0,0
122489,-100,4,2,6,70,0,0
122570,-100,4,2,2,70,0,0
122813,-100,4,2,6,70,0,0
122894,-100,4,2,2,70,0,0
123137,-100,4,2,6,70,0,0
123218,-100,4,2,2,70,0,0
123461,-100,4,2,6,70,0,0
123542,-100,4,2,2,70,0,0
123624,-100,4,2,2,70,0,0
123786,-100,4,2,6,70,0,0
123867,-100,4,2,2,70,0,0
124110,-100,4,2,6,70,0,0
124191,-100,4,2,2,70,0,0
124434,-100,4,2,1,70,0,0
124758,-100,4,2,6,70,0,0
124840,-100,4,2,2,70,0,0
124921,-100,4,2,2,70,0,0
125083,-100,4,2,6,70,0,0
125164,-100,4,2,2,70,0,0
125407,-100,4,2,6,70,0,0
125488,-100,4,2,2,70,0,0
125732,-100,4,2,2,70,0,0
126542,-100,4,2,5,70,0,0
127029,-100,4,2,2,70,0,0
127353,-100,4,2,6,70,0,0
127434,-100,4,2,2,70,0,0
127516,-100,4,2,2,70,0,0
127678,-100,4,2,6,70,0,0
127759,-100,4,2,2,70,0,0
128002,-100,4,2,5,70,0,0
128164,-100,4,2,2,70,0,0
128813,-100,4,2,3,70,0,0
128975,-100,4,2,2,70,0,0
129299,-100,4,2,3,70,0,0
129516,-100,4,2,4,70,0,0
129624,-125,4,2,1,70,0,0
129948,-125,4,2,10,70,0,0
130029,-125,4,2,2,70,0,0
130597,-125,4,2,11,70,0,0
130678,-125,4,2,2,70,0,0
130921,-125,4,2,2,70,0,0
131246,-125,4,2,11,70,0,0
131327,-125,4,2,2,70,0,0
131894,-125,4,2,10,70,0,0
131976,-125,4,2,2,70,0,0
132056,-125,4,2,4,70,0,0
132218,-125,4,2,3,70,0,0
132543,-125,4,2,11,70,0,0
132624,-125,4,2,2,70,0,0
133191,-125,4,2,10,70,0,0
133273,-125,4,2,2,70,0,0
133516,-125,4,2,2,70,0,0
133840,-125,4,2,11,70,0,0
133921,-125,4,2,2,70,0,0
134489,-125,4,2,11,70,0,0
134570,-125,4,2,2,70,0,0
134813,-125,4,2,1,70,0,0
135138,-125,4,2,11,70,0,0
135219,-125,4,2,2,70,0,0
135786,-125,4,2,10,70,0,0
135868,-125,4,2,2,70,0,0
136110,-125,4,2,2,70,0,0
136435,-125,4,2,10,70,0,0
136516,-125,4,2,2,70,0,0
137083,-125,4,2,11,70,0,0
137165,-125,4,2,2,70,0,0
137246,-125,4,2,3,70,0,0
137407,-125,4,2,1,70,0,0
137731,-125,4,2,6,70,0,0
137813,-125,4,2,2,70,0,0
138056,-125,4,2,6,70,0,0
138137,-125,4,2,2,70,0,0
138381,-125,4,2,6,70,0,0
138462,-125,4,2,2,70,0,0
138704,-100,4,2,6,70,0,0
138786,-100,4,2,2,70,0,0
138867,-100,4,2,1,70,0,0
139028,-100,4,2,2,70,0,0
139191,-100,4,2,3,70,0,0
139353,-100,4,2,16,70,0,0
139434,-100,4,2,2,70,0,0
139678,-100,4,2,16,70,0,0
139759,-100,4,2,2,70,0,0
140002,-100,4,2,1,75,0,1
140326,-100,4,2,6,75,0,1
140407,-100,4,2,2,75,0,1
140489,-100,4,2,2,75,0,1
140651,-100,4,2,6,75,0,1
140732,-100,4,2,2,75,0,1
140975,-100,4,2,6,75,0,1
141056,-100,4,2,2,75,0,1
141299,-100,4,2,3,75,0,1
141624,-100,4,2,6,75,0,1
141705,-100,4,2,2,75,0,1
141948,-100,4,2,6,75,0,1
142029,-100,4,2,2,75,0,1
142272,-100,4,2,6,75,0,1
142353,-100,4,2,2,75,0,1
142597,-100,4,2,2,75,0,1
142921,-100,4,2,6,75,0,1
143002,-100,4,2,2,75,0,1
143083,-100,4,2,2,75,0,1
143245,-100,4,2,6,75,0,1
143326,-100,4,2,2,75,0,1
143569,-100,4,2,6,75,0,1
143650,-100,4,2,2,75,0,1
143894,-100,4,2,3,75,0,1
144218,-100,4,2,6,75,0,1
144299,-100,4,2,2,75,0,1
144542,-100,4,2,6,75,0,1
144624,-100,4,2,2,75,0,1
144867,-100,4,2,2,75,0,1
145029,-100,4,2,3,75,0,1
145191,-100,4,2,1,75,0,1
145515,-100,4,2,6,75,0,1
145597,-100,4,2,2,75,0,1
145840,-100,4,2,6,75,0,1
145921,-100,4,2,2,75,0,1
146002,-100,4,2,2,75,0,1
146164,-100,4,2,6,75,0,1
146245,-100,4,2,2,75,0,1
146489,-100,4,2,3,75,0,1
146813,-100,4,2,6,75,0,1
146894,-100,4,2,2,75,0,1
147137,-100,4,2,6,75,0,1
147218,-100,4,2,2,75,0,1
147461,-100,4,2,6,75,0,1
147542,-100,4,2,2,75,0,1
147786,-100,4,2,2,75,0,1
148110,-100,4,2,6,75,0,1
148191,-100,4,2,2,75,0,1
148272,-100,4,2,2,75,0,1
148434,-100,4,2,6,75,0,1
148515,-100,4,2,2,75,0,1
148758,-100,4,2,6,75,0,1
148839,-100,4,2,2,75,0,1
149083,-100,4,2,3,75,0,1
149245,-100,4,2,2,75,0,1
149407,-100,4,2,6,75,0,1
149488,-100,4,2,2,75,0,1
149732,-100,4,2,6,75,0,1
149813,-100,4,2,2,75,0,1
150380,-100,4,2,1,75,0,1
150704,-100,4,2,6,75,0,1
150786,-100,4,2,2,75,0,1
150867,-100,4,2,2,75,0,1
151029,-100,4,2,6,75,0,1
151110,-100,4,2,2,75,0,1
151353,-100,4,2,6,75,0,1
151434,-100,4,2,2,75,0,1
151678,-100,4,2,3,75,0,1
152002,-100,4,2,6,75,0,1
152083,-100,4,2,2,75,0,1
152326,-100,4,2,6,75,0,1
152407,-100,4,2,2,75,0,1
152650,-100,4,2,6,75,0,1
152731,-100,4,2,2,75,0,1
152975,-100,4,2,2,75,0,1
153299,-100,4,2,6,75,0,1
153380,-100,4,2,2,75,0,1
153462,-100,4,2,2,75,0,1
153624,-100,4,2,6,75,0,1
153704,-100,4,2,2,75,0,1
153947,-100,4,2,6,75,0,1
154028,-100,4,2,2,75,0,1
154273,-100,4,2,3,75,0,1
154597,-100,4,2,6,75,0,1
154678,-100,4,2,2,75,0,1
154921,-100,4,2,6,75,0,1
155002,-100,4,2,2,75,0,1
155246,-100,4,2,2,75,0,1
155570,-100,4,2,1,75,0,1
155894,-100,4,2,6,75,0,1
155975,-100,4,2,2,75,0,1
156056,-100,4,2,2,75,0,1
156218,-100,4,2,6,75,0,1
156299,-100,4,2,2,75,0,1
156542,-100,4,2,6,75,0,1
156623,-100,4,2,2,75,0,1
156867,-100,4,2,3,75,0,1
157191,-100,4,2,6,75,0,1
157272,-100,4,2,2,75,0,1
157515,-100,4,2,6,75,0,1
157596,-100,4,2,2,75,0,1
157840,-100,4,2,6,75,0,1
157920,-100,4,2,2,75,0,1
158164,-100,4,2,2,75,0,1
158488,-100,4,2,6,75,0,1
158570,-100,4,2,2,75,0,1
158812,-100,4,2,3,75,0,1
158975,-100,4,2,2,75,0,1
159137,-100,4,2,6,75,0,1
159218,-100,4,2,2,75,0,1
159461,-100,4,2,2,75,0,1
159785,-100,4,2,16,75,0,1
159840,-100,4,2,2,75,0,1
160110,-100,4,2,16,75,0,1
160164,-100,4,2,2,75,0,1
160759,-100,4,2,2,55,0,0
169840,-100,4,2,1,80,0,0
170164,-100,4,2,6,80,0,0
170246,-100,4,2,2,80,0,0
170327,-100,4,2,2,80,0,0
170489,-100,4,2,6,80,0,0
170570,-100,4,2,2,80,0,0
170813,-100,4,2,6,80,0,0
170894,-100,4,2,2,80,0,0
171137,-100,4,2,3,80,0,0
171461,-100,4,2,6,80,0,0
171543,-100,4,2,2,80,0,0
171786,-100,4,2,6,80,0,0
171867,-100,4,2,2,80,0,0
172110,-100,4,2,6,80,0,0
172192,-100,4,2,2,80,0,0
172434,-100,4,2,2,80,0,0
172758,-100,4,2,6,80,0,0
172840,-100,4,2,2,80,0,0
172921,-100,4,2,2,80,0,0
173083,-100,4,2,6,80,0,0
173164,-100,4,2,2,80,0,0
173407,-100,4,2,6,80,0,0
173489,-100,4,2,2,80,0,0
173732,-100,4,2,3,80,0,0
174056,-100,4,2,6,80,0,0
174138,-100,4,2,2,80,0,0
174381,-100,4,2,6,80,0,0
174462,-100,4,2,2,80,0,0
174704,-100,4,2,6,80,0,0
174787,-100,4,2,2,80,0,0
175029,-100,4,2,2,80,0,0
175353,-100,4,2,6,80,0,0
175435,-100,4,2,2,80,0,0
175516,-100,4,2,2,80,0,0
175678,-100,4,2,6,80,0,0
175759,-100,4,2,2,80,0,0
176002,-100,4,2,6,80,0,0
176084,-100,4,2,2,80,0,0
176326,-100,4,2,3,80,0,0
176651,-100,4,2,6,80,0,0
176732,-100,4,2,2,80,0,0
176975,-100,4,2,6,80,0,0
177056,-100,4,2,2,80,0,0
177299,-100,4,2,6,80,0,0
177381,-100,4,2,2,80,0,0
177461,-100,4,2,2,80,0,0
177948,-100,4,2,6,80,0,0
178029,-100,4,2,2,80,0,0
178272,-100,4,2,6,80,0,0
178353,-100,4,2,2,80,0,0
178596,-100,4,2,6,80,0,0
178678,-100,4,2,2,80,0,0
178759,-100,4,2,2,80,0,0
178921,-100,4,2,3,80,0,0
179245,-100,4,2,6,80,0,0
179327,-100,4,2,2,80,0,0
179408,-100,4,2,3,80,0,0
179570,-100,4,2,5,80,0,0
179732,-100,4,2,4,80,0,0
179895,-100,4,2,5,80,0,0
179975,-100,4,2,2,80,0,0
180056,-100,4,2,3,80,0,0
180218,-100,4,2,1,80,0,0
180542,-100,4,2,6,80,0,0
180625,-100,4,2,2,80,0,0
180705,-100,4,2,2,80,0,0
180867,-100,4,2,6,80,0,0
180949,-100,4,2,2,80,0,0
181191,-100,4,2,6,80,0,0
181273,-100,4,2,2,80,0,0
181516,-100,4,2,3,80,0,0
181840,-100,4,2,6,80,0,0
181922,-100,4,2,2,80,0,0
182165,-100,4,2,6,80,0,0
182246,-100,4,2,2,80,0,0
182488,-100,4,2,6,80,0,0
182571,-100,4,2,2,80,0,0
182813,-100,4,2,2,80,0,0
183137,-100,4,2,6,80,0,0
183219,-100,4,2,2,80,0,0
183299,-100,4,2,2,80,0,0
183461,-100,4,2,6,80,0,0
183543,-100,4,2,2,80,0,0
183785,-100,4,2,6,80,0,0
183868,-100,4,2,2,80,0,0
184110,-100,4,2,3,80,0,0
184434,-100,4,2,6,80,0,0
184517,-100,4,2,2,80,0,0
184760,-100,4,2,6,80,0,0
184841,-100,4,2,2,80,0,0
184921,-100,4,2,3,80,0,0
185083,-100,4,2,6,80,0,0
185166,-100,4,2,2,80,0,0
185246,-100,4,2,3,80,0,0
185407,-100,4,2,2,80,0,0
185731,-100,4,2,6,80,0,0
185814,-100,4,2,2,80,0,0
185893,-100,4,2,2,80,0,0
186056,-100,4,2,6,80,0,0
186138,-100,4,2,2,80,0,0
186380,-100,4,2,6,80,0,0
186463,-100,4,2,2,80,0,0
186704,-100,4,2,3,80,0,0
187028,-100,4,2,6,80,0,0
187111,-100,4,2,2,80,0,0
187354,-100,4,2,6,80,0,0
187435,-100,4,2,2,80,0,0
187677,-100,4,2,6,80,0,0
187760,-100,4,2,2,80,0,0
188002,-100,4,2,2,80,0,0
188326,-100,4,2,6,80,0,0
188408,-100,4,2,2,80,0,0
188650,-100,4,2,3,80,0,0
188974,-100,4,2,2,80,0,0
189137,-100,4,2,3,80,0,0
189299,-100,4,2,16,80,0,0
191127,750,4,2,2,45,1,0

[Colours]
Combo1 : 153,153,153
Combo2 : 0,238,0
Combo3 : 12,222,222
Combo4 : 0,185,0

[HitObjects]
40,24,1240,6,0,P|73:45|85:114,1,88,2|2,0:0|0:0,0:0:0:0:
38,161,2128,2,0,L|32:274,1,88,2|2,0:0|0:0,0:0:0:0:
44,296,2795,1,2,0:0:0:0:
44,296,3017,1,2,0:0:0:0:
130,276,3462,1,2,0:0:0:0:
198,332,3906,2,0,B|252:336|237:308|314:310,1,88,2|0,0:0|0:0,0:0:0:0:
357,357,4795,6,0,P|370:318|353:259,1,88,2|2,0:0|0:0,0:0:0:0:
339,241,5462,1,2,0:0:0:0:
339,241,5684,2,0,P|326:202|343:143,1,88,2|2,0:0|0:0,0:0:0:0:
412,116,6573,1,2,0:0:0:0:
347,56,7017,1,2,0:0:0:0:
267,94,7462,2,0,P|194:71|153:81,1,88,2|0,0:0|0:0,0:0:0:0:
109,25,8351,6,0,B|85:98|118:92|98:182,1,132,2|2,0:0|0:0,0:0:0:0:
67,182,9239,2,0,P|99:238|101:337,1,132,2|2,0:0|0:0,0:0:0:0:
92,345,10128,2,0,P|148:321|191:323,1,88,2|2,0:0|0:0,0:0:0:0:
256,344,11017,1,2,0:0:0:0:
256,256,11462,1,2,0:0:0:0:
212,179,11906,6,0,P|201:130|228:73,1,88,2|0,0:0|0:0,0:0:0:0:
300,94,12795,2,0,P|311:136|300:179,1,88,2|2,0:0|0:0,0:0:0:0:
314,225,13462,1,2,0:0:0:0:
314,225,13684,2,0,B|332:255|381:268|381:194|493:268|443:348|400:367|338:329,1,264,2|0,0:0|0:0,0:0:0:0:
200,368,15462,6,0,P|144:336|80:336,1,110,14|10,0:1|0:2,0:0:0:0:
18,258,16110,2,0,B|34:194|2:210|18:130,1,110,10|8,0:1|0:2,0:0:0:0:
15,94,16597,2,0,P|79:94|111:38,1,110,14|10,0:1|0:1,0:0:0:0:
131,12,17083,1,10,0:2:0:0:
217,80,17407,1,0,0:0:0:0:
317,33,17732,1,0,0:0:0:0:
423,63,18056,6,0,L|419:176,1,110,14|10,0:1|0:2,0:0:0:0:
470,270,18705,2,0,P|510:342|494:374,1,110,10|10,0:1|0:2,0:0:0:0:
449,372,19191,2,0,B|385:372|409:340|337:340,1,110,14|10,0:1|0:1,0:0:0:0:
293,355,19678,1,10,0:2:0:0:
302,245,20002,1,0,0:0:0:0:
311,135,20326,1,0,0:0:0:0:
256,40,20651,6,0,B|184:40|216:64|128:64,1,110,14|10,0:1|0:2,0:0:0:0:
48,24,21299,2,0,B|56:48|56:48|48:160,1,110,10|8,0:1|0:2,0:0:0:0:
16,176,21786,2,0,B|88:176|56:200|144:200,1,110,14|10,0:1|0:1,0:0:0:0:
161,160,22272,1,10,0:2:0:0:
187,267,22597,1,0,0:0:0:0:
173,376,22921,1,0,0:0:0:0:
64,362,23245,6,0,P|32:306|40:250,1,110,14|10,0:1|0:2,0:0:0:0:
98,172,23894,1,10,0:1:0:0:
44,82,24218,1,8,0:2:0:0:
44,82,24380,2,0,P|108:82|156:50,1,110,14|10,0:1|0:1,0:0:0:0:
178,14,24867,1,10,0:2:0:0:
241,103,25191,2,0,L|305:111,1,55,6|10,0:3|0:3,0:0:0:0:
340,77,25516,2,0,L|404:85,1,55,6|10,0:3|0:3,0:0:0:0:
445,62,25840,6,0,P|461:110|437:166,1,110,14|10,0:1|0:2,0:0:0:0:
333,190,26489,2,0,P|317:238|341:294,1,110,10|8,0:1|0:2,0:0:0:0:
378,328,26975,2,0,B|306:320|338:360|258:352,1,110,14|10,0:1|0:1,0:0:0:0:
221,336,27461,1,10,0:2:0:0:
116,371,27786,1,0,0:0:0:0:
32,299,28110,1,0,0:0:0:0:
48,190,28434,6,0,L|64:78,1,110,14|10,0:1|0:2,0:0:0:0:
160,24,29083,2,0,B|232:32|192:56|272:64,1,110,10|8,0:1|0:2,0:0:0:0:
304,32,29570,2,0,P|368:16|416:40,1,110,14|10,0:1|0:1,0:0:0:0:
449,67,30056,1,10,0:2:0:0:
409,169,30380,1,0,0:0:0:0:
437,275,30705,1,0,0:0:0:0:
447,383,31029,6,0,L|335:375,1,110,14|10,0:1|0:2,0:0:0:0:
227,370,31678,2,0,P|195:314|211:258,1,110,10|8,0:1|0:2,0:0:0:0:
248,240,32164,6,0,L|357:247,1,110,14|10,0:1|0:1,0:0:0:0:
416,256,32651,1,10,0:2:0:0:
472,161,32975,1,0,0:0:0:0:
363,141,33299,1,0,0:0:0:0:
265,188,33624,6,0,L|144:202,1,110,14|8,0:1|0:2,0:0:0:0:
154,255,34110,2,0,L|168:376,1,110,14|8,0:1|0:2,0:0:0:0:
221,365,34597,2,0,L|342:351,1,110,14|8,0:1|0:2,0:0:0:0:
332,298,35083,2,0,L|318:177,1,110,10|8,0:1|0:2,0:0:0:0:
345,139,35570,5,14,0:1:0:0:
352,32,35894,1,10,0:1:0:0:
248,72,36218,6,0,B|176:72|208:48|128:48,1,110,14|10,0:1|0:2,0:0:0:0:
38,10,36867,2,0,P|27:81|63:131,1,110,10|8,0:1|0:2,0:0:0:0:
133,175,37516,2,0,P|144:246|108:296,1,110,10|8,0:1|0:2,0:0:0:0:
96,324,38002,1,10,0:1:0:0:
96,324,38164,2,0,B|165:327|126:358|225:356,1,110,10|10,0:1|0:2,0:0:0:0:
309,358,38813,6,0,L|420:354,1,110,12|10,0:1|0:2,0:0:0:0:
440,253,39461,2,0,L|318:257,1,110,10|8,0:1|0:2,0:0:0:0:
227,289,40110,2,0,B|218:260|218:260|227:177,1,110,10|8,0:1|0:2,0:0:0:0:
273,147,40597,1,8,0:1:0:0:
273,147,40759,2,0,P|337:123|385:147,1,110,8|8,0:1|0:2,0:0:0:0:
336,33,41407,6,0,B|280:33|280:1|216:1,1,110,14|10,0:1|0:2,0:0:0:0:
193,42,41894,2,0,P|113:58|73:34,1,110,10|10,0:1|0:1,0:0:0:0:
41,21,42380,1,8,0:2:0:0:
16,128,42705,2,0,P|32:208|8:248,1,110,14|10,0:1|0:3,0:0:0:0:
54,274,43191,2,0,P|40:326|59:377,1,110,10|14,0:1|0:1,0:0:0:0:
114,374,43678,1,8,0:2:0:0:
198,319,44002,6,0,P|278:303|318:327,1,110,14|8,0:1|0:2,0:0:0:0:
344,347,44489,2,0,B|367:321|367:321|356:227,1,110,10|10,0:1|0:1,0:0:0:0:
348,192,44975,1,8,0:2:0:0:
238,189,45299,2,0,P|158:173|118:197,1,110,10|8,0:1|0:2,0:0:0:0:
93,218,45786,2,0,B|70:192|70:192|81:98,1,110,8|8,0:1|0:1,0:0:0:0:
88,63,46272,1,8,0:2:0:0:
197,47,46597,6,0,B|255:52|239:14|314:29,1,110,14|10,0:1|0:2,0:0:0:0:
328,133,47245,2,0,P|390:126|412:74,1,110,10|8,0:1|0:2,0:0:0:0:
481,3,47894,2,0,B|503:30|503:30|512:125,1,110,10|8,0:1|0:2,0:0:0:0:
483,154,48380,1,10,0:1:0:0:
483,154,48543,2,0,B|476:214|495:197|490:270,1,110,10|10,0:1|0:2,0:0:0:0:
428,354,49191,6,0,P|370:330|321:342,1,110,12|10,0:1|0:2,0:0:0:0:
224,383,49840,2,0,L|229:262,1,110,10|8,0:1|0:2,0:0:0:0:
118,278,50489,2,0,P|60:302|11:290,1,110,10|8,0:1|0:2,0:0:0:0:
8,242,50975,1,8,0:1:0:0:
8,242,51137,2,0,L|0:130,1,110,8|8,0:1|0:2,0:0:0:0:
19,24,51786,6,0,B|89:30|62:56|142:57,1,110,14|10,0:1|0:2,0:0:0:0:
167,24,52272,2,0,P|231:14|268:62,1,110,10|10,0:1|0:1,0:0:0:0:
292,86,52759,1,8,0:2:0:0:
386,30,53083,2,0,B|389:115|389:115|409:137,1,110,14|10,0:1|0:3,0:0:0:0:
457,152,53570,2,0,B|473:170|473:170|476:255,1,110,10|14,0:1|0:1,0:0:0:0:
456,306,54056,1,8,0:2:0:0:
352,341,54380,6,0,P|272:325|232:349,1,110,14|10,0:1|0:2,0:0:0:0:
207,370,54867,2,0,B|184:344|184:344|195:250,1,110,10|10,0:1|0:1,0:0:0:0:
227,225,55353,1,8,0:2:0:0:
252,117,55678,2,0,B|174:118|209:154|136:154,1,110,10|8,0:1|0:1,0:0:0:0:
106,122,56164,1,4,0:3:0:0:
106,122,56326,2,0,P|34:104|-9:125,1,110,10|10,0:1|0:3,0:0:0:0:
20,202,56975,6,0,B|10:308|72:264|65:367,1,176,14|8,0:1|0:2,0:0:0:0:
153,355,57948,1,2,0:3:0:0:
237,327,58272,2,0,P|300:317|399:377,1,176,10|8,0:1|0:2,0:0:0:0:
472,328,59245,1,2,0:3:0:0:
420,257,59570,6,0,B|454:226|454:226|461:96,1,176,14|10,0:1|0:2,0:0:0:0:
465,8,60543,1,2,0:3:0:0:
390,52,60867,2,0,P|338:38|307:135,1,176,10|10,0:1|0:2,0:0:0:0:
256,208,61840,1,2,0:3:0:0:
214,285,62164,6,0,B|119:281|155:350|48:340,1,176,14|8,0:1|0:2,0:0:0:0:
18,261,63137,1,2,0:3:0:0:
96,222,63461,2,0,P|115:155|97:85,1,132,10|8,0:1|0:1,0:0:0:0:
78,59,64110,2,0,P|140:69|173:59,1,88,8|10,0:2|0:3,0:0:0:0:
271,89,64759,5,12,0:1:0:0:
375,123,65083,1,10,0:2:0:0:
375,233,65407,1,10,0:2:0:0:
271,267,65732,1,8,0:2:0:0:
206,178,66056,2,0,L|277:171,1,55,10|10,0:0|0:0,0:0:0:0:
459,365,67353,6,0,B|474:300|431:325|452:223,1,110,14|10,0:1|0:2,0:0:0:0:
478,212,67840,1,10,0:1:0:0:
478,212,68002,2,0,P|506:150|483:101,1,110,10|10,0:2|0:2,0:0:0:0:
397,58,68651,2,0,L|400:3,2,55,14|10|10,0:2|0:1|0:2,0:0:0:0:
320,136,69299,2,0,L|317:191,2,55,10|8|8,0:2|0:1|0:2,0:0:0:0:
256,48,69948,6,0,P|184:40|136:80,1,110,14|10,0:2|0:2,0:0:0:0:
104,35,70434,1,10,0:1:0:0:
104,35,70597,2,0,L|116:157,1,110,10|10,0:2|0:2,0:0:0:0:
65,241,71245,2,0,L|-1:237,2,55,14|10|10,0:2|0:1|0:2,0:0:0:0:
116,339,71894,2,0,P|158:290|212:295,1,110,10|8,0:2|0:2,0:0:0:0:
300,336,72543,6,0,B|367:325|341:365|413:359,1,110,14|10,0:2|0:2,0:0:0:0:
446,324,73029,1,10,0:1:0:0:
446,324,73191,2,0,P|476:256|453:210,1,110,10|10,0:2|0:2,0:0:0:0:
364,181,73840,1,14,0:2:0:0:
281,254,74164,1,10,0:2:0:0:
201,330,74489,2,0,P|140:309|85:326,1,110,10|10,0:2|0:2,0:0:0:0:
48,344,74975,1,10,0:1:0:0:
48,344,75137,6,0,P|18:274|42:227,1,110,14|8,0:2|0:2,0:0:0:0:
105,167,75786,2,0,B|117:104|95:118|107:44,1,110,10|10,0:2|0:2,0:0:0:0:
148,23,76272,1,10,0:1:0:0:
148,23,76434,1,14,0:2:0:0:
200,120,76759,1,8,0:2:0:0:
312,120,77083,1,10,0:2:0:0:
364,23,77408,1,12,0:2:0:0:
469,54,77732,6,0,P|451:111|462:172,1,110,14|10,0:1|0:2,0:0:0:0:
478,210,78218,1,10,0:1:0:0:
478,210,78380,2,0,P|496:267|485:328,1,110,10|10,0:2|0:2,0:0:0:0:
391,366,79029,2,0,L|336:369,2,55,14|10|10,0:2|0:1|0:2,0:0:0:0:
345,265,79678,2,0,L|290:268,2,55,10|8|8,0:2|0:1|0:2,0:0:0:0:
352,155,80326,6,0,B|417:155|389:185|466:185,1,110,14|10,0:2|0:2,0:0:0:0:
487,169,80813,1,10,0:1:0:0:
487,169,80975,2,0,P|520:117|503:57,1,110,10|10,0:2|0:2,0:0:0:0:
403,54,81624,2,0,L|408:-7,2,55,14|10|10,0:2|0:1|0:2,0:0:0:0:
295,77,82272,2,0,B|227:62|247:90|174:78,1,110,10|8,0:2|0:2,0:0:0:0:
90,25,82921,6,0,P|79:96|106:125,1,110,14|10,0:2|0:2,0:0:0:0:
123,174,83407,1,10,0:1:0:0:
123,174,83570,2,0,P|134:245|107:274,1,110,10|10,0:2|0:2,0:0:0:0:
213,314,84218,2,0,L|209:371,2,55,14|10|10,0:2|0:1|0:2,0:0:0:0:
299,245,84867,2,0,L|303:188,2,55,10|10|10,0:2|0:1|0:2,0:0:0:0:
405,272,85516,6,0,B|420:340|392:320|404:393,1,110,14|8,0:2|0:2,0:0:0:0:
498,327,86164,2,0,P|515:266|482:219,1,110,14|10,0:2|0:3,0:0:0:0:
457,188,86651,1,10,0:3:0:0:
457,188,86813,1,10,0:2:0:0:
256,192,86975,12,14,88110,0:1:0:0:
481,48,98489,6,0,P|436:84|372:72,1,110,14|10,0:1|0:2,0:0:0:0:
296,19,99137,2,0,B|224:18|251:46|184:46,1,110,10|8,0:1|0:2,0:0:0:0:
141,22,99624,2,0,P|115:68|131:126,1,110,14|10,0:1|0:1,0:0:0:0:
156,168,100110,1,10,0:2:0:0:
63,227,100434,1,0,0:0:0:0:
82,335,100759,1,0,0:0:0:0:
186,364,101083,6,0,P|230:310|279:315,1,110,14|10,0:1|0:2,0:0:0:0:
356,372,101732,2,0,B|361:311|361:311|357:306|357:306|362:245,1,110,10|8,0:1|0:2,0:0:0:0:
314,233,102218,2,0,P|342:180|335:121,1,110,14|10,0:1|0:1,0:0:0:0:
313,82,102705,1,10,0:2:0:0:
418,50,103029,1,0,0:0:0:0:
482,138,103353,1,0,0:0:0:0:
493,248,103678,6,0,L|375:241,1,110,14|10,0:1|0:2,0:0:0:0:
323,333,104326,2,0,P|287:309|224:321,1,110,10|8,0:1|0:2,0:0:0:0:
176,348,104813,2,0,L|165:232,1,110,14|10,0:1|0:1,0:0:0:0:
122,204,105299,1,10,0:2:0:0:
98,96,105624,1,0,0:0:0:0:
205,74,105948,1,0,0:0:0:0:
213,185,106272,6,0,L|334:199,1,110,14|8,0:1|0:2,0:0:0:0:
324,252,106758,2,0,L|310:373,1,110,14|8,0:1|0:2,0:0:0:0:
257,362,107245,2,0,L|136:348,1,110,14|8,0:1|0:2,0:0:0:0:
146,295,107731,2,0,L|160:174,1,110,10|8,0:1|0:2,0:0:0:0:
143,132,108218,5,14,0:1:0:0:
162,23,108542,1,10,0:1:0:0:
256,85,108867,6,0,B|312:77|302:109|369:105,1,110,14|10,0:1|0:2,0:0:0:0:
454,165,109516,2,0,L|510:159,2,55,10|10|8,0:1|0:1|0:2,0:0:0:0:
377,240,110164,2,0,P|388:309|376:356,1,110,10|8,0:1|0:2,0:0:0:0:
328,369,110651,1,10,0:1:0:0:
328,369,110813,2,0,B|254:371|285:348|211:350,1,110,10|10,0:1|0:2,0:0:0:0:
113,371,111461,6,0,P|71:331|69:278,1,110,12|10,0:1|0:2,0:0:0:0:
124,186,112110,2,0,P|103:170|67:170,2,55,10|10|8,0:1|0:1|0:2,0:0:0:0:
225,227,112759,2,0,B|221:173|221:173|217:165|217:165|213:95,1,110,10|8,0:1|0:2,0:0:0:0:
186,70,113245,1,8,0:1:0:0:
186,70,113407,2,0,B|244:62|229:86|299:85,1,110,8|8,0:1|0:2,0:0:0:0:
391,33,114056,6,0,P|379:81|403:150,1,110,14|10,0:1|0:2,0:0:0:0:
445,160,114543,2,0,P|457:208|433:277,1,110,10|10,0:1|0:1,0:0:0:0:
393,291,115029,1,8,0:2:0:0:
455,380,115353,2,0,L|333:367,1,110,14|10,0:1|0:3,0:0:0:0:
310,325,115840,2,0,L|188:338,1,110,10|12,0:1|0:1,0:0:0:0:
155,367,116326,1,8,0:2:0:0:
70,295,116651,6,0,P|123:281|151:237,1,110,14|10,0:1|0:2,0:0:0:0:
136,183,117137,2,0,B|143:115|115:135|132:58,1,110,10|10,0:1|0:1,0:0:0:0:
156,26,117624,1,8,0:2:0:0:
247,86,117948,2,0,P|300:100|328:144,1,110,10|10,0:1|0:2,0:0:0:0:
313,198,118434,2,0,B|320:266|292:246|309:323,1,110,8|8,0:1|0:1,0:0:0:0:
333,355,118921,1,10,0:2:0:0:
410,276,119245,6,0,P|469:275|497:232,1,110,14|10,0:1|0:2,0:0:0:0:
479,127,119894,2,0,L|483:67,2,55,10|10|8,0:1|0:1|0:2,0:0:0:0:
371,151,120543,2,0,B|301:147|326:171|253:167,1,110,10|8,0:1|0:2,0:0:0:0:
214,185,121029,1,10,0:1:0:0:
214,185,121191,2,0,P|190:117|204:77,1,110,10|10,0:1|0:2,0:0:0:0:
101,33,121840,6,0,L|103:149,1,110,12|10,0:1|0:2,0:0:0:0:
56,242,122489,2,0,L|-8:245,2,55,10|10|8,0:1|0:1|0:2,0:0:0:0:
123,329,123137,2,0,B|193:330|158:360|228:360,1,110,10|8,0:1|0:2,0:0:0:0:
268,325,123624,1,8,0:1:0:0:
268,325,123786,2,0,P|317:304|368:345,1,110,8|8,0:1|0:2,0:0:0:0:
463,373,124434,6,0,L|454:263,1,110,14|10,0:1|0:2,0:0:0:0:
417,221,124921,2,0,L|426:111,1,110,10|10,0:1|0:1,0:0:0:0:
402,61,125407,1,8,0:2:0:0:
306,5,125732,2,0,P|291:51|303:111,1,110,14|10,0:1|0:3,0:0:0:0:
313,164,126218,2,0,P|328:210|316:270,1,110,10|12,0:1|0:1,0:0:0:0:
292,319,126705,1,8,0:2:0:0:
191,362,127029,6,0,P|127:336|83:347,1,110,14|10,0:1|0:2,0:0:0:0:
37,364,127516,2,0,B|56:300|40:306|51:241,1,110,10|10,0:1|0:1,0:0:0:0:
80,210,128002,1,12,0:2:0:0:
26,113,128326,2,0,P|69:123|130:91,1,110,10|8,0:1|0:1,0:0:0:0:
158,51,128813,1,4,0:3:0:0:
158,51,128975,2,0,P|201:41|262:73,1,110,10|10,0:1|0:3,0:0:0:0:
354,24,129624,6,0,B|344:130|406:86|399:189,1,176,14|8,0:1|0:2,0:0:0:0:
411,274,130597,1,2,0:3:0:0:
467,341,130921,2,0,P|406:312|321:371,1,176,10|8,0:1|0:2,0:0:0:0:
256,312,131894,1,2,0:3:0:0:
189,366,132218,6,0,P|124:313|45:341,1,176,14|10,0:1|0:2,0:0:0:0:
7,260,133191,1,2,0:3:0:0:
88,225,133516,2,0,B|94:126|45:170|51:40,1,176,10|10,0:1|0:2,0:0:0:0:
119,1,134489,1,2,0:3:0:0:
141,85,134813,2,0,P|196:57|310:56,1,176,14|8,0:1|0:2,0:0:0:0:
388,97,135786,1,2,0:3:0:0:
444,29,136110,6,0,P|474:93|450:160,1,132,10|8,0:1|0:1,0:0:0:0:
430,184,136759,2,0,L|334:181,1,88,8|10,0:2|0:3,0:0:0:0:
234,203,137407,5,12,0:1:0:0:
130,169,137731,1,10,0:2:0:0:
130,59,138055,1,10,0:2:0:0:
234,25,138380,1,8,0:2:0:0:
299,114,138704,6,0,B|281:173|319:157|307:227,1,110,10|4,0:0|0:3,0:0:0:0:
294,277,139191,1,4,0:3:0:0:
294,277,139353,1,8,0:2:0:0:
401,300,139678,1,8,0:2:0:0:
495,244,140002,6,0,P|481:193|494:118,1,110,14|10,0:1|0:2,0:0:0:0:
508,86,140489,1,10,0:1:0:0:
405,46,140813,1,10,0:1:0:0:
308,98,141137,1,10,0:1:0:0:
308,98,141299,2,0,L|241:98,1,55,12|10,0:2|0:1,0:0:0:0:
206,128,141624,2,0,P|220:77|207:2,2,110,10|8|10,0:2|0:2|0:2,0:0:0:0:
131,209,142597,6,0,B|69:220|83:184|2:200,1,110,14|10,0:2|0:2,0:0:0:0:
1,247,143083,1,10,0:1:0:0:
41,348,143407,1,10,0:1:0:0:
143,308,143732,1,10,0:1:0:0:
143,308,143894,2,0,L|206:321,1,55,12|10,0:2|0:1,0:0:0:0:
248,336,144218,2,0,P|263:282|250:228,1,110,10|8,0:2|0:2,0:0:0:0:
153,179,144867,1,8,0:2:0:0:
44,197,145191,6,0,P|29:143|42:89,1,110,14|10,0:1|0:2,0:0:0:0:
147,65,145840,2,0,L|147:4,2,55,10|10|10,0:2|0:1|0:2,0:0:0:0:
256,96,146489,2,0,L|256:157,2,55,14|10|10,0:2|0:1|0:2,0:0:0:0:
361,58,147137,2,0,B|430:62|408:89|483:90,1,110,10|10,0:2|0:2,0:0:0:0:
494,195,147786,6,0,P|462:238|470:305,1,110,14|10,0:2|0:2,0:0:0:0:
488,341,148272,1,10,0:1:0:0:
380,316,148597,1,10,0:1:0:0:
274,347,148921,1,10,0:1:0:0:
274,347,149083,2,0,L|159:344,1,110,12|10,0:2|0:2,0:0:0:0:
56,366,149732,2,0,P|44:327|53:300,1,55,10|8,0:2|0:1,0:0:0:0:
60,260,150056,2,0,P|72:221|63:194,1,55,8|8,0:2|0:1,0:0:0:0:
36,164,150380,6,0,P|15:118|29:55,1,110,14|10,0:1|0:2,0:0:0:0:
73,31,150867,1,10,0:1:0:0:
73,31,151029,1,10,0:2:0:0:
168,86,151353,1,10,0:2:0:0:
256,24,151678,2,0,L|256:80,2,55,14|10|10,0:2|0:1|0:2,0:0:0:0:
344,86,152326,1,10,0:2:0:0:
439,31,152651,1,8,0:2:0:0:
476,134,152975,6,0,P|497:180|483:243,1,110,14|10,0:2|0:2,0:0:0:0:
439,267,153462,1,10,0:1:0:0:
439,267,153624,1,10,0:2:0:0:
344,212,153948,1,10,0:2:0:0:
256,144,154273,2,0,L|256:88,2,55,14|10|10,0:2|0:1|0:2,0:0:0:0:
168,212,154921,1,10,0:2:0:0:
73,267,155246,1,8,0:2:0:0:
170,317,155570,6,0,B|236:318|215:350|288:352,1,110,14|10,0:1|0:2,0:0:0:0:
319,320,156056,1,10,0:1:0:0:
319,320,156218,1,10,0:2:0:0:
422,357,156543,2,0,L|421:299,1,55,10|10,0:2|0:1,0:0:0:0:
463,266,156867,1,14,0:2:0:0:
366,212,157191,1,10,0:2:0:0:
315,113,157516,2,0,B|308:49|335:70|327:3,1,110,10|10,0:2|0:2,0:0:0:0:
419,65,158164,6,0,P|453:31|519:29,2,110,14|8|14,0:2|0:2|0:2,0:0:0:0:
439,173,159137,1,8,0:2:0:0:
404,277,159461,1,0,0:0:0:0:
293,277,159786,1,0,0:0:0:0:
201,213,160110,2,0,L|203:119,2,82.5,10|8|4,0:2|0:3|0:3,0:0:0:0:
159,249,160759,5,2,0:2:0:0:
459,365,169840,6,0,B|474:300|431:325|452:223,1,110,14|10,0:1|0:2,0:0:0:0:
476,212,170327,1,10,0:1:0:0:
476,212,170489,2,0,P|504:150|481:101,1,110,10|10,0:2|0:2,0:0:0:0:
382,125,171137,2,0,L|383:185,2,55,14|10|10,0:2|0:1|0:2,0:0:0:0:
282,78,171786,2,0,L|283:18,2,55,10|8|8,0:2|0:1|0:2,0:0:0:0:
187,134,172434,6,0,P|145:138|86:106,1,110,14|10,0:2|0:2,0:0:0:0:
52,70,172921,1,10,0:1:0:0:
52,70,173083,2,0,B|62:138|39:120|51:189,1,110,10|10,0:2|0:2,0:0:0:0:
124,257,173732,2,0,L|188:250,2,55,14|10|10,0:2|0:1|0:2,0:0:0:0:
48,337,174380,2,0,P|98:341|142:380,1,110,10|8,0:2|0:2,0:0:0:0:
247,345,175029,6,0,L|366:350,1,110,14|10,0:2|0:2,0:0:0:0:
412,374,175516,1,10,0:1:0:0:
412,374,175678,2,0,P|442:336|427:271,1,110,10|10,0:2|0:2,0:0:0:0:
348,207,176326,1,14,0:2:0:0:
413,117,176651,1,10,0:2:0:0:
340,34,176975,2,0,B|275:33|300:74|224:69,1,110,10|10,0:2|0:2,0:0:0:0:
196,45,177461,1,10,0:1:0:0:
196,45,177624,6,0,P|144:27|85:51,1,110,14|8,0:2|0:2,0:0:0:0:
24,129,178272,2,0,B|75:134|75:134|83:140|83:140|143:147,1,110,10|10,0:2|0:2,0:0:0:0:
187,129,178759,1,10,0:1:0:0:
187,129,178921,1,14,0:2:0:0:
256,216,179245,1,8,0:2:0:0:
325,129,179570,1,10,0:2:0:0:
256,40,179894,1,10,0:3:0:0:
147,40,180218,6,0,B|85:41|105:79|47:79,1,110,14|10,0:1|0:2,0:0:0:0:
13,122,180705,1,10,0:1:0:0:
13,122,180867,2,0,L|24:237,1,110,10|10,0:2|0:2,0:0:0:0:
87,321,181516,2,0,L|90:375,2,55,14|10|10,0:2|0:1|0:2,0:0:0:0:
167,248,182164,2,0,L|163:191,2,55,10|8|8,0:2|0:1|0:2,0:0:0:0:
256,312,182813,6,0,P|296:288|368:312,1,110,14|10,0:2|0:2,0:0:0:0:
391,349,183299,1,10,0:1:0:0:
391,349,183461,2,0,P|431:373|503:349,1,110,10|10,0:2|0:2,0:0:0:0:
499,250,184110,2,0,L|505:186,2,55,14|10|10,0:2|0:1|0:2,0:0:0:0:
391,257,184759,2,0,B|374:234|374:234|383:145,1,110,10|8,0:2|0:2,0:0:0:0:
435,56,185407,6,0,P|364:67|335:40,1,110,14|10,0:2|0:2,0:0:0:0:
292,26,185893,1,10,0:1:0:0:
292,26,186056,2,0,P|221:15|192:42,1,110,10|10,0:2|0:2,0:0:0:0:
99,89,186704,2,0,L|42:85,2,55,14|10|10,0:2|0:1|0:2,0:0:0:0:
166,177,187353,2,0,L|223:173,2,55,10|10|10,0:2|0:1|0:2,0:0:0:0:
77,241,188002,6,0,B|62:309|90:289|78:362,1,110,14|8,0:2|0:2,0:0:0:0:
182,301,188650,2,0,P|243:284|290:317,1,110,14|10,0:2|0:3,0:0:0:0:
319,352,189137,1,10,0:3:0:0:
319,352,189299,1,10,0:2:0:0:
256,192,189380,12,2,191127,0:0:0:0:
