osu file format v14

[General]
AudioFilename: audio.mp3
AudioLeadIn: 0
PreviewTime: 67272
Countdown: 0
SampleSet: Soft
StackLeniency: 0.6
Mode: 0
LetterboxInBreaks: 0
WidescreenStoryboard: 1

[Editor]
DistanceSpacing: 1.2
BeatDivisor: 4
GridSize: 8
TimelineZoom: 2.300002

[Metadata]
Title:Rekka no Suiryoku
TitleUnicode:烈花の翠緑
Artist:KINEMA106
ArtistUnicode:キネマ106
Creator:-Atri-
Version:HW's Hard
Source:
Tags:KuranteMelodii krt Firis Mistlud yf_bmp Hollow Wings midorijeon 黒兎ウル Kurousagi Uru 火焔ノ水彩 艦隊これくしょん -艦これ- kancolle c92 tom jun-jun ゆ吉 厨房ちゃうよ 艦あにvol.6 赫灼のレジスト Japanese rock fa Featured Artist mappers mappers' guild jrock j-rock
BeatmapID:3875251
BeatmapSetID:1524363

[Difficulty]
HPDrainRate:5
CircleSize:4
OverallDifficulty:5
ApproachRate:8
SliderMultiplier:1.35
SliderTickRate:1

[Events]
//Background and Video events
0,0,"uruchan suki.jpg",0,0
Video,-570,"rekka no suiryoku.mp4"
//Break Periods
//Storyboard Layer 0 (Background)
//Storyboard Layer 1 (Fail)
//Storyboard Layer 2 (Pass)
//Storyboard Layer 3 (Foreground)
//Storyboard Layer 4 (Overlay)
//Storyboard Sound Samples

[TimingPoints]
1240,444.444444444444,4,2,99,50,1,0
1240,-100,4,2,99,50,0,0
8351,-100,4,2,99,30,0,0
15462,324.324324324324,4,2,99,90,1,0
15462,-100,4,2,99,90,0,1
15624,-100,4,2,99,90,0,0
25840,-100,4,2,99,90,0,1
26002,-100,4,2,99,90,0,0
33624,-66.6666666666667,4,2,99,90,0,0
36218,-100,4,2,99,70,0,0
46597,-100,4,2,99,75,0,0
56975,-100,4,2,99,60,0,0
67353,-100,4,2,99,100,0,1
77732,-100,4,2,99,100,0,1
86813,-100,4,2,99,80,0,0
88110,-100,4,2,99,90,0,1
88272,-100,4,2,99,90,0,0
98489,-100,4,2,99,90,0,1
98651,-100,4,2,99,90,0,0
106272,-66.6666666666667,4,2,99,90,0,0
108867,-100,4,2,99,70,0,0
119245,-100,4,2,99,75,0,0
129624,-100,4,2,99,60,0,0
140002,-100,4,2,99,90,0,1
140164,-100,4,2,99,90,0,0
150380,-100,4,2,99,90,0,1
150543,-100,4,2,99,90,0,0
160759,-100,4,2,99,50,0,0
163029,-111.111111111111,4,2,99,50,0,0
163678,-125,4,2,99,50,0,0
164326,-142.857142857143,4,2,99,50,0,0
164975,-166.666666666667,4,2,99,50,0,0
165948,-100,4,2,99,50,0,0
169840,-100,4,2,99,100,0,1
180218,-100,4,2,99,100,0,1
189299,-100,4,2,99,80,0,0
191127,750,4,2,99,50,1,0

[Colours]
Combo1 : 153,153,153
Combo2 : 0,238,0
Combo3 : 12,222,222
Combo4 : 0,185,0

[HitObjects]
108,38,1240,5,2,0:3:0:0:
31,180,1684,2,0,P|15:209|13:243,1,67.5
21,323,2128,2,0,L|155:338,1,135,2|0,0:0|0:0,0:0:0:0:
225,298,2795,1,0,0:0:0:0:
295,335,3017,6,0,P|313:306|319:273,1,67.5,2|0,0:0|0:0,0:0:0:0:
392,307,3462,2,0,P|420:290|453:283,1,67.5,2|0,0:0|0:0,0:0:0:0:
461,202,3906,2,0,P|398:175|332:169,1,135,2|0,0:0|0:0,0:0:0:0:
414,28,4795,6,0,P|350:49|282:52,1,135,2|0,0:3|0:0,0:0:0:0:
129,106,5684,2,0,P|192:126|260:129,1,135,2|0,0:0|0:0,0:0:0:0:
259,210,6351,1,0,0:0:0:0:
190,253,6573,6,0,L|145:202,1,67.5,2|0,0:0|0:0,0:0:0:0:
67,179,7017,2,0,L|2:197,1,67.5,2|0,0:0|0:0,0:0:0:0:
5,277,7462,2,0,P|64:311|110:360,1,135,2|0,0:0|0:0,0:0:0:0:
272,355,8351,5,2,0:3:0:0:
138,264,8795,2,0,L|123:198,1,67.5
45,176,9239,2,0,P|50:108|75:46,1,135,2|0,0:0|0:0,0:0:0:0:
154,27,9906,1,0,0:0:0:0:
200,93,10128,6,0,L|263:70,1,67.5,2|0,0:0|0:0,0:0:0:0:
328,21,10573,2,0,L|390:45,1,67.5,2|0,0:0|0:0,0:0:0:0:
468,24,11017,1,2,0:0:0:0:
450,103,11239,1,0,0:0:0:0:
500,164,11462,2,0,P|500:198|490:230,1,67.5,2|0,0:0|0:0,0:0:0:0:
510,308,11906,6,0,P|444:322|383:351,1,135,2|0,0:3|0:0,0:0:0:0:
333,287,12573,1,0,0:0:0:0:
263,328,12795,2,0,P|199:304|133:291,1,135,2|0,0:0|0:0,0:0:0:0:
59,323,13462,1,0,0:0:0:0:
25,249,13684,6,0,B|51:65|51:65|86:88|86:88|182:115|182:115|149:162|149:162|141:143,1,405,2|0,0:0|0:0,0:0:0:0:
337,38,15462,6,0,L|471:53,1,135,6|8,0:0|0:0,0:0:0:0:
457,214,16110,1,2,0:0:0:0:
395,161,16272,1,2,0:0:0:0:
318,186,16434,1,8,0:0:0:0:
303,266,16597,6,0,L|170:289,1,135,6|2,0:0|0:0,0:0:0:0:
125,356,17083,1,8,0:0:0:0:
53,317,17245,2,0,L|6:312,2,33.75,2|0|2,0:0|0:0|0:0,0:0:0:0:
85,245,17570,2,0,L|139:205,1,67.5,2|8,0:0|0:0,0:0:0:0:
117,127,17894,1,2,0:0:0:0:
139,49,18056,6,0,P|197:19|267:14,1,135,6|8,0:0|0:0,0:0:0:0:
333,160,18705,1,2,0:0:0:0:
399,114,18867,1,2,0:0:0:0:
473,144,19029,1,8,0:0:0:0:
487,224,19191,6,0,P|460:286|454:353,1,135,6|2,0:0|0:0,0:0:0:0:
378,322,19678,1,8,0:0:0:0:
297,323,19840,2,0,L|293:362,2,33.75,2|0|2,0:0|0:0|0:0,0:0:0:0:
257,255,20164,2,0,P|279:231|310:218,1,67.5,2|8,0:0|0:0,0:0:0:0:
388,238,20489,1,2,0:0:0:0:
431,169,20651,6,0,L|456:36,1,135,6|8,0:0|0:0,0:0:0:0:
330,138,21299,1,2,0:0:0:0:
322,57,21461,1,2,0:0:0:0:
244,33,21624,1,8,0:0:0:0:
178,81,21786,6,0,L|46:51,1,135,6|2,0:0|0:0,0:0:0:0:
43,131,22272,1,8,0:0:0:0:
57,210,22434,2,0,L|98:210,2,33.75,2|0|2,0:0|0:0|0:0,0:0:0:0:
7,275,22759,2,0,L|18:341,1,67.5,2|8,0:0|0:0,0:0:0:0:
97,343,23083,1,2,0:0:0:0:
139,273,23245,6,0,P|199:305|242:356,1,135,6|8,0:0|0:0,0:0:0:0:
309,208,23894,1,2,0:0:0:0:
323,287,24056,1,2,0:0:0:0:
381,342,24218,1,8,0:0:0:0:
461,346,24380,6,0,P|486:283|488:216,1,135,6|2,0:0|0:0,0:0:0:0:
410,237,24867,1,8,0:0:0:0:
355,177,25029,2,0,L|357:98,1,67.5,2|6,0:0|0:0,0:0:0:0:
396,42,25353,1,8,0:3:0:0:
396,42,25434,1,8,0:3:0:0:
396,42,25516,1,2,0:0:0:0:
312,39,25678,1,4,0:3:0:0:
237,66,25840,6,0,L|102:50,1,135,6|8,0:0|0:0,0:0:0:0:
234,145,26489,1,2,0:0:0:0:
310,170,26651,1,2,0:0:0:0:
387,193,26813,1,8,0:0:0:0:
329,251,26975,6,0,B|299:338|299:338|266:366,1,135,6|2,0:0|0:0,0:0:0:0:
341,335,27461,1,8,0:0:0:0:
416,298,27624,2,0,L|464:300,2,33.75,2|0|2,0:0|0:0|0:0,0:0:0:0:
437,219,27948,2,0,L|457:154,1,67.5,2|8,0:0|0:0,0:0:0:0:
492,81,28272,1,2,0:0:0:0:
436,22,28434,6,0,L|309:68,1,135,6|8,0:0|0:0,0:0:0:0:
156,122,29083,1,2,0:0:0:0:
82,155,29245,1,2,0:0:0:0:
9,190,29407,1,8,0:0:0:0:
90,183,29570,6,0,B|185:169|185:169|213:195,1,135,6|2,0:0|0:0,0:0:0:0:
266,256,30056,1,8,0:0:0:0:
247,334,30218,2,0,L|251:373,2,33.75,2|0|2,0:0|0:0|0:0,0:0:0:0:
320,337,30543,2,0,L|386:369,1,67.5,2|8,0:0|0:0,0:0:0:0:
384,285,30867,1,2,0:0:0:0:
373,204,31029,6,0,L|500:160,1,135,6|8,0:0|0:0,0:0:0:0:
340,141,31678,1,2,0:0:0:0:
296,72,31840,1,0,0:0:0:0:
224,33,32002,1,8,0:0:0:0:
191,106,32164,6,0,P|183:173|194:240,1,135,6|2,0:0|0:0,0:0:0:0:
275,240,32651,1,8,0:0:0:0:
198,265,32813,2,0,L|209:310,2,33.75,2|0|2,0:0|0:0|0:0,0:0:0:0:
120,242,33137,2,0,L|55:263,1,67.5,2|8,0:0|0:0,0:0:0:0:
77,340,33461,1,2,0:0:0:0:
195,366,33624,6,0,B|217:333|217:333|222:217|222:217|193:166,1,202.500007724762,6|8,0:0|0:0,0:0:0:0:
78,160,34110,2,0,B|41:149|41:149|205:138,1,202.500007724762,6|8,0:0|0:0,0:0:0:0:
306,138,34597,2,0,B|470:149|470:149|434:160,1,202.500007724762,6|8,0:0|0:0,0:0:0:0:
313,176,35083,2,0,B|290:217|290:217|295:333|295:333|317:366,1,202.500007724762,2|8,0:0|0:0,0:0:0:0:
256,256,35570,2,0,L|256:154,1,101.250003862381,6|8,0:0|0:3,0:0:0:0:
279,70,35894,2,0,B|256:25|256:25|233:70,1,101.250003862381,2|8,0:0|0:0,0:0:0:0:
162,110,36218,5,6,0:0:0:0:
101,56,36380,1,0,0:0:0:0:
19,60,36543,2,0,P|12:93|13:127,1,67.5,8|2,0:0|0:0,0:0:0:0:
87,158,36867,1,0,0:0:0:0:
36,220,37029,2,0,B|16:256|24:290|24:290|69:282|76:255,1,135,2|0,0:0|0:0,0:0:0:0:
146,224,37516,6,0,P|212:233|280:231,1,135,2|8,0:0|0:0,0:0:0:0:
357,209,38002,1,2,0:0:0:0:
412,265,38164,2,0,P|430:294|440:327,2,67.5,0|2|8,0:0|0:0|0:0,0:0:0:0:
210,329,38813,5,6,0:0:0:0:
130,341,38975,1,0,0:0:0:0:
47,332,39137,2,0,P|50:299|63:268,1,67.5,8|2,0:0|0:0,0:0:0:0:
131,224,39461,1,0,0:0:0:0:
191,175,39624,2,0,B|216:143|208:101|208:101|163:109|154:139,1,135,2|0,0:0|0:0,0:0:0:0:
88,101,40110,6,0,P|134:52|197:27,1,135,2|8,0:0|0:0,0:0:0:0:
268,51,40597,1,2,0:0:0:0:
411,110,40921,1,2,0:0:0:0:
491,99,41083,2,0,P|495:132|491:165,1,67.5,8|0,0:0|0:0,0:0:0:0:
431,219,41407,5,6,0:0:0:0:
361,174,41570,2,0,P|332:159|299:151,1,67.5,0|8,0:0|0:0,0:0:0:0:
233,198,41894,2,0,P|199:199|166:208,1,67.5,2|0,0:0|0:0,0:0:0:0:
153,288,42218,2,0,P|124:306|101:330,1,67.5,2|8,0:0|0:0,0:0:0:0:
21,311,42543,1,0,0:0:0:0:
35,230,42705,6,0,P|99:210|166:207,1,135,6|8,0:0|0:3,0:0:0:0:
235,246,43191,2,0,P|278:299|333:337,1,135,2|2,0:0|0:0,0:0:0:0:
415,337,43678,1,8,0:0:0:0:
466,183,44002,5,2,0:0:0:0:
404,130,44164,2,0,P|373:115|341:106,1,67.5,0|8,0:0|0:0,0:0:0:0:
291,42,44489,1,2,0:0:0:0:
210,45,44651,1,0,0:0:0:0:
131,20,44813,2,0,P|99:26|71:46,1,67.5,2|8,0:0|0:0,0:0:0:0:
123,108,45137,1,0,0:0:0:0:
139,187,45299,6,0,P|71:186|10:213,1,135,2|8,0:0|0:0,0:0:0:0:
62,276,45786,1,2,0:0:0:0:
222,252,46110,1,2,0:0:0:0:
219,171,46272,2,0,L|276:135,1,67.5,8|0,0:0|0:0,0:0:0:0:
298,57,46597,5,6,0:0:0:0:
372,24,46759,1,0,0:0:0:0:
452,30,46921,2,0,P|474:57|487:88,1,67.5,8|2,0:0|0:0,0:0:0:0:
413,121,47245,1,0,0:0:0:0:
413,121,47407,2,0,L|426:203,1,67.5,2|8,0:0|0:0,0:0:0:0:
392,264,47732,1,0,0:0:0:0:
433,328,47894,6,0,P|372:358|306:370,1,135,2|8,0:0|0:0,0:0:0:0:
253,308,48380,1,2,0:0:0:0:
168,315,48543,2,0,L|77:314,1,67.5,0|2,0:0|0:0,0:0:0:0:
45,368,48867,2,0,P|27:339|24:306,1,67.5,8|0,0:0|0:0,0:0:0:0:
63,239,49191,5,6,0:0:0:0:
26,166,49353,1,0,0:0:0:0:
35,84,49516,2,0,P|67:75|100:72,1,67.5,8|2,0:0|0:0,0:0:0:0:
146,139,49840,1,0,0:0:0:0:
141,219,50002,2,0,P|172:229|206:233,1,67.5,2|8,0:0|0:0,0:0:0:0:
256,170,50326,1,0,0:0:0:0:
249,88,50489,6,0,P|309:57|376:46,1,135,2|8,0:0|0:0,0:0:0:0:
454,68,50975,1,2,0:0:0:0:
445,229,51299,1,2,0:0:0:0:
366,251,51461,2,0,P|341:228|321:201,1,67.5,8|0,0:0|0:0,0:0:0:0:
325,120,51786,5,6,0:0:0:0:
249,88,51948,2,0,L|265:-2,2,67.5,0|8|2,0:0|0:0|0:0,0:0:0:0:
179,128,52434,1,0,0:0:0:0:
203,205,52597,2,0,L|136:217,1,67.5,2|8,0:0|0:0,0:0:0:0:
73,166,52921,1,0,0:0:0:0:
50,243,53083,6,0,P|21:304|11:371,1,135,6|8,0:0|0:3,0:0:0:0:
89,354,53570,2,0,P|151:327|204:285,1,135,2|2,0:0|0:0,0:0:0:0:
203,205,54056,1,8,0:0:0:0:
360,167,54380,5,6,0:0:0:0:
360,167,54543,2,0,P|361:200|358:234,1,67.5,0|8,0:0|0:0,0:0:0:0:
400,301,54867,1,2,0:0:0:0:
475,274,55029,1,0,0:0:0:0:
460,194,55191,2,0,P|462:142|491:55,1,135,2|0,0:0|0:0,0:0:0:0:
401,21,55678,6,0,P|343:54|293:99,1,135,2|2,0:0|0:0,0:0:0:0:
349,157,56164,1,2,0:0:0:0:
390,224,56326,2,0,L|255:255,1,135,2|2,0:0|0:0,0:0:0:0:
201,59,56975,6,0,B|19:88|19:88|41:145|41:145|51:122,1,270,6|8,0:0|0:0,0:0:0:0:
122,162,57786,1,0,0:0:0:0:
68,222,57948,2,0,L|65:290,1,67.5
120,348,58272,6,0,L|182:228,1,135,2|0,0:0|0:0,0:0:0:0:
252,269,58759,2,0,L|318:304,1,67.5,2|8,0:0|0:0,0:0:0:0:
472,286,59245,2,0,L|495:372,2,67.5,0|2|2,0:0|0:0|0:0,0:0:0:0:
410,232,59732,5,0,0:0:0:0:
429,153,59894,2,0,L|480:108,1,67.5,0|2,0:0|0:0,0:0:0:0:
433,42,60218,1,8,0:0:0:0:
352,47,60380,2,0,L|365:126,1,67.5
288,147,60705,1,0,0:0:0:0:
218,105,60867,6,0,L|145:122,1,67.5,2|0,0:0|0:0,0:0:0:0:
75,146,61191,2,0,L|31:94,1,67.5,0|2,0:0|0:0,0:0:0:0:
84,32,61516,2,0,L|151:36,2,67.5,8|0|0,0:0|0:3|0:0,0:0:0:0:
4,18,62002,1,4,0:3:0:0:
31,94,62164,6,0,L|18:228,1,135,6|0,0:0|0:0,0:0:0:0:
42,306,62651,2,0,L|-1:357,1,67.5,2|8,0:0|0:0,0:0:0:0:
76,380,62975,2,0,L|142:366,1,67.5
129,286,63299,1,0,0:0:0:0:
122,205,63461,6,0,L|248:251,1,135,2|0,0:0|0:0,0:0:0:0:
243,170,63948,2,0,L|234:103,1,67.5,2|8,0:0|0:0,0:0:0:0:
190,35,64272,1,0,0:0:0:0:
270,29,64434,2,0,L|335:12,1,67.5,8|4,0:3|0:3,0:0:0:0:
401,60,64759,5,6,0:0:0:0:
480,43,64921,1,2,0:0:0:0:
457,120,65083,2,0,L|397:152,1,67.5,8|2,0:0|0:0,0:0:0:0:
431,226,65407,1,8,0:0:0:0:
505,256,65570,2,0,L|495:322,1,67.5,2|8,0:0|0:0,0:0:0:0:
420,355,65894,1,2,0:0:0:0:
339,355,66056,6,0,L|297:302,1,67.5,8|2,0:0|0:0,0:0:0:0:
243,47,67353,6,0,P|210:48|176:51,1,67.5,6|2,0:0|0:0,0:0:0:0:
102,84,67678,1,8,0:0:0:0:
64,155,67840,1,2,0:0:0:0:
141,177,68002,2,0,P|170:193|197:213,1,67.5,8|2,0:0|0:0,0:0:0:0:
246,280,68326,1,8,0:0:0:0:
243,360,68489,1,2,0:0:0:0:
323,364,68651,6,0,P|356:360|387:347,1,67.5,12|2,0:0|0:0,0:0:0:0:
469,343,68975,2,0,P|481:311|486:278,1,67.5,8|2,0:0|0:0,0:0:0:0:
422,228,69299,2,0,P|387:170|361:107,1,135,8|8,0:0|0:0,0:0:0:0:
504,32,69948,6,0,P|495:64|476:92,1,67.5,12|2,0:0|0:0,0:0:0:0:
415,36,70272,2,0,P|382:31|349:35,1,67.5,8|2,0:0|0:0,0:0:0:0:
279,77,70597,2,0,P|258:52|232:30,1,67.5,8|2,0:0|0:0,0:0:0:0:
151,29,70921,1,8,0:0:0:0:
132,107,71083,1,2,0:0:0:0:
64,151,71245,5,12,0:0:0:0:
7,92,71407,1,2,0:0:0:0:
52,24,71570,2,0,P|74:49|92:77,1,67.5,8|2,0:0|0:0,0:0:0:0:
157,125,71894,2,0,P|147:192|143:217,1,67.5,8|2,0:0|0:0,0:0:0:0:
145,211,72137,1,2,0:0:0:0:
141,230,72218,1,8,0:0:0:0:
7,368,72543,6,0,P|33:346|64:335,1,67.5,6|2,0:0|0:0,0:0:0:0:
146,336,72867,1,8,0:0:0:0:
216,374,73029,1,2,0:0:0:0:
252,300,73191,2,0,P|266:270|276:238,1,67.5,8|2,0:0|0:0,0:0:0:0:
320,170,73516,2,0,P|344:195|361:223,1,67.5,8|2,0:0|0:0,0:0:0:0:
419,280,73840,6,0,P|450:291|484:295,1,67.5,12|2,0:0|0:0,0:0:0:0:
482,214,74164,2,0,P|457:190|427:176,1,67.5,8|2,0:0|0:0,0:0:0:0:
383,107,74489,2,0,P|383:73|376:40,1,67.5,8|2,0:0|0:0,0:0:0:0:
297,22,74813,1,8,0:0:0:0:
255,91,74975,1,2,0:0:0:0:
242,170,75137,6,0,L|175:178,2,67.5,12|2|8,0:0|0:0|0:0,0:0:0:0:
212,94,75624,1,2,0:0:0:0:
152,37,75786,2,0,P|121:47|94:67,1,67.5,8|2,0:0|0:0,0:0:0:0:
14,53,76110,1,8,0:0:0:0:
39,129,76272,1,2,0:0:0:0:
14,204,76434,5,12,0:0:0:0:
38,281,76597,2,0,L|19:309,2,33.75,2|2|8,0:0|0:0|0:0,0:0:0:0:
113,252,76921,1,2,0:0:0:0:
113,252,77002,1,2,0:0:0:0:
113,252,77083,1,8,0:0:0:0:
186,286,77245,2,0,L|212:306,2,33.75,2|2|8,0:0|0:0|0:0,0:0:0:0:
234,220,77570,2,0,L|243:173,1,33.75,2|2,0:0|0:0,0:0:0:0:
227,168,77732,6,0,P|199:148|168:136,1,67.5,6|2,0:0|0:0,0:0:0:0:
87,144,78056,1,8,0:0:0:0:
51,71,78218,1,2,0:0:0:0:
111,17,78380,1,8,0:0:0:0:
180,57,78543,1,2,0:0:0:0:
260,50,78705,2,0,P|291:37|319:18,1,67.5,8|2,0:0|0:0,0:0:0:0:
378,73,79029,5,12,0:0:0:0:
455,48,79191,1,2,0:0:0:0:
498,116,79353,2,0,P|496:149|487:181,1,67.5,8|2,0:0|0:0,0:0:0:0:
499,261,79678,2,0,P|464:319|414:364,1,135,8|8,0:0|0:0,0:0:0:0:
397,203,80326,6,0,P|396:236|403:269,1,67.5,12|2,0:0|0:0,0:0:0:0:
341,321,80651,2,0,P|309:333|282:353,1,67.5,8|2,0:0|0:0,0:0:0:0:
203,334,80975,2,0,P|196:300|184:269,1,67.5,8|2,0:0|0:0,0:0:0:0:
117,315,81299,1,8,0:0:0:0:
39,338,81461,1,2,0:0:0:0:
28,257,81624,5,12,0:0:0:0:
64,184,81786,1,2,0:0:0:0:
18,115,81948,2,0,P|30:84|35:51,1,67.5,8|2,0:0|0:0,0:0:0:0:
110,22,82272,2,0,L|124:113,1,67.5,8|2,0:0|0:0,0:0:0:0:
124,108,82516,1,2,0:0:0:0:
127,127,82597,1,8,0:0:0:0:
203,257,82921,6,0,P|180:233|161:205,1,67.5,6|2,0:0|0:0,0:0:0:0:
234,165,83245,1,8,0:0:0:0:
308,197,83407,1,2,0:0:0:0:
346,125,83570,2,0,P|338:92|339:58,1,67.5,8|2,0:0|0:0,0:0:0:0:
413,28,83894,1,8,0:0:0:0:
487,58,84056,1,2,0:0:0:0:
428,114,84218,5,12,0:0:0:0:
473,180,84380,1,2,0:0:0:0:
479,260,84543,2,0,P|468:293|453:323,1,67.5,8|2,0:0|0:0,0:0:0:0:
393,268,84867,1,8,0:0:0:0:
312,256,85029,1,2,0:0:0:0:
246,302,85191,2,0,P|223:327|209:358,1,67.5,8|2,0:0|0:0,0:0:0:0:
125,328,85516,6,0,P|92:329|59:335,2,67.5,12|2|8,0:0|0:0|0:0,0:0:0:0:
87,250,86002,1,2,0:0:0:0:
76,241,86083,1,0,0:0:0:0:
64,233,86164,2,0,P|67:199|77:167,1,67.5,12|2,0:0|0:0,0:0:0:0:
59,84,86489,1,8,0:0:0:0:
141,107,86651,2,0,L|154:144,1,33.75,2|0,0:0|0:0,0:0:0:0:
167,169,86813,6,0,B|334:202|334:202|353:170|381:150|381:150|399:180|401:217|401:217|489:245,1,405,2|0,0:0|0:0,0:0:0:0:
368,352,88110,6,0,L|234:367,1,135,6|8,0:0|0:0,0:0:0:0:
126,245,88759,1,2,0:0:0:0:
47,223,88921,1,2,0:0:0:0:
75,147,89083,1,8,0:0:0:0:
15,91,89245,6,0,L|148:114,1,135,6|2,0:0|0:0,0:0:0:0:
231,143,89732,2,8,L|311:132,1,67.5,8|2,0:0|0:0,0:0:0:0:
304,122,89975,1,0,0:0:0:0:
310,110,90056,1,2,0:0:0:0:
351,37,90218,2,0,L|405:77,1,67.5,2|8,0:0|0:0,0:0:0:0:
467,132,90543,1,2,0:0:0:0:
407,186,90705,6,0,P|349:216|279:221,1,135,6|8,0:0|0:0,0:0:0:0:
433,272,91353,1,2,0:0:0:0:
373,326,91516,1,2,0:0:0:0:
295,303,91678,1,8,0:0:0:0:
230,352,91840,6,0,P|203:290|196:223,1,135,6|2,0:0|0:0,0:0:0:0:
119,248,92326,2,0,L|108:160,1,67.5,8|2,0:0|0:0,0:0:0:0:
104,169,92570,1,0,0:0:0:0:
100,155,92651,1,2,0:0:0:0:
156,89,92813,2,0,P|187:101|209:126,1,67.5,2|8,0:0|0:0,0:0:0:0:
284,94,93137,1,2,0:0:0:0:
353,51,93299,6,0,L|378:184,1,135,6|8,0:0|0:0,0:0:0:0:
474,313,93948,1,2,0:0:0:0:
449,235,94110,1,2,0:0:0:0:
376,271,94272,1,8,0:0:0:0:
304,231,94434,6,0,L|172:261,1,135,6|2,0:0|0:0,0:0:0:0:
98,294,94921,2,0,L|35:335,1,67.5,8|2,0:0|0:0,0:0:0:0:
28,329,95164,1,0,0:0:0:0:
14,332,95245,1,0,0:0:0:0:
31,250,95407,2,0,L|42:184,1,67.5,2|8,0:0|0:0,0:0:0:0:
24,104,95732,1,2,0:0:0:0:
103,118,95894,6,0,P|146:66|205:35,1,135,6|8,0:0|0:0,0:0:0:0:
156,189,96543,1,2,0:0:0:0:
203,123,96705,1,2,0:0:0:0:
267,172,96867,1,8,0:0:0:0:
346,152,97029,6,0,P|321:89|319:22,1,135,6|2,0:0|0:0,0:0:0:0:
399,14,97516,1,8,0:0:0:0:
464,61,97678,2,0,L|456:129,1,67.5,2|2,0:0|0:0,0:0:0:0:
423,206,98002,1,8,0:3:0:0:
423,206,98083,1,8,0:3:0:0:
423,206,98164,1,2,0:0:0:0:
471,270,98326,1,4,0:3:0:0:
460,352,98489,6,0,L|325:368,1,135,6|8,0:0|0:0,0:0:0:0:
394,221,99137,1,2,0:0:0:0:
379,141,99299,1,2,0:0:0:0:
365,61,99461,1,8,0:0:0:0:
288,33,99624,6,0,B|189:79|189:79|213:88,1,135,6|2,0:0|0:0,0:0:0:0:
172,158,100110,2,0,L|155:223,1,67.5,8|2,0:0|0:0,0:0:0:0:
154,236,100353,1,0,0:0:0:0:
153,249,100434,1,2,0:0:0:0:
177,326,100597,2,0,L|110:312,1,67.5,2|8,0:0|0:0,0:0:0:0:
49,363,100921,1,2,0:0:0:0:
40,282,101083,6,0,L|72:150,1,135,6|8,0:0|0:0,0:0:0:0:
11,9,101732,1,2,0:0:0:0:
90,25,101894,1,2,0:0:0:0:
168,45,102056,1,8,0:0:0:0:
245,68,102218,6,0,B|338:96|338:96|345:133,1,135,6|2,0:0|0:0,0:0:0:0:
356,213,102705,2,0,L|366:279,1,67.5,8|2,0:0|0:0,0:0:0:0:
369,292,102948,1,0,0:0:0:0:
371,305,103029,1,0,0:0:0:0:
451,329,103191,2,0,L|440:262,1,67.5,2|8,0:0|0:0,0:0:0:0:
423,182,103516,1,2,0:0:0:0:
408,106,103678,6,0,B|399:62|399:62|463:-2,1,135,6|8,0:0|0:0,0:0:0:0:
320,63,104326,1,2,0:0:0:0:
240,76,104489,1,2,0:0:0:0:
160,89,104651,1,8,0:0:0:0:
80,105,104813,6,0,B|119:204|119:204|125:176,1,135,6|2,0:0|0:0,0:0:0:0:
206,170,105299,2,0,L|269:192,1,67.5,8|2,0:0|0:0,0:0:0:0:
282,188,105543,1,0,0:0:0:0:
295,186,105624,1,0,0:0:0:0:
332,253,105786,2,0,L|403:276,1,67.5,2|8,0:0|0:0,0:0:0:0:
471,243,106110,1,2,0:0:0:0:
434,359,106272,6,0,L|423:156,1,202.500007724762,6|8,0:0|0:0,0:0:0:0:
339,63,106759,2,0,L|134:68,1,202.500007724762,6|2,0:0|0:0,0:0:0:0:
145,193,107245,2,0,B|155:143|155:143|306:138,1,202.500007724762,6|8,0:0|0:0,0:0:0:0:
413,80,107732,2,0,B|357:80|357:80|341:225,1,202.500007724762,2|8,0:0|0:0,0:0:0:0:
328,346,108218,2,0,L|428:331,1,101.250003862381,6|8,0:0|0:3,0:0:0:0:
435,209,108543,2,0,L|339:176,1,101.250003862381,2|8,0:0|0:0,0:0:0:0:
314,99,108867,5,6,0:0:0:0:
246,54,109029,1,0,0:0:0:0:
239,135,109191,2,0,P|246:168|245:202,1,67.5,8|2,0:0|0:0,0:0:0:0:
210,274,109516,1,0,0:0:0:0:
255,341,109678,2,0,B|283:315|325:340|325:340|292:343|260:373,1,135,2|0,0:0|0:0,0:0:0:0:
173,347,110164,6,0,P|107:356|39:354,1,135,2|8,0:0|0:0,0:0:0:0:
67,278,110651,1,2,0:0:0:0:
7,223,110813,2,0,P|16:190|34:162,1,67.5,0|2,0:0|0:0,0:0:0:0:
0,86,111137,1,8,0:0:0:0:
117,197,111461,5,6,0:0:0:0:
164,262,111624,1,0,0:0:0:0:
197,187,111786,2,0,P|194:154|181:123,1,67.5,8|2,0:0|0:0,0:0:0:0:
112,67,112110,1,0,0:0:0:0:
172,4,112272,2,0,B|211:-2|237:25|237:25|199:33|180:78,1,135,2|0,0:0|0:0,0:0:0:0:
255,97,112759,6,0,P|317:121|362:170,1,135,2|8,0:0|0:0,0:0:0:0:
288,202,113245,1,2,0:0:0:0:
406,92,113570,1,2,0:0:0:0:
480,58,113732,2,0,P|484:91|480:124,1,67.5,8|0,0:0|0:0,0:0:0:0:
442,196,114056,5,6,0:0:0:0:
466,272,114218,1,0,0:0:0:0:
425,341,114380,2,0,P|392:348|362:364,1,67.5,8|2,0:0|0:0,0:0:0:0:
328,290,114705,1,0,0:0:0:0:
260,334,114867,2,0,P|236:309|208:292,1,67.5,2|8,0:0|0:0,0:0:0:0:
236,215,115191,1,0,0:0:0:0:
155,228,115353,6,0,P|91:208|24:205,1,135,6|8,0:0|0:3,0:0:0:0:
9,125,115840,2,0,P|70:97|122:54,1,135,2|2,0:0|0:0,0:0:0:0:
203,56,116326,1,8,0:0:0:0:
236,215,116651,5,6,0:0:0:0:
239,134,116813,2,0,P|270:119|302:110,2,67.5,0|8|2,0:0|0:0|0:0,0:0:0:0:
166,171,117299,1,0,0:0:0:0:
132,244,117461,2,0,P|104:263|71:270,1,67.5,2|8,0:0|0:0,0:0:0:0:
23,205,117786,1,0,0:0:0:0:
42,124,117948,6,0,P|108:137|166:171,1,135,2|8,0:0|0:0,0:0:0:0:
236,215,118434,1,2,0:0:0:0:
120,327,118759,1,2,0:0:0:0:
186,373,118921,2,0,L|204:308,1,67.5,8|0,0:0|0:0,0:0:0:0:
283,288,119245,5,6,0:0:0:0:
345,339,119407,1,0,0:0:0:0:
359,258,119570,2,0,P|372:227|393:201,1,67.5,8|2,0:0|0:0,0:0:0:0:
474,197,119894,1,0,0:0:0:0:
492,118,120056,2,0,P|487:84|469:56,1,67.5,2|8,0:0|0:0,0:0:0:0:
393,28,120380,1,0,0:0:0:0:
320,65,120543,6,0,P|253:52|193:23,1,135,2|8,0:0|0:0,0:0:0:0:
132,75,121029,1,2,0:0:0:0:
51,71,121191,2,0,P|54:104|72:132,1,67.5,0|2,0:0|0:0,0:0:0:0:
33,204,121516,2,0,P|29:237|11:265,1,67.5,8|0,0:0|0:0,0:0:0:0:
41,341,121840,5,6,0:0:0:0:
122,358,122002,1,0,0:0:0:0:
122,358,122164,2,0,P|155:355|188:346,1,67.5,8|2,0:0|0:0,0:0:0:0:
220,271,122489,1,0,0:0:0:0:
266,337,122651,2,0,P|299:340|331:351,1,67.5,2|8,0:0|0:0,0:0:0:0:
402,312,122975,1,0,0:0:0:0:
483,314,123137,6,0,P|452:253|404:205,1,135,2|8,0:0|0:0,0:0:0:0:
468,155,123624,1,2,0:0:0:0:
312,111,123948,1,2,0:0:0:0:
372,58,124110,2,0,P|397:35|417:8,1,67.5,8|0,0:0|0:0,0:0:0:0:
339,34,124434,5,6,0:0:0:0:
258,46,124597,2,0,L|192:27,2,67.5,0|8|2,0:0|0:0|0:0,0:0:0:0:
312,111,125083,1,0,0:0:0:0:
320,191,125245,2,0,B|322:213|322:213|299:337,1,135,2|0,0:0|0:0,0:0:0:0:
208,347,125732,6,0,P|197:280|169:219,1,135,6|8,0:0|0:3,0:0:0:0:
209,148,126218,2,0,P|147:121|94:79,1,135,2|2,0:0|0:0,0:0:0:0:
29,30,126705,1,8,0:0:0:0:
95,177,127029,5,6,0:0:0:0:
31,127,127191,1,0,0:0:0:0:
22,207,127353,2,0,P|21:240|24:274,1,67.5,8|2,0:0|0:0,0:0:0:0:
25,355,127678,1,0,0:0:0:0:
96,317,127840,2,0,P|114:344|126:376,1,67.5,2|8,0:0|0:0,0:0:0:0:
207,370,128164,1,0,0:0:0:0:
266,314,128326,6,0,P|216:268|157:235,1,135,2|8,0:0|0:0,0:0:0:0:
176,156,128813,1,2,0:0:0:0:
234,102,128975,2,0,P|284:148|343:181,1,135,2|2,0:0|0:0,0:0:0:0:
352,317,129624,6,0,B|394:356|447:360|447:360|443:308|412:264|412:264|454:221,1,270,6|8,0:0|0:0,0:0:0:0:
488,147,130434,1,0,0:0:0:0:
434,86,130597,2,0,L|471:29,1,67.5
392,11,130921,6,0,L|375:145,1,135,2|0,0:0|0:0,0:0:0:0:
344,220,131407,2,0,L|278:255,1,67.5,2|8,0:0|0:0,0:0:0:0:
130,303,131894,2,0,L|107:389,2,67.5,0|2|6,0:0|0:0|0:0,0:0:0:0:
209,322,132380,5,0,0:0:0:0:
206,241,132543,2,0,L|155:196,1,67.5,0|2,0:0|0:0,0:0:0:0:
83,232,132867,1,8,0:0:0:0:
19,181,133029,2,0,L|29:114,1,67.5
17,33,133353,1,0,0:0:0:0:
91,63,133516,6,0,L|164:80,1,67.5,2|0,0:0|0:0,0:0:0:0:
212,136,133840,2,0,L|256:84,1,67.5,0|2,0:0|0:0,0:0:0:0:
307,21,134164,1,8,0:0:0:0:
386,33,134326,2,0,L|453:29,2,67.5,8|0|4,0:3|0:0|0:3,0:0:0:0:
339,99,134813,6,0,L|352:233,1,135,6|0,0:0|0:0,0:0:0:0:
429,209,135299,2,0,L|472:260,1,67.5,2|8,0:0|0:0,0:0:0:0:
475,341,135624,2,0,L|409:327,1,67.5
329,312,135948,1,0,0:0:0:0:
265,262,136110,6,0,L|139:308,1,135,2|0,0:0|0:0,0:0:0:0:
59,329,136597,2,0,L|68:262,1,67.5,2|8,0:0|0:0,0:0:0:0:
139,224,136921,1,0,0:0:0:0:
68,183,137083,2,0,L|3:166,1,67.5,8|4,0:3|0:3,0:0:0:0:
4,84,137407,5,6,0:0:0:0:
57,23,137570,1,2,0:0:0:0:
116,78,137732,2,0,L|142:144,1,67.5,8|2,0:0|0:0,0:0:0:0:
215,172,138056,1,8,0:0:0:0:
225,252,138218,2,0,L|215:318,1,67.5,2|8,0:0|0:0,0:0:0:0:
277,370,138543,1,2,0:0:0:0:
357,369,138705,6,0,L|399:316,1,67.5,8|4,0:0|0:3,0:0:0:0:
462,81,139353,2,0,P|453:113|452:149,1,67.5,2|0,0:0|0:0,0:0:0:0:
423,223,139678,2,0,P|391:235|358:241,1,67.5,2|8,0:0|0:0,0:0:0:0:
309,176,140002,6,0,L|175:158,1,135,6|8,0:0|0:0,0:0:0:0:
120,219,140489,2,0,L|52:211,1,67.5,2|8,0:0|0:0,0:0:0:0:
30,133,140813,2,0,L|16:66,1,67.5,2|8,0:0|0:0,0:0:0:0:
92,39,141137,6,0,L|148:76,1,67.5,2|12,0:0|0:0,0:0:0:0:
210,25,141461,1,2,0:0:0:0:
261,87,141624,2,0,L|379:21,1,135,8|8,0:0|0:0,0:0:0:0:
488,141,142272,2,0,L|471:75,1,67.5,8|2,0:0|0:0,0:0:0:0:
395,105,142597,6,0,L|365:236,1,135,12|8,0:0|0:0,0:0:0:0:
427,288,143083,2,0,L|492:305,1,67.5,2|8,0:0|0:0,0:0:0:0:
440,367,143407,2,0,L|372:372,1,67.5,2|8,0:0|0:0,0:0:0:0:
293,353,143732,6,0,L|301:286,1,67.5,2|12,0:0|0:0,0:0:0:0:
228,252,144056,1,2,0:0:0:0:
185,320,144218,2,0,L|55:359,1,135,8|10,0:0|0:0,0:0:0:0:
28,282,144705,1,8,0:3:0:0:
105,258,144867,2,0,L|110:190,1,67.5,8|4,0:0|0:3,0:0:0:0:
30,176,145191,6,0,L|-1:189,2,33.75,12|0|2,0:0|0:0|0:0,0:0:0:0:
72,106,145516,2,0,L|105:112,2,33.75,8|0|2,0:0|0:0|0:0,0:0:0:0:
13,50,145840,2,0,L|1:19,2,33.75,8|0|2,0:0|0:0|0:0,0:0:0:0:
92,30,146164,2,0,L|115:6,2,33.75,8|0|2,0:0|0:0|0:0,0:0:0:0:
167,59,146489,6,0,L|207:55,2,33.75,12|0|2,0:0|0:0|0:0,0:0:0:0:
188,137,146813,1,8,0:0:0:0:
188,137,146894,1,0,0:0:0:0:
188,137,146975,1,2,0:0:0:0:
265,116,147137,2,0,L|284:249,1,135,8|0,0:0|0:0,0:0:0:0:
400,363,147786,6,0,L|408:228,1,135,12|8,0:0|0:0,0:0:0:0:
435,152,148272,2,0,L|491:188,1,67.5,2|8,0:0|0:0,0:0:0:0:
504,107,148597,2,0,L|492:40,1,67.5,2|8,0:0|0:0,0:0:0:0:
412,31,148921,6,0,L|352:61,1,67.5,2|12,0:0|0:0,0:0:0:0:
354,142,149245,1,2,0:0:0:0:
284,100,149407,2,0,L|217:90,1,67.5,8|2,0:0|0:0,0:0:0:0:
170,23,149732,2,0,L|82:32,1,67.5,8|0,0:0|0:0,0:0:0:0:
22,38,150056,1,8,0:0:0:0:
36,117,150218,1,4,0:3:0:0:
29,128,150299,1,0,0:0:0:0:
23,139,150380,6,0,L|150:181,1,135,6|8,0:0|0:0,0:0:0:0:
113,253,150867,1,2,0:0:0:0:
32,255,151029,2,0,L|20:321,1,67.5,8|2,0:0|0:0,0:0:0:0:
86,365,151353,1,8,0:0:0:0:
164,343,151516,1,2,0:0:0:0:
241,364,151678,6,0,L|291:318,1,67.5,12|2,0:0|0:0,0:0:0:0:
367,348,152002,2,0,L|401:289,1,67.5,8|2,0:0|0:0,0:0:0:0:
478,315,152326,2,0,L|501:182,1,135,8|8,0:0|0:0,0:0:0:0:
405,51,152975,6,0,L|421:185,1,135,12|8,0:0|0:0,0:0:0:0:
341,170,153461,1,2,0:0:0:0:
260,182,153624,2,0,L|266:114,1,67.5,8|2,0:0|0:0,0:0:0:0:
323,57,153948,1,8,0:0:0:0:
252,17,154110,1,2,0:0:0:0:
175,43,154272,6,0,L|188:109,1,67.5,12|2,0:0|0:0,0:0:0:0:
113,140,154597,2,0,L|118:212,1,67.5,8|2,0:0|0:0,0:0:0:0:
36,211,154921,2,0,L|31:303,1,67.5,8|0,0:0|0:0,0:0:0:0:
28,291,155164,1,0,0:0:0:0:
23,303,155245,1,8,0:0:0:0:
96,336,155407,1,0,0:0:0:0:
172,364,155570,6,0,L|239:360,1,67.5,12|2,0:0|0:0,0:0:0:0:
246,282,155894,1,8,0:0:0:0:
262,202,156056,1,2,0:0:0:0:
181,230,156218,2,0,L|117:206,1,67.5,8|2,0:0|0:0,0:0:0:0:
78,135,156543,1,8,0:0:0:0:
11,88,156705,1,2,0:0:0:0:
60,24,156867,6,0,L|124:4,1,67.5,12|2,0:0|0:0,0:0:0:0:
144,82,157191,2,0,L|202:114,1,67.5,8|2,0:0|0:0,0:0:0:0:
280,88,157516,2,0,L|305:25,1,67.5,8|2,0:0|0:0,0:0:0:0:
380,56,157840,2,0,L|447:49,1,67.5,8|2,0:0|0:0,0:0:0:0:
484,121,158164,6,0,L|505:254,1,135,12|8,0:0|0:0,0:0:0:0:
425,238,158651,1,2,0:0:0:0:
403,316,158813,2,0,L|485:374,2,101.25,8|0|4,0:0|0:0|0:3,0:0:0:0:
322,317,159461,6,0,L|120:335,1,202.5,14|0,0:0|0:0,0:0:0:0:
88,260,160110,2,0,L|289:241,1,202.5,10|8,0:0|0:0,0:0:0:0:
326,168,160759,5,2,0:3:0:0:
215,49,161083,2,0,P|181:52|151:67,1,67.5
110,137,161407,1,2,0:0:0:0:
93,297,161732,2,0,P|114:272|126:240,1,67.5
180,180,162056,5,2,0:0:0:0:
255,210,162218,1,0,0:0:0:0:
262,289,162380,2,0,P|319:327|381:352,1,135,2|2,0:0|0:0,0:0:0:0:
494,260,163029,6,0,P|434:270|374:263,1,121.499996292114,0|2,0:0|0:3,0:0:0:0:
255,210,163678,6,0,P|202:196|154:172,1,108,0|2,0:3|0:0,0:0:0:0:
68,99,164326,6,0,P|114:102|160:90,1,94.4999971160889,0|2,0:0|0:0,0:0:0:0:
253,60,164975,6,0,P|275:26|307:2,1,80.9999975280763,2|2,0:0|0:0,0:0:0:0:
272,135,165624,5,2,0:0:0:0:
422,74,165948,5,2,0:3:0:0:
462,229,166272,2,0,P|456:263|440:292,1,67.5
372,337,166597,1,2,0:0:0:0:
228,260,166921,2,0,P|262:258|295:249,1,67.5
355,195,167245,5,2,0:0:0:0:
346,114,167407,1,0,0:0:0:0:
266,100,167570,2,0,P|203:76|148:36,1,135,2|2,0:0|0:0,0:0:0:0:
70,352,168543,6,0,P|147:288|188:196,1,202.5,2|0,0:0|0:0,0:0:0:0:
108,208,169191,2,0,P|71:151|56:86,1,135,2|0,0:0|0:0,0:0:0:0:
122,39,169678,1,2,0:0:0:0:
195,73,169840,6,0,P|228:74|262:77,1,67.5,6|2,0:0|0:0,0:0:0:0:
265,158,170164,1,8,0:0:0:0:
333,114,170326,1,2,0:0:0:0:
336,33,170489,2,0,P|369:27|403:27,1,67.5,8|2,0:0|0:0,0:0:0:0:
481,48,170813,1,8,0:0:0:0:
479,128,170975,1,2,0:0:0:0:
446,201,171137,6,0,P|413:197|382:184,1,67.5,12|2,0:0|0:0,0:0:0:0:
362,262,171461,2,0,P|367:295|378:326,1,67.5,8|2,0:0|0:0,0:0:0:0:
298,325,171786,2,0,P|241:341|163:371,1,135,8|8,0:0|0:0,0:0:0:0:
38,324,172434,6,0,P|19:296|9:263,1,67.5,12|2,0:0|0:0,0:0:0:0:
27,188,172759,2,0,P|60:183|93:187,1,67.5,8|2,0:0|0:0,0:0:0:0:
168,221,173083,2,0,P|142:242|120:268,1,67.5,8|2,0:0|0:0,0:0:0:0:
172,329,173407,1,8,0:0:0:0:
233,275,173570,1,2,0:0:0:0:
242,194,173732,5,12,0:0:0:0:
185,132,173894,1,2,0:0:0:0:
104,119,174056,2,0,P|103:85|108:51,1,67.5,8|2,0:0|0:0,0:0:0:0:
184,23,174380,1,8,0:0:0:0:
266,52,174543,1,2,0:0:0:0:
266,52,174624,1,2,0:0:0:0:
266,52,174705,1,8,0:0:0:0:
458,62,175029,6,0,P|432:40|401:29,1,67.5,6|2,0:0|0:0,0:0:0:0:
380,107,175353,1,8,0:0:0:0:
411,181,175516,1,2,0:0:0:0:
394,260,175678,2,0,P|403:292|418:322,1,67.5,8|2,0:0|0:0,0:0:0:0:
337,323,176002,2,0,P|313:348|296:376,1,67.5,8|2,0:0|0:0,0:0:0:0:
228,331,176326,6,2,P|197:342|163:346,1,67.5,14|2,0:0|0:0,0:0:0:0:
83,359,176651,2,0,P|50:348|17:349,1,67.5,8|2,0:0|0:0,0:0:0:0:
39,271,176975,2,0,P|39:237|46:204,1,67.5,8|2,0:0|0:0,0:0:0:0:
118,240,177299,1,8,0:0:0:0:
198,251,177461,1,2,0:0:0:0:
243,184,177624,6,0,L|288:134,2,67.5,12|2|8,0:0|0:0|0:0,0:0:0:0:
173,141,178110,1,2,0:0:0:0:
92,131,178272,2,0,P|65:110|33:100,1,67.5,8|2,0:0|0:0,0:0:0:0:
73,30,178597,1,8,0:0:0:0:
147,62,178759,1,2,0:0:0:0:
215,20,178921,5,12,0:0:0:0:
290,50,179083,2,0,L|309:22,2,33.75,2|2|8,0:0|0:0|0:0,0:0:0:0:
368,99,179407,1,0,1:0:0:0:
368,99,179489,1,0,1:0:0:0:
368,99,179570,1,8,0:0:0:0:
422,45,179732,2,0,L|413:12,2,33.75,2|2|8,0:0|0:0|0:3,0:0:0:0:
467,112,180056,2,0,L|460:155,1,33.75,2|2,0:0|0:0,0:0:0:0:
438,178,180218,6,0,P|406:190|379:209,1,67.5,6|2,0:0|0:0,0:0:0:0:
407,289,180543,1,8,0:0:0:0:
458,351,180705,1,2,0:0:0:0:
379,369,180867,1,8,0:0:0:0:
305,335,181029,1,2,0:0:0:0:
299,254,181191,2,0,P|268:241|240:222,1,67.5,8|2,0:0|0:0,0:0:0:0:
262,144,181516,5,12,0:0:0:0:
232,68,181678,1,2,0:0:0:0:
155,38,181840,2,0,P|133:63|118:93,1,67.5,8|2,0:0|0:0,0:0:0:0:
49,50,182164,2,0,P|35:116|40:183,1,135,8|8,0:0|0:0,0:0:0:0:
30,344,182813,6,0,P|37:311|36:277,1,67.5,12|2,0:0|0:0,0:0:0:0:
107,238,183137,2,0,P|139:250|166:270,1,67.5,8|2,0:0|0:0,0:0:0:0:
179,349,183461,2,0,P|210:335|243:327,1,67.5,8|2,0:0|0:0,0:0:0:0:
320,348,183786,1,8,0:0:0:0:
400,358,183948,1,2,0:0:0:0:
422,280,184110,5,12,0:0:0:0:
496,248,184272,1,2,0:0:0:0:
466,172,184434,2,0,P|454:141|449:108,1,67.5,8|2,0:0|0:0,0:0:0:0:
381,56,184759,1,8,0:0:0:0:
460,28,184921,1,2,0:0:0:0:
460,28,185002,1,2,0:0:0:0:
460,28,185083,1,8,0:0:0:0:
301,96,185407,6,0,P|282:68|258:43,1,67.5,6|2,0:0|0:0,0:0:0:0:
179,25,185732,1,8,0:0:0:0:
99,41,185894,1,2,0:0:0:0:
35,91,186056,2,0,P|35:124|27:157,1,67.5,8|2,0:0|0:0,0:0:0:0:
108,160,186380,1,8,0:0:0:0:
168,213,186543,1,2,0:0:0:0:
101,258,186705,5,12,0:0:0:0:
22,238,186867,1,2,0:0:0:0:
44,316,187029,2,0,P|69:339|96:359,1,67.5,8|2,0:0|0:0,0:0:0:0:
177,363,187353,1,8,0:0:0:0:
214,291,187516,1,2,0:0:0:0:
294,294,187678,2,0,P|311:322|319:355,1,67.5,8|2,0:0|0:0,0:0:0:0:
400,348,188002,6,0,P|433:349|466:355,2,67.5,12|2|8,0:0|0:0|0:0,0:0:0:0:
373,271,188489,1,2,0:0:0:0:
373,271,188570,1,0,0:0:0:0:
373,271,188651,2,0,P|401:252|433:241,1,67.5,8|8,0:0|0:3,0:0:0:0:
459,166,188975,1,8,0:0:0:0:
431,93,189137,1,4,0:3:0:0:
331,87,189299,6,0,B|352:113|352:113|360:68|360:68|157:69|157:69|142:281|142:281|200:280|200:280|183:159,1,675,2|0,0:0|3:0,0:0:0:0:
113,102,191127,5,2,0:3:0:0:
