osu file format v14

[General]
AudioFilename: audio.mp3
AudioLeadIn: 0
PreviewTime: 42912
Countdown: 0
SampleSet: Soft
StackLeniency: 0.7
Mode: 0
LetterboxInBreaks: 0
WidescreenStoryboard: 1

[Editor]
Bookmarks: 146940,176066,192183
DistanceSpacing: 0.3
BeatDivisor: 6
GridSize: 32
TimelineZoom: 2.5

[Metadata]
Title:Luna
TitleUnicode:Luna
Artist:KINEMA106
ArtistUnicode:キネマ106
Creator:-Eresh
Version:FuJu's Expert
Source:
Tags:ray 零 tom kurousagi uru 黒兎ウル jun-jun comiket 98 c98 april fools fgo f/go fate grand order tsukihime 月姫 typemoon type moon ducky- alwayschoke fuju japanese rock
BeatmapID:2495640
BeatmapSetID:1153323

[Difficulty]
HPDrainRate:5
CircleSize:4
OverallDifficulty:8.2
ApproachRate:9.2
SliderMultiplier:3.1
SliderTickRate:1

[Events]
//Background and Video events
0,0,"78861345_p0 but i did smth forbidden.png",0,0
//Break Periods
2,110247,121128
2,187140,195691
//Storyboard Layer 0 (Background)
//Storyboard Layer 1 (Fail)
//Storyboard Layer 2 (Pass)
//Storyboard Layer 3 (Foreground)
//Storyboard Layer 4 (Overlay)
//Storyboard Sound Samples

[TimingPoints]
1699,582.52427184466,4,2,1,30,1,0
4029,-181.818181818182,4,2,1,30,0,0
22669,-142.857142857143,4,2,1,30,0,0
30825,-285.714285714286,4,2,1,30,0,0
31407,-133.333333333333,4,2,1,30,0,0
31990,-133.333333333333,4,2,1,30,0,0
40145,-285.714285714286,4,2,1,30,0,0
40728,2330.09708737864,4,2,3,52,1,0
40728,-1000,4,2,3,52,0,0
43640,582.52427184466,4,2,1,70,1,1
43640,-74.0740740740741,4,2,1,70,0,1
47863,-74.0740740740741,4,2,1,5,0,1
47912,-74.0740740740741,4,2,1,70,0,1
48057,-74.0740740740741,4,2,1,5,0,1
48106,-74.0740740740741,4,2,1,70,0,1
50387,-74.0740740740741,4,2,1,5,0,1
50436,-74.0740740740741,4,2,1,70,0,1
50581,-74.0740740740741,4,2,1,5,0,1
50630,-74.0740740740741,4,2,1,70,0,1
51940,-74.0740740740741,4,2,1,5,0,1
51989,-74.0740740740741,4,2,1,70,0,1
52135,-74.0740740740741,4,2,1,5,0,1
52184,-74.0740740740741,4,2,1,70,0,1
57377,-74.0740740740741,4,2,1,5,0,1
57426,-74.0740740740741,4,2,1,70,0,1
57572,-74.0740740740741,4,2,1,5,0,1
57621,-74.0740740740741,4,2,1,70,0,1
61115,-68.9655172413793,4,2,1,70,0,0
62280,-68.9655172413793,4,2,1,70,0,1
69271,-793.650793650794,4,2,1,30,0,0
69368,-793.650793650794,4,2,1,5,0,0
70436,582.52427184466,4,2,1,30,1,0
70436,-200,4,2,1,30,0,0
71601,-200,4,2,1,30,0,0
72766,-74.0740740740741,4,2,1,60,0,0
82086,-74.0740740740741,4,2,3,60,0,0
82669,-181.818181818182,4,2,1,40,0,0
100727,-80,4,2,1,52,0,0
108882,-83.3333333333333,4,2,1,52,0,0
110047,-83.3333333333333,4,2,1,30,0,0
118203,2330.09708737864,4,2,1,52,1,0
121698,582.52427184466,4,2,1,70,1,1
121698,-74.0740740740741,4,2,1,70,0,1
125921,-74.0740740740741,4,2,1,5,0,1
125970,-74.0740740740741,4,2,1,70,0,1
126115,-74.0740740740741,4,2,1,5,0,1
126164,-74.0740740740741,4,2,1,70,0,1
128445,-74.0740740740741,4,2,1,5,0,1
128494,-74.0740740740741,4,2,1,70,0,1
128639,-74.0740740740741,4,2,1,5,0,1
128688,-74.0740740740741,4,2,1,70,0,1
129998,-74.0740740740741,4,2,1,5,0,1
130047,-74.0740740740741,4,2,1,70,0,1
130193,-74.0740740740741,4,2,1,5,0,1
130242,-74.0740740740741,4,2,1,70,0,1
135435,-74.0740740740741,4,2,1,5,0,1
135484,-74.0740740740741,4,2,1,70,0,1
135630,-74.0740740740741,4,2,1,5,0,1
135679,-74.0740740740741,4,2,1,70,0,1
139173,-76.9230769230769,4,2,1,52,0,0
140338,-76.9230769230769,4,2,1,70,0,0
140532,-68.9655172413793,4,2,1,70,0,1
148494,-68.9655172413793,4,2,1,62,0,0
149659,-68.9655172413793,4,2,1,70,0,1
156018,-68.9655172413793,4,2,1,5,0,1
156067,-68.9655172413793,4,2,1,70,0,1
156212,-68.9655172413793,4,2,1,5,0,1
156261,-68.9655172413793,4,2,1,70,0,1
156406,-68.9655172413793,4,2,1,5,0,1
156455,-68.9655172413793,4,2,1,70,0,1
165338,-68.9655172413793,4,2,1,5,0,1
165387,-68.9655172413793,4,2,1,70,0,1
165532,-68.9655172413793,4,2,1,5,0,1
165581,-68.9655172413793,4,2,1,70,0,1
165727,-68.9655172413793,4,2,1,5,0,1
165776,-68.9655172413793,4,2,1,70,0,1
165921,-68.9655172413793,4,2,1,5,0,1
165970,-68.9655172413793,4,2,1,70,0,1
167134,-68.9655172413793,4,2,1,52,0,0
167717,-68.9655172413793,4,2,1,60,0,0
168299,-74.0740740740741,4,2,1,70,0,1
169610,-74.0740740740741,4,2,1,5,0,1
169659,-74.0740740740741,4,2,1,70,0,1
170775,-74.0740740740741,4,2,1,5,0,1
170824,-74.0740740740741,4,2,1,70,0,1
170969,-74.0740740740741,4,2,1,5,0,1
171018,-74.0740740740741,4,2,1,70,0,1
171940,-74.0740740740741,4,2,1,5,0,1
171989,-74.0740740740741,4,2,1,70,0,1
172134,-74.0740740740741,4,2,1,5,0,1
172183,-74.0740740740741,4,2,1,70,0,1
174270,-74.0740740740741,4,2,1,5,0,1
174319,-74.0740740740741,4,2,1,70,0,1
174464,-74.0740740740741,4,2,1,5,0,1
174513,-74.0740740740741,4,2,1,70,0,1
174853,-74.0740740740741,4,2,1,5,0,1
174901,-74.0740740740741,4,2,1,70,0,1
177183,-74.0740740740741,4,2,1,5,0,1
177232,-74.0740740740741,4,2,1,70,0,1
177377,-74.0740740740741,4,2,1,5,0,1
177426,-74.0740740740741,4,2,1,70,0,1
177620,-80,4,2,1,52,0,0
186940,-80,4,2,1,30,0,0
187523,-80,4,2,1,20,0,0
196261,2330.09708737864,4,2,1,20,1,0
199757,582.52427184466,4,2,1,5,1,0
200922,582.52427184466,4,2,1,70,1,1
200922,-71.4285714285714,4,2,1,70,0,1
205145,-71.4285714285714,4,2,1,5,0,1
205193,-71.4285714285714,4,2,1,70,0,1
205339,-71.4285714285714,4,2,1,5,0,1
205387,-71.4285714285714,4,2,1,70,0,1
207669,-71.4285714285714,4,2,1,5,0,1
207717,-71.4285714285714,4,2,1,70,0,1
207863,-71.4285714285714,4,2,1,5,0,1
207911,-71.4285714285714,4,2,1,70,0,1
209222,-71.4285714285714,4,2,1,5,0,1
209270,-71.4285714285714,4,2,1,70,0,1
209417,-71.4285714285714,4,2,1,5,0,1
209465,-71.4285714285714,4,2,1,70,0,1
214659,-71.4285714285714,4,2,1,5,0,1
214707,-71.4285714285714,4,2,1,70,0,1
214854,-71.4285714285714,4,2,1,5,0,1
214902,-71.4285714285714,4,2,1,70,0,1
218397,-71.4285714285714,4,2,1,52,0,0
219756,-66.6666666666667,4,2,1,70,0,1
234708,-83.3333333333333,4,2,1,52,0,0
237038,582.52427184466,4,2,1,30,1,0
239368,-74.0740740740741,4,2,1,70,0,0
248688,-71.4285714285714,4,2,1,70,0,1
254659,-71.4285714285714,4,2,1,5,0,1
254707,-71.4285714285714,4,2,1,70,0,1
254853,-71.4285714285714,4,2,1,5,0,1
254901,-71.4285714285714,4,2,1,70,0,1
255047,-71.4285714285714,4,2,1,5,0,1
255095,-71.4285714285714,4,2,1,70,0,1
256843,-71.4285714285714,4,2,1,50,0,1
258008,-71.4285714285714,4,2,1,50,0,0

[Colours]
Combo1 : 249,219,189
Combo2 : 255,255,128
Combo3 : 255,151,47
Combo4 : 255,60,60

[HitObjects]
256,192,1699,12,0,3834,0:0:0:0:
104,19,4029,6,0,P|92:74|82:130,1,113.666670135498,2|0,0:0|0:0,0:0:0:0:
5,196,4611,2,0,P|10:223|16:251,1,56.8333350677491,2|0,0:0|0:0,0:0:0:0:
16,251,4999,1,2,0:0:0:0:
0,377,5194,2,0,P|47:347|103:351,1,113.666670135498,2|0,0:0|0:0,0:0:0:0:
303,381,5970,1,2,0:0:0:0:
271,314,6165,1,2,0:0:0:0:
333,251,6359,6,0,P|336:221|340:194,1,56.8333350677491,2|0,0:0|0:0,0:0:0:0:
432,153,6747,2,0,P|428:123|424:96,1,56.8333350677491,2|2,0:0|0:0,0:0:0:0:
376,33,7135,1,2,0:0:0:0:
305,67,7330,1,2,0:0:0:0:
226,12,7524,2,0,B|136:3|146:58|49:50,1,170.500005203247,2|0,0:0|0:0,0:0:0:0:
49,48,8689,6,0,P|57:104|64:160,1,113.666670135498,2|0,0:0|0:0,0:0:0:0:
56,254,9271,2,0,P|25:258|-3:248,1,56.8333350677491,2|0,0:0|0:0,0:0:0:0:
73,172,9660,1,2,0:0:0:0:
141,259,9854,2,0,P|132:315|125:371,1,113.666670135498,2|0,0:0|0:0,0:0:0:0:
210,328,10436,2,0,P|238:325|268:323,1,56.8333350677491,2|0,0:0|0:0,0:0:0:0:
336,375,10825,1,2,0:0:0:0:
425,336,11019,6,0,P|461:261|427:186,1,170.500005203247,2|0,0:0|0:0,0:0:0:0:
427,186,11990,1,2,0:0:0:0:
371,264,12184,2,0,B|281:266|314:199|200:201,1,170.500005203247,2|0,0:0|0:0,0:0:0:0:
26,7,13349,6,0,P|34:61|42:133,1,113.666670135498,2|0,0:0|0:0,0:0:0:0:
17,219,13932,1,2,0:0:0:0:
81,182,14126,1,2,0:0:0:0:
138,247,14320,1,2,0:0:0:0:
225,197,14514,2,0,B|247:142|247:142|234:89,1,113.666670135498,2|0,0:0|0:0,0:0:0:0:
228,89,15291,1,2,0:0:0:0:
299,42,15485,1,2,0:0:0:0:
453,132,15679,6,0,P|399:142|354:111,1,113.666670135498,2|2,0:0|0:0,0:0:0:0:
299,42,16262,1,2,0:0:0:0:
228,89,16456,1,2,0:0:0:0:
222,3,16650,1,2,0:0:0:0:
382,2,16844,2,0,P|372:57|362:113,1,113.666670135498,2|0,0:0|0:0,0:0:0:0:
361,113,17621,1,2,0:0:0:0:
318,184,17815,1,2,0:0:0:0:
368,265,18009,6,0,P|420:246|470:271,1,113.666670135498,2|2,0:0|0:0,0:0:0:0:
416,359,18592,2,0,P|359:351|303:346,1,113.666670135498,2|2,0:0|0:0,0:0:0:0:
255,246,19174,2,0,P|191:297|111:278,1,170.500005203247,2|0,0:0|0:0,0:0:0:0:
111,278,19951,1,2,0:0:0:0:
61,353,20145,1,2,0:0:0:0:
6,262,20339,6,0,B|-3:219|-15:173|-15:173|11:139|54:145,1,170.500005203247,2|2,0:0|0:0,0:0:0:0:
260,0,21504,2,0,B|212:68|212:68|233:152,1,170.500005203247,2|0,0:0|0:0,0:0:0:0:
421,378,22669,6,0,P|456:315|428:247,1,144.66666225179,2|0,1:2|0:0,0:0:0:0:
366,195,23252,1,2,1:2:0:0:
352,273,23446,1,2,0:0:0:0:
334,350,23640,1,2,0:0:0:0:
274,292,23834,2,0,B|197:286|205:329|123:330,1,144.66666225179,2|0,0:0|0:0,0:0:0:0:
136,329,24611,2,0,L|130:286,1,36.1666655629476,2|0,0:0|0:0,0:0:0:0:
72,235,24805,1,2,1:2:0:0:
72,235,24902,1,0,1:2:0:0:
72,235,24999,6,0,L|86:141,1,72.3333311258952,2|0,1:2|0:0,0:0:0:0:
0,49,25388,2,0,L|10:120,1,72.3333311258952,2|2,0:0|1:2,0:0:0:0:
153,211,25776,1,2,0:0:0:0:
221,154,25970,1,2,0:0:0:0:
294,233,26165,2,0,P|282:304|271:375,1,144.66666225179,2|0,0:0|0:0,0:0:0:0:
487,197,27135,1,0,1:2:0:0:
487,197,27232,1,0,1:2:0:0:
487,197,27330,6,0,P|432:157|353:168,1,144.66666225179,0|0,1:2|0:0,0:0:0:0:
284,103,27912,2,0,P|288:67|293:31,1,72.3333311258952,2|2,1:2|0:0,0:0:0:0:
364,78,28300,1,2,0:0:0:0:
249,183,28495,2,0,P|188:149|116:168,1,144.66666225179,2|0,0:0|0:0,0:0:0:0:
30,261,29077,2,0,B|93:264|93:264|113:280|113:280|182:287,1,144.66666225179,2|2,0:0|0:0,0:0:0:0:
227,361,29660,5,2,1:2:0:0:
315,330,29854,2,0,P|325:258|335:186,1,144.66666225179,0|0,1:2|0:0,0:0:0:0:
486,5,30631,1,2,0:0:0:0:
485,3,30825,2,0,P|489:41|492:80,1,72.3333311258952,2|0,0:0|0:0,0:0:0:0:
512,161,31407,2,0,P|460:116|372:132,1,155.000005912781,2|0,0:0|0:0,0:0:0:0:
334,24,31990,6,0,B|288:71|228:55|228:55|239:41|244:17,1,155.000005912781,2|0,1:2|0:0,0:0:0:0:
117,0,32572,2,0,P|109:37|103:76,1,77.5000029563905,2|2,1:2|0:0,0:0:0:0:
33,133,32961,1,2,0:0:0:0:
87,208,33155,2,0,B|174:183|174:183|194:213|228:221,1,155.000005912781,2|0,0:0|0:0,0:0:0:0:
224,220,33932,1,2,0:0:0:0:
183,297,34126,1,2,1:2:0:0:
262,379,34320,6,0,P|269:337|276:302,1,77.5000029563905,2|0,1:2|0:0,0:0:0:0:
366,230,34708,2,0,P|383:263|384:302,1,77.5000029563905,2|0,0:0|0:0,0:0:0:0:
297,285,35097,1,2,0:0:0:0:
355,216,35291,1,2,0:0:0:0:
309,135,35485,2,0,B|228:131|236:177|162:182,1,155.000005912781,2|0,0:0|0:0,0:0:0:0:
164,181,36262,1,2,0:0:0:0:
68,125,36456,1,2,1:2:0:0:
68,125,36553,1,0,1:2:0:0:
68,125,36650,6,0,P|76:201|86:278,1,155.000005912781,2|2,1:2|0:0,0:0:0:0:
29,384,37232,2,0,P|11:348|14:303,1,77.5000029563905,2|2,0:0|0:0,0:0:0:0:
105,359,37621,1,2,0:0:0:0:
170,268,37815,2,0,B|238:276|238:276|260:292|260:292|319:299,1,155.000005912781,2|0,0:0|0:0,0:0:0:0:
318,298,38592,2,0,P|323:258|327:221,1,77.5000029563905,2|2,0:0|0:0,0:0:0:0:
256,142,38980,5,2,1:2:0:0:
311,60,39174,2,0,B|375:56|375:56|405:93|460:105,1,155.000005912781,0|0,1:2|0:0,0:0:0:0:
512,167,39757,2,0,P|506:205|502:243,1,77.5000029563905,0|0,0:0|0:0,0:0:0:0:
429,363,40145,2,0,P|431:323|457:358,1,108.499996688843,2|8,0:0|0:3,0:0:0:0:
19,382,43640,6,0,B|60:345|108:353|108:353|138:386,1,139.50000053215,6|8,1:2|0:0,0:0:0:0:
41,280,44028,1,0,1:2:0:0:
30,265,44125,1,0,1:2:0:0:
21,250,44222,1,8,0:0:0:0:
140,172,44416,2,0,B|151:205|151:205|142:239,1,69.7500002660751,2|0,1:2|0:0,0:0:0:0:
23,118,44610,2,0,B|12:85|12:85|21:51,1,69.7500002660751,2|0,0:0|0:0,0:0:0:0:
104,82,44805,6,0,B|170:86|170:86|185:97|185:97|251:105,1,139.50000053215,2|8,1:2|0:0,0:0:0:0:
432,0,45193,1,0,1:2:0:0:
435,19,45290,1,0,1:2:0:0:
436,36,45387,2,0,P|428:71|422:105,1,69.7500002660751,8|0,0:0|0:0,0:0:0:0:
257,133,45581,1,8,3:0:0:0:
264,160,45678,1,8,3:0:0:0:
269,187,45775,1,8,3:0:0:0:
275,214,45873,1,8,3:0:0:0:
280,242,45970,6,0,P|314:234|348:228,1,69.7500002660751,6|0,1:2|0:0,0:0:0:0:
292,338,46164,2,0,P|257:330|223:324,1,69.7500002660751,8|0,0:0|0:0,0:0:0:0:
110,375,46358,1,0,1:2:0:0:
103,355,46455,1,0,1:2:0:0:
96,334,46552,2,0,B|75:271|75:271|118:203,1,139.50000053215,8|2,0:0|1:2,0:0:0:0:
24,82,46940,6,0,P|59:83|106:88,1,69.7500002660751,2|0,0:0|0:0,0:0:0:0:
157,7,47135,2,0,P|192:6|239:1,1,69.7500002660751,2|0,1:2|0:0,0:0:0:0:
307,69,47329,2,0,B|317:102|317:102|310:137,1,69.7500002660751,8|0,0:0|0:0,0:0:0:0:
233,105,47523,1,0,1:2:0:0:
301,277,47717,2,0,B|351:254|351:254|408:267,1,104.625000399113,2|0,1:2|0:0,0:0:0:0:
412,354,47911,2,0,B|362:377|362:377|305:364,1,104.625000399113,10|0,0:0|0:0,0:0:0:0:
228,334,48106,1,10,0:0:0:0:
66,179,48300,6,0,P|71:213|77:247,1,69.7500002660751,6|0,1:2|0:0,0:0:0:0:
37,335,48494,2,0,P|88:290|156:294,1,139.50000053215,8|0,0:0|0:2,0:0:0:0:
288,207,48785,1,0,1:0:0:0:
275,214,48882,2,0,P|240:208|209:192,1,69.7500002660751,10|0,0:0|0:0,0:0:0:0:
277,365,49076,2,0,P|282:330|298:299,1,69.7500002660751,2|0,0:0|0:0,0:0:0:0:
367,138,49271,2,0,P|382:169|388:203,1,69.7500002660751,2|0,1:2|0:0,0:0:0:0:
275,214,49465,5,2,1:2:0:0:
423,368,49659,2,0,P|438:336|444:302,1,69.7500002660751,8|0,0:0|0:0,0:0:0:0:
503,201,49853,1,2,1:2:0:0:
510,185,49950,1,0,1:2:0:0:
512,169,50047,2,0,P|506:134|490:103,1,69.7500002660751,10|0,0:0|0:0,0:0:0:0:
406,16,50241,2,0,P|354:22|301:26,1,104.625000399113,10|0,0:0|0:0,0:0:0:0:
265,102,50436,2,0,P|213:95|160:91,1,104.625000399113,10|0,0:0|0:0,0:0:0:0:
90,19,50630,6,0,B|56:78|56:78|79:149,1,139.50000053215,6|8,1:2|0:0,0:0:0:0:
23,356,51018,1,2,1:2:0:0:
36,341,51115,1,0,1:2:0:0:
52,327,51212,2,0,P|83:312|128:319,1,69.7500002660751,8|0,0:0|0:0,0:0:0:0:
111,226,51406,2,0,P|145:225|183:250,1,69.7500002660751,2|0,0:0|0:0,0:0:0:0:
196,149,51601,2,0,P|227:163|250:202,1,69.7500002660751,2|0,1:2|0:0,0:0:0:0:
346,163,51795,6,0,P|336:214|327:265,1,104.625000399113,2|0,1:2|0:0,0:0:0:0:
411,283,51989,2,0,P|420:231|429:180,1,104.625000399113,10|0,0:0|0:0,0:0:0:0:
499,133,52183,1,10,0:0:0:0:
414,7,52377,2,0,P|379:11|344:15,1,69.7500002660751,2|0,1:2|0:0,0:0:0:0:
265,102,52572,1,8,0:0:0:0:
242,85,52669,1,8,0:0:0:0:
217,74,52766,1,8,0:0:0:0:
189,69,52863,1,8,0:0:0:0:
161,71,52960,6,0,P|152:105|143:146,1,69.7500002660751,6|0,1:2|0:0,0:0:0:0:
20,285,53154,2,0,B|9:250|9:250|20:210,1,69.7500002660751,8|0,0:0|0:0,0:0:0:0:
106,260,53348,1,0,1:2:0:0:
120,269,53445,1,0,1:2:0:0:
134,279,53542,2,0,B|211:282|201:321|264:326,1,139.50000053215,8|2,0:0|1:2,0:0:0:0:
442,383,53931,6,0,P|448:349|455:315,1,69.7500002660751,2|0,0:0|0:0,0:0:0:0:
358,231,54125,2,0,P|352:196|345:162,1,69.7500002660751,2|0,1:2|0:0,0:0:0:0:
467,59,54319,2,0,P|460:93|454:127,1,69.7500002660751,8|0,0:0|0:0,0:0:0:0:
278,213,54513,1,0,1:2:0:0:
266,201,54610,1,0,1:2:0:0:
253,189,54707,2,0,P|220:175|181:183,1,69.7500002660751,8|0,0:0|0:0,0:0:0:0:
29,99,54902,1,8,3:0:0:0:
49,80,54999,1,8,3:0:0:0:
74,67,55096,1,8,3:0:0:0:
101,61,55193,1,8,3:0:0:0:
129,62,55290,6,0,P|123:97|118:131,1,69.7500002660751,6|0,1:2|0:0,0:0:0:0:
10,212,55484,2,0,P|15:246|20:280,1,69.7500002660751,8|0,0:0|0:0,0:0:0:0:
88,383,55678,1,0,1:2:0:0:
104,366,55775,1,0,1:2:0:0:
126,357,55873,2,0,B|164:349|214:341|214:341|260:373,1,139.50000053215,8|2,0:0|1:2,0:0:0:0:
102,276,56261,6,0,P|97:241|110:210,1,69.7500002660751,2|0,0:0|0:0,0:0:0:0:
205,72,56455,2,0,P|218:103|213:137,1,69.7500002660751,2|0,1:2|0:0,0:0:0:0:
282,211,56649,2,0,P|316:207|351:204,1,69.7500002660751,8|0,0:0|0:0,0:0:0:0:
442,251,56843,1,0,1:2:0:0:
442,251,56940,1,0,1:0:0:0:
442,251,57038,2,0,P|446:217|449:182,1,69.7500002660751,2|0,1:2|0:0,0:0:0:0:
401,330,57232,2,0,P|352:342|297:317,1,104.625000399113,10|0,0:0|0:0,0:0:0:0:
220,281,57426,2,0,P|226:332|232:384,1,104.625000399113,10|0,0:0|0:0,0:0:0:0:
144,380,57620,6,0,B|135:345|135:345|143:295,1,69.7500002660751,6|0,1:2|0:0,0:0:0:0:
196,200,57814,2,0,P|230:204|265:207,1,69.7500002660751,8|0,0:0|0:0,0:0:0:0:
113,126,58008,2,0,P|78:130|43:133,1,69.7500002660751,2|0,1:2|1:2,0:0:0:0:
201,35,58203,2,0,B|280:29|268:66|336:66,1,139.50000053215,10|2,0:0|0:0,0:0:0:0:
511,0,58591,6,0,P|503:33|497:68,1,69.7500002660751,2|0,1:2|0:0,0:0:0:0:
452,159,58785,2,0,P|418:150|383:144,1,69.7500002660751,2|0,1:2|0:0,0:0:0:0:
311,212,58979,2,0,P|302:245|296:280,1,69.7500002660751,10|0,0:0|0:0,0:0:0:0:
217,372,59173,1,2,1:2:0:0:
209,356,59271,1,0,1:0:0:0:
201,341,59368,2,0,P|190:307|190:273,1,69.7500002660751,10|0,0:0|0:0,0:0:0:0:
98,277,59562,2,0,P|99:241|110:209,1,69.7500002660751,10|0,0:0|0:0,0:0:0:0:
16,186,59756,2,0,P|29:152|51:126,1,69.7500002660751,10|0,0:0|0:0,0:0:0:0:
91,17,59950,6,0,B|154:26|154:26|171:43|171:43|235:54,1,139.50000053215,6|8,1:2|0:0,0:0:0:0:
351,125,60339,1,2,1:2:0:0:
364,112,60436,1,0,1:2:0:0:
372,96,60533,2,0,P|378:58|358:14,1,69.7500002660751,10|0,0:0|0:0,0:0:0:0:
255,142,60727,2,0,P|260:176|264:211,1,69.7500002660751,2|0,1:2|0:0,0:0:0:0:
358,283,60921,2,0,P|392:277|427:273,1,69.7500002660751,2|0,1:2|0:0,0:0:0:0:
265,380,61115,6,0,P|206:335|131:361,1,149.833337905884,6|0,1:2|1:0,0:0:0:0:
76,286,61406,1,0,1:0:0:0:
68,274,61504,2,0,P|65:237|83:202,1,74.916668952942,0|0,1:0|0:0,0:0:0:0:
264,211,61698,1,2,1:2:0:0:
102,111,61892,1,8,0:0:0:0:
265,380,62086,1,8,0:0:0:0:
312,129,62280,6,0,P|273:124|224:118,1,74.916668952942,6|0,1:2|0:0,0:0:0:0:
310,295,62474,2,0,P|271:299|222:306,1,74.916668952942,10|0,0:0|0:0,0:0:0:0:
102,111,62669,2,0,P|100:74|116:40,1,74.916668952942,10|0,0:0|0:0,0:0:0:0:
12,224,62863,2,0,P|19:260|26:297,1,74.916668952942,2|0,1:2|0:0,0:0:0:0:
180,170,63057,2,0,P|186:133|194:96,1,74.916668952942,10|0,0:0|0:0,0:0:0:0:
344,12,63251,1,2,1:2:0:0:
355,48,63348,1,2,1:2:0:0:
367,83,63445,6,0,P|404:70|446:79,1,74.916668952942,2|0,1:2|0:0,0:0:0:0:
453,181,63639,2,0,P|416:194|374:185,1,74.916668952942,10|0,0:0|0:0,0:0:0:0:
237,119,63834,2,0,P|230:82|222:45,1,74.916668952942,10|0,0:0|0:0,0:0:0:0:
358,267,64028,2,0,P|350:303|343:340,1,74.916668952942,2|0,1:2|0:0,0:0:0:0:
266,279,64222,1,10,0:0:0:0:
418,384,64416,1,10,1:2:0:0:
190,339,64610,6,0,P|183:302|175:265,1,74.916668952942,6|0,1:2|0:0,0:0:0:0:
89,129,64805,2,0,P|69:161|69:199,1,74.916668952942,10|0,0:0|0:0,0:0:0:0:
266,279,64999,2,0,P|286:247|286:209,1,74.916668952942,10|0,0:0|0:0,0:0:0:0:
395,114,65193,2,0,P|387:150|380:187,1,74.916668952942,2|0,1:2|0:0,0:0:0:0:
439,266,65387,1,10,0:0:0:0:
310,131,65581,1,10,0:0:0:0:
478,64,65775,6,0,B|494:97|494:97|487:138,1,74.916668952942,2|0,1:2|0:0,0:0:0:0:
310,131,65970,2,0,P|273:123|236:116,1,74.916668952942,10|0,0:0|0:0,0:0:0:0:
35,62,66164,2,0,P|71:54|108:47,1,74.916668952942,10|0,0:0|0:0,0:0:0:0:
13,222,66358,2,0,P|-3:189|0:152,1,74.916668952942,2|0,1:2|0:0,0:0:0:0:
203,265,66552,2,0,P|194:301|189:338,1,74.916668952942,8|0,0:0|0:0,0:0:0:0:
77,178,66746,1,2,1:2:0:0:
90,185,66843,1,2,1:2:0:0:
101,191,66940,6,0,P|138:185|174:177,1,74.916668952942,6|0,1:2|0:0,0:0:0:0:
226,56,67135,2,0,P|262:64|299:70,1,74.916668952942,8|0,0:0|0:0,0:0:0:0:
403,23,67329,1,8,0:0:0:0:
335,245,67523,2,0,P|319:210|324:171,1,74.916668952942,2|0,1:2|0:0,0:0:0:0:
497,11,67717,2,0,P|487:47|479:83,1,74.916668952942,8|0,0:0|0:0,0:0:0:0:
406,197,67911,2,0,P|415:233|423:269,1,74.916668952942,8|0,0:0|0:0,0:0:0:0:
333,384,68106,6,0,P|296:374|260:366,1,74.916668952942,2|0,1:2|0:0,0:0:0:0:
122,383,68300,1,8,0:0:0:0:
242,223,68494,1,8,0:0:0:0:
85,155,68688,2,0,P|90:191|97:228,1,74.916668952942,2|0,1:2|0:0,0:0:0:0:
245,334,68882,2,0,P|251:297|257:260,1,74.916668952942,8|0,0:0|0:0,0:0:0:0:
201,97,69076,2,0,B|247:102|275:80|264:66|288:43|349:52,1,149.833337905884,10|0,0:0|0:0,0:0:0:0:
497,44,70436,5,2,0:0:0:0:
480,36,70630,1,2,0:0:0:0:
495,26,70824,1,2,0:0:0:0:
427,127,71018,5,2,0:0:0:0:
430,147,71212,1,2,0:0:0:0:
434,167,71406,1,2,0:0:0:0:
480,363,71601,5,10,0:0:0:0:
494,286,71795,1,10,0:0:0:0:
508,209,71989,1,10,0:0:0:0:
249,111,72183,5,10,0:0:0:0:
409,308,72377,1,10,0:0:0:0:
478,74,72571,1,10,0:0:0:0:
263,280,72766,6,0,P|228:273|194:268,1,69.7500002660751,6|0,1:2|0:0,0:0:0:0:
63,176,72960,2,0,P|97:169|131:164,1,69.7500002660751,8|0,0:0|0:0,0:0:0:0:
160,37,73154,1,10,0:0:0:0:
171,49,73251,1,2,0:0:0:0:
182,59,73348,2,0,P|216:65|250:70,1,69.7500002660751,2|0,1:2|0:0,0:0:0:0:
336,157,73542,2,0,B|371:94|371:94|354:23,1,139.50000053215,10|8,0:0|0:0,0:0:0:0:
194,268,73931,6,0,P|198:302|202:337,1,69.7500002660751,2|0,1:2|0:0,0:0:0:0:
324,384,74125,2,0,P|337:351|332:314,1,69.7500002660751,10|0,0:0|0:0,0:0:0:0:
116,318,74319,2,0,P|82:322|46:326,1,69.7500002660751,10|0,0:0|0:0,0:0:0:0:
174,176,74513,2,0,P|208:180|243:184,1,69.7500002660751,2|0,1:2|0:0,0:0:0:0:
86,88,74707,1,10,0:0:0:0:
86,88,74902,1,10,0:0:0:0:
194,268,75096,6,0,P|251:226|319:243,1,139.50000053215,6|8,1:2|0:0,0:0:0:0:
507,105,75484,1,2,0:0:0:0:
500,117,75581,1,2,0:0:0:0:
492,128,75678,2,0,P|457:120|407:111,1,69.7500002660751,2|0,1:2|0:0,0:0:0:0:
335,68,75872,2,0,B|318:99|318:99|328:139,1,69.7500002660751,10|0,0:0|0:0,0:0:0:0:
442,279,76067,2,0,B|459:248|459:248|449:208,1,69.7500002660751,8|0,0:0|0:0,0:0:0:0:
335,68,76261,6,0,P|298:73|261:78,1,69.7500002660751,2|0,1:2|0:0,0:0:0:0:
192,174,76455,2,0,P|155:168|118:164,1,69.7500002660751,10|0,0:0|0:0,0:0:0:0:
43,110,76649,1,10,0:0:0:0:
0,335,76843,2,0,B|69:306|69:306|121:357|121:357|197:349,1,209.250000798225,2|0,1:2|0:0,0:0:0:0:
292,375,77232,1,8,3:0:0:0:
298,362,77329,1,8,3:0:0:0:
303,349,77426,6,0,P|308:312|317:264,1,69.7500002660751,6|0,1:2|0:0,0:0:0:0:
229,203,77620,2,0,P|208:231|208:271,1,69.7500002660751,8|0,0:0|0:0,0:0:0:0:
386,338,77814,1,2,0:0:0:0:
398,332,77911,1,2,0:0:0:0:
411,327,78008,2,0,P|445:322|480:318,1,69.7500002660751,2|0,1:2|0:0,0:0:0:0:
483,197,78202,2,0,P|448:192|413:188,1,69.7500002660751,10|0,0:0|0:0,0:0:0:0:
347,41,78397,2,0,P|342:75|338:110,1,69.7500002660751,8|0,0:0|0:0,0:0:0:0:
229,203,78591,6,0,P|208:175|208:135,1,69.7500002660751,2|0,1:2|0:0,0:0:0:0:
117,136,78785,2,0,P|119:101|139:74,1,69.7500002660751,10|0,0:0|0:0,0:0:0:0:
0,326,78979,2,0,P|28:305|68:305,1,69.7500002660751,10|0,0:0|0:0,0:0:0:0:
56,209,79173,2,0,P|90:211|117:231,1,69.7500002660751,2|0,1:2|0:0,0:0:0:0:
123,374,79368,1,10,0:0:0:0:
123,374,79562,1,10,0:0:0:0:
229,203,79756,6,0,B|267:172|315:183|315:183|330:211|362:230,1,139.50000053215,6|8,1:2|0:0,0:0:0:0:
466,363,80144,1,2,0:0:0:0:
454,354,80241,1,2,0:0:0:0:
443,345,80338,2,0,P|448:307|456:259,1,69.7500002660751,2|0,1:2|0:0,0:0:0:0:
378,76,80533,2,0,P|383:110|388:144,1,69.7500002660751,10|0,0:0|0:0,0:0:0:0:
363,341,80727,2,0,P|331:326|297:327,1,69.7500002660751,8|0,0:0|0:0,0:0:0:0:
186,384,80921,6,0,P|191:349|196:315,1,69.7500002660751,2|0,1:2|0:0,0:0:0:0:
82,249,81115,2,0,P|76:214|71:180,1,69.7500002660751,10|0,0:0|0:0,0:0:0:0:
53,32,81309,1,2,1:2:0:0:
45,43,81406,1,2,1:2:0:0:
49,56,81503,2,0,P|84:50|135:44,1,69.7500002660751,2|0,1:2|0:0,0:0:0:0:
231,38,81698,1,8,0:0:0:0:
311,172,81892,2,0,P|250:162|172:153,1,139.50000053215,8|4,0:0|0:3,0:0:0:0:
504,29,82669,5,2,0:0:0:0:
456,92,82863,1,2,0:0:0:0:
505,160,83057,1,2,0:0:0:0:
462,256,83251,2,0,P|415:225|359:231,1,113.666670135498,2|0,1:2|1:2,0:0:0:0:
302,289,83834,1,8,0:3:0:0:
345,362,84028,2,0,L|391:349,3,28.4166675338745,2|0|2|0,1:2|0:0|0:0|0:0,0:0:0:0:
321,378,84416,6,0,B|272:370|272:370|263:361|263:361|204:348,1,113.666670135498,2|2,1:2|0:0,0:0:0:0:
137,374,84999,1,10,0:3:0:0:
80,316,85193,2,0,P|74:287|81:260,1,56.8333350677491,2|2,0:0|0:0,0:0:0:0:
25,172,85581,2,0,B|79:178|79:178|89:188|89:188|136:193,1,113.666670135498,2|0,1:2|0:0,0:0:0:0:
217,191,86164,1,10,1:3:0:0:
167,115,86358,2,0,P|158:74|179:37,1,85.2500026016236,0|0,0:0|0:0,0:0:0:0:
206,16,86746,6,0,P|261:26|317:36,1,113.666670135498,2|0,1:2|0:0,0:0:0:0:
354,110,87329,1,10,0:3:0:0:
423,157,87523,2,0,P|435:132|435:103,1,56.8333350677491,2|2,0:0|0:0,0:0:0:0:
266,71,87911,2,0,P|275:127|282:183,1,113.666670135498,2|0,1:2|1:2,0:0:0:0:
343,241,88494,2,0,P|338:268|333:297,1,56.8333350677491,10|0,0:3|1:2,0:0:0:0:
288,374,88882,1,2,0:0:0:0:
288,374,88979,1,2,0:0:0:0:
288,374,89076,6,0,L|161:349,1,113.666670135498,2|0,1:2|0:0,0:0:0:0:
94,375,89659,1,10,0:3:0:0:
94,375,90047,1,0,0:0:0:0:
31,277,90241,5,2,1:2:0:0:
78,207,90436,1,2,0:0:0:0:
114,281,90630,1,2,1:2:0:0:
5,209,90824,1,10,0:3:0:0:
5,209,91018,2,0,B|-7:168|-7:168|9:128,1,85.2500026016236,2|0,1:2|0:0,0:0:0:0:
22,94,91406,6,0,B|74:97|74:97|82:103|82:103|134:108,1,113.666670135498,2|0,1:2|0:0,0:0:0:0:
209,151,91989,1,10,0:3:0:0:
262,79,92183,2,0,P|233:74|206:68,1,56.8333350677491,2|2,0:0|0:0,0:0:0:0:
257,225,92571,2,0,P|306:201|360:214,1,113.666670135498,2|0,1:2|1:2,0:0:0:0:
425,288,93154,1,10,0:3:0:0:
505,246,93348,2,0,B|514:177,1,56.8333350677491,0|2,1:2|0:0,0:0:0:0:
470,371,93736,6,0,P|414:362|358:355,1,113.666670135498,2|2,1:2|0:0,0:0:0:0:
279,382,94319,1,10,0:3:0:0:
222,325,94513,1,2,0:0:0:0:
274,260,94707,1,2,0:0:0:0:
210,178,94902,6,0,P|153:186|97:193,1,113.666670135498,2|0,1:2|1:2,0:0:0:0:
262,255,95484,1,10,0:3:0:0:
210,320,95678,1,2,1:2:0:0:
267,377,95872,1,2,0:0:0:0:
353,303,96067,6,0,B|411:297|411:330|468:328,1,113.666670135498,2|2,1:2|0:0,0:0:0:0:
511,257,96649,2,0,B|528:203|528:203|506:150,1,113.666670135498,10|2,0:3|0:0,0:0:0:0:
449,69,97232,2,0,P|392:76|336:83,1,113.666670135498,2|0,1:2|1:2,0:0:0:0:
282,157,97814,2,0,P|253:153|225:149,1,56.8333350677491,10|0,0:3|1:2,0:0:0:0:
160,96,98202,1,2,0:0:0:0:
92,153,98397,6,0,P|60:194|75:261,1,113.666670135498,2|0,1:2|1:2,0:0:0:0:
42,360,98979,2,0,P|83:328|150:343,1,113.666670135498,10|0,1:3|1:2,0:0:0:0:
242,366,99562,1,2,1:2:0:0:
269,289,99756,1,0,1:2:0:0:
295,210,99950,1,0,1:2:0:0:
218,226,100144,5,10,1:3:0:0:
218,226,100241,1,0,1:2:0:0:
218,226,100338,1,2,1:2:0:0:
269,289,100533,1,2,1:2:0:0:
96,384,100727,6,0,B|72:328|72:328|90:262,1,129.166666666667,6|2,1:2|1:2,0:0:0:0:
18,110,101115,1,0,0:0:0:0:
29,115,101212,1,0,1:2:0:0:
40,121,101309,2,0,P|71:116|103:111,1,64.5833333333333,10|0,1:2|0:0,0:0:0:0:
155,31,101503,2,0,P|186:35|218:40,1,64.5833333333333,2|0,1:2|0:0,0:0:0:0:
323,17,101698,2,0,P|326:48|315:79,1,64.5833333333333,2|0,1:2|0:0,0:0:0:0:
295,210,101892,6,0,P|244:173|183:187,1,129.166666666667,2|0,1:2|0:0,0:0:0:0:
375,300,102280,1,0,1:2:0:0:
381,288,102377,1,0,1:2:0:0:
386,276,102474,2,0,P|391:244|399:212,1,64.5833333333333,8|0,0:0|0:0,0:0:0:0:
285,365,102669,2,0,P|279:333|271:301,1,64.5833333333333,2|0,0:0|0:0,0:0:0:0:
454,381,102863,2,0,P|459:349|467:317,1,64.5833333333333,2|0,0:0|0:0,0:0:0:0:
295,210,103057,6,0,B|245:197|245:197|216:229|172:233,1,129.166666666667,2|2,1:2|1:2,0:0:0:0:
36,367,103445,1,2,1:2:0:0:
28,356,103542,1,0,1:0:0:0:
21,345,103639,2,0,P|23:312|28:280,1,64.5833333333333,10|0,0:0|0:0,0:0:0:0:
0,162,103834,2,0,P|32:159|64:154,1,64.5833333333333,2|0,1:2|0:0,0:0:0:0:
177,232,104028,2,0,P|145:227|112:224,1,64.5833333333333,2|0,1:2|0:0,0:0:0:0:
157,128,104222,6,0,P|209:92|267:111,1,129.166666666667,2|0,1:2|1:0,0:0:0:0:
451,34,104610,1,0,1:2:0:0:
444,45,104707,1,0,1:2:0:0:
437,56,104804,2,0,L|443:136,1,64.5833333333333,8|0,0:0|0:0,0:0:0:0:
512,250,104999,5,2,0:0:0:0:
499,258,105096,1,2,0:0:0:0:
457,234,105193,1,2,0:0:0:0:
421,259,105290,1,2,0:0:0:0:
356,223,105387,6,0,B|295:231|295:231|284:242|284:242|226:252,1,129.166666666667,6|0,1:2|0:0,0:0:0:0:
89,374,105775,1,0,0:0:0:0:
100,368,105872,1,2,1:2:0:0:
111,361,105969,2,0,P|130:326|116:282,1,64.5833333333333,10|0,0:0|0:0,0:0:0:0:
52,228,106164,1,2,1:2:0:0:
126,149,106358,1,2,1:2:0:0:
20,5,106552,6,0,P|27:69|33:133,1,129.166666666667,2|0,1:2|0:0,0:0:0:0:
104,37,106940,1,0,1:2:0:0:
115,30,107037,1,0,1:2:0:0:
126,23,107135,2,0,P|185:1|248:12,1,129.166666666667,10|2,0:0|0:0,0:0:0:0:
306,89,107523,1,2,0:0:0:0:
465,0,107717,6,0,P|452:63|442:127,1,129.166666666667,4|0,1:2|0:0,0:0:0:0:
365,246,108105,2,0,P|360:214|354:182,1,64.5833333333333,2|0,0:0|1:2,0:0:0:0:
470,348,108300,2,0,P|474:316|480:284,1,64.5833333333333,10|0,1:2|0:0,0:0:0:0:
284,227,108494,2,0,P|252:222|220:216,1,64.5833333333333,2|0,0:0|0:0,0:0:0:0:
131,333,108688,2,0,P|162:327|194:322,1,64.5833333333333,2|0,0:0|0:0,0:0:0:0:
143,140,108882,5,2,1:2:0:0:
43,246,109076,1,2,0:0:0:0:
241,384,109270,1,2,1:2:0:0:
250,375,109368,1,2,1:2:0:0:
256,365,109465,2,0,P|268:336|268:307,1,61.9999981079102,10|2,0:0|0:0,0:0:0:0:
143,140,109659,1,2,1:2:0:0:
134,149,109757,1,2,1:2:0:0:
128,159,109854,2,0,P|115:187|116:217,1,61.9999981079102,2|0,1:2|0:0,0:0:0:0:
306,89,110047,5,6,1:2:0:0:
106,0,121698,6,0,P|113:69|120:138,1,139.50000053215,6|8,1:2|0:0,0:0:0:0:
27,366,122086,1,0,1:2:0:0:
31,352,122183,1,0,1:2:0:0:
36,339,122280,1,8,0:0:0:0:
213,102,122474,2,0,P|216:136|220:171,1,69.7500002660751,2|0,1:2|0:0,0:0:0:0:
166,253,122668,2,0,P|134:265|100:261,1,69.7500002660751,2|0,0:0|0:0,0:0:0:0:
296,119,122862,6,0,P|363:109|414:154,1,139.50000053215,2|8,1:2|0:0,0:0:0:0:
503,327,123251,1,0,1:2:0:0:
494,315,123348,1,0,1:2:0:0:
483,305,123445,2,0,L|408:315,1,69.7500002660751,8|0,0:0|0:0,0:0:0:0:
309,383,123639,1,8,3:0:0:0:
291,361,123736,1,8,3:0:0:0:
283,334,123833,1,8,3:0:0:0:
283,307,123931,1,8,3:0:0:0:
292,280,124028,6,0,P|297:245|304:212,1,69.7500002660751,6|0,1:2|0:0,0:0:0:0:
132,105,124222,2,0,P|138:139|144:173,1,69.7500002660751,8|0,0:0|0:0,0:0:0:0:
195,22,124416,1,0,1:2:0:0:
206,13,124513,1,0,1:2:0:0:
218,6,124610,2,0,B|280:13|280:13|295:25|295:25|356:32,1,139.50000053215,8|2,0:0|1:2,0:0:0:0:
45,121,124998,6,0,P|51:87|57:53,1,69.7500002660751,2|0,0:0|0:0,0:0:0:0:
187,202,125193,2,0,P|181:168|175:134,1,69.7500002660751,2|0,1:2|0:0,0:0:0:0:
126,302,125387,2,0,P|94:315|59:314,1,69.7500002660751,8|0,0:0|0:0,0:0:0:0:
80,240,125581,1,0,1:2:0:0:
234,367,125775,2,0,P|278:343|330:347,1,104.625000399113,2|0,1:2|0:0,0:0:0:0:
398,383,125969,2,0,P|405:332|414:280,1,104.625000399113,10|0,0:0|0:0,0:0:0:0:
372,209,126164,1,10,0:0:0:0:
485,38,126358,6,0,P|480:73|475:107,1,69.7500002660751,6|0,1:2|0:0,0:0:0:0:
372,209,126552,2,0,P|303:197|234:185,1,139.50000053215,8|0,0:0|1:2,0:0:0:0:
162,95,126843,1,0,0:0:0:0:
94,166,126940,2,0,P|126:178|158:192,1,69.7500002660751,10|0,0:0|0:0,0:0:0:0:
257,113,127134,2,0,P|251:78|247:43,1,69.7500002660751,2|0,0:0|0:0,0:0:0:0:
130,0,127329,2,0,P|102:21|74:42,1,69.7500002660751,2|0,1:2|0:0,0:0:0:0:
162,95,127523,5,2,1:2:0:0:
311,0,127717,2,0,P|345:3|380:9,1,69.7500002660751,8|0,0:0|0:0,0:0:0:0:
504,72,127911,1,2,1:2:0:0:
508,85,128008,1,0,1:2:0:0:
512,98,128105,2,0,L|493:173,1,69.7500002660751,2|0,1:2|0:0,0:0:0:0:
393,262,128299,2,0,P|438:239|490:255,1,104.625000399113,10|0,0:0|0:0,0:0:0:0:
497,333,128494,2,0,P|451:356|400:340,1,104.625000399113,10|0,0:0|0:0,0:0:0:0:
324,312,128688,5,6,1:2:0:0:
229,217,128882,2,0,P|222:251|215:285,1,69.7500002660751,8|0,0:0|0:0,0:0:0:0:
136,376,129076,1,2,1:2:0:0:
127,364,129173,1,0,1:2:0:0:
120,351,129270,2,0,P|112:316|106:282,1,69.7500002660751,8|0,0:0|0:0,0:0:0:0:
18,253,129464,2,0,P|25:219|34:185,1,69.7500002660751,2|0,0:0|0:0,0:0:0:0:
0,103,129659,2,0,P|21:75|43:48,1,69.7500002660751,2|0,1:2|0:0,0:0:0:0:
148,2,129853,6,0,P|140:53|134:105,1,104.625000399113,2|0,1:2|0:0,0:0:0:0:
185,166,130047,2,0,P|230:141|281:147,1,104.625000399113,10|0,0:0|0:0,0:0:0:0:
339,200,130241,1,10,0:0:0:0:
367,349,130435,2,0,P|332:345|297:343,1,69.7500002660751,2|0,1:2|0:0,0:0:0:0:
481,267,130630,1,8,0:0:0:0:
494,242,130727,1,8,0:0:0:0:
501,215,130824,1,8,0:0:0:0:
499,188,130921,1,8,0:0:0:0:
489,162,131018,6,0,L|478:91,1,69.7500002660751,6|0,1:2|0:0,0:0:0:0:
381,0,131212,2,0,L|370:71,1,69.7500002660751,8|0,0:0|0:0,0:0:0:0:
329,188,131406,1,0,1:2:0:0:
320,176,131503,1,0,1:2:0:0:
312,164,131600,2,0,B|239:151|246:199|167:195,1,139.50000053215,8|2,0:0|1:2,0:0:0:0:
25,381,131989,6,0,P|21:346|16:311,1,69.7500002660751,2|0,0:0|0:0,0:0:0:0:
170,264,132183,2,0,P|173:229|178:194,1,69.7500002660751,2|0,1:2|0:0,0:0:0:0:
236,379,132377,2,0,P|270:374|305:370,1,69.7500002660751,8|0,0:0|0:0,0:0:0:0:
495,311,132571,1,0,1:2:0:0:
485,300,132668,1,0,1:2:0:0:
476,288,132765,2,0,P|443:276|409:281,1,69.7500002660751,8|0,0:0|0:0,0:0:0:0:
294,220,132960,1,8,3:0:0:0:
280,197,133057,1,8,3:0:0:0:
273,170,133154,1,8,3:0:0:0:
274,142,133251,1,8,3:0:0:0:
284,116,133348,6,0,P|304:145|309:179,1,69.7500002660751,6|0,1:2|0:0,0:0:0:0:
157,127,133542,2,0,P|162:92|167:58,1,69.7500002660751,8|0,0:0|0:0,0:0:0:0:
30,264,133736,1,0,1:2:0:0:
34,251,133833,1,0,1:2:0:0:
42,237,133931,2,0,P|100:203|163:226,1,139.50000053215,8|2,0:0|1:2,0:0:0:0:
59,10,134319,6,0,P|64:44|69:78,1,69.7500002660751,2|0,0:0|0:0,0:0:0:0:
197,122,134513,2,0,P|230:107|264:112,1,69.7500002660751,2|0,1:2|0:0,0:0:0:0:
396,20,134707,2,0,P|361:14|327:9,1,69.7500002660751,8|0,0:0|0:0,0:0:0:0:
447,199,134901,1,0,1:2:0:0:
436,189,134998,1,0,1:0:0:0:
424,181,135096,6,0,P|389:186|355:191,1,69.7500002660751,2|0,1:2|0:0,0:0:0:0:
320,328,135290,2,0,P|268:319|216:313,1,104.625000399113,10|0,0:0|0:0,0:0:0:0:
144,373,135484,2,0,B|121:327|121:327|131:274,1,104.625000399113,10|0,0:0|0:0,0:0:0:0:
198,236,135678,6,0,P|233:230|267:224,1,69.7500002660751,6|0,1:2|0:0,0:0:0:0:
345,81,135872,2,0,P|350:115|356:149,1,69.7500002660751,8|0,0:0|0:0,0:0:0:0:
462,286,136066,2,0,P|475:253|473:217,1,69.7500002660751,0|0,1:2|1:2,0:0:0:0:
275,128,136261,2,0,B|223:121|223:121|196:158|148:161,1,139.50000053215,10|2,0:0|0:0,0:0:0:0:
15,0,136649,6,0,P|8:34|3:68,1,69.7500002660751,2|0,1:2|0:0,0:0:0:0:
0,167,136843,2,0,P|32:155|66:156,1,69.7500002660751,2|0,1:2|0:0,0:0:0:0:
179,256,137037,2,0,P|144:256|112:244,1,69.7500002660751,10|0,0:0|0:0,0:0:0:0:
234,384,137231,1,2,1:2:0:0:
245,375,137329,1,0,1:0:0:0:
255,366,137426,2,0,P|259:331|265:297,1,69.7500002660751,10|0,0:0|0:0,0:0:0:0:
365,302,137620,2,0,P|354:268|345:235,1,69.7500002660751,10|0,0:0|0:0,0:0:0:0:
456,207,137814,2,0,P|432:181|409:154,1,69.7500002660751,10|0,0:0|0:0,0:0:0:0:
346,18,138008,6,0,P|292:59|225:43,1,139.50000053215,6|8,1:2|0:0,0:0:0:0:
63,15,138397,1,2,1:2:0:0:
74,23,138494,1,0,1:2:0:0:
84,29,138591,2,0,P|95:62|85:95,1,69.7500002660751,10|0,0:0|0:0,0:0:0:0:
167,136,138785,2,0,P|151:166|120:182,1,69.7500002660751,2|0,0:0|0:0,0:0:0:0:
144,267,138979,2,0,P|111:277|78:267,1,69.7500002660751,2|0,1:2|0:0,0:0:0:0:
185,113,139173,6,0,B|227:80|271:95|271:95|298:127,1,134.333327184042,6|0,1:2|1:0,0:0:0:0:
389,171,139464,1,0,1:2:0:0:
385,184,139562,2,0,P|376:216|368:249,1,67.1666635920208,0|0,1:0|0:0,0:0:0:0:
465,106,139756,1,2,1:2:0:0:
266,280,139950,1,8,0:0:0:0:
361,56,140144,1,8,0:0:0:0:
512,238,140338,1,6,1:2:0:0:
266,106,140532,6,0,P|261:68|255:31,1,74.916668952942,10|0,0:0|0:0,0:0:0:0:
465,106,140727,2,0,P|470:68|475:31,1,74.916668952942,10|0,0:0|0:0,0:0:0:0:
228,193,140921,2,0,P|195:178|159:184,1,74.916668952942,2|0,1:2|0:0,0:0:0:0:
239,364,141115,2,0,P|275:370|308:354,1,74.916668952942,8|0,0:0|0:0,0:0:0:0:
72,162,141309,2,0,P|77:197|82:236,1,74.916668952942,2|0,1:2|0:2,0:0:0:0:
0,76,141503,5,2,1:2:0:0:
7,62,141600,1,2,0:0:0:0:
15,49,141698,2,0,P|50:33|87:35,1,74.916668952942,8|0,0:0|0:0,0:0:0:0:
228,193,141892,2,0,P|232:155|238:118,1,74.916668952942,8|0,0:0|0:0,0:0:0:0:
96,318,142086,2,0,P|91:280|85:243,1,74.916668952942,2|0,1:2|0:0,0:0:0:0:
315,178,142280,2,0,P|319:216|303:250,1,74.916668952942,8|0,0:0|0:0,0:0:0:0:
228,193,142474,1,10,0:0:0:0:
421,74,142668,5,6,1:2:0:0:
327,336,142863,2,0,P|290:328|253:319,1,74.916668952942,10|0,0:0|0:0,0:0:0:0:
434,318,143057,2,0,P|451:283|445:245,1,74.916668952942,10|0,0:0|0:0,0:0:0:0:
331,104,143251,2,0,P|323:141|314:178,1,74.916668952942,2|0,1:2|0:0,0:0:0:0:
405,164,143445,1,10,0:0:0:0:
255,44,143639,1,10,0:0:0:0:
134,196,143833,6,0,P|170:189|208:184,1,74.916668952942,2|0,1:2|0:0,0:0:0:0:
40,59,144028,2,0,P|46:95|51:133,1,74.916668952942,10|0,0:0|0:0,0:0:0:0:
139,364,144222,2,0,P|154:330|151:293,1,74.916668952942,10|0,0:0|0:0,0:0:0:0:
186,106,144416,2,0,P|222:112|260:117,1,74.916668952942,2|0,1:2|0:0,0:0:0:0:
75,317,144610,2,0,P|38:310|0:305,1,74.916668952942,8|0,0:0|0:0,0:0:0:0:
208,184,144804,1,2,1:2:0:0:
218,194,144901,1,2,1:2:0:0:
228,204,144998,6,0,P|243:237|240:274,1,74.916668952942,6|0,1:2|0:0,0:0:0:0:
276,376,145193,2,0,P|312:378|346:362,1,74.916668952942,8|0,0:0|0:0,0:0:0:0:
414,296,145387,1,8,0:0:0:0:
512,118,145581,6,0,P|474:111|438:105,1,74.916668952942,2|0,1:2|0:0,0:0:0:0:
268,32,145775,2,0,P|305:25|342:19,1,74.916668952942,8|0,0:0|0:0,0:0:0:0:
180,184,145969,2,0,P|164:151|169:115,1,74.916668952942,8|0,0:0|0:0,0:0:0:0:
308,235,146164,2,0,B|315:272|315:272|298:305,1,74.916668952942,2|0,1:2|0:0,0:0:0:0:
234,259,146358,1,8,0:0:0:0:
396,165,146552,1,8,0:0:0:0:
208,272,146746,2,0,P|171:265|134:259,1,74.916668952942,2|0,1:2|0:0,0:0:0:0:
6,153,146940,2,0,P|42:146|79:140,1,74.916668952942,8|0,0:0|0:0,0:0:0:0:
30,261,147134,1,10,0:0:0:0:
176,87,147329,6,0,P|184:49|172:16,1,74.916668952942,6|0,1:2|0:0,0:0:0:0:
210,185,147523,2,0,P|248:192|281:180,1,74.916668952942,10|0,0:0|0:0,0:0:0:0:
377,90,147717,2,0,P|339:84|302:79,1,74.916668952942,10|0,0:0|0:0,0:0:0:0:
303,293,147911,2,0,P|370:259|440:291,1,149.833337905884,0|8,1:2|0:0,0:0:0:0:
435,285,148202,1,0,1:0:0:0:
435,285,148299,1,8,0:0:0:0:
326,381,148494,6,0,P|289:374|252:368,1,74.916668952942,6|0,1:2|0:0,0:0:0:0:
132,384,148688,1,8,3:0:0:0:
120,371,148785,1,8,3:0:0:0:
136,330,148882,1,8,3:0:0:0:
113,290,148979,1,8,3:0:0:0:
147,253,149076,2,0,P|183:246|220:240,1,74.916668952942,0|0,1:2|0:0,0:0:0:0:
59,225,149270,2,0,P|42:192|45:155,1,74.916668952942,0|0,1:2|0:0,0:0:0:0:
137,0,149464,2,0,P|153:32|150:69,1,74.916668952942,0|0,1:0|0:0,0:0:0:0:
246,132,149659,6,0,B|295:101|337:107|337:107|352:130|382:140,1,149.833337905884,6|8,1:2|0:0,0:0:0:0:
490,300,150047,1,0,1:2:0:0:
481,287,150144,1,0,1:2:0:0:
471,275,150241,2,0,P|433:271|396:268,1,74.916668952942,10|0,0:0|0:0,0:0:0:0:
266,384,150435,1,8,0:0:0:0:
279,375,150532,1,8,0:0:0:0:
291,365,150629,2,0,P|304:330|297:290,1,74.916668952942,0|0,1:2|0:2,0:0:0:0:
186,219,150824,6,0,P|179:255|173:292,1,74.916668952942,6|0,1:2|0:0,0:0:0:0:
339,109,151018,2,0,P|345:145|351:182,1,74.916668952942,8|0,0:0|0:0,0:0:0:0:
137,133,151212,1,2,1:2:0:0:
124,124,151309,1,0,1:2:0:0:
112,114,151406,2,0,P|99:79|105:39,1,74.916668952942,10|0,0:0|0:0,0:0:0:0:
218,5,151600,1,10,0:0:0:0:
231,14,151698,1,8,0:0:0:0:
243,24,151795,2,0,P|256:59|249:98,1,74.916668952942,2|0,1:2|0:0,0:0:0:0:
98,216,151989,6,0,P|60:212|23:209,1,74.916668952942,6|0,1:2|0:0,0:0:0:0:
141,365,152183,2,0,P|178:361|215:358,1,74.916668952942,8|0,0:0|0:0,0:0:0:0:
281,171,152377,1,2,1:2:0:0:
289,183,152474,1,0,1:2:0:0:
297,195,152571,2,0,P|300:232|303:269,1,74.916668952942,10|0,0:0|0:0,0:0:0:0:
420,384,152765,1,10,0:0:0:0:
428,372,152862,1,8,0:0:0:0:
436,360,152959,2,0,P|439:322|442:285,1,74.916668952942,2|0,1:2|0:0,0:0:0:0:
489,160,153154,6,0,B|454:144|454:144|419:153,1,74.916668952942,6|0,1:2|0:0,0:0:0:0:
263,340,153348,2,0,B|298:356|298:356|333:347,1,74.916668952942,8|0,0:0|0:0,0:0:0:0:
141,365,153542,1,0,1:2:0:0:
145,351,153639,1,0,1:2:0:0:
149,337,153736,2,0,L|136:258,1,74.916668952942,8|0,0:0|0:0,0:0:0:0:
93,11,153931,1,10,0:0:0:0:
88,40,154028,1,8,0:0:0:0:
84,70,154125,1,10,0:0:0:0:
79,99,154222,1,8,0:0:0:0:
75,129,154319,6,0,P|111:121|148:114,1,74.916668952942,6|0,1:2|0:0,0:0:0:0:
226,32,154513,2,0,P|262:39|299:46,1,74.916668952942,8|0,0:0|0:0,0:0:0:0:
487,0,154707,1,0,1:2:0:0:
478,12,154804,1,0,1:2:0:0:
469,24,154901,2,0,P|463:60|459:98,1,74.916668952942,10|0,0:0|0:0,0:0:0:0:
386,251,155096,1,8,0:0:0:0:
377,239,155193,1,8,0:0:0:0:
367,225,155290,2,0,P|353:191|356:154,1,74.916668952942,0|0,1:2|1:2,0:0:0:0:
442,344,155484,5,6,1:2:0:0:
512,184,155678,1,8,0:0:0:0:
346,327,155872,2,0,P|290:321|231:318,1,112.375003429413,0|0,1:2|0:0,0:0:0:0:
145,265,156066,2,0,B|162:316|162:316|144:372,1,112.375003429413,2|0,1:2|0:0,0:0:0:0:
54,369,156261,2,0,B|37:318|37:318|54:261,1,112.375003429413,10|0,0:0|0:0,0:0:0:0:
102,184,156455,1,10,0:0:0:0:
0,34,156649,6,0,P|10:108|19:182,1,149.833337905884,6|8,1:2|0:0,0:0:0:0:
101,42,157037,1,2,1:2:0:0:
111,33,157134,1,0,1:2:0:0:
120,24,157231,2,0,P|157:20|194:14,1,74.916668952942,10|0,0:0|0:0,0:0:0:0:
272,174,157426,1,10,0:0:0:0:
260,166,157523,1,8,0:0:0:0:
248,156,157620,2,0,P|230:123|230:86,1,74.916668952942,2|0,1:2|0:0,0:0:0:0:
285,9,157814,5,6,1:2:0:0:
142,170,158008,1,8,0:0:0:0:
325,254,158202,1,0,1:2:0:0:
337,246,158299,1,0,1:2:0:0:
346,237,158396,2,0,P|364:204|363:167,1,74.916668952942,8|0,0:0|0:0,0:0:0:0:
224,370,158591,1,8,0:0:0:0:
219,343,158688,1,8,0:0:0:0:
215,317,158785,1,2,1:2:0:0:
210,290,158882,1,0,1:2:0:0:
206,264,158979,6,0,P|196:300|187:336,1,74.916668952942,6|0,1:2|0:0,0:0:0:0:
53,164,159173,2,0,P|62:200|71:236,1,74.916668952942,10|0,0:0|0:0,0:0:0:0:
266,351,159367,2,0,P|275:314|284:278,1,74.916668952942,2|0,1:2|1:0,0:0:0:0:
212,175,159562,6,0,P|177:162|141:169,1,74.916668952942,10|0,0:0|0:0,0:0:0:0:
349,339,159756,2,0,P|385:346|419:333,1,74.916668952942,2|0,1:2|0:0,0:0:0:0:
270,53,159950,2,0,P|277:90|286:127,1,74.916668952942,10|0,0:0|1:2,0:0:0:0:
388,56,160144,6,0,P|424:63|461:72,1,74.916668952942,6|0,1:2|0:0,0:0:0:0:
183,66,160338,2,0,P|190:30|199:-6,1,74.916668952942,10|0,0:0|0:0,0:0:0:0:
365,128,160532,1,2,1:2:0:0:
373,138,160630,1,0,1:0:0:0:
382,147,160727,6,0,B|385:184|385:184|369:218,1,74.916668952942,10|0,0:0|0:0,0:0:0:0:
266,352,160921,1,10,0:0:0:0:
240,343,161018,1,8,0:0:0:0:
213,336,161115,1,10,0:0:0:0:
187,328,161212,1,8,0:0:0:0:
161,320,161309,6,0,P|197:312|234:304,1,74.916668952942,6|0,1:2|0:0,0:0:0:0:
73,206,161503,2,0,P|80:242|88:279,1,74.916668952942,10|0,0:0|0:0,0:0:0:0:
222,77,161698,2,0,P|212:113|205:150,1,74.916668952942,2|0,1:2|1:0,0:0:0:0:
127,88,161892,6,0,P|93:71|56:72,1,74.916668952942,10|0,0:0|0:0,0:0:0:0:
244,220,162086,1,2,1:2:0:0:
254,227,162183,1,8,0:0:0:0:
264,234,162280,2,0,P|301:235|333:218,1,74.916668952942,10|0,0:0|1:2,0:0:0:0:
467,117,162474,6,0,P|409:69|338:82,1,149.833337905884,6|8,1:2|0:0,0:0:0:0:
359,304,162863,1,2,1:2:0:0:
371,301,162960,1,0,1:2:0:0:
383,299,163057,2,0,P|410:273|421:238,1,74.916668952942,10|0,0:0|0:0,0:0:0:0:
158,183,163251,1,10,0:0:0:0:
162,209,163348,1,8,0:0:0:0:
167,235,163445,1,10,0:0:0:0:
171,261,163542,1,8,0:0:0:0:
176,287,163639,6,0,P|179:249|186:212,1,74.916668952942,6|0,1:2|0:0,0:0:0:0:
51,94,163833,2,0,P|47:131|40:168,1,74.916668952942,8|0,0:0|0:0,0:0:0:0:
246,129,164028,1,0,1:2:0:0:
254,118,164125,1,0,1:2:0:0:
260,106,164222,2,0,B|266:67|266:67|251:33,1,74.916668952942,8|0,0:0|0:0,0:0:0:0:
294,212,164416,1,10,0:0:0:0:
302,222,164513,1,0,1:0:0:0:
310,232,164610,2,0,L|383:217,1,74.916668952942,10|0,0:0|0:0,0:0:0:0:
205,211,164804,5,6,1:2:0:0:
350,69,164998,1,8,0:0:0:0:
108,186,165193,2,0,P|132:235|117:288,1,112.375003429413,0|0,1:2|0:0,0:0:0:0:
33,293,165387,2,0,P|8:243|25:191,1,112.375003429413,2|0,1:2|0:0,0:0:0:0:
59,118,165581,2,0,P|114:108|170:100,1,112.375003429413,10|0,0:0|0:0,0:0:0:0:
196,25,165775,2,0,P|251:34|307:42,1,112.375003429413,10|0,0:0|0:0,0:0:0:0:
363,111,165969,6,0,P|387:83|392:46,1,74.916668952942,6|0,1:2|0:0,0:0:0:0:
264,139,166164,2,0,P|271:175|276:212,1,74.916668952942,8|0,0:0|0:0,0:0:0:0:
376,357,166358,1,0,1:2:0:0:
381,344,166455,1,0,1:2:0:0:
385,331,166552,2,0,P|324:290|253:308,1,149.833337905884,8|0,0:0|0:0,0:0:0:0:
177,374,166843,1,8,0:0:0:0:
186,364,166940,2,0,P|179:327|173:290,1,74.916668952942,2|0,1:2|0:0,0:0:0:0:
78,104,167134,6,0,P|71:140|65:177,1,74.916668952942,6|0,1:2|0:0,0:0:0:0:
174,137,167329,1,0,1:0:0:0:
200,130,167426,1,0,1:2:0:0:
226,123,167523,1,0,1:2:0:0:
252,117,167620,1,0,1:0:0:0:
278,111,167717,5,10,0:0:0:0:
228,230,167911,1,8,0:0:0:0:
214,13,168105,1,8,0:0:0:0:
409,110,168299,5,6,1:2:0:0:
418,130,168397,1,0,0:0:0:0:
426,150,168494,2,0,P|415:182|409:217,1,69.7500002660751,10|0,0:0|0:0,0:0:0:0:
511,362,168688,1,2,1:2:0:0:
491,353,168786,1,2,1:2:0:0:
470,343,168883,2,0,P|437:355|402:361,1,69.7500002660751,10|0,0:0|0:0,0:0:0:0:
295,380,169076,1,10,0:0:0:0:
290,346,169173,1,10,0:0:0:0:
286,312,169270,1,2,1:2:0:0:
282,278,169367,1,2,1:2:0:0:
278,243,169464,6,0,P|282:191|287:139,1,104.625000399113,4|0,1:2|0:0,0:0:0:0:
241,64,169659,2,0,P|215:87|204:120,1,69.7500002660751,10|0,0:0|0:0,0:0:0:0:
127,72,169853,1,2,1:2:0:0:
113,88,169950,1,0,1:0:0:0:
105,107,170047,2,0,P|103:141|119:172,1,69.7500002660751,10|2,3:0|0:0,0:0:0:0:
30,313,170241,1,10,3:0:0:0:
44,289,170338,1,8,3:0:0:0:
66,272,170435,1,10,1:2:0:0:
93,269,170532,1,8,1:2:0:0:
119,278,170630,6,0,P|171:285|222:292,1,104.625000399113,6|0,1:2|0:0,0:0:0:0:
278,351,170824,2,0,P|330:343|381:336,1,104.625000399113,10|0,0:0|0:0,0:0:0:0:
479,316,171018,1,2,1:2:0:0:
489,294,171115,1,0,1:2:0:0:
498,273,171212,2,0,P|492:238|487:204,1,69.7500002660751,10|0,0:0|0:0,0:0:0:0:
372,13,171406,1,2,1:2:0:0:
381,31,171503,1,8,0:0:0:0:
390,48,171600,2,0,P|384:82|379:116,1,69.7500002660751,10|0,0:0|0:0,0:0:0:0:
323,216,171795,6,0,P|286:181|232:186,1,104.625000399113,2|0,1:2|0:0,0:0:0:0:
194,115,171989,2,0,P|158:152|163:206,1,104.625000399113,8|0,0:0|0:0,0:0:0:0:
78,210,172183,1,0,1:2:0:0:
84,229,172280,1,8,0:0:0:0:
92,247,172377,2,0,P|145:287|209:266,1,139.50000053215,2|10,1:2|0:0,0:0:0:0:
318,368,172668,1,10,0:0:0:0:
327,341,172765,1,10,0:0:0:0:
335,314,172863,1,10,0:0:0:0:
344,287,172960,6,0,P|347:252|350:217,1,69.7500002660751,6|0,1:2|0:0,0:0:0:0:
391,116,173154,2,0,P|423:104|457:110,1,69.7500002660751,8|0,0:0|0:0,0:0:0:0:
255,25,173348,1,0,1:2:0:0:
265,42,173445,1,0,1:0:0:0:
277,61,173542,2,0,P|280:96|283:131,1,69.7500002660751,10|2,0:0|0:2,0:0:0:0:
243,250,173736,1,2,1:2:0:0:
228,265,173833,1,0,1:0:0:0:
212,279,173931,2,0,P|178:285|145:273,1,69.7500002660751,2|0,1:2|0:0,0:0:0:0:
61,124,174125,6,0,P|113:113|166:104,1,104.625000399113,6|0,1:2|0:0,0:0:0:0:
214,37,174319,2,0,P|264:46|316:54,1,104.625000399113,2|0,1:2|0:0,0:0:0:0:
391,116,174513,1,2,1:2:0:0:
456,257,174707,2,0,P|412:232|359:241,1,104.625000399113,2|0,1:2|0:0,0:0:0:0:
310,317,174901,2,0,P|265:342|212:333,1,104.625000399113,8|0,0:0|0:0,0:0:0:0:
145,273,175096,1,10,0:0:0:0:
384,380,175290,6,0,P|390:345|398:311,1,69.7500002660751,4|0,1:2|0:0,0:0:0:0:
247,117,175484,1,10,0:0:0:0:
236,150,175581,1,2,1:2:0:0:
260,175,175678,2,0,P|294:171|329:167,1,69.7500002660751,2|0,1:2|0:2,0:0:0:0:
420,82,175872,2,0,P|394:59|360:52,1,69.7500002660751,10|0,0:0|0:0,0:0:0:0:
179,13,176066,5,2,1:2:0:0:
192,28,176164,2,0,P|182:62|174:96,1,69.7500002660751,10|0,0:0|0:0,0:0:0:0:
63,126,176358,1,2,1:2:0:0:
50,141,176456,2,0,P|58:175|67:209,1,69.7500002660751,6|0,1:2|0:0,0:0:0:0:
27,353,176649,1,2,1:2:0:0:
45,363,176746,2,0,P|95:318|162:327,1,139.50000053215,10|2,3:0|1:2,0:0:0:0:
239,382,177037,6,0,B|257:331|257:331|241:282,1,104.625000399113,10|0,1:2|0:0,0:0:0:0:
191,215,177231,2,0,P|237:193|286:208,1,104.625000399113,10|0,1:2|0:0,0:0:0:0:
329,283,177426,2,0,B|389:283|373:258|441:258,1,104.625000399113,10|0,1:2|0:0,0:0:0:0:
507,312,177620,6,0,B|533:274|533:274|504:188,1,129.166666666667,6|8,1:2|0:0,0:0:0:0:
396,19,178008,1,2,1:2:0:0:
387,29,178105,1,0,1:2:0:0:
379,39,178202,2,0,L|359:122,1,64.5833333333333,10|0,0:0|0:0,0:0:0:0:
323,216,178397,2,0,L|261:157,1,64.5833333333333,2|0,0:2|0:0,0:0:0:0:
197,79,178591,2,0,L|278:54,1,64.5833333333333,2|0,1:2|0:0,0:0:0:0:
156,193,178785,6,0,P|101:155|42:175,1,129.166666666667,2|10,1:2|0:0,0:0:0:0:
135,341,179173,1,2,1:2:0:0:
145,348,179270,1,0,1:2:0:0:
155,354,179367,2,0,P|183:339|216:339,1,64.5833333333333,8|0,0:0|0:0,0:0:0:0:
197,255,179562,2,0,P|229:252|259:266,1,64.5833333333333,2|0,0:0|0:0,0:0:0:0:
272,180,179756,2,0,P|302:191|323:216,1,64.5833333333333,2|0,0:0|0:0,0:0:0:0:
327,333,179950,5,2,1:2:0:0:
491,218,180144,2,0,P|459:211|427:205,1,64.5833333333333,10|0,0:0|0:0,0:0:0:0:
317,104,180338,1,2,1:2:0:0:
322,92,180435,1,0,1:2:0:0:
329,81,180532,2,0,P|360:74|392:68,1,64.5833333333333,8|0,0:0|0:0,0:0:0:0:
229,0,180727,2,0,P|235:31|241:63,1,64.5833333333333,2|0,0:0|0:0,0:0:0:0:
184,144,180921,2,0,P|154:132|122:133,1,64.5833333333333,2|0,1:2|0:0,0:0:0:0:
12,264,181115,6,0,B|67:254|67:254|82:244|82:244|137:236,1,129.166666666667,2|8,1:2|0:0,0:0:0:0:
267,373,181503,1,0,1:2:0:0:
254,377,181600,1,0,1:2:0:0:
241,379,181697,2,0,P|208:380|179:368,1,64.5833333333333,8|0,0:0|0:0,0:0:0:0:
288,220,181892,2,0,B|320:222|320:222|322:224|322:224|352:226,1,64.5833333333333,2|2,0:0|0:0,0:0:0:0:
400,353,182086,2,0,B|432:351|432:351|434:349|434:349|464:347,1,64.5833333333333,2|2,0:0|0:0,0:0:0:0:
326,144,182280,6,0,P|318:82|358:34,1,129.166666666667,6|10,1:2|0:0,0:0:0:0:
237,144,182668,1,2,1:2:0:0:
227,153,182765,1,0,1:2:0:0:
217,161,182863,2,0,P|186:155|154:150,1,64.5833333333333,8|0,0:0|0:0,0:0:0:0:
38,24,183057,2,0,P|42:55|49:87,1,64.5833333333333,2|0,0:0|0:0,0:0:0:0:
172,231,183251,2,0,P|165:262|160:294,1,64.5833333333333,2|0,1:2|0:0,0:0:0:0:
26,375,183445,6,0,P|1:317|30:262,1,129.166666666667,2|10,1:2|0:0,0:0:0:0:
219,373,183833,1,2,1:2:0:0:
228,364,183930,1,0,1:0:0:0:
238,355,184028,2,0,P|302:348|366:341,1,129.166666666667,10|0,1:2|0:0,0:0:0:0:
512,264,184416,2,0,P|480:257|448:253,1,64.5833333333333,2|0,1:2|0:0,0:0:0:0:
338,228,184610,6,0,P|322:168|356:115,1,129.166666666667,6|8,1:2|0:0,0:0:0:0:
239,9,184998,1,2,1:2:0:0:
246,19,185096,1,0,1:2:0:0:
253,29,185193,2,0,P|245:60|238:91,1,64.5833333333333,10|0,0:0|0:0,0:0:0:0:
138,210,185387,2,0,P|131:178|123:147,1,64.5833333333333,0|0,0:0|0:0,0:0:0:0:
294,220,185581,2,0,P|299:189|308:158,1,64.5833333333333,2|0,1:2|0:0,0:0:0:0:
150,305,185775,6,0,P|118:296|87:290,1,64.5833333333333,2|2,1:2|0:0,0:0:0:0:
265,345,185969,1,10,0:0:0:0:
275,338,186066,1,2,1:2:0:0:
285,330,186164,2,0,P|316:321|347:315,1,64.5833333333333,2|2,1:2|2:2,0:0:0:0:
468,365,186358,5,10,0:0:0:0:
451,347,186455,1,2,0:0:0:0:
473,315,186552,1,2,0:0:0:0:
437,272,186649,1,2,0:0:0:0:
490,217,186746,1,2,0:0:0:0:
433,155,186843,1,2,0:0:0:0:
496,72,186940,5,4,1:2:0:0:
256,192,196261,12,0,199757,0:0:0:0:
28,368,200922,6,0,P|63:360|99:354,1,72.3333311258952,6|0,1:2|0:0,0:0:0:0:
193,268,201116,2,0,P|157:260|121:254,1,72.3333311258952,8|0,0:0|0:0,0:0:0:0:
47,187,201310,1,0,1:2:0:0:
33,171,201407,1,0,1:2:0:0:
21,152,201504,2,0,P|17:116|27:81,1,72.3333311258952,8|0,0:0|0:0,0:0:0:0:
205,0,201698,2,0,P|208:35|198:70,1,72.3333311258952,2|0,1:2|0:0,0:0:0:0:
297,125,201892,2,0,P|274:152|242:169,1,72.3333311258952,2|0,0:0|0:0,0:0:0:0:
148,362,202087,6,0,P|197:314|264:331,1,144.66666225179,2|8,1:2|0:0,0:0:0:0:
480,321,202475,1,0,1:2:0:0:
467,338,202572,1,0,1:2:0:0:
453,354,202669,2,0,L|371:334,1,72.3333311258952,8|0,0:0|0:0,0:0:0:0:
328,221,202863,1,8,3:0:0:0:
318,178,202960,1,8,3:0:0:0:
330,136,203057,1,8,3:0:0:0:
358,102,203155,1,8,3:0:0:0:
397,83,203252,6,0,P|387:117|377:152,1,72.3333311258952,6|0,1:2|0:0,0:0:0:0:
227,89,203446,2,0,P|192:98|157:108,1,72.3333311258952,8|0,0:0|0:0,0:0:0:0:
5,230,203640,1,0,1:2:0:0:
12,250,203737,1,0,1:2:0:0:
22,268,203834,2,0,P|91:264|132:207,1,144.66666225179,8|2,0:0|1:2,0:0:0:0:
53,3,204222,6,0,P|62:37|72:72,1,72.3333311258952,2|0,0:0|0:0,0:0:0:0:
200,255,204417,2,0,P|209:220|219:185,1,72.3333311258952,2|0,1:2|0:0,0:0:0:0:
330,67,204611,2,0,P|365:65|396:82,1,72.3333311258952,8|0,0:0|0:0,0:0:0:0:
346,147,204805,1,0,1:2:0:0:
163,0,204999,2,0,P|169:53|176:107,1,108.499996688843,2|0,1:2|0:0,0:0:0:0:
219,185,205193,2,0,P|161:193|114:170,1,108.499996688843,10|0,0:0|0:0,0:0:0:0:
97,91,205388,1,10,0:0:0:0:
52,306,205582,6,0,P|87:298|122:291,1,72.3333311258952,6|0,1:2|0:0,0:0:0:0:
233,177,205776,2,0,P|303:193|374:209,1,144.66666225179,8|0,0:0|1:2,0:0:0:0:
479,310,206067,1,0,0:0:0:0:
405,367,206164,2,0,P|398:331|391:296,1,72.3333311258952,10|0,0:0|0:0,0:0:0:0:
479,103,206358,2,0,P|485:138|492:173,1,72.3333311258952,2|0,0:0|0:0,0:0:0:0:
374,209,206553,2,0,P|336:200|302:193,1,72.3333311258952,2|0,1:2|0:0,0:0:0:0:
358,121,206747,5,2,1:2:0:0:
296,384,206941,2,0,P|280:348|282:313,1,72.3333311258952,8|0,0:0|0:0,0:0:0:0:
263,113,207135,1,2,1:2:0:0:
242,120,207232,1,0,1:2:0:0:
227,135,207329,2,0,P|211:167|212:203,1,72.3333311258952,10|0,0:0|0:0,0:0:0:0:
48,86,207523,2,0,P|101:90|147:62,1,108.499996688843,10|0,0:0|0:0,0:0:0:0:
195,0,207718,2,0,B|247:5|247:5|251:8|251:8|302:13,1,108.499996688843,10|0,0:0|0:0,0:0:0:0:
346,90,207912,5,6,1:2:0:0:
476,244,208106,2,0,P|483:208|492:173,1,72.3333311258952,8|0,0:0|0:0,0:0:0:0:
256,113,208300,1,2,1:2:0:0:
270,129,208397,1,0,1:2:0:0:
283,145,208494,2,0,P|292:180|299:215,1,72.3333311258952,8|0,0:0|0:0,0:0:0:0:
399,60,208688,2,0,P|389:95|382:130,1,72.3333311258952,2|0,1:2|0:0,0:0:0:0:
166,23,208883,2,0,P|175:58|182:93,1,72.3333311258952,2|0,1:2|0:0,0:0:0:0:
252,290,209077,2,0,P|296:260|348:267,1,108.499996688843,2|0,1:2|0:0,0:0:0:0:
370,347,209271,2,0,P|325:376|273:369,1,108.499996688843,10|0,0:0|0:0,0:0:0:0:
199,347,209465,1,10,0:0:0:0:
75,197,209659,6,0,P|70:232|66:268,1,72.3333311258952,2|0,1:2|0:0,0:0:0:0:
166,194,209854,1,8,0:0:0:0:
206,179,209951,1,8,0:0:0:0:
247,166,210048,1,8,0:0:0:0:
288,153,210145,1,8,0:0:0:0:
328,139,210242,6,0,P|298:120|262:125,1,72.3333311258952,6|0,1:2|0:0,0:0:0:0:
363,280,210436,2,0,P|398:283|427:263,1,72.3333311258952,8|0,0:0|0:0,0:0:0:0:
266,343,210630,1,0,1:2:0:0:
249,357,210727,1,0,1:2:0:0:
231,372,210824,2,0,P|163:363|88:354,1,144.66666225179,8|2,0:0|1:2,0:0:0:0:
0,142,211213,6,0,P|35:136|71:132,1,72.3333311258952,2|0,0:0|0:0,0:0:0:0:
146,10,211407,2,0,B|163:41|163:41|159:77,1,72.3333311258952,2|0,1:2|0:0,0:0:0:0:
60,281,211601,2,0,B|43:249|43:249|46:212,1,72.3333311258952,8|0,0:0|0:0,0:0:0:0:
145,237,211795,1,0,1:2:0:0:
161,223,211892,1,0,1:2:0:0:
177,210,211989,2,0,P|212:204|248:200,1,72.3333311258952,8|0,0:0|0:0,0:0:0:0:
478,220,212184,1,8,3:0:0:0:
461,179,212281,1,8,3:0:0:0:
429,149,212378,1,8,3:0:0:0:
387,135,212475,1,8,3:0:0:0:
344,142,212572,6,0,P|349:178|355:214,1,72.3333311258952,6|0,1:2|0:0,0:0:0:0:
213,360,212766,2,0,P|226:327|224:291,1,72.3333311258952,8|0,0:0|0:0,0:0:0:0:
25,118,212960,1,0,1:2:0:0:
31,138,213057,1,0,1:2:0:0:
39,158,213155,2,0,B|117:144|117:199|179:187,1,144.66666225179,8|2,0:0|1:2,0:0:0:0:
323,54,213543,6,0,P|289:43|253:41,1,72.3333311258952,2|0,0:0|0:0,0:0:0:0:
355,214,213737,2,0,P|389:202|425:200,1,72.3333311258952,2|0,1:2|0:0,0:0:0:0:
298,368,213931,2,0,P|292:332|287:296,1,72.3333311258952,8|0,0:0|0:0,0:0:0:0:
210,251,214125,1,2,1:2:0:0:
195,267,214222,1,0,1:0:0:0:
179,282,214320,2,0,P|144:276|108:271,1,72.3333311258952,2|0,1:2|0:0,0:0:0:0:
355,214,214514,2,0,P|363:159|331:120,1,108.499996688843,10|0,0:0|0:0,0:0:0:0:
266,58,214708,2,0,P|257:111|250:165,1,108.499996688843,10|0,0:0|0:0,0:0:0:0:
210,251,214902,6,0,P|214:286|218:322,1,72.3333311258952,6|0,1:2|0:0,0:0:0:0:
355,214,215096,2,0,P|390:218|426:222,1,72.3333311258952,8|0,0:0|0:0,0:0:0:0:
182,102,215290,1,0,1:2:0:0:
163,112,215388,1,0,1:2:0:0:
144,123,215485,2,0,P|128:90|134:52,1,72.3333311258952,10|0,1:2|0:0,0:0:0:0:
36,65,215679,2,0,P|38:28|62:-1,1,72.3333311258952,2|0,0:0|0:0,0:0:0:0:
130,214,215873,2,0,L|58:200,1,72.3333311258952,2|0,1:2|0:0,0:0:0:0:
161,368,216067,6,0,P|175:333|174:296,1,72.3333311258952,2|0,1:2|0:0,0:0:0:0:
249,165,216261,2,0,P|263:200|262:236,1,72.3333311258952,10|0,0:0|0:0,0:0:0:0:
301,384,216455,1,2,1:2:0:0:
318,371,216553,1,0,1:0:0:0:
336,360,216650,2,0,L|353:289,1,72.3333311258952,10|0,0:0|0:0,0:0:0:0:
442,309,216844,2,0,L|427:237,1,72.3333311258952,10|0,0:0|0:0,0:0:0:0:
512,213,217038,2,0,L|468:154,1,72.3333311258952,10|0,0:0|0:0,0:0:0:0:
410,11,217232,6,0,P|363:63|294:53,1,144.66666225179,6|8,1:2|0:0,0:0:0:0:
92,27,217621,1,2,1:2:0:0:
110,16,217718,1,0,1:2:0:0:
130,10,217815,2,0,P|134:46|120:79,1,72.3333311258952,10|0,0:0|0:0,0:0:0:0:
195,120,218009,2,0,P|172:147|139:161,1,72.3333311258952,2|0,1:2|0:0,0:0:0:0:
183,231,218203,2,0,P|150:246|115:245,1,72.3333311258952,2|0,1:2|0:0,0:0:0:0:
60,384,218397,6,0,P|44:351|45:316,1,72.3333311258952,6|0,1:2|0:0,0:0:0:0:
268,209,218591,2,0,P|260:244|255:280,1,72.3333311258952,0|0,1:0|0:2,0:0:0:0:
38,161,218786,1,0,1:2:0:0:
46,180,218883,1,0,1:2:0:0:
55,199,218980,5,2,1:2:0:0:
259,0,219174,1,8,0:0:0:0:
330,276,219368,1,8,0:0:0:0:
217,140,219562,1,4,1:2:0:0:
430,0,219756,6,0,P|420:37|411:75,1,77.5000029563905,10|0,0:0|0:0,0:0:0:0:
128,118,219951,2,0,P|137:155|146:193,1,77.5000029563905,10|0,0:0|0:0,0:0:0:0:
284,364,220145,2,0,P|298:329|298:290,1,77.5000029563905,2|0,1:2|0:0,0:0:0:0:
58,168,220339,2,0,P|43:203|43:242,1,77.5000029563905,10|0,0:0|0:0,0:0:0:0:
217,140,220533,2,0,P|254:149|292:158,1,77.5000029563905,2|0,1:2|0:2,0:0:0:0:
388,329,220727,5,2,1:2:0:0:
407,317,220824,1,2,1:2:0:0:
426,303,220922,2,0,P|443:268|438:231,1,77.5000029563905,10|0,0:0|0:0,0:0:0:0:
498,78,221116,2,0,P|463:60|426:65,1,77.5000029563905,10|0,0:0|0:0,0:0:0:0:
282,247,221310,2,0,P|319:237|357:228,1,77.5000029563905,2|0,1:2|0:0,0:0:0:0:
203,140,221504,2,0,P|194:177|184:215,1,77.5000029563905,10|0,0:0|0:0,0:0:0:0:
293,139,221698,1,10,0:0:0:0:
171,16,221892,5,6,1:2:0:0:
365,72,222087,2,0,P|373:109|383:147,1,77.5000029563905,10|0,0:0|0:0,0:0:0:0:
246,75,222281,2,0,P|255:37|264:0,1,77.5000029563905,10|0,0:0|0:0,0:0:0:0:
122,155,222475,2,0,P|83:158|49:140,1,77.5000029563905,2|0,1:2|0:0,0:0:0:0:
105,79,222669,1,10,0:0:0:0:
178,254,222863,1,10,0:0:0:0:
56,365,223057,6,0,P|50:326|43:288,1,77.5000029563905,2|0,1:2|0:0,0:0:0:0:
216,162,223252,2,0,P|254:168|292:174,1,77.5000029563905,10|0,0:0|0:0,0:0:0:0:
301,330,223446,2,0,P|262:335|224:342,1,77.5000029563905,10|0,0:0|0:0,0:0:0:0:
362,124,223640,2,0,P|378:155|378:196,1,77.5000029563905,2|0,1:2|0:0,0:0:0:0:
154,95,223834,2,0,P|159:56|166:18,1,77.5000029563905,8|0,0:0|0:0,0:0:0:0:
18,248,224028,1,2,1:2:0:0:
27,227,224125,1,2,1:2:0:0:
39,207,224222,6,0,P|79:186|126:190,1,77.5000029563905,6|0,1:2|0:0,0:0:0:0:
240,77,224417,2,0,P|238:122|211:160,1,77.5000029563905,8|0,0:0|0:0,0:0:0:0:
196,262,224611,1,8,0:0:0:0:
166,18,224805,2,0,P|159:56|154:95,1,77.5000029563905,2|0,1:2|0:0,0:0:0:0:
275,217,224999,2,0,P|313:210|351:204,1,77.5000029563905,8|0,0:0|0:0,0:0:0:0:
133,316,225193,2,0,P|115:281|118:243,1,77.5000029563905,8|0,0:0|0:0,0:0:0:0:
278,306,225388,6,0,P|271:344|265:382,1,77.5000029563905,2|0,1:2|0:0,0:0:0:0:
133,316,225582,1,8,0:0:0:0:
275,217,225776,1,8,0:0:0:0:
154,95,225970,2,0,P|160:133|166:171,1,77.5000029563905,2|0,1:2|0:0,0:0:0:0:
264,99,226164,2,0,P|302:105|340:111,1,77.5000029563905,8|0,0:0|0:0,0:0:0:0:
284,197,226358,1,10,0:0:0:0:
462,55,226553,6,0,P|427:36|385:40,1,77.5000029563905,6|0,1:2|0:0,0:0:0:0:
366,199,226747,2,0,P|401:218|443:214,1,77.5000029563905,10|0,0:0|0:0,0:0:0:0:
481,384,226941,2,0,B|488:346|488:346|490:343|490:343|496:308,1,77.5000029563905,10|0,0:0|0:0,0:0:0:0:
385,325,227135,2,0,P|346:328|307:333,1,77.5000029563905,0|0,1:0|0:0,0:0:0:0:
180,221,227329,2,0,P|218:225|257:229,1,77.5000029563905,8|0,0:0|0:0,0:0:0:0:
124,383,227523,2,0,P|104:350|113:312,1,77.5000029563905,8|0,0:0|0:0,0:0:0:0:
14,242,227718,6,0,B|7:204|7:204|5:201|5:201|-1:166,1,77.5000029563905,2|0,1:2|0:0,0:0:0:0:
173,85,227912,2,0,P|212:90|250:95,1,77.5000029563905,8|0,0:0|0:0,0:0:0:0:
82,13,228106,2,0,B|75:51|75:51|73:54|73:54|66:88,1,77.5000029563905,10|0,0:0|0:0,0:0:0:0:
109,269,228300,2,0,P|148:263|186:258,1,77.5000029563905,2|0,1:2|0:0,0:0:0:0:
250,76,228494,2,0,P|211:81|173:86,1,77.5000029563905,8|0,0:0|0:0,0:0:0:0:
111,167,228688,1,10,0:0:0:0:
258,315,228883,6,0,P|277:282|277:244,1,77.5000029563905,6|0,1:2|0:0,0:0:0:0:
26,153,229077,2,0,P|33:191|40:229,1,77.5000029563905,8|0,0:0|0:0,0:0:0:0:
333,53,229271,2,0,P|325:91|318:129,1,77.5000029563905,8|0,0:0|0:0,0:0:0:0:
250,76,229465,2,0,P|212:70|177:86,1,77.5000029563905,2|0,1:2|0:0,0:0:0:0:
361,211,229659,2,0,P|398:216|433:200,1,77.5000029563905,8|0,0:0|0:0,0:0:0:0:
183,186,229854,2,0,P|190:224|197:262,1,77.5000029563905,8|0,0:0|0:0,0:0:0:0:
282,204,230048,5,2,1:2:0:0:
113,138,230242,1,8,0:0:0:0:
257,367,230436,2,0,P|274:331|271:290,1,77.5000029563905,8|0,0:0|0:0,0:0:0:0:
111,237,230630,2,0,P|72:243|34:251,1,77.5000029563905,2|0,1:2|0:0,0:0:0:0:
268,118,230824,2,0,P|306:124|344:132,1,77.5000029563905,8|0,0:0|0:0,0:0:0:0:
208,0,231019,2,0,P|201:38|193:76,1,77.5000029563905,10|0,0:0|0:0,0:0:0:0:
294,204,231213,5,6,1:2:0:0:
127,20,231407,1,10,0:0:0:0:
0,182,231601,2,0,P|33:162|71:165,1,77.5000029563905,10|0,0:0|0:0,0:0:0:0:
74,364,231795,2,0,P|67:325|59:288,1,77.5000029563905,0|0,1:2|0:0,0:0:0:0:
294,204,231989,2,0,P|261:184|223:187,1,77.5000029563905,8|0,0:0|0:0,0:0:0:0:
226,384,232184,2,0,P|233:345|241:308,1,77.5000029563905,8|0,0:0|0:0,0:0:0:0:
388,215,232378,6,0,P|381:176|373:139,1,77.5000029563905,2|0,1:2|0:0,0:0:0:0:
237,0,232572,2,0,P|228:37|221:76,1,77.5000029563905,8|0,0:0|0:0,0:0:0:0:
70,164,232766,2,0,P|51:129|61:87,1,77.5000029563905,10|0,0:0|0:0,0:0:0:0:
187,227,232960,2,0,P|224:218|262:211,1,77.5000029563905,2|0,1:2|0:0,0:0:0:0:
405,61,233154,2,0,P|374:33|334:29,1,77.5000029563905,8|0,0:0|0:0,0:0:0:0:
341,114,233349,1,10,0:0:0:0:
503,261,233543,6,0,P|464:254|426:250,1,77.5000029563905,6|0,1:2|0:0,0:0:0:0:
257,367,233737,2,0,P|295:360|333:356,1,77.5000029563905,8|0,0:0|0:0,0:0:0:0:
107,284,233931,2,0,P|91:247|96:207,1,77.5000029563905,8|0,0:0|0:0,0:0:0:0:
253,28,234125,2,0,P|269:65|263:104,1,77.5000029563905,2|0,1:2|0:0,0:0:0:0:
180,75,234320,2,0,P|141:69|103:64,1,77.5000029563905,8|0,0:0|0:0,0:0:0:0:
183,236,234514,2,0,P|221:230|259:225,1,77.5000029563905,8|0,0:0|0:0,0:0:0:0:
359,286,234708,5,6,1:2:0:0:
5,24,237038,5,2,0:0:0:0:
10,38,237232,1,2,0:0:0:0:
14,52,237426,1,2,0:0:0:0:
90,127,237620,5,2,0:0:0:0:
85,152,237814,1,2,0:0:0:0:
80,177,238008,1,2,0:0:0:0:
52,369,238203,5,10,0:0:0:0:
95,285,238397,1,10,0:0:0:0:
1,290,238591,1,10,0:0:0:0:
200,381,238785,5,10,0:0:0:0:
180,161,238979,1,10,0:0:0:0:
1,290,239173,1,10,0:0:0:0:
240,259,239368,6,0,P|274:263|309:266,1,69.7500002660751,6|0,1:2|0:0,0:0:0:0:
354,374,239562,2,0,P|388:370|423:367,1,69.7500002660751,8|0,0:0|0:0,0:0:0:0:
497,278,239756,1,10,0:0:0:0:
505,266,239853,1,2,0:0:0:0:
512,254,239950,2,0,P|516:219|505:186,1,69.7500002660751,2|0,1:2|0:0,0:0:0:0:
391,24,240144,2,0,B|363:86|363:86|380:155,1,139.50000053215,10|8,0:0|0:0,0:0:0:0:
267,367,240533,6,0,P|232:361|197:357,1,69.7500002660751,2|0,1:2|0:0,0:0:0:0:
95,285,240727,2,0,P|91:250|101:218,1,69.7500002660751,10|0,0:0|0:0,0:0:0:0:
252,107,240921,2,0,P|255:141|246:174,1,69.7500002660751,10|0,0:0|0:0,0:0:0:0:
129,130,241115,2,0,P|94:135|59:139,1,69.7500002660751,2|0,1:2|0:0,0:0:0:0:
177,40,241309,1,10,0:0:0:0:
177,40,241504,1,10,0:0:0:0:
220,261,241698,6,0,B|278:253|278:253|301:237|301:237|354:231,1,139.50000053215,6|8,1:2|0:0,0:0:0:0:
512,73,242086,1,10,0:0:0:0:
505,60,242183,1,2,0:0:0:0:
499,47,242280,2,0,P|464:41|429:37,1,69.7500002660751,2|0,1:2|0:0,0:0:0:0:
498,186,242474,2,0,P|463:191|428:195,1,69.7500002660751,10|0,0:0|0:0,0:0:0:0:
337,66,242669,2,0,P|329:32|339:-1,1,69.7500002660751,8|0,0:0|0:0,0:0:0:0:
259,202,242863,6,0,P|225:210|192:200,1,69.7500002660751,2|0,1:2|0:0,0:0:0:0:
92,122,243057,2,0,P|125:114|159:106,1,69.7500002660751,10|0,0:0|0:0,0:0:0:0:
88,277,243251,2,0,P|121:284|155:292,1,69.7500002660751,10|0,0:0|0:0,0:0:0:0:
259,202,243445,2,0,B|334:180|334:180|379:224|379:224|446:229,1,209.250000798225,2|0,1:2|0:0,0:0:0:0:
487,354,243834,1,8,3:0:0:0:
480,341,243931,1,0,3:0:0:0:
469,331,244028,6,0,P|437:315|403:315,1,69.7500002660751,6|0,1:2|0:0,0:0:0:0:
313,264,244222,2,0,P|297:295|297:329,1,69.7500002660751,8|0,0:0|0:0,0:0:0:0:
177,234,244416,1,10,0:0:0:0:
171,221,244513,1,2,0:0:0:0:
164,208,244610,2,0,P|168:173|172:138,1,69.7500002660751,2|0,1:2|0:0,0:0:0:0:
101,16,244804,2,0,B|86:48|86:48|94:81,1,69.7500002660751,10|0,0:0|0:0,0:0:0:0:
256,88,244999,2,0,B|271:56|271:56|263:23,1,69.7500002660751,8|0,0:0|0:0,0:0:0:0:
337,214,245193,6,0,P|370:206|405:201,1,69.7500002660751,2|0,1:2|0:0,0:0:0:0:
397,108,245387,2,0,P|431:115|464:125,1,69.7500002660751,10|0,0:0|0:0,0:0:0:0:
316,297,245581,2,0,P|282:289|247:284,1,69.7500002660751,10|0,0:0|0:0,0:0:0:0:
256,191,245775,2,0,P|221:198|188:208,1,69.7500002660751,2|0,1:2|0:0,0:0:0:0:
173,343,245970,1,10,0:0:0:0:
173,343,246164,1,10,0:0:0:0:
100,175,246358,6,0,P|69:115|102:57,1,139.50000053215,6|8,1:2|0:0,0:0:0:0:
271,12,246746,1,2,0:0:0:0:
258,19,246843,1,2,0:0:0:0:
246,28,246940,2,0,P|252:62|256:97,1,69.7500002660751,2|0,1:2|0:0,0:0:0:0:
244,241,247135,2,0,B|278:245|278:245|310:231,1,69.7500002660751,10|0,0:0|0:0,0:0:0:0:
415,37,247329,2,0,B|381:33|381:33|349:47,1,69.7500002660751,8|0,0:0|0:0,0:0:0:0:
256,97,247523,5,2,1:2:0:0:
400,310,247717,1,10,0:0:0:0:
405,283,247814,1,8,0:0:0:0:
411,256,247911,1,10,0:0:0:0:
416,229,248008,1,8,0:0:0:0:
421,202,248105,1,10,0:0:0:0:
324,366,248300,2,0,P|289:359|255:355,1,69.7500002660751,0|0,1:2|0:0,0:0:0:0:
53,327,248494,1,0,1:0:0:0:
62,308,248591,1,0,1:2:0:0:
71,290,248688,6,0,P|101:276|140:278,1,72.3333311258952,6|0,1:2|0:0,0:0:0:0:
270,176,248882,2,0,P|236:177|202:161,1,72.3333311258952,8|0,0:0|0:0,0:0:0:0:
54,181,249076,1,2,1:2:0:0:
60,161,249173,1,2,1:2:0:0:
67,142,249271,2,0,L|44:0,1,144.66666225179,10|2,0:0|0:0,0:0:0:0:
169,65,249562,1,0,1:2:0:0:
188,58,249660,2,0,L|265:68,1,72.3333311258952,0|0,1:2|0:0,0:0:0:0:
384,156,249853,6,0,B|418:91|418:91|399:20,1,144.66666225179,6|10,1:2|0:0,0:0:0:0:
232,192,250241,1,2,1:2:0:0:
239,210,250338,1,0,1:2:0:0:
247,228,250436,2,0,P|239:263|233:299,1,72.3333311258952,10|0,0:0|0:0,0:0:0:0:
49,354,250630,1,10,0:0:0:0:
21,325,250727,1,8,0:0:0:0:
7,288,250824,1,2,1:2:0:0:
8,248,250921,1,0,1:2:0:0:
25,211,251018,6,0,B|85:190|85:190|96:179|96:179|157:157,1,144.66666225179,6|8,1:2|0:0,0:0:0:0:
189,0,251406,1,2,1:2:0:0:
199,17,251504,1,2,1:2:0:0:
208,33,251601,2,0,P|280:39|351:48,1,144.66666225179,10|2,0:0|0:0,0:0:0:0:
434,174,251893,1,8,0:0:0:0:
446,161,251990,2,0,P|458:126|447:91,1,72.3333311258952,0|0,1:2|0:0,0:0:0:0:
374,315,252183,6,0,P|314:277|246:296,1,144.66666225179,6|10,1:2|0:0,0:0:0:0:
119,381,252571,1,2,1:2:0:0:
106,364,252669,1,0,1:2:0:0:
93,346,252766,2,0,B|145:295|124:237|124:237|86:202|100:148,1,216.999993377686,10|0,0:0|1:0,0:0:0:0:
22,49,253154,1,8,0:0:0:0:
37,63,253251,1,8,0:0:0:0:
53,77,253348,6,0,P|88:74|119:56,1,72.3333311258952,6|0,1:2|0:0,0:0:0:0:
228,32,253542,2,0,P|219:67|212:102,1,72.3333311258952,8|0,0:0|0:0,0:0:0:0:
116,333,253737,1,2,1:2:0:0:
122,312,253834,1,2,1:2:0:0:
128,291,253931,2,0,P|114:219|100:149,1,144.66666225179,10|2,0:0|0:0,0:0:0:0:
267,194,254222,1,8,0:0:0:0:
288,188,254319,2,0,P|323:194|358:203,1,72.3333311258952,0|0,1:2|0:0,0:0:0:0:
434,343,254513,6,0,P|392:310|339:316,1,108.499996688843,2|0,1:2|0:0,0:0:0:0:
242,277,254707,2,0,B|265:326|265:326|253:378,1,108.499996688843,10|0,0:0|0:0,0:0:0:0:
157,384,254902,2,0,B|134:335|134:335|145:282,1,108.499996688843,2|0,1:2|0:0,0:0:0:0:
187,211,255096,1,2,1:2:0:0:
98,83,255290,2,0,P|92:118|87:154,1,72.3333311258952,10|0,0:0|0:0,0:0:0:0:
287,79,255484,2,0,P|292:114|297:150,1,72.3333311258952,10|0,0:0|0:0,0:0:0:0:
371,290,255678,6,0,B|413:298|448:269|432:269|459:243|510:254,1,144.66666225179,6|8,1:2|0:0,0:0:0:0:
321,379,256067,1,2,1:2:0:0:
305,363,256164,1,2,1:2:0:0:
287,349,256261,2,0,P|215:337|144:326,1,144.66666225179,10|2,0:0|0:0,0:0:0:0:
27,206,256552,1,8,0:0:0:0:
44,219,256649,2,0,P|79:215|115:210,1,72.3333311258952,0|0,1:2|0:0,0:0:0:0:
249,193,256843,6,0,P|254:158|242:124,1,72.3333311258952,6|0,1:2|0:0,0:0:0:0:
135,34,257038,2,0,P|128:69|121:105,1,72.3333311258952,2|0,1:2|0:2,0:0:0:0:
239,0,257232,1,2,1:2:0:0:
255,14,257329,1,0,1:0:0:0:
271,27,257426,2,0,P|306:33|342:40,1,72.3333311258952,2|0,1:2|0:0,0:0:0:0:
438,89,257620,2,0,B|454:55|454:55|447:20,1,72.3333311258952,8|0,0:0|0:0,0:0:0:0:
317,130,257814,2,0,B|291:192|291:192|316:265,1,144.66666225179,8|2,0:0|0:0,0:0:0:0:
