osu file format v14

[General]
AudioFilename: audio.mp3
AudioLeadIn: 0
PreviewTime: 42912
Countdown: 0
SampleSet: Soft
StackLeniency: 0.7
Mode: 0
LetterboxInBreaks: 0
WidescreenStoryboard: 1

[Editor]
Bookmarks: 148494,208300
DistanceSpacing: 1.3
BeatDivisor: 12
GridSize: 32
TimelineZoom: 2.1

[Metadata]
Title:Luna
TitleUnicode:Luna
Artist:KINEMA106
ArtistUnicode:キネマ106
Creator:-Eresh
Version:Ducky=Eresh's Insane
Source:
Tags:ray 零 tom kurousagi uru 黒兎ウル jun-jun comiket 98 c98 april fools fgo f/go fate grand order tsukihime 月姫 typemoon type moon ducky- alwayschoke fuju japanese rock
BeatmapID:2554221
BeatmapSetID:1153323

[Difficulty]
HPDrainRate:4
CircleSize:4
OverallDifficulty:8
ApproachRate:9
SliderMultiplier:3
SliderTickRate:1

[Events]
//Background and Video events
0,0,"78861345_p0 but i did smth forbidden.png",0,0
//Break Periods
2,187140,195661
//Storyboard Layer 0 (Background)
//Storyboard Layer 1 (Fail)
//Storyboard Layer 2 (Pass)
//Storyboard Layer 3 (Foreground)
//Storyboard Layer 4 (Overlay)
//Storyboard Sound Samples

[TimingPoints]
1699,582.52427184466,4,2,1,30,1,0
4029,-200,4,2,1,30,0,0
22669,-142.857142857143,4,2,1,30,0,0
30825,-333.333333333334,4,2,1,30,0,0
31310,-333.333333333334,4,2,1,5,0,0
31407,-100,4,2,1,30,0,0
31893,-100,4,2,1,5,0,0
31990,-142.857142857143,4,2,1,30,0,0
39174,-200,4,2,1,30,0,0
40145,-250.000000000001,4,2,1,30,0,0
40728,2330.09708737864,4,2,3,52,1,0
40728,-1000,4,2,3,52,0,0
40764,-1000,4,2,1,5,0,0
43058,-1000,4,2,1,15,0,0
43640,582.52427184466,4,2,1,70,1,1
43640,-76.9230769230769,4,2,1,70,0,1
50241,-62.5,4,2,1,70,0,1
50630,-76.9230769230769,4,2,1,70,0,1
57620,-66.6666666666667,4,2,1,70,0,1
61115,-66.6666666666667,4,2,1,70,0,0
62280,-66.6666666666667,4,2,1,70,0,1
66552,-66.6666666666667,4,2,1,70,0,1
69271,-793.650793650794,4,2,1,52,0,0
69465,-793.650793650794,4,2,1,35,0,0
69659,-793.650793650794,4,2,3,20,0,0
70339,-793.650793650794,4,2,1,5,0,0
70436,582.52427184466,4,2,1,30,1,0
70436,-200,4,2,1,30,0,0
71601,-200,4,2,1,30,0,0
72766,-83.3333333333333,4,2,1,60,0,0
82086,-333.333333333333,4,2,3,60,0,0
82669,-142.857142857143,4,2,1,40,0,0
100727,-100,4,2,1,52,0,0
108882,-83.3333333333333,4,2,1,52,0,0
110047,-142.857142857143,4,2,1,30,0,0
110630,-142.857142857143,4,2,1,20,0,0
115872,-142.857142857143,4,2,1,28,0,0
116455,-142.857142857143,4,2,1,35,0,0
117037,-250.000000000001,4,2,3,30,0,0
118105,-250.000000000001,4,2,1,5,0,0
118203,2330.09708737864,4,2,3,20,1,0
121115,-100,4,2,3,5,0,0
121698,582.52427184466,4,2,1,70,1,1
121698,-76.9230769230769,4,2,1,70,0,1
128299,-62.5,4,2,1,70,0,1
128688,-76.9230769230769,4,2,1,70,0,1
135678,-66.6666666666667,4,2,1,70,0,1
139173,-66.6666666666667,4,2,1,52,0,0
140338,-66.6666666666667,4,2,1,70,0,1
144610,-66.6666666666667,4,2,1,70,0,1
148494,-76.9230769230769,4,2,1,62,0,0
149659,-76.9230769230769,4,2,1,70,0,1
167134,-76.9230769230769,4,2,1,52,0,0
167717,-76.9230769230769,4,2,1,60,0,0
168299,-90.9090909090909,4,2,1,70,0,1
174125,-76.9230769230769,4,2,1,70,0,0
174707,-66.6666666666667,4,2,1,70,0,0
175290,-90.9090909090909,4,2,1,70,0,0
176066,-76.9230769230769,4,2,1,70,0,1
177620,-90.9090909090909,4,2,1,52,0,0
186940,-90.9090909090909,4,2,1,30,0,0
186941,-142.857142857143,4,2,1,30,0,0
196261,2330.09708737864,4,2,1,20,1,0
196261,-500,4,2,1,20,0,0
199757,582.52427184466,4,2,1,5,1,0
199757,-200,4,2,1,5,0,0
200922,582.52427184466,4,2,1,70,1,1
200922,-76.9230769230769,4,2,1,70,0,1
211164,-76.9230769230769,4,2,1,5,0,1
211213,-76.9230769230769,4,2,1,70,0,1
214902,-66.6666666666667,4,2,1,70,0,1
217232,-66.6666666666667,4,2,1,70,0,1
218397,-66.6666666666667,4,2,1,70,0,0
219562,-66.6666666666667,4,2,1,70,0,1
234708,-83.3333333333333,4,2,1,52,0,0
235290,-200,4,2,1,35,0,0
236067,-200,4,2,1,20,0,0
236261,-769.230769230769,4,2,3,20,0,0
236941,-769.230769230769,4,2,1,5,0,0
237038,582.52427184466,4,2,1,30,1,0
237038,-200,4,2,1,30,0,0
239368,-83.3333333333333,4,2,1,70,0,0
248688,-66.6666666666667,4,2,1,70,0,1
256843,-100,4,2,1,50,0,1
258008,-100,4,2,1,50,0,0

[Colours]
Combo1 : 249,219,189
Combo2 : 255,255,128
Combo3 : 255,151,47
Combo4 : 255,60,60

[HitObjects]
256,192,1699,12,0,3737,0:0:0:0:
97,350,4029,6,0,B|27:319|26:197|134:182|134:182|159:257,1,300,2|2,0:0|0:0,0:0:0:0:
154,244,5970,5,2,0:0:0:0:
227,315,6165,1,2,0:0:0:0:
321,295,6359,6,0,B|362:280|351:202|311:176|311:176|288:220|244:245|166:232,2,300,2|2|2,0:0|0:0|0:0,0:0:0:0:
321,295,9271,6,0,P|374:309|415:336,1,100,2|2,0:0|0:0,0:0:0:0:
461,371,9854,6,0,B|411:291|474:227|545:263|566:155|489:98,1,300,2|2,0:0|0:0,0:0:0:0:
382,160,11990,1,2,0:0:0:0:
503,111,12184,6,0,P|420:95|250:63,1,250,2|0,0:0|0:0,0:0:0:0:
93,150,13349,6,0,B|126:76|109:1|109:1|126:77|197:121,1,300,2|2,0:0|0:0,0:0:0:0:
192,117,15291,5,2,0:0:0:0:
259,242,15485,1,2,0:0:0:0:
255,138,15679,6,0,B|198:121|126:202|157:234|117:321|33:306,1,300,2|2,0:0|0:0,0:0:0:0:
260,144,17621,5,2,0:0:0:0:
401,203,17815,1,2,0:0:0:0:
327,9,18009,6,0,P|362:112|389:311,1,300,2|2,0:0|0:0,0:0:0:0:
401,311,20339,6,0,B|412:261|448:243|448:243|380:240|332:300|354:310|329:363|251:344,1,300,2|2,0:0|0:0,0:0:0:0:
247,384,22669,6,0,P|235:309|218:247,1,139.999995727539,2|0,1:2|0:0,0:0:0:0:
137,218,23252,1,2,1:2:0:0:
93,142,23446,1,2,0:0:0:0:
145,72,23640,1,2,0:0:0:0:
110,150,23834,6,0,P|19:128|60:22,1,209.999993591309,2|0,0:0|0:0,0:0:0:0:
150,36,24611,6,0,P|149:16|151:-3,1,34.9999989318848,2|0,0:0|0:0,0:0:0:0:
273,30,24805,2,0,P|276:49|272:69,1,34.9999989318848,2|0,1:2|1:2,0:0:0:0:
264,73,24999,6,0,P|184:91|126:125,1,139.999995727539,2|2,1:2|0:0,0:0:0:0:
205,289,25582,2,0,P|222:247|233:208,2,69.9999978637696,2|2|2,1:2|0:0|0:0,0:0:0:0:
70,349,26165,6,0,P|81:231|185:336,1,314.999990386963,2|0,0:0|0:0,0:0:0:0:
218,344,27135,1,0,1:2:0:0:
258,361,27232,1,0,1:2:0:0:
294,376,27330,6,0,B|359:395|402:357|373:316|424:277|482:305,1,209.999993591309,0|2,1:2|1:2,0:0:0:0:
479,312,28300,1,2,0:0:0:0:
320,301,28495,6,0,B|310:258|366:172|366:172|331:200|280:197,1,209.999993591309,2|2,0:0|0:0,0:0:0:0:
310,118,29465,1,2,0:0:0:0:
188,131,29660,5,2,1:2:0:0:
205,124,29854,2,0,P|194:48|54:91,1,244.999992523194,0|0,1:2|0:0,0:0:0:0:
41,300,30825,6,0,P|65:266|74:234,1,74.9999977111817,2|0,0:0|0:0,0:0:0:0:
61,217,31407,6,0,B|14:252|14:252|221:286,1,250,2|0,0:0|0:0,0:0:0:0:
277,369,31990,6,0,P|310:333|395:310,1,139.999995727539,2|0,1:2|0:0,0:0:0:0:
464,354,32572,1,2,1:2:0:0:
504,264,32766,1,2,0:0:0:0:
456,177,32961,1,2,0:0:0:0:
369,222,33155,6,0,B|379:149|331:106|331:106|370:85|370:13,1,209.999993591309,2|0,0:0|0:0,0:0:0:0:
277,42,33932,1,2,0:0:0:0:
214,100,34126,1,2,1:2:0:0:
275,172,34320,6,0,B|238:202|238:202|259:300,1,139.999995727539,2|2,1:2|0:0,0:0:0:0:
417,367,35097,6,0,P|444:343|498:347,1,69.9999978637696,2|2,0:0|0:0,0:0:0:0:
488,353,35485,6,0,P|418:318|453:189,1,209.999993591309,2|0,0:0|0:0,0:0:0:0:
502,109,36262,6,0,L|492:70,1,34.9999989318848,2|0,0:0|0:0,0:0:0:0:
393,25,36456,2,0,L|384:58,1,34.9999989318848,2|0,0:0|0:0,0:0:0:0:
426,182,36650,6,0,P|362:156|263:128,1,139.999995727539,2|2,1:2|0:0,0:0:0:0:
236,189,37232,1,2,0:0:0:0:
159,159,37427,1,2,0:0:0:0:
111,68,37621,1,2,0:0:0:0:
176,16,37815,6,0,P|133:101|110:220,1,209.999993591309,2|0,0:0|0:0,0:0:0:0:
167,292,38592,1,2,0:0:0:0:
252,339,38786,1,2,0:0:0:0:
341,282,38980,5,2,1:2:0:0:
236,355,39174,2,0,P|261:262|295:109,1,250,0|2,1:2|0:0,0:0:0:0:
279,84,40728,6,0,L|312:80,1,30,8|2,0:3|0:0,0:0:0:0:
145,47,43640,6,0,P|198:98|169:163,1,129.999994049073,6|8,1:2|0:0,0:0:0:0:
123,223,44028,1,0,1:2:0:0:
114,237,44125,1,0,1:2:0:0:
105,249,44222,2,0,L|-21:277,2,129.999994049073,8|2|2,0:0|1:2|0:0,0:0:0:0:
144,137,44805,6,0,P|177:154|186:185,1,64.9999970245363,2|0,1:2|0:0,0:0:0:0:
277,152,44999,2,0,P|289:181|277:211,1,64.9999970245363,8|0,0:0|0:0,0:0:0:0:
220,289,45193,1,0,1:2:0:0:
232,298,45290,1,0,1:2:0:0:
246,307,45387,2,0,L|374:285,2,129.999994049073,8|8|8,0:0|3:0|3:0,0:0:0:0:
283,64,45970,6,0,P|222:75|203:134,1,129.999994049073,6|8,1:2|0:0,0:0:0:0:
106,43,46358,1,0,1:2:0:0:
99,33,46455,1,0,1:2:0:0:
92,23,46552,2,0,B|65:24|35:43|55:70|40:98|-12:105,2,129.999994049073,8|2|2,0:0|1:2|0:0,0:0:0:0:
193,175,47135,6,0,L|175:272,1,64.9999970245363,2|0,1:2|0:0,0:0:0:0:
164,321,47329,2,0,L|146:418,1,64.9999970245363,8|0,0:0|0:0,0:0:0:0:
93,269,47523,1,0,1:2:0:0:
269,368,47717,6,0,P|302:364|334:333,1,64.9999970245363,2|0,1:2|0:0,0:0:0:0:
423,355,47911,2,0,P|436:324|425:281,1,64.9999970245363,10|0,0:0|0:0,0:0:0:0:
488,215,48106,2,0,P|468:188|425:176,1,64.9999970245363,10|0,0:0|0:0,0:0:0:0:
335,114,48300,6,0,L|352:243,1,129.999994049073,6|8,1:2|0:0,0:0:0:0:
392,53,48688,1,0,1:2:0:0:
400,45,48785,1,0,1:0:0:0:
408,38,48882,2,0,P|328:32|224:29,2,129.999994049073,10|2|2,0:0|0:0|1:2,0:0:0:0:
311,128,49465,6,0,P|222:100|164:83,1,129.999994049073,2|8,1:2|0:0,0:0:0:0:
212,184,49853,1,2,1:2:0:0:
182,71,50047,1,10,0:0:0:0:
99,237,50241,6,0,P|151:163|236:197,2,160,10|10|6,0:0|0:0|1:2,0:0:0:0:
121,330,50824,1,8,0:0:0:0:
211,288,51018,1,2,1:2:0:0:
219,293,51115,1,0,1:2:0:0:
229,300,51212,2,0,L|204:118,2,129.999994049073,8|2|2,0:0|0:0|1:2,0:0:0:0:
334,347,51795,6,0,L|351:279,1,64.9999970245363,2|0,1:2|0:0,0:0:0:0:
313,168,51989,2,0,L|330:100,1,64.9999970245363,10|0,0:0|0:0,0:0:0:0:
345,340,52183,6,0,L|362:272,1,64.9999970245363,10|0,0:0|0:0,0:0:0:0:
324,161,52377,2,0,L|341:93,1,64.9999970245363,2|0,1:2|0:0,0:0:0:0:
306,9,52572,5,8,0:0:0:0:
280,30,52669,1,8,0:0:0:0:
251,19,52766,1,8,0:0:0:0:
226,42,52863,1,8,0:0:0:0:
200,34,52960,6,0,P|191:89|180:168,2,129.999994049073,6|8|0,1:2|0:0|1:2,0:0:0:0:
90,72,53445,1,0,1:2:0:0:
98,80,53542,2,0,P|24:65|-1:16,1,129.999994049073,8|2,0:0|1:2,0:0:0:0:
154,182,53931,1,2,0:0:0:0:
24,216,54125,6,0,P|44:180|67:154,1,64.9999970245363,2|0,1:2|0:0,0:0:0:0:
166,192,54319,2,0,P|146:228|123:254,1,64.9999970245363,8|0,0:0|0:0,0:0:0:0:
71,318,54513,1,0,1:2:0:0:
58,333,54610,1,0,1:2:0:0:
47,351,54707,6,0,L|128:341,1,64.9999970245363,8|0,0:0|0:0,0:0:0:0:
200,335,54902,2,0,L|281:325,1,64.9999970245363,8|0,3:0|3:0,0:0:0:0:
381,311,55096,1,8,3:0:0:0:
389,300,55193,1,8,3:0:0:0:
399,285,55290,6,0,L|376:142,2,129.999994049073,6|8|0,1:2|0:0|1:2,0:0:0:0:
511,173,55775,1,0,1:2:0:0:
512,161,55873,2,0,P|447:130|459:61,1,129.999994049073,8|2,0:0|1:2,0:0:0:0:
462,76,56164,1,0,0:0:0:0:
462,76,56261,1,2,0:0:0:0:
342,8,56455,5,2,1:2:0:0:
295,102,56649,2,0,B|268:105|247:76|261:60|221:32|182:47,1,129.999994049073,8|0,0:0|1:2,0:0:0:0:
126,130,56940,1,0,0:0:0:0:
130,118,57038,2,0,P|156:147|163:176,1,64.9999970245363,2|0,1:2|0:0,0:0:0:0:
249,177,57232,2,0,P|246:215|231:241,1,64.9999970245363,10|0,0:0|0:0,0:0:0:0:
291,302,57426,2,0,P|262:328|233:335,1,64.9999970245363,10|0,0:0|0:0,0:0:0:0:
85,355,57620,6,0,L|104:277,1,75.000002861023,6|0,1:2|0:0,0:0:0:0:
5,161,57814,2,0,P|46:163|74:180,1,75.000002861023,8|0,0:0|0:0,0:0:0:0:
130,118,58008,2,0,P|158:149|165:180,1,75.000002861023,2|2,1:2|1:2,0:0:0:0:
249,177,58203,5,10,0:0:0:0:
317,239,58397,1,2,0:0:0:0:
269,316,58591,1,2,1:2:0:0:
336,226,58785,6,0,L|422:211,1,75.000002861023,2|0,1:2|0:0,0:0:0:0:
439,135,58979,2,0,L|512:122,1,75.000002861023,10|0,0:0|0:0,0:0:0:0:
446,47,59173,1,2,1:2:0:0:
449,38,59271,1,0,0:0:0:0:
453,28,59368,2,0,P|378:45|364:118,2,150.000005722046,10|10|10,0:0|0:0|0:0,0:0:0:0:
264,0,59950,6,0,L|278:85,1,75.000002861023,6|0,1:2|0:0,0:0:0:0:
228,152,60144,2,0,L|242:237,1,75.000002861023,8|0,0:0|0:0,0:0:0:0:
192,336,60339,1,2,1:2:0:0:
184,354,60436,1,0,1:2:0:0:
171,378,60533,6,0,L|157:293,1,75.000002861023,10|0,0:0|0:0,0:0:0:0:
207,226,60727,2,0,L|193:141,1,75.000002861023,2|0,1:2|0:0,0:0:0:0:
243,74,60921,2,0,L|229:-11,1,75.000002861023,2|0,1:2|0:0,0:0:0:0:
90,11,61115,5,6,1:2:0:0:
117,44,61309,1,0,0:0:0:0:
99,120,61504,1,0,1:2:0:0:
22,201,61698,6,0,P|63:212|91:246,1,75.000002861023,2|0,1:2|0:0,0:0:0:0:
175,206,61892,6,0,P|196:242|191:286,1,75.000002861023,8|0,0:0|0:0,0:0:0:0:
279,317,62086,6,0,P|268:358|234:386,1,75.000002861023,8|0,0:0|0:0,0:0:0:0:
60,379,62280,6,0,B|31:361|31:361|155:339,2,150.000005722046,6|10|10,1:2|0:0|0:0,0:0:0:0:
245,380,62863,2,0,L|236:280,1,75.000002861023,2|0,1:2|0:0,0:0:0:0:
319,279,63057,2,0,P|305:245|272:230,1,75.000002861023,10|0,0:0|0:0,0:0:0:0:
304,156,63251,2,0,P|270:141|236:154,1,75.000002861023,2|2,1:2|0:2,0:0:0:0:
159,120,63445,6,0,B|177:10|177:10|139:0,2,150.000005722046,2|10|10,1:2|0:0|0:0,0:0:0:0:
74,146,64028,2,0,L|91:244,1,75.000002861023,2|0,1:2|0:0,0:0:0:0:
13,257,64222,2,0,P|29:289|64:301,1,75.000002861023,10|0,0:0|0:0,0:0:0:0:
36,373,64416,2,0,P|71:384|103:368,1,75.000002861023,10|0,1:2|0:0,0:0:0:0:
254,303,64610,6,0,L|181:316,1,75.000002861023,6|0,1:2|0:0,0:0:0:0:
345,236,64805,2,0,L|436:220,1,75.000002861023,10|0,0:0|0:0,0:0:0:0:
268,315,64999,6,0,L|195:328,1,75.000002861023,10|0,0:0|0:0,0:0:0:0:
359,248,65194,2,0,L|450:232,1,75.000002861023,2|0,1:2|0:0,0:0:0:0:
476,145,65387,5,10,0:0:0:0:
509,59,65581,1,10,0:0:0:0:
402,19,65775,6,0,L|414:98,1,75.000002861023,2|0,1:2|0:0,0:0:0:0:
324,100,65970,2,0,L|273:166,1,75.000002861023,10|0,0:0|0:0,0:0:0:0:
211,102,66164,2,0,L|132:114,1,75.000002861023,10|0,0:0|0:0,0:0:0:0:
56,71,66358,5,2,1:2:0:0:
115,130,66552,1,8,0:0:0:0:
55,204,66746,1,2,1:2:0:0:
119,303,66940,6,0,P|121:280|127:306,1,75.000002861023,6|0,1:2|0:0,0:0:0:0:
230,281,67135,2,0,P|247:266|233:288,1,75.000002861023,8|0,0:0|0:0,0:0:0:0:
324,343,67329,2,0,P|347:345|321:351,1,75.000002861023,8|0,0:0|0:0,0:0:0:0:
332,260,67523,6,0,P|367:266|413:296,1,75.000002861023,2|0,1:2|0:0,0:0:0:0:
247,192,67717,2,0,P|278:171|314:162,1,75.000002861023,8|0,0:0|0:0,0:0:0:0:
145,212,67911,2,0,P|152:177|181:131,1,75.000002861023,8|0,0:0|0:0,0:0:0:0:
167,22,68106,6,0,B|195:49|195:49|189:10,1,75.000002861023,2|0,1:2|0:0,0:0:0:0:
281,86,68300,2,0,B|319:85|319:85|288:61,1,75.000002861023,8|0,0:0|0:0,0:0:0:0:
406,50,68494,2,0,B|433:22|433:22|394:28,1,75.000002861023,8|0,0:0|0:0,0:0:0:0:
469,125,68688,6,0,L|495:197,1,75.000002861023,2|0,1:2|0:0,0:0:0:0:
374,223,68882,2,0,L|442:255,1,75.000002861023,8|0,0:0|0:0,0:0:0:0:
375,359,69076,2,0,L|446:334,1,75.000002861023,10|0,0:0|0:0,0:0:0:0:
317,291,69271,5,0,0:0:0:0:
229,302,69465,1,0,0:0:0:0:
162,365,69659,6,0,P|158:346|145:322,1,44.0999986541749,0|0,0:0|0:0,0:0:0:0:
125,319,70436,5,2,0:0:0:0:
65,273,70630,1,2,0:0:0:0:
89,202,70824,1,2,0:0:0:0:
76,195,71018,5,2,0:0:0:0:
139,110,71212,1,2,0:0:0:0:
236,131,71406,1,2,0:0:0:0:
227,146,71601,6,0,L|260:154,1,25,10|0,0:0|0:0,0:0:0:0:
341,97,71795,2,0,L|358:125,1,25,10|0,0:0|0:0,0:0:0:0:
456,142,71989,2,0,L|448:175,1,25,10|0,0:0|0:0,0:0:0:0:
512,269,72183,6,0,L|479:261,1,25,10|0,0:0|0:0,0:0:0:0:
380,332,72377,2,0,L|362:303,1,25,10|10,0:0|0:0,0:0:0:0:
261,268,72571,2,0,L|269:235,1,25,10|10,0:0|0:0,0:0:0:0:
191,355,72766,6,0,P|137:317|93:366,2,119.999996337891,6|8|10,1:2|0:0|0:0,0:0:0:0:
154,284,73251,1,2,0:0:0:0:
154,284,73348,2,0,L|138:156,1,119.999996337891,2|10,1:2|0:0,0:0:0:0:
182,71,73736,1,8,0:0:0:0:
45,65,73931,6,0,P|133:42|205:32,2,119.999996337891,2|10|10,1:2|0:0|0:0,0:0:0:0:
0,156,74513,1,2,1:2:0:0:
77,218,74707,1,10,0:0:0:0:
148,142,74902,1,10,0:0:0:0:
214,219,75096,6,0,P|263:183|323:176,1,119.999996337891,6|8,1:2|0:0,0:0:0:0:
420,234,75484,1,2,0:0:0:0:
426,244,75581,1,2,0:0:0:0:
431,252,75678,2,0,L|445:113,2,119.999996337891,2|10|8,1:2|0:0|0:0,0:0:0:0:
449,344,76261,6,0,P|482:342|526:324,1,59.9999981689454,2|0,1:2|0:0,0:0:0:0:
337,350,76455,2,0,P|361:371|405:390,1,59.9999981689454,10|0,0:0|0:0,0:0:0:0:
253,275,76649,2,0,P|255:308|273:351,1,59.9999981689454,10|0,0:0|0:0,0:0:0:0:
247,182,76843,6,0,B|79:156,1,119.999996337891,2|8,1:2|0:0,0:0:0:0:
13,115,77232,1,8,3:0:0:0:
20,103,77329,1,8,3:0:0:0:
17,90,77426,6,0,P|79:91|101:36,1,119.999996337891,6|8,1:2|0:0,0:0:0:0:
213,0,77814,1,2,0:0:0:0:
213,0,77911,1,2,0:0:0:0:
213,0,78008,2,0,B|202:57|202:57|196:65|196:65|181:142,2,119.999996337891,2|10|8,1:2|0:0|0:0,0:0:0:0:
299,66,78591,5,2,1:2:0:0:
405,45,78785,1,10,0:0:0:0:
447,128,78979,1,10,0:0:0:0:
365,171,79173,5,2,1:2:0:0:
454,231,79367,1,10,0:0:0:0:
425,319,79561,1,10,0:0:0:0:
289,384,79756,6,0,P|311:311|331:270,1,119.999996337891,6|8,1:2|0:0,0:0:0:0:
249,204,80144,1,2,0:0:0:0:
249,204,80241,1,2,0:0:0:0:
249,204,80338,2,0,P|173:211|116:211,2,119.999996337891,2|10|8,1:2|0:0|0:0,0:0:0:0:
316,112,80921,5,2,1:2:0:0:
267,32,81115,1,10,0:0:0:0:
183,107,81309,1,2,1:2:0:0:
183,107,81406,1,2,1:2:0:0:
183,107,81503,2,0,P|129:91|59:69,2,119.999996337891,2|8|8,1:2|0:0|0:0,0:0:0:0:
133,189,82086,6,0,P|140:213|138:184,1,89.9999972534181,4|2,0:3|0:0,0:0:0:0:
459,336,83251,5,2,1:2:0:0:
449,345,83639,5,0,1:2:0:0:
508,280,83834,1,8,0:3:0:0:
442,219,84028,2,0,L|432:177,4,34.9999989318848,2|0|2|0|2,1:2|0:0|0:0|0:0|1:2,0:0:0:0:
225,343,84999,5,10,0:3:0:0:
333,247,85581,5,2,1:2:0:0:
337,238,85969,5,0,1:0:0:0:
292,172,86164,1,10,1:3:0:0:
247,106,86358,2,0,B|272:81|272:81|346:100,1,104.999996795654,0|0,1:0|0:0,0:0:0:0:
351,88,86746,6,0,P|389:75|428:69,2,69.9999978637696,2|0|0,1:2|0:0|0:0,0:0:0:0:
474,142,87329,1,10,0:3:0:0:
41,29,87911,5,2,1:2:0:0:
48,36,88300,5,0,1:2:0:0:
84,102,88494,1,10,0:3:0:0:
132,170,88688,1,0,1:2:0:0:
92,249,88882,1,2,0:0:0:0:
89,265,88979,1,2,0:0:0:0:
86,281,89076,1,2,1:2:0:0:
164,348,89659,5,10,0:3:0:0:
158,358,90241,5,2,1:2:0:0:
238,296,90436,1,2,0:0:0:0:
202,205,90630,1,2,1:2:0:0:
290,122,90824,5,10,0:3:0:0:
210,184,91019,1,2,1:2:0:0:
246,275,91213,1,2,0:0:0:0:
373,202,91406,2,0,L|277:210,2,69.9999978637696,2|0|0,1:2|0:0|0:0,0:0:0:0:
456,197,91989,5,10,0:3:0:0:
506,39,92571,5,2,1:2:0:0:
493,51,92766,1,0,0:0:0:0:
393,52,92960,1,0,1:2:0:0:
380,64,93155,1,10,0:3:0:0:
287,58,93348,1,0,1:2:0:0:
274,70,93543,1,2,0:0:0:0:
160,31,93736,5,2,1:2:0:0:
219,225,94125,1,2,0:0:0:0:
213,243,94319,1,10,0:3:0:0:
207,261,94513,1,2,1:2:0:0:
19,124,94902,5,2,1:2:0:0:
24,137,95290,5,0,1:2:0:0:
109,167,95484,1,10,0:3:0:0:
193,199,95678,1,2,1:2:0:0:
43,252,96067,5,2,1:2:0:0:
268,370,96649,1,10,0:3:0:0:
158,285,97232,1,2,1:2:0:0:
166,263,97426,1,0,0:0:0:0:
174,241,97620,1,0,1:2:0:0:
277,191,97814,1,10,0:3:0:0:
260,144,98008,1,0,1:2:0:0:
243,97,98202,1,2,0:0:0:0:
308,14,98397,5,2,1:2:0:0:
314,29,98785,5,0,1:2:0:0:
195,0,98979,1,10,1:3:0:0:
186,5,99562,5,2,1:2:0:0:
126,58,99756,1,0,1:2:0:0:
80,123,99950,1,0,1:2:0:0:
162,171,100144,2,0,L|154:130,2,34.9999989318848,10|0|2,1:3|1:2|1:2,0:0:0:0:
122,247,100533,1,2,1:2:0:0:
201,311,100727,6,0,P|276:328|311:350,2,100,6|2|0,1:2|1:2|0:0,0:0:0:0:
114,361,101309,1,10,1:2:0:0:
41,287,101503,1,2,1:2:0:0:
63,202,101698,1,2,1:2:0:0:
163,205,101892,6,0,B|272:184|248:280|362:239,1,200,2|0,1:2|1:2,0:0:0:0:
356,229,102377,1,0,1:2:0:0:
356,229,102474,1,8,0:0:0:0:
423,154,102669,2,0,L|484:144,1,50,2|0,0:0|0:0,0:0:0:0:
367,77,102863,2,0,L|317:85,1,50,2|0,0:0|0:0,0:0:0:0:
189,141,103057,6,0,P|208:88|196:32,1,100,2|2,1:2|1:2,0:0:0:0:
174,29,103348,1,0,0:0:0:0:
156,46,103445,1,2,0:0:0:0:
137,64,103542,1,0,0:0:0:0:
112,81,103639,2,0,L|-6:63,1,100,10|2,0:0|1:2,0:0:0:0:
0,156,104028,1,2,1:2:0:0:
104,157,104222,6,0,B|79:207|79:207|121:359,1,200,2|0,1:2|1:2,0:0:0:0:
123,370,104707,1,0,1:2:0:0:
123,370,104804,2,0,P|171:350|212:344,1,50,8|0,0:0|0:0,0:0:0:0:
197,334,104999,1,2,0:0:0:0:
240,340,105096,1,2,0:0:0:0:
271,366,105193,1,2,0:0:0:0:
305,369,105290,1,2,0:0:0:0:
337,355,105387,6,0,P|372:313|369:264,1,100,6|0,1:2|0:0,0:0:0:0:
292,205,105775,1,0,0:0:0:0:
292,205,105872,1,2,1:2:0:0:
292,205,105969,2,0,P|307:155|311:101,1,100,10|2,0:0|1:2,0:0:0:0:
265,33,106358,1,2,1:2:0:0:
366,45,106552,6,0,P|429:36|502:27,1,100,2|0,1:2|0:0,0:0:0:0:
505,99,106940,1,0,1:2:0:0:
449,162,107135,1,10,0:0:0:0:
498,250,107329,5,2,0:0:0:0:
478,336,107523,1,2,0:0:0:0:
404,384,107717,6,0,P|392:321|373:231,1,150,4|0,1:2|0:0,0:0:0:0:
353,219,108105,1,2,0:0:0:0:
386,118,108300,2,0,P|320:127|210:158,1,150,10|0,1:2|0:0,0:0:0:0:
231,170,108688,1,2,0:0:0:0:
112,148,108882,6,0,L|130:234,1,59.9999981689454,2|2,1:2|0:0,0:0:0:0:
191,275,109076,2,0,L|209:361,1,59.9999981689454,2|2,0:0|0:0,0:0:0:0:
128,168,109270,6,0,L|146:254,1,59.9999981689454,2|2,1:2|1:2,0:0:0:0:
207,295,109464,2,0,L|225:381,1,59.9999981689454,10|2,0:0|0:0,0:0:0:0:
128,369,109659,1,2,0:0:0:0:
105,350,109756,1,2,0:0:0:0:
74,344,109853,1,2,0:0:0:0:
52,351,109950,1,2,0:0:0:0:
26,369,110047,6,0,P|22:313|1:133,1,209.999993591309,6|0,1:2|0:0,0:0:0:0:
70,70,111018,1,0,0:0:0:0:
33,144,111212,1,2,0:0:0:0:
155,252,111989,5,0,0:0:0:0:
235,280,112183,1,0,0:0:0:0:
294,216,112377,6,0,P|342:206|446:192,1,139.999995727539,2|0,0:0|0:0,0:0:0:0:
467,101,112960,2,0,P|397:110|328:123,1,139.999995727539
262,66,113542,1,2,0:0:0:0:
8,339,114707,2,0,P|61:291|67:210,1,139.999995727539,2|0,0:0|0:0,0:0:0:0:
36,156,115290,2,0,P|34:118|23:63,2,69.9999978637696
136,58,115872,2,0,P|130:92|128:127,2,69.9999978637696,2|0|0,0:0|0:0|0:0,0:0:0:0:
228,154,116455,2,0,P|226:116|215:61,2,69.9999978637696
278,228,117037,6,0,P|353:218|497:194,1,220,2|0,0:0|0:0,0:0:0:0:
495,194,118203,6,0,B|507:98|363:93|270:224|351:342,1,375,2|0,0:0|0:0,0:0:0:0:
350,340,121698,6,0,P|310:287|326:224,1,129.999994049073,6|8,1:2|0:0,0:0:0:0:
380,155,122086,1,0,1:2:0:0:
389,141,122183,1,0,1:2:0:0:
398,129,122280,2,0,L|222:169,2,129.999994049073,8|2|2,0:0|1:2|0:0,0:0:0:0:
472,80,122863,6,0,P|439:63|430:32,1,64.9999970245363,2|0,1:2|0:0,0:0:0:0:
463,185,123057,2,0,P|450:214|420:225,1,64.9999970245363,8|0,0:0|0:0,0:0:0:0:
271,157,123251,1,0,1:2:0:0:
262,145,123348,1,0,1:2:0:0:
253,131,123445,2,0,L|281:-36,2,129.999994049073,8|8|8,0:0|3:0|3:0,0:0:0:0:
323,235,124028,6,0,P|262:246|243:305,1,129.999994049073,6|8,1:2|0:0,0:0:0:0:
372,351,124416,1,0,1:2:0:0:
400,366,124513,1,0,1:2:0:0:
420,361,124610,2,0,B|447:360|477:341|457:314|472:286|524:279,2,129.999994049073,8|2|2,0:0|1:2|0:0,0:0:0:0:
319,209,125193,6,0,L|337:112,1,64.9999970245363,2|0,1:2|0:0,0:0:0:0:
348,63,125387,2,0,L|366:-34,1,64.9999970245363,8|0,0:0|0:0,0:0:0:0:
419,115,125581,1,0,1:2:0:0:
243,16,125775,6,0,P|210:20|178:51,1,64.9999970245363,2|0,1:2|0:0,0:0:0:0:
89,29,125969,2,0,P|76:60|87:103,1,64.9999970245363,10|0,0:0|0:0,0:0:0:0:
24,169,126164,2,0,P|44:196|87:208,1,64.9999970245363,10|0,0:0|0:0,0:0:0:0:
177,270,126358,6,0,L|160:141,1,129.999994049073,6|8,1:2|0:0,0:0:0:0:
120,331,126746,1,0,1:2:0:0:
112,339,126843,1,0,1:0:0:0:
104,346,126940,2,0,P|184:352|288:355,2,129.999994049073,10|2|2,0:0|0:0|1:2,0:0:0:0:
201,256,127523,6,0,P|290:284|348:301,1,129.999994049073,2|8,1:2|0:0,0:0:0:0:
300,200,127911,1,2,1:2:0:0:
334,312,128105,1,2,1:2:0:0:
280,186,128299,6,0,P|316:119|392:120,2,160,10|10|6,0:0|0:0|1:2,0:0:0:0:
198,158,128882,1,8,0:0:0:0:
240,44,129076,1,2,1:2:0:0:
235,52,129173,1,0,1:2:0:0:
230,62,129270,2,0,L|412:37,2,129.999994049073,8|2|2,0:0|0:0|1:2,0:0:0:0:
209,151,129853,6,0,L|192:219,1,64.9999970245363,2|0,1:2|0:0,0:0:0:0:
104,276,130047,2,0,L|87:344,1,64.9999970245363,10|0,0:0|0:0,0:0:0:0:
198,158,130241,6,0,L|181:226,1,64.9999970245363,10|0,0:0|0:0,0:0:0:0:
93,283,130435,2,0,L|76:351,1,64.9999970245363,2|0,1:2|0:0,0:0:0:0:
201,375,130630,5,8,0:0:0:0:
227,354,130727,1,8,0:0:0:0:
256,365,130824,1,8,0:0:0:0:
281,342,130921,1,8,0:0:0:0:
307,350,131018,6,0,P|316:295|327:216,2,129.999994049073,6|8|0,1:2|0:0|1:2,0:0:0:0:
419,320,131503,1,0,1:2:0:0:
409,304,131600,2,0,P|483:319|508:368,1,129.999994049073,8|2,0:0|1:2,0:0:0:0:
365,205,131989,1,2,0:0:0:0:
500,177,132183,6,0,P|480:213|457:239,1,64.9999970245363,2|0,1:2|0:0,0:0:0:0:
349,197,132377,2,0,P|369:161|392:135,1,64.9999970245363,8|0,0:0|0:0,0:0:0:0:
441,66,132571,1,0,1:2:0:0:
454,51,132668,1,0,1:2:0:0:
465,33,132765,6,0,L|384:43,1,64.9999970245363,8|0,0:0|0:0,0:0:0:0:
312,49,132960,2,0,L|231:59,1,64.9999970245363,8|0,3:0|3:0,0:0:0:0:
131,73,133154,1,8,3:0:0:0:
123,84,133251,1,8,3:0:0:0:
113,99,133348,6,0,L|136:242,2,129.999994049073,6|8|0,1:2|0:0|1:2,0:0:0:0:
0,244,133833,1,0,1:2:0:0:
0,223,133931,2,0,P|65:254|53:323,1,129.999994049073,8|2,0:0|1:2,0:0:0:0:
50,308,134222,1,0,0:0:0:0:
50,308,134319,1,2,0:0:0:0:
170,376,134513,5,2,1:2:0:0:
215,288,134707,2,0,B|244:279|279:306|261:331|291:352|330:337,1,129.999994049073,8|0,0:0|1:2,0:0:0:0:
386,254,134998,1,0,0:0:0:0:
382,266,135096,2,0,P|356:237|349:208,1,64.9999970245363,2|0,1:2|0:0,0:0:0:0:
263,207,135290,2,0,P|266:169|281:143,1,64.9999970245363,10|0,0:0|0:0,0:0:0:0:
221,82,135484,2,0,P|250:56|279:49,1,64.9999970245363,10|0,0:0|0:0,0:0:0:0:
427,29,135678,6,0,L|408:107,1,75.000002861023,6|0,1:2|0:0,0:0:0:0:
507,223,135872,2,0,P|466:221|438:204,1,75.000002861023,8|0,0:0|0:0,0:0:0:0:
382,266,136066,2,0,P|354:235|347:204,1,75.000002861023,0|0,1:2|1:2,0:0:0:0:
263,207,136261,5,10,0:0:0:0:
195,145,136455,1,2,0:0:0:0:
243,68,136649,1,2,1:2:0:0:
176,158,136843,6,0,L|90:173,1,75.000002861023,2|0,1:2|0:0,0:0:0:0:
73,249,137037,2,0,L|0:262,1,75.000002861023,10|0,0:0|0:0,0:0:0:0:
66,337,137231,1,2,1:2:0:0:
63,346,137329,1,0,0:0:0:0:
59,356,137426,2,0,P|134:339|148:266,2,150.000005722046,10|10|10,0:0|0:0|0:0,0:0:0:0:
248,384,138008,6,0,L|234:299,1,75.000002861023,6|0,1:2|0:0,0:0:0:0:
284,232,138202,2,0,L|270:147,1,75.000002861023,8|0,0:0|0:0,0:0:0:0:
320,48,138397,1,2,1:2:0:0:
328,30,138494,1,0,1:2:0:0:
341,6,138591,6,0,L|355:91,1,75.000002861023,10|0,0:0|0:0,0:0:0:0:
305,158,138785,2,0,L|319:243,1,75.000002861023,2|0,0:0|0:0,0:0:0:0:
269,310,138979,2,0,L|283:395,1,75.000002861023,2|0,1:2|0:0,0:0:0:0:
422,373,139173,5,6,1:2:0:0:
395,340,139367,1,0,0:0:0:0:
413,264,139562,1,0,1:2:0:0:
490,183,139756,6,0,P|449:172|421:138,1,75.000002861023,2|0,1:2|0:0,0:0:0:0:
337,178,139950,6,0,P|316:142|321:98,1,75.000002861023,8|0,0:0|0:0,0:0:0:0:
233,67,140144,6,0,P|244:26|278:-2,1,75.000002861023,8|0,0:0|0:0,0:0:0:0:
452,5,140338,6,0,B|481:23|481:23|357:45,2,150.000005722046,6|10|10,1:2|0:0|0:0,0:0:0:0:
267,4,140921,2,0,L|276:104,1,75.000002861023,2|0,1:2|0:0,0:0:0:0:
193,105,141115,2,0,P|207:139|240:154,1,75.000002861023,8|0,0:0|0:0,0:0:0:0:
208,228,141309,2,0,P|242:243|276:230,1,75.000002861023,2|2,1:2|0:2,0:0:0:0:
353,264,141503,6,0,B|335:374|335:374|373:384,2,150.000005722046,2|8|8,1:2|0:0|0:0,0:0:0:0:
438,238,142086,2,0,L|421:140,1,75.000002861023,2|0,1:2|0:0,0:0:0:0:
499,127,142280,2,0,P|483:95|448:83,1,75.000002861023,8|0,0:0|0:0,0:0:0:0:
476,11,142474,2,0,P|441:0|409:16,1,75.000002861023,10|0,0:0|0:0,0:0:0:0:
258,81,142668,6,0,L|331:68,1,75.000002861023,6|0,1:2|0:0,0:0:0:0:
167,148,142863,2,0,L|76:164,1,75.000002861023,10|0,0:0|0:0,0:0:0:0:
244,69,143057,6,0,L|317:56,1,75.000002861023,10|0,0:0|0:0,0:0:0:0:
153,136,143252,2,0,L|62:152,1,75.000002861023,2|0,1:2|0:0,0:0:0:0:
36,239,143445,5,10,0:0:0:0:
3,325,143639,1,10,0:0:0:0:
110,365,143833,6,0,L|98:286,1,75.000002861023,2|0,1:2|0:0,0:0:0:0:
188,284,144028,2,0,L|239:218,1,75.000002861023,10|0,0:0|0:0,0:0:0:0:
301,282,144222,2,0,L|380:270,1,75.000002861023,10|0,0:0|0:0,0:0:0:0:
456,313,144416,5,2,1:2:0:0:
397,254,144610,1,8,0:0:0:0:
457,180,144804,1,2,1:2:0:0:
393,81,144998,6,0,P|391:104|385:78,1,75.000002861023,6|0,1:2|0:0,0:0:0:0:
282,103,145193,2,0,P|265:118|279:96,1,75.000002861023,8|0,0:0|0:0,0:0:0:0:
188,41,145387,2,0,P|165:39|191:33,1,75.000002861023,8|0,0:0|0:0,0:0:0:0:
180,124,145581,6,0,P|145:118|99:88,1,75.000002861023,2|0,1:2|0:0,0:0:0:0:
265,192,145775,2,0,P|234:213|198:222,1,75.000002861023,8|0,0:0|0:0,0:0:0:0:
367,172,145969,2,0,P|360:207|331:253,1,75.000002861023,8|0,0:0|0:0,0:0:0:0:
345,362,146164,6,0,B|317:335|317:335|323:374,1,75.000002861023,2|0,1:2|0:0,0:0:0:0:
231,298,146358,2,0,B|193:299|193:299|224:323,1,75.000002861023,8|0,0:0|0:0,0:0:0:0:
106,334,146552,2,0,B|79:362|79:362|118:356,1,75.000002861023,8|0,0:0|0:0,0:0:0:0:
43,259,146746,6,0,L|17:187,1,75.000002861023,2|0,1:2|0:0,0:0:0:0:
138,161,146940,2,0,L|70:129,1,75.000002861023,8|0,0:0|0:0,0:0:0:0:
137,25,147134,2,0,L|66:50,1,75.000002861023,10|0,0:0|0:0,0:0:0:0:
195,93,147329,5,6,1:2:0:0:
283,82,147523,1,10,0:0:0:0:
377,70,147717,1,10,0:0:0:0:
451,34,147911,2,0,P|398:131|376:197,2,150.000005722046,0|8|8,1:2|0:0|0:0,0:0:0:0:
487,210,148494,6,0,P|455:242|439:274,1,64.9999970245363,6|0,1:2|0:0,0:0:0:0:
368,298,148688,1,8,3:0:0:0:
383,316,148785,1,8,3:0:0:0:
396,337,148882,1,8,3:0:0:0:
405,359,148979,1,8,3:0:0:0:
412,383,149076,1,8,3:0:0:0:
259,340,149270,2,0,P|264:253|297:148,1,194.999991073609,0|0,1:2|0:0,0:0:0:0:
189,123,149659,6,0,B|232:86|232:86|193:154|182:224,1,194.999991073609,6|0,1:2|0:0,0:0:0:0:
50,349,150047,1,0,1:2:0:0:
60,356,150144,1,0,1:2:0:0:
73,363,150241,2,0,P|58:291|51:211,1,129.999994049073,10|8,0:0|0:0,0:0:0:0:
123,60,150630,2,0,P|160:87|192:85,1,64.9999970245363,0|0,1:2|0:0,0:0:0:0:
203,82,150824,6,0,B|176:50|112:70|122:116|76:156|28:142,1,194.999991073609,6|0,1:2|0:0,0:0:0:0:
9,120,151212,1,2,1:2:0:0:
127,205,151406,2,0,P|144:192|187:175,1,64.9999970245363,10|0,0:0|0:0,0:0:0:0:
254,248,151601,2,0,P|257:220|279:174,1,64.9999970245363,10|0,0:0|0:0,0:0:0:0:
372,223,151795,2,0,P|357:181|355:151,1,64.9999970245363,10|0,0:0|0:0,0:0:0:0:
464,99,151989,6,0,P|382:74|317:23,2,129.999994049073,6|8|2,1:2|0:0|1:2,0:0:0:0:
433,245,152571,2,0,L|348:214,1,64.9999970245363,10|0,0:0|0:0,0:0:0:0:
348,149,152766,2,0,L|274:154,1,64.9999970245363,10|0,0:0|0:0,0:0:0:0:
238,86,152960,2,0,L|151:105,1,64.9999970245363,10|0,0:0|0:0,0:0:0:0:
110,28,153154,6,0,P|41:62|24:143,1,129.999994049073,6|8,1:2|0:0,0:0:0:0:
149,271,153542,1,0,1:2:0:0:
160,274,153639,1,0,1:2:0:0:
171,277,153736,2,0,L|154:204,1,64.9999970245363,8|0,0:0|0:0,0:0:0:0:
236,120,153931,5,10,0:0:0:0:
253,114,154028,1,8,0:0:0:0:
272,109,154125,1,10,0:0:0:0:
291,103,154222,1,8,0:0:0:0:
315,98,154319,6,0,L|282:256,2,129.999994049073,6|8|0,1:2|0:0|1:2,0:0:0:0:
414,291,154901,2,0,L|389:163,2,129.999994049073,10|8|8,0:0|0:0|0:0,0:0:0:0:
508,68,155484,6,0,L|479:219,1,129.999994049073,6|8,1:2|0:0,0:0:0:0:
503,353,155872,2,0,P|466:328|416:327,1,64.9999970245363,0|0,1:0|0:0,0:0:0:0:
428,241,156066,2,0,P|387:260|361:303,1,64.9999970245363,2|0,1:2|0:0,0:0:0:0:
293,249,156261,2,0,P|289:293|313:337,1,64.9999970245363,10|0,0:0|0:0,0:0:0:0:
202,377,156455,2,0,P|205:332|181:288,1,64.9999970245363,10|0,0:0|0:0,0:0:0:0:
51,225,156649,6,0,B|78:255|78:255|175:229,2,129.999994049073,6|8|2,1:2|0:0|1:2,0:0:0:0:
147,92,157134,1,0,1:2:0:0:
147,92,157231,2,0,P|166:130|156:178,1,64.9999970245363,10|0,0:0|0:0,0:0:0:0:
275,163,157426,2,0,P|251:198|205:213,1,64.9999970245363,10|0,0:0|0:0,0:0:0:0:
295,312,157620,2,0,P|252:309|216:276,1,64.9999970245363,10|0,0:0|0:0,0:0:0:0:
167,365,157814,6,0,P|104:348|40:334,2,129.999994049073,6|8|0,1:2|0:0|1:2,0:0:0:0:
295,312,158397,2,0,P|326:317|356:332,1,64.9999970245363,8|0,0:0|0:0,0:0:0:0:
388,236,158591,1,8,0:0:0:0:
404,233,158688,1,8,0:0:0:0:
419,229,158785,1,2,1:2:0:0:
434,223,158882,1,0,1:2:0:0:
449,215,158979,6,0,P|432:253|425:301,1,64.9999970245363,6|0,1:2|0:0,0:0:0:0:
346,146,159173,2,0,P|350:187|368:232,1,64.9999970245363,10|0,0:0|0:0,0:0:0:0:
222,137,159367,2,0,P|246:170|284:200,1,64.9999970245363,2|0,1:2|1:0,0:0:0:0:
160,284,159562,6,0,P|158:247|148:212,1,64.9999970245363,10|0,0:0|0:0,0:0:0:0:
66,178,159756,2,0,P|82:144|91:109,1,64.9999970245363,2|0,1:2|0:0,0:0:0:0:
37,39,159950,2,0,P|68:18|93:-7,1,64.9999970245363,10|0,0:0|1:2,0:0:0:0:
173,51,160144,6,0,P|205:54|236:61,1,64.9999970245363,6|0,1:2|0:0,0:0:0:0:
324,21,160338,2,0,P|356:17|387:7,1,64.9999970245363,10|0,0:0|0:0,0:0:0:0:
377,133,160532,2,0,P|400:154|420:180,1,64.9999970245363,2|0,1:2|0:0,0:0:0:0:
512,19,160727,2,0,P|499:48|492:80,1,64.9999970245363,10|0,0:0|0:0,0:0:0:0:
489,225,160921,5,10,0:0:0:0:
464,246,161018,1,8,0:0:0:0:
445,272,161115,1,10,0:0:0:0:
431,301,161212,1,8,0:0:0:0:
423,333,161309,6,0,B|466:343|466:343|450:324,1,64.9999970245363,6|0,1:2|0:0,0:0:0:0:
316,305,161503,2,0,B|346:272|346:272|322:277,1,64.9999970245363,10|0,0:0|0:0,0:0:0:0:
238,383,161698,2,0,B|225:340|225:340|217:363,1,64.9999970245363,2|0,1:2|1:0,0:0:0:0:
137,243,161892,2,0,B|149:285|149:285|157:262,1,64.9999970245363,10|0,0:0|0:0,0:0:0:0:
64,373,162086,5,2,1:2:0:0:
66,340,162183,1,8,0:0:0:0:
64,308,162280,1,10,0:0:0:0:
55,277,162377,1,0,1:2:0:0:
40,247,162474,6,0,B|16:301|-7:324|-7:324|14:329|30:343,1,129.999994049073,6|8,1:2|0:0,0:0:0:0:
110,161,162863,1,2,1:2:0:0:
105,150,162960,1,0,1:2:0:0:
100,139,163057,2,0,P|23:155|-2:159,1,64.9999970245363,10|0,0:0|0:0,0:0:0:0:
20,43,163251,5,10,0:0:0:0:
51,50,163348,1,8,0:0:0:0:
83,57,163445,1,10,0:0:0:0:
115,62,163542,1,8,0:0:0:0:
147,68,163639,6,0,P|230:57|318:44,2,129.999994049073,6|8|0,1:2|0:0|1:2,0:0:0:0:
204,143,164125,1,0,1:2:0:0:
204,143,164222,6,0,P|236:138|268:134,1,64.9999970245363,8|0,0:0|0:0,0:0:0:0:
304,36,164416,2,0,P|323:61|343:87,1,64.9999970245363,10|0,0:0|0:0,0:0:0:0:
446,69,164610,2,0,P|433:99|421:129,1,64.9999970245363,10|0,0:0|0:0,0:0:0:0:
488,251,164804,6,0,B|485:210|485:210|519:127,2,129.999994049073,6|8|0,1:2|0:0|1:2,0:0:0:0:
373,349,165387,2,0,B|407:266|407:266|404:225,2,129.999994049073,2|10|10,1:2|0:0|0:0,0:0:0:0:
193,351,165969,6,0,B|245:337|245:337|267:313|267:313|319:294,1,129.999994049073,6|8,1:2|0:0,0:0:0:0:
132,242,166358,2,0,P|107:276|109:315,1,64.9999970245363,0|0,1:2|1:2,0:0:0:0:
114,313,166552,2,0,B|141:287|124:230|104:255|78:193|99:160,1,129.999994049073,8|0,0:0|0:0,0:0:0:0:
204,121,166843,1,8,0:0:0:0:
204,121,166940,2,0,P|182:145|177:177,1,64.9999970245363,2|0,1:2|0:0,0:0:0:0:
252,231,167134,6,0,P|330:213|416:188,2,129.999994049073,6|0|0,1:2|0:0|1:2,0:0:0:0:
305,78,167717,1,10,0:0:0:0:
456,150,167911,1,8,0:0:0:0:
468,313,168105,1,8,0:0:0:0:
306,368,168299,6,0,P|242:353|179:336,1,110.000003356934,6|10,1:2|0:0,0:0:0:0:
15,267,168688,1,2,1:2:0:0:
23,282,168785,1,2,1:2:0:0:
41,295,168882,2,0,P|82:285|128:272,1,55.0000016784668,10|0,0:0|0:0,0:0:0:0:
156,138,169076,1,10,0:0:0:0:
115,145,169173,1,10,0:0:0:0:
75,156,169270,1,2,1:2:0:0:
37,172,169367,1,2,1:2:0:0:
1,191,169464,6,0,P|7:231|11:268,1,55.0000016784668,4|0,1:2|0:0,0:0:0:0:
108,199,169659,2,0,P|111:171|115:144,1,55.0000016784668,10|0,0:0|0:0,0:0:0:0:
202,116,169853,2,0,P|199:89|196:62,1,55.0000016784668,2|0,1:2|0:0,0:0:0:0:
291,135,170047,5,10,3:0:0:0:
279,159,170144,1,10,3:0:0:0:
270,185,170241,1,10,3:0:0:0:
251,204,170338,5,8,3:0:0:0:
263,247,170435,1,10,3:0:0:0:
271,290,170532,1,8,3:0:0:0:
241,324,170630,6,0,L|262:200,1,110.000003356934,6|10,1:2|0:0,0:0:0:0:
436,248,171018,1,2,1:2:0:0:
439,256,171115,1,0,1:2:0:0:
442,265,171212,2,0,L|359:230,1,55.0000016784668,10|0,0:0|0:0,0:0:0:0:
484,194,171406,1,2,1:2:0:0:
475,234,171503,1,8,0:0:0:0:
467,274,171600,1,10,0:0:0:0:
459,315,171697,1,0,0:0:0:0:
452,356,171795,6,0,L|434:235,1,110.000003356934,2|8,1:2|0:0,0:0:0:0:
300,120,172183,1,0,1:2:0:0:
295,127,172280,1,8,0:0:0:0:
291,135,172377,2,0,L|378:113,1,55.0000016784668,2|0,1:2|0:0,0:0:0:0:
446,63,172571,1,10,0:0:0:0:
405,53,172668,1,10,0:0:0:0:
365,43,172765,1,10,0:0:0:0:
325,33,172863,1,10,0:0:0:0:
285,22,172960,6,0,P|199:40|141:49,2,110.000003356934,6|8|0,1:2|0:0|1:2,0:0:0:0:
205,153,173542,1,10,0:0:0:0:
197,138,173639,1,2,1:2:0:0:
189,123,173736,2,0,P|159:129|128:137,1,55.0000016784668,2|0,1:2|0:0,0:0:0:0:
83,220,173931,2,0,P|56:226|29:231,1,55.0000016784668,2|0,1:2|0:0,0:0:0:0:
6,82,174125,6,0,B|26:123|7:181|7:181|25:153|39:146,2,129.999994049073,6|2|2,1:2|1:2|1:2,0:0:0:0:
114,53,174707,2,0,B|118:103|169:147|169:147|136:131|119:132,2,150.000005722046,2|8|10,1:2|0:0|0:0,0:0:0:0:
254,52,175290,6,0,B|225:81|242:122|255:100|270:163|245:184,1,110.000003356934,4|10,1:2|0:0,0:0:0:0:
158,294,175678,1,2,1:2:0:0:
152,280,175775,1,2,1:2:0:0:
146,266,175872,2,0,P|198:278|220:285,1,55.0000016784668,10|0,0:0|0:0,0:0:0:0:
261,345,176066,5,2,1:2:0:0:
275,329,176164,2,0,P|327:317|361:309,1,64.9999970245363,10|0,0:0|0:0,0:0:0:0:
335,226,176358,5,2,1:2:0:0:
349,242,176456,2,0,P|401:254|435:262,1,64.9999970245363,6|0,1:2|0:0,0:0:0:0:
504,364,176649,5,10,3:0:0:0:
512,332,176746,1,10,3:0:0:0:
512,300,176843,1,8,3:0:0:0:
506,268,176940,1,10,3:0:0:0:
492,238,177037,6,0,B|465:329|465:329|480:391,2,129.999994049073,10|10|10,1:2|1:2|1:2,0:0:0:0:
396,114,177620,6,0,L|512:143,1,110.000003356934,6|8,1:2|0:0,0:0:0:0:
442,20,178008,2,0,L|345:42,2,55.0000016784668,2|0|10,1:2|1:2|0:0,0:0:0:0:
287,109,178397,1,2,0:0:0:0:
208,2,178591,1,2,1:2:0:0:
160,121,178785,6,0,L|53:94,1,110.000003356934,2|10,1:2|0:0,0:0:0:0:
14,232,179173,2,0,L|5:169,2,55.0000016784668,2|0|8,1:2|1:2|0:0,0:0:0:0:
125,368,179562,1,2,0:0:0:0:
48,330,179756,1,2,0:0:0:0:
174,297,179950,6,0,P|230:313|282:328,1,110.000003356934,2|10,1:2|0:0,0:0:0:0:
416,372,180338,2,0,L|405:305,2,55.0000016784668,2|0|8,1:2|1:2|0:0,0:0:0:0:
500,184,180727,2,0,L|479:302,1,110.000003356934,2|2,0:0|1:2,0:0:0:0:
360,99,181115,6,0,L|379:207,1,110.000003356934,2|8,1:2|0:0,0:0:0:0:
274,45,181503,2,0,L|259:129,2,55.0000016784668,0|0|8,1:2|1:2|0:0,0:0:0:0:
142,6,181892,1,2,0:0:0:0:
147,37,181989,1,2,0:0:0:0:
152,68,182086,1,2,0:0:0:0:
157,100,182183,1,2,0:0:0:0:
162,131,182280,6,0,P|62:120|11:115,1,110.000003356934,6|10,1:2|0:0,0:0:0:0:
14,232,182668,2,0,L|84:216,2,55.0000016784668,2|0|8,1:2|1:2|0:0,0:0:0:0:
6,242,183057,6,0,L|140:273,1,110.000003356934,2|2,0:0|1:2,0:0:0:0:
259,326,183445,2,0,L|393:295,1,110.000003356934,2|10,1:2|0:0,0:0:0:0:
482,230,183833,1,2,1:2:0:0:
456,384,184028,2,0,B|481:326|472:249|434:307|425:230|453:173,1,220.000006713867,10|2,1:2|1:2,0:0:0:0:
512,2,184610,2,0,B|451:-43|375:8|382:64|382:64|423:86,1,220.000006713867,6|2,1:2|1:2,0:0:0:0:
231,130,185193,2,0,B|264:53|350:68|350:68|419:101,1,220.000006713867,10|2,0:0|1:2,0:0:0:0:
253,237,185775,6,0,L|162:217,1,55.0000016784668,2|2,1:2|0:0,0:0:0:0:
148,158,185969,2,0,L|57:138,1,55.0000016784668,10|2,0:0|0:0,0:0:0:0:
243,245,186164,2,0,L|152:225,1,55.0000016784668,2|2,1:2|1:2,0:0:0:0:
138,166,186358,2,0,L|47:146,1,55.0000016784668,10|2,0:0|0:0,0:0:0:0:
19,35,186552,1,2,0:0:0:0:
15,62,186649,1,2,0:0:0:0:
10,89,186746,1,2,0:0:0:0:
4,116,186843,1,2,0:0:0:0:
0,142,186940,1,4,1:2:0:0:
256,192,196261,12,0,199757,0:0:0:0:
229,384,200922,6,0,P|305:366|411:348,1,129.999994049073,6|8,1:2|0:0,0:0:0:0:
475,266,201310,1,0,1:2:0:0:
471,281,201407,1,0,1:2:0:0:
467,296,201504,6,0,P|403:283|340:268,2,129.999994049073,8|2|2,0:0|1:2|0:0,0:0:0:0:
408,164,202087,2,0,P|358:171|341:178,1,64.9999970245363,2|0,1:2|0:0,0:0:0:0:
275,104,202281,2,0,P|247:129|228:177,1,64.9999970245363,8|0,0:0|0:0,0:0:0:0:
136,139,202475,1,0,1:2:0:0:
129,155,202572,1,0,1:2:0:0:
122,171,202669,2,0,P|132:243|146:333,2,129.999994049073,8|8|8,0:0|3:0|3:0,0:0:0:0:
1,45,203252,6,0,P|69:77|124:38,1,129.999994049073,6|8,1:2|0:0,0:0:0:0:
237,16,203640,1,0,1:2:0:0:
224,8,203737,1,0,1:2:0:0:
211,0,203834,2,0,P|219:89|227:145,2,129.999994049073,8|2|2,0:0|1:2|0:0,0:0:0:0:
330,141,204417,6,0,P|313:197|308:231,1,64.9999970245363,2|0,1:2|0:0,0:0:0:0:
245,287,204611,2,0,P|256:324|264:365,1,64.9999970245363,8|0,0:0|0:0,0:0:0:0:
349,290,204805,1,0,1:2:0:0:
114,382,204999,6,0,P|167:358|220:350,1,64.9999970245363,2|0,1:2|0:0,0:0:0:0:
151,271,205193,2,0,P|122:286|91:296,1,64.9999970245363,10|0,0:0|0:0,0:0:0:0:
0,321,205388,2,0,P|15:380|13:413,1,64.9999970245363,10|0,0:0|0:0,0:0:0:0:
43,191,205582,6,0,P|19:255|20:373,1,129.999994049073,6|8,1:2|0:0,0:0:0:0:
178,184,205970,1,0,1:2:0:0:
173,170,206067,1,0,1:0:0:0:
168,156,206164,2,0,P|96:163|-6:178,2,129.999994049073,10|2|2,0:0|0:0|1:2,0:0:0:0:
291,78,206747,6,0,P|341:92|386:101,1,64.9999970245363,2|0,1:2|0:0,0:0:0:0:
421,165,206941,2,0,P|471:151|516:142,1,64.9999970245363,8|0,0:0|0:0,0:0:0:0:
512,45,207135,1,2,1:2:0:0:
495,53,207232,1,0,1:2:0:0:
478,61,207329,1,10,0:0:0:0:
406,176,207523,6,0,L|394:40,2,129.999994049073,10|10|6,0:0|0:0|1:2,0:0:0:0:
468,294,208106,1,8,0:0:0:0:
331,367,208300,1,2,1:2:0:0:
316,359,208397,1,0,1:2:0:0:
301,351,208494,2,0,L|312:221,2,129.999994049073,8|2|2,0:0|1:2|1:2,0:0:0:0:
468,294,209077,6,0,P|423:306|396:311,1,64.9999970245363,2|0,1:2|0:0,0:0:0:0:
301,351,209271,2,0,P|269:357|237:366,1,64.9999970245363,10|0,0:0|0:0,0:0:0:0:
464,303,209465,6,0,P|419:315|392:320,1,64.9999970245363,10|0,0:0|0:0,0:0:0:0:
297,360,209659,2,0,P|265:366|233:375,1,64.9999970245363,2|0,1:2|0:0,0:0:0:0:
136,300,209854,1,8,0:0:0:0:
110,320,209951,1,8,0:0:0:0:
79,327,210048,1,8,0:0:0:0:
47,319,210145,1,8,0:0:0:0:
22,299,210242,6,0,P|31:227|40:154,2,129.999994049073,6|8|0,1:2|0:0|1:2,0:0:0:0:
132,241,210727,1,0,1:2:0:0:
145,224,210824,6,0,P|136:152|127:79,1,129.999994049073,8|2,0:0|1:2,0:0:0:0:
47,12,211213,1,2,0:0:0:0:
213,69,211407,2,0,P|254:54|284:22,1,64.9999970245363,2|0,1:2|0:0,0:0:0:0:
365,65,211601,2,0,P|381:36|391:-3,1,64.9999970245363,8|0,0:0|0:0,0:0:0:0:
475,73,211795,1,0,1:2:0:0:
493,77,211892,1,0,1:2:0:0:
507,89,211989,6,0,P|476:130|452:145,1,64.9999970245363,8|0,0:0|0:0,0:0:0:0:
404,213,212184,2,0,P|346:195|315:196,1,64.9999970245363,8|0,3:0|3:0,0:0:0:0:
237,144,212378,1,8,3:0:0:0:
208,145,212475,1,8,3:0:0:0:
182,150,212572,6,0,P|151:213|165:300,2,129.999994049073,6|8|0,1:2|0:0|1:2,0:0:0:0:
251,227,213057,1,0,1:2:0:0:
241,253,213155,2,0,P|180:299|151:379,1,129.999994049073,8|2,0:0|1:2,0:0:0:0:
176,359,213446,1,0,0:0:0:0:
193,374,213543,1,2,0:0:0:0:
348,324,213737,5,2,1:2:0:0:
489,362,213931,2,0,P|456:299|405:254,1,129.999994049073,8|2,0:0|1:2,0:0:0:0:
481,180,214222,1,0,0:0:0:0:
495,193,214320,2,0,P|503:234|522:273,1,64.9999970245363,2|0,1:2|0:0,0:0:0:0:
360,222,214514,2,0,P|392:248|432:265,1,64.9999970245363,10|0,0:0|0:0,0:0:0:0:
283,329,214708,2,0,P|324:328|366:316,1,64.9999970245363,10|0,0:0|0:0,0:0:0:0:
492,376,214902,6,0,P|455:367|418:367,1,75.000002861023,6|0,1:2|0:0,0:0:0:0:
355,310,215096,2,0,P|290:325|268:335,1,75.000002861023,8|0,0:0|0:0,0:0:0:0:
202,281,215290,2,0,P|153:330|140:354,1,75.000002861023,0|0,1:2|1:2,0:0:0:0:
46,303,215485,1,10,1:2:0:0:
7,381,215679,1,2,0:0:0:0:
128,340,215873,1,2,1:2:0:0:
121,253,216067,6,0,P|102:211|77:184,1,75.000002861023,2|0,1:2|0:0,0:0:0:0:
124,122,216261,2,0,P|89:108|52:101,1,75.000002861023,10|0,0:0|0:0,0:0:0:0:
39,0,216455,1,2,1:2:0:0:
16,13,216553,1,0,1:0:0:0:
0,32,216650,2,0,P|71:22|153:22,2,150.000005722046,10|10|10,0:0|0:0|0:0,0:0:0:0:
0,152,217232,2,0,P|9:142|81:117,1,75.000002861023,6|0,1:2|0:0,0:0:0:0:
158,97,217426,2,0,P|195:110|255:111,1,75.000002861023,8|0,0:0|0:0,0:0:0:0:
340,47,217621,1,2,1:2:0:0:
360,38,217718,1,0,1:2:0:0:
375,17,217815,6,0,L|359:112,1,75.000002861023,10|0,0:0|0:0,0:0:0:0:
304,158,218009,6,0,L|288:253,1,75.000002861023,2|0,1:2|0:0,0:0:0:0:
233,299,218203,6,0,L|217:394,1,75.000002861023,2|0,1:2|0:0,0:0:0:0:
355,360,218397,1,6,1:2:0:0:
389,327,218591,1,0,0:0:0:0:
472,302,218786,1,0,1:2:0:0:
503,381,218980,6,0,P|473:346|467:306,1,75.000002861023,2|0,1:2|0:0,0:0:0:0:
381,278,219174,6,0,P|396:234|427:209,1,75.000002861023,8|0,0:0|0:0,0:0:0:0:
409,120,219368,6,0,P|454:111|491:126,1,75.000002861023,8|0,0:0|0:0,0:0:0:0:
512,0,219562,6,0,P|440:18|367:3,2,150.000005722046,4|10|10,1:2|0:0|0:0,0:0:0:0:
481,119,220145,6,0,P|444:110|408:119,1,75.000002861023,2|0,1:2|0:0,0:0:0:0:
323,72,220339,2,0,P|286:80|250:71,1,75.000002861023,10|0,0:0|0:0,0:0:0:0:
157,121,220533,2,0,P|120:112|84:121,1,75.000002861023,2|2,1:2|1:2,0:0:0:0:
9,8,220727,6,0,P|69:65|48:143,2,150.000005722046,2|10|10,1:2|0:0|0:0,0:0:0:0:
110,213,221310,2,0,P|61:218|36:230,1,75.000002861023,2|0,1:2|0:0,0:0:0:0:
238,255,221504,2,0,P|217:299|215:327,1,75.000002861023,10|0,0:0|0:0,0:0:0:0:
338,165,221698,2,0,P|366:204|389:220,1,75.000002861023,10|0,0:0|0:0,0:0:0:0:
459,55,221892,6,0,L|361:79,1,75.000002861023,6|0,1:2|0:0,0:0:0:0:
300,47,222087,2,0,L|202:71,1,75.000002861023,10|0,0:0|0:0,0:0:0:0:
107,126,222280,2,0,L|198:171,1,75.000002861023,10|0,0:0|0:0,0:0:0:0:
264,153,222475,2,0,L|355:198,1,75.000002861023,2|0,1:2|0:0,0:0:0:0:
430,205,222669,1,10,0:0:0:0:
298,313,222863,1,10,0:0:0:0:
462,342,223057,6,0,P|428:302|369:296,1,75.000002861023,2|0,1:2|0:0,0:0:0:0:
307,233,223252,2,0,P|255:242|220:290,1,75.000002861023,10|0,0:0|0:0,0:0:0:0:
135,313,223446,2,0,P|117:362|141:416,1,75.000002861023,10|0,0:0|0:0,0:0:0:0:
9,220,223640,5,2,1:2:0:0:
62,133,223834,1,8,0:0:0:0:
143,135,224028,1,2,1:2:0:0:
194,235,224222,6,0,P|144:220|114:213,1,75.000002861023,6|0,1:2|0:0,0:0:0:0:
278,155,224417,2,0,P|265:104|257:74,1,75.000002861023,8|0,0:0|0:0,0:0:0:0:
383,186,224611,2,0,P|420:150|442:127,1,75.000002861023,8|0,0:0|0:0,0:0:0:0:
479,304,224805,6,0,P|442:295|407:284,1,75.000002861023,2|0,1:2|0:0,0:0:0:0:
383,186,224999,2,0,P|347:197|310:206,1,75.000002861023,8|0,0:0|0:0,0:0:0:0:
278,289,225193,2,0,P|241:280|206:269,1,75.000002861023,8|0,0:0|0:0,0:0:0:0:
113,191,225388,6,0,P|106:252|103:287,1,75.000002861023,2|0,1:2|0:0,0:0:0:0:
220,187,225582,2,0,P|216:149|211:112,1,75.000002861023,8|0,0:0|0:0,0:0:0:0:
28,90,225776,2,0,P|21:151|18:186,1,75.000002861023,8|0,0:0|0:0,0:0:0:0:
115,57,225970,6,0,P|70:67|30:77,1,75.000002861023,2|0,1:2|0:0,0:0:0:0:
211,112,226164,2,0,P|174:103|137:95,1,75.000002861023,8|0,0:0|0:0,0:0:0:0:
273,6,226358,2,0,P|236:14|199:22,1,75.000002861023,10|0,0:0|0:0,0:0:0:0:
361,102,226553,5,6,1:2:0:0:
451,77,226747,1,10,0:0:0:0:
499,3,226941,2,0,P|484:111|474:168,1,150.000005722046,10|0,0:0|1:2,0:0:0:0:
340,247,227329,1,8,0:0:0:0:
292,173,227523,2,0,P|307:281|317:338,1,150.000005722046,8|2,0:0|1:2,0:0:0:0:
413,365,227912,1,8,0:0:0:0:
511,344,228106,2,0,B|497:333|480:308|480:308|420:353|356:351,1,150.000005722046,8|2,0:0|1:2,0:0:0:0:
178,322,228494,1,8,0:0:0:0:
267,258,228688,2,0,P|279:297|272:344,1,75.000002861023,10|0,0:0|0:0,0:0:0:0:
96,376,228883,6,0,P|84:337|91:290,1,75.000002861023,6|0,1:2|0:0,0:0:0:0:
9,263,229077,2,0,P|36:233|80:215,1,75.000002861023,8|0,0:0|0:0,0:0:0:0:
63,131,229271,2,0,P|102:140|139:169,1,75.000002861023,8|0,0:0|0:0,0:0:0:0:
266,228,229465,6,0,P|256:188|225:151,1,75.000002861023,2|0,1:2|0:0,0:0:0:0:
282,86,229659,2,0,P|242:74|195:82,1,75.000002861023,8|0,0:0|0:0,0:0:0:0:
168,0,229853,2,0,P|138:28|121:72,1,75.000002861023,8|0,0:0|0:0,0:0:0:0:
18,72,230048,6,0,P|45:96|62:130,1,75.000002861023,2|0,1:2|0:0,0:0:0:0:
130,159,230242,2,0,P|101:203|82:235,1,75.000002861023,8|0,0:0|0:0,0:0:0:0:
110,305,230436,2,0,P|59:291|18:294,1,75.000002861023,8|0,0:0|0:0,0:0:0:0:
0,384,230630,2,0,P|70:366|156:344,2,150.000005722046,2|8|10,1:2|0:0|0:0,0:0:0:0:
255,383,231213,5,6,1:2:0:0:
216,288,231407,1,10,0:0:0:0:
271,194,231601,1,10,0:0:0:0:
219,57,231795,2,0,P|233:133|236:207,2,150.000005722046,0|8|8,1:2|0:0|0:0,0:0:0:0:
68,26,232378,2,0,P|147:110|166:189,2,150.000005722046,2|8|8,1:2|0:0|0:0,0:0:0:0:
0,138,232960,2,0,P|51:133|86:142,1,75.000002861023,2|0,1:2|0:0,0:0:0:0:
83,15,233155,2,0,P|123:48|141:79,1,75.000002861023,8|0,0:0|0:0,0:0:0:0:
237,54,233349,2,0,P|242:105|233:140,1,75.000002861023,10|0,0:0|0:0,0:0:0:0:
336,231,233543,6,0,P|345:185|362:148,1,75.000002861023,6|0,1:2|0:0,0:0:0:0:
327,85,233737,2,0,P|371:69|411:66,1,75.000002861023,8|0,0:0|0:0,0:0:0:0:
448,4,233931,2,0,P|483:34|506:68,1,75.000002861023,8|0,0:0|0:0,0:0:0:0:
482,196,234125,6,0,P|446:165|423:131,1,75.000002861023,2|0,1:2|0:0,0:0:0:0:
345,157,234320,2,0,P|329:112|326:72,1,75.000002861023,8|0,0:0|0:0,0:0:0:0:
222,71,234514,2,0,P|231:25|248:-12,1,75.000002861023,8|0,0:0|0:0,0:0:0:0:
125,6,234708,1,6,1:2:0:0:
125,6,235290,6,0,L|115:110,1,100,0|0,0:0|0:0,0:0:0:0:
30,147,235873,1,0,0:0:0:0:
100,202,236067,1,0,0:0:0:0:
191,145,236261,2,0,P|187:166|191:194,1,45.49999972229,0|0,0:0|0:0,0:0:0:0:
207,203,237038,5,2,0:0:0:0:
270,247,237232,1,2,0:0:0:0:
330,205,237426,1,2,0:0:0:0:
346,223,237620,5,2,0:0:0:0:
348,106,237814,1,2,0:0:0:0:
254,56,238008,1,2,0:0:0:0:
270,45,238203,6,0,L|275:73,1,25,10|0,0:0|0:0,0:0:0:0:
165,19,238397,2,0,L|186:44,1,25,10|0,0:0|0:0,0:0:0:0:
54,69,238591,2,0,P|82:83|93:85,1,25,10|0,0:0|0:0,0:0:0:0:
37,198,238785,2,0,P|71:178|77:175,1,25,10|0,0:0|0:0,0:0:0:0:
113,278,238979,1,10,0:0:0:0:
134,263,239076,1,10,0:0:0:0:
158,257,239173,1,10,0:0:0:0:
183,257,239271,1,10,0:0:0:0:
205,265,239368,6,0,P|200:324|189:398,2,119.999996337891,6|8|10,1:2|0:0|0:0,0:0:0:0:
274,198,239853,1,2,0:0:0:0:
293,217,239950,2,0,P|298:276|309:350,1,119.999996337891,2|10,1:2|0:0,0:0:0:0:
451,342,240338,1,8,0:0:0:0:
473,260,240533,6,0,B|441:257|416:239|416:239|405:268|375:300,2,119.999996337891,2|10|10,1:2|0:0|0:0,0:0:0:0:
471,163,241115,1,2,1:2:0:0:
370,117,241309,1,10,0:0:0:0:
321,217,241504,1,10,0:0:0:0:
206,155,241698,6,0,P|209:92|221:21,1,119.999996337891,6|8,1:2|0:0,0:0:0:0:
77,0,242086,1,10,0:0:0:0:
98,3,242183,1,2,0:0:0:0:
113,16,242280,2,0,P|122:75|124:135,2,119.999996337891,2|10|8,1:2|0:0|0:0,0:0:0:0:
1,152,242863,6,0,P|39:165|66:188,1,59.9999981689454,2|0,1:2|0:0,0:0:0:0:
71,270,243057,2,0,P|101:243|134:231,1,59.9999981689454,10|0,0:0|0:0,0:0:0:0:
208,268,243251,2,0,P|200:228|206:193,1,59.9999981689454,10|0,0:0|0:0,0:0:0:0:
286,165,243445,6,0,P|247:107|240:17,1,119.999996337891,2|8,1:2|0:0,0:0:0:0:
410,0,243834,1,8,3:0:0:0:
420,9,243931,1,8,3:0:0:0:
428,19,244028,6,0,P|389:77|382:167,1,119.999996337891,6|8,1:2|0:0,0:0:0:0:
479,279,244416,1,10,0:0:0:0:
469,270,244513,1,2,0:0:0:0:
461,260,244610,2,0,P|500:202|507:112,2,119.999996337891,2|10|8,1:2|0:0|0:0,0:0:0:0:
296,365,245193,5,2,1:2:0:0:
238,290,245387,1,10,0:0:0:0:
314,152,245581,1,10,0:0:0:0:
367,243,245775,5,2,1:2:0:0:
325,47,245970,1,10,0:0:0:0:
461,0,246164,1,10,0:0:0:0:
330,142,246358,6,0,P|246:124|182:108,1,119.999996337891,6|8,1:2|0:0,0:0:0:0:
56,49,246746,1,2,0:0:0:0:
73,60,246843,1,2,0:0:0:0:
87,70,246940,2,0,P|145:56|204:43,2,119.999996337891,2|10|8,1:2|0:0|0:0,0:0:0:0:
7,173,247523,1,2,1:2:0:0:
107,215,247717,5,10,0:0:0:0:
114,244,247814,1,8,0:0:0:0:
121,273,247911,1,10,0:0:0:0:
127,302,248008,1,8,0:0:0:0:
133,331,248105,2,0,P|195:320|264:312,1,119.999996337891,10|0,0:0|1:2,0:0:0:0:
375,229,248494,1,0,0:0:0:0:
371,243,248591,1,0,1:2:0:0:
367,255,248688,6,0,P|416:262|528:288,2,150.000005722046,6|8|2,1:2|0:0|1:2,0:0:0:0:
267,136,249173,1,2,1:2:0:0:
272,156,249271,2,0,P|344:120|335:59,1,150.000005722046,10|2,0:0|1:2,0:0:0:0:
256,0,249659,1,0,1:2:0:0:
150,166,249853,6,0,P|147:192|142:255,1,75.000002861023,6|0,1:2|0:0,0:0:0:0:
71,115,250047,2,0,P|68:141|63:204,1,75.000002861023,10|0,0:0|0:0,0:0:0:0:
143,149,250241,2,0,P|140:175|135:238,1,75.000002861023,2|0,1:2|1:2,0:0:0:0:
64,98,250435,2,0,P|61:124|56:187,1,75.000002861023,10|0,0:0|0:0,0:0:0:0:
1,2,250630,5,10,0:0:0:0:
38,8,250727,1,8,0:0:0:0:
74,15,250824,1,2,1:2:0:0:
111,23,250921,1,0,1:2:0:0:
147,32,251018,6,0,P|233:17|308:3,1,150.000005722046,6|8,1:2|0:0,0:0:0:0:
433,116,251406,1,2,1:2:0:0:
412,86,251504,1,2,1:2:0:0:
378,78,251601,6,0,P|291:93|214:107,1,150.000005722046,10|2,0:0|1:2,0:0:0:0:
154,150,251892,1,8,0:0:0:0:
138,167,251989,2,0,P|143:127|148:86,1,75.000002861023,0|0,1:2|0:0,0:0:0:0:
155,267,252183,6,0,P|110:280|66:289,1,75.000002861023,2|0,1:2|0:0,0:0:0:0:
286,259,252377,2,0,P|252:226|222:192,1,75.000002861023,10|0,0:0|0:0,0:0:0:0:
358,368,252571,2,0,P|369:322|383:279,1,75.000002861023,2|0,1:2|1:2,0:0:0:0:
448,226,252766,2,0,P|436:190|428:153,1,75.000002861023,10|0,0:0|0:0,0:0:0:0:
512,322,252960,1,8,0:0:0:0:
475,315,253057,1,8,0:0:0:0:
438,308,253154,1,8,0:0:0:0:
401,300,253251,1,8,0:0:0:0:
365,291,253348,6,0,P|283:307|191:329,1,150.000005722046,6|8,1:2|0:0,0:0:0:0:
46,334,253737,1,2,1:2:0:0:
62,354,253834,1,2,1:2:0:0:
85,361,253931,2,0,P|88:279|54:204,1,150.000005722046,10|2,0:0|1:2,0:0:0:0:
76,83,254222,1,8,0:0:0:0:
98,89,254319,2,0,P|117:137|143:171,1,75.000002861023,0|0,1:2|0:0,0:0:0:0:
315,223,254513,6,0,B|269:203|269:203|171:225,2,150.000005722046,2|10|2,1:2|0:0|1:2,0:0:0:0:
410,148,255096,2,0,B|360:157|360:157|266:110,2,150.000005722046,2|10|10,1:2|0:0|0:0,0:0:0:0:
474,31,255678,6,0,B|442:29|418:3|418:3|374:41|367:101,1,150.000005722046,6|8,1:2|0:0,0:0:0:0:
487,184,256067,1,2,1:2:0:0:
498,179,256164,1,2,1:2:0:0:
509,174,256261,2,0,P|503:97|499:5,1,150.000005722046,10|2,0:0|1:2,0:0:0:0:
386,47,256552,1,8,0:0:0:0:
398,62,256649,2,0,P|394:137|388:206,1,75.000002861023,0|0,1:2|0:0,0:0:0:0:
400,253,256843,1,6,1:2:0:0:
466,341,257038,5,2,0:0:0:0:
489,336,257135,1,0,1:2:0:0:
512,331,257232,1,2,1:2:0:0:
417,274,257426,1,2,1:2:0:0:
342,356,257620,1,8,0:0:0:0:
221,278,257814,1,8,0:0:0:0:
