osu file format v14

[General]
AudioFilename: audio.mp3
AudioLeadIn: 0
PreviewTime: 69028
Countdown: 0
SampleSet: Normal
StackLeniency: 0.7
Mode: 1
LetterboxInBreaks: 0
WidescreenStoryboard: 1

[Editor]
Bookmarks: 14278,27992,41706,55421
DistanceSpacing: 0.2
BeatDivisor: 2
GridSize: 4
TimelineZoom: 0.3999999

[Metadata]
Title:INVITE
TitleUnicode:INVITE
Artist:KINEMA106
ArtistUnicode:キネマ106
Creator:[-E S I A-]
Version:KANTAN
Source:
Tags:黒兎ウル Kurousagi Uru Tom jun-jun Featured Artist FA Mappers' Guild MPG Japanese Kinema 106 Rock J-rock Jrock English E_S_I_A [-E_S_I_A-] ESIA [-ESIA-]
BeatmapID:4116720
BeatmapSetID:1982302

[Difficulty]
HPDrainRate:9
CircleSize:2
OverallDifficulty:3
ApproachRate:10
SliderMultiplier:1.4
SliderTickRate:1

[Events]
//Background and Video events
0,0,"undangan.jpg",0,-80
//Break Periods
//Storyboard Layer 0 (Background)
//Storyboard Layer 1 (Fail)
//Storyboard Layer 2 (Pass)
//Storyboard Layer 3 (Foreground)
//Storyboard Layer 4 (Overlay)
//Storyboard Sound Samples

[TimingPoints]
564,428.571428571429,4,1,0,40,1,0
564,-100,4,1,0,40,0,0
14171,-100,4,1,0,60,0,0
27885,-100,4,1,0,70,0,0
41599,-100,4,1,0,75,0,0
55314,-100,4,1,0,80,0,0
69135,-100,4,1,0,100,0,1
93135,-100,4,1,0,80,0,0

[HitObjects]
289,263,564,5,0,0:0:0:0:
83,254,2278,1,8,0:0:0:0:
268,295,3992,1,8,0:0:0:0:
190,270,5706,1,0,0:0:0:0:
319,189,7421,1,0,0:0:0:0:
173,298,9135,1,8,0:0:0:0:
254,298,10849,1,8,0:0:0:0:
371,254,12564,1,0,0:0:0:0:
249,275,13421,1,8,0:0:0:0:
237,291,13849,1,0,0:0:0:0:
264,277,14278,1,12,0:0:0:0:
286,229,15135,1,8,0:0:0:0:
286,229,15992,1,8,0:0:0:0:
286,229,16849,1,8,0:0:0:0:
246,309,17278,1,0,0:0:0:0:
279,268,17706,1,8,0:0:0:0:
240,280,18564,1,8,0:0:0:0:
240,280,19421,1,8,0:0:0:0:
239,238,21135,1,8,0:0:0:0:
262,234,21564,1,0,0:0:0:0:
256,235,21992,1,8,0:0:0:0:
200,214,22849,1,8,0:0:0:0:
200,214,23706,1,8,0:0:0:0:
212,179,24135,1,0,0:0:0:0:
439,230,24564,1,8,0:0:0:0:
376,298,25421,1,8,0:0:0:0:
213,270,26278,1,8,0:0:0:0:
253,246,27992,1,12,0:0:0:0:
233,286,28849,1,8,0:0:0:0:
233,286,29706,1,8,0:0:0:0:
233,286,30564,1,8,0:0:0:0:
217,253,30992,1,0,0:0:0:0:
233,286,31421,1,8,0:0:0:0:
250,238,32278,1,8,0:0:0:0:
230,211,32706,1,8,0:0:0:0:
234,235,33135,1,0,0:0:0:0:
230,211,34849,1,8,0:0:0:0:
253,219,35278,1,0,0:0:0:0:
228,218,35706,1,8,0:0:0:0:
228,218,36564,1,8,0:0:0:0:
228,218,37421,1,8,0:0:0:0:
217,244,37849,1,0,0:0:0:0:
228,218,38278,1,8,0:0:0:0:
213,235,39135,1,8,0:0:0:0:
213,235,39564,1,8,0:0:0:0:
375,224,39992,1,0,0:0:0:0:
172,255,41706,1,12,0:0:0:0:
263,243,42564,1,8,0:0:0:0:
263,243,42992,1,0,0:0:0:0:
214,243,43421,1,8,0:0:0:0:
214,243,44278,1,8,0:0:0:0:
214,243,45135,1,8,0:0:0:0:
214,243,45992,1,8,0:0:0:0:
214,243,46421,1,8,0:0:0:0:
281,320,46849,1,0,0:0:0:0:
214,243,48564,1,8,0:0:0:0:
214,243,49421,1,8,0:0:0:0:
291,239,49849,1,0,0:0:0:0:
214,243,50278,1,8,0:0:0:0:
214,243,51135,1,8,0:0:0:0:
214,243,51992,1,8,0:0:0:0:
214,243,52849,1,8,0:0:0:0:
214,243,53278,1,8,0:0:0:0:
241,313,53706,1,0,0:0:0:0:
214,243,55421,1,12,0:0:0:0:
229,219,56278,1,8,0:0:0:0:
215,215,56706,1,8,0:0:0:0:
304,233,57135,1,0,0:0:0:0:
229,219,57992,1,8,0:0:0:0:
218,168,58421,1,0,0:0:0:0:
229,219,58849,1,8,0:0:0:0:
229,219,59706,1,8,0:0:0:0:
229,219,60564,1,0,0:0:0:0:
229,219,62278,1,8,0:0:0:0:
229,219,63135,1,8,0:0:0:0:
326,213,63564,1,8,0:0:0:0:
276,266,63992,1,0,0:0:0:0:
229,219,64849,1,8,0:0:0:0:
268,139,65278,1,0,0:0:0:0:
229,219,65706,1,8,0:0:0:0:
229,219,66564,1,8,0:0:0:0:
256,192,66992,12,0,67421,0:0:0:0:
353,252,68706,5,4,0:0:0:0:
245,254,69135,1,12,0:0:0:0:
242,209,69992,1,8,0:0:0:0:
253,249,70421,1,8,0:0:0:0:
159,245,70849,1,0,0:0:0:0:
152,217,71278,1,0,0:0:0:0:
223,225,71706,1,8,0:0:0:0:
271,229,72564,1,4,0:0:0:0:
203,179,73849,1,0,0:0:0:0:
247,265,74278,1,8,0:0:0:0:
207,290,74706,1,8,0:0:0:0:
393,288,75135,1,0,0:0:0:0:
226,273,75992,1,12,0:0:0:0:
277,247,76849,1,8,0:0:0:0:
253,249,77278,1,8,0:0:0:0:
159,245,77706,1,0,0:0:0:0:
179,225,78135,1,0,0:0:0:0:
223,225,78564,1,8,0:0:0:0:
155,277,79421,1,4,0:0:0:0:
215,224,80706,1,8,0:0:0:0:
162,189,81135,1,0,0:0:0:0:
87,260,81564,1,8,0:0:0:0:
195,281,81992,1,0,0:0:0:0:
247,198,82849,1,4,0:0:0:0:
242,209,83706,1,0,0:0:0:0:
253,249,84135,1,0,0:0:0:0:
159,245,84564,1,8,0:0:0:0:
181,228,84992,1,8,0:0:0:0:
223,225,85421,1,0,0:0:0:0:
271,229,86278,1,12,0:0:0:0:
187,223,87564,1,8,0:0:0:0:
191,193,87992,1,0,0:0:0:0:
261,270,88421,1,0,0:0:0:0:
277,272,88849,1,8,0:0:0:0:
226,273,89706,1,4,0:0:0:0:
277,247,90564,1,0,0:0:0:0:
253,249,90992,1,0,0:0:0:0:
159,245,91421,1,8,0:0:0:0:
186,240,91849,1,8,0:0:0:0:
223,225,92278,1,0,0:0:0:0:
224,201,93135,1,8,0:0:0:0:
224,201,94421,1,0,0:0:0:0:
304,216,94849,1,8,0:0:0:0:
277,272,95278,1,0,0:0:0:0:
304,216,95706,1,8,0:0:0:0:
