osu file format v14

[General]
AudioFilename: audio.mp3
AudioLeadIn: 0
PreviewTime: 131176
Countdown: 0
SampleSet: Soft
StackLeniency: 0.7
Mode: 0
LetterboxInBreaks: 0
WidescreenStoryboard: 1

[Editor]
Bookmarks: 96440,96518,96597,96676,96755,96834,96913,96992,97071,97150,97229,97308,97387,97466,97545,97624,97703,97782,97861,97940,98018,98097,98176,98255,98334,98413,98492,98571,98650,98729,98808,98887,98966,191966
DistanceSpacing: 0.3
BeatDivisor: 4
GridSize: 32
TimelineZoom: 2.2

[Metadata]
Title:Fumetsu no Gekijou
TitleUnicode:不滅の激情
Artist:KINEMA106
ArtistUnicode:キネマ106
Creator:SupaV
Version:Victory
Source:
Tags:艦隊これくしょん -艦これ- original song featured artist fa mappers mappers' guild mpg mg kancolle kantai collection fleet girls immortal passion kiso 木曾 no 41 dahkjdas leomine leominexd riene Tom kalon jun-jun japanese rock j-rock jrock female vocal vocals vocalist
BeatmapID:4437669
BeatmapSetID:1985962

[Difficulty]
HPDrainRate:6
CircleSize:3.8
OverallDifficulty:9
ApproachRate:9.3
SliderMultiplier:1.72
SliderTickRate:1

[Events]
//Background and Video events
0,0,"backed ground.jpg",0,0
//Break Periods
//Storyboard Layer 0 (Background)
//Storyboard Layer 1 (Fail)
//Storyboard Layer 2 (Pass)
//Storyboard Layer 3 (Foreground)
//Storyboard Layer 4 (Overlay)
//Storyboard Sound Samples

[TimingPoints]
440,315.789473684211,4,2,1,85,1,0
5018,-100,4,2,1,65,0,0
5176,-125,4,2,1,65,0,0
5492,-83.3333333333333,4,2,1,80,0,0
6913,-100,4,2,1,80,0,0
7229,-90.9090909090909,4,2,1,80,0,0
8018,-83.3333333333333,4,2,1,80,0,0
9440,-100,4,2,1,80,0,0
10545,-83.3333333333333,4,2,1,80,0,0
11966,-100,4,2,1,80,0,0
12282,-90.9090909090909,4,2,1,80,0,0
13071,-83.3333333333333,4,2,1,80,0,0
14808,-100,4,2,1,80,0,0
15597,-125,4,2,1,70,0,0
23492,-111.111111111111,4,2,1,70,0,0
25229,-111.111111111111,4,2,1,60,0,0
25703,-83.3333333333333,4,2,1,80,0,0
27124,-100,4,2,1,80,0,0
27440,-90.9090909090909,4,2,1,80,0,0
28229,-83.3333333333333,4,2,1,80,0,0
29966,-100,4,2,1,80,0,0
30755,-125,4,2,1,70,0,0
38650,-111.111111111111,4,2,1,70,0,0
40861,-100,4,2,1,65,0,0
41808,-166.666666666667,4,2,1,65,0,0
42124,-100,4,2,1,65,0,0
44650,-90.9090909090909,4,2,1,65,0,0
45913,-111.111111111111,4,2,1,65,0,0
46861,-166.666666666667,4,2,1,65,0,0
47176,-100,4,2,1,65,0,0
48440,-100,4,2,1,75,0,0
49703,-90.9090909090909,4,2,1,78,0,0
50966,-83.3333333333333,4,2,1,85,0,0
72597,-83.3333333333333,4,2,1,55,0,0
73703,-83.3333333333333,4,2,1,80,0,0
75124,-100,4,2,1,80,0,0
75440,-90.9090909090909,4,2,1,80,0,0
76229,-83.3333333333333,4,2,1,80,0,0
77650,-100,4,2,1,80,0,0
78755,-83.3333333333333,4,2,1,80,0,0
80176,-100,4,2,1,80,0,0
80492,-90.9090909090909,4,2,1,80,0,0
81282,-83.3333333333333,4,2,1,80,0,0
83018,-100,4,2,1,80,0,0
83808,-125,4,2,1,70,0,0
91703,-111.111111111111,4,2,1,70,0,0
96440,-111.111111111111,4,2,1,55,0,0
98966,-100,4,2,1,75,0,0
107808,-83.3333333333333,4,2,1,75,0,0
109071,-100,4,2,1,75,0,0
117913,-80,4,2,1,75,0,0
119176,-83.3333333333333,4,2,1,80,0,0
125492,-74.0740740740741,4,2,1,80,0,0
126755,-83.3333333333333,4,2,1,80,0,0
131808,-111.111111111111,4,2,1,65,0,0
132755,-166.666666666667,4,2,1,65,0,0
133071,-100,4,2,1,65,0,0
135597,-90.9090909090909,4,2,1,65,0,0
136861,-111.111111111111,4,2,1,65,0,0
137808,-166.666666666667,4,2,1,65,0,0
138124,-100,4,2,1,65,0,0
140650,-90.9090909090909,4,2,1,65,0,0
141913,-111.111111111111,4,2,1,65,0,0
142861,-166.666666666667,4,2,1,65,0,0
143176,-100,4,2,1,65,0,0
145703,-90.9090909090909,4,2,1,65,0,0
146966,-111.111111111111,4,2,1,65,0,0
147913,-166.666666666667,4,2,1,65,0,0
148229,-100,4,2,1,65,0,0
149492,-100,4,2,1,75,0,0
150755,-90.9090909090909,4,2,1,78,0,0
152018,-125,4,2,1,50,0,0
152334,-111.111111111111,4,2,1,50,0,0
152650,-90.9090909090909,4,2,1,50,0,0
152966,-90.9090909090909,4,2,1,70,0,0
153282,-83.3333333333333,4,2,1,85,0,0
179966,-83.3333333333333,4,2,1,55,0,0
181071,-83.3333333333333,4,2,1,80,0,0
182492,-100,4,2,1,80,0,0
182808,-90.9090909090909,4,2,1,80,0,0
183597,-83.3333333333333,4,2,1,80,0,0
185018,-100,4,2,1,80,0,0
186124,-83.3333333333333,4,2,1,80,0,0
187545,-100,4,2,1,80,0,0
187861,-90.9090909090909,4,2,1,80,0,0
188650,-83.3333333333333,4,2,1,80,0,0
190387,-100,4,2,1,80,0,0
191176,-90.9090909090909,4,2,1,80,0,0
191966,-90.9090909090909,4,2,1,5,0,0

[Colours]
Combo1 : 223,179,0
Combo2 : 107,216,35
Combo3 : 255,64,64
Combo4 : 68,122,65

[HitObjects]
181,254,5018,5,0,1:1:0:0:
10,143,5176,2,0,B|-2:189|-2:189|27:212|18:250,1,103.2,12|0,2:2|0:0,0:0:0:0:
24,329,5492,6,0,B|141:296|101:382|234:346,1,206.4,4|10,1:2|2:2,0:0:0:0:
361,219,5966,1,2,1:2:0:0:
361,219,6045,1,2,0:0:0:0:
361,219,6124,1,2,2:2:0:0:
183,274,6282,1,2,1:2:0:0:
412,384,6440,1,10,2:2:0:0:
247,196,6597,1,2,2:2:0:0:
481,147,6755,5,2,1:2:0:0:
481,147,6913,2,0,P|472:189|461:245,1,86,2|8,2:2|2:2,0:0:0:0:
278,0,7229,2,0,P|290:57|309:144,1,141.9,2|0,1:2|0:0,0:0:0:0:
389,84,7545,2,0,P|399:40|366:-14,1,94.6,2|8,1:2|2:2,0:0:0:0:
236,201,7861,1,2,2:2:0:0:
512,290,8018,6,0,B|395:257|435:343|302:307,1,206.4,2|10,1:2|2:2,0:0:0:0:
170,384,8492,1,2,1:2:0:0:
170,384,8571,1,2,0:0:0:0:
170,384,8650,1,2,2:2:0:0:
354,228,8808,1,2,1:2:0:0:
111,137,8966,1,10,2:2:0:0:
269,299,9124,1,2,2:2:0:0:
17,384,9282,5,2,1:2:0:0:
17,384,9440,2,0,P|8:342|-3:286,1,86,2|8,1:2|2:2,0:0:0:0:
199,189,9755,1,2,1:2:0:0:
199,189,9834,1,2,0:0:0:0:
199,189,9913,2,0,P|194:210|190:231,1,43,0|0,3:3|3:3,0:0:0:0:
46,79,10071,5,2,3:2:0:0:
83,98,10150,1,0,3:3:0:0:
126,98,10229,1,8,2:2:0:0:
164,78,10308,1,0,3:3:0:0:
188,43,10387,2,0,L|176:0,1,43,2|0,1:2|1:1,0:0:0:0:
380,193,10545,6,0,B|362:259|362:259|394:314|394:314|367:398,1,206.4,4|10,1:2|2:2,0:0:0:0:
277,187,11018,1,2,1:2:0:0:
277,187,11097,1,2,0:0:0:0:
277,187,11176,1,2,2:2:0:0:
475,274,11334,1,2,1:2:0:0:
246,384,11492,1,10,2:2:0:0:
398,179,11650,1,2,2:2:0:0:
179,276,11808,5,2,1:2:0:0:
179,276,11966,2,0,P|137:267|81:256,1,86,2|8,2:2|2:2,0:0:0:0:
338,111,12282,2,0,P|280:98|194:80,1,141.9,2|0,1:2|0:0,0:0:0:0:
244,7,12597,2,0,P|290:3|341:33,1,94.6,2|8,1:2|2:2,0:0:0:0:
228,188,12913,1,2,2:2:0:0:
12,0,13071,6,0,B|31:66|31:66|-1:121|-1:121|26:205,1,206.4,4|10,1:2|2:2,0:0:0:0:
116,342,13545,1,2,1:2:0:0:
116,342,13624,1,2,0:0:0:0:
116,342,13703,1,2,2:2:0:0:
227,156,13861,1,2,1:2:0:0:
0,293,14018,1,10,2:2:0:0:
218,384,14176,1,2,2:2:0:0:
95,123,14334,5,10,2:2:0:0:
274,299,14492,1,2,2:2:0:0:
26,384,14650,1,0,1:1:0:0:
241,142,14808,2,0,P|232:100|221:44,1,86,10|0,2:2|0:0,0:0:0:0:
122,231,15124,1,2,1:2:0:0:
340,47,15282,1,8,2:2:0:0:
115,7,15440,5,2,2:2:0:0:
115,7,15518,1,2,0:0:0:0:
115,7,15597,2,0,P|53:3|13:46,1,103.2,4|0,1:2|0:0,0:0:0:0:
0,58,15913,2,0,P|8:100|16:134,1,68.8,10|0,2:2|1:1,0:0:0:0:
130,153,16229,1,2,2:2:0:0:
130,153,16387,2,0,P|121:110|113:76,1,68.8,2|8,1:2|2:2,0:0:0:0:
63,226,16703,6,0,P|142:255|198:226,1,137.6,2|2,2:2|2:2,0:0:0:0:
272,143,17176,1,8,2:2:0:0:
101,18,17334,2,0,P|114:78|132:169,1,137.6,2|0,1:2|1:1,0:0:0:0:
212,65,17808,1,10,2:2:0:0:
212,65,17966,1,2,2:2:0:0:
366,165,18124,6,0,P|426:171|462:136,1,103.2,4|0,1:2|0:0,0:0:0:0:
489,104,18440,2,0,P|481:70|473:35,1,68.8,10|0,2:2|1:1,0:0:0:0:
328,0,18755,1,2,2:2:0:0:
328,0,18913,2,0,P|337:43|344:76,1,68.8,2|8,1:2|2:2,0:0:0:0:
413,173,19229,6,0,P|404:214|396:250,1,68.8,2|0,2:2|1:1,0:0:0:0:
385,359,19545,1,2,2:2:0:0:
285,282,19703,1,8,2:2:0:0:
397,367,19861,2,0,P|475:371|517:320,1,137.6,2|0,1:2|1:1,0:0:0:0:
398,240,20334,1,8,2:2:0:0:
512,23,20650,6,0,P|470:-4|408:14,1,103.2,4|0,1:2|0:0,0:0:0:0:
390,38,20966,2,0,P|354:33|319:28,1,68.8,10|0,2:2|1:1,0:0:0:0:
440,125,21282,1,2,2:2:0:0:
440,125,21440,2,0,P|476:120|511:115,1,68.8,2|8,1:2|2:2,0:0:0:0:
512,246,21755,6,0,P|460:281|376:257,1,137.6,2|2,2:2|2:2,0:0:0:0:
320,210,22229,1,8,2:2:0:0:
241,384,22387,2,0,P|233:327|224:261,1,103.2,2|0,1:2|0:0,0:0:0:0:
203,247,22703,2,0,P|207:209|211:171,1,68.8,2|8,1:2|2:2,0:0:0:0:
118,334,23018,5,2,2:2:0:0:
118,334,23097,1,2,0:0:0:0:
118,334,23176,1,4,1:2:0:0:
241,384,23334,1,2,2:2:0:0:
20,372,23492,2,0,P|4:338|21:282,1,77.4000000000001,10|0,2:2|1:1,0:0:0:0:
136,228,23808,5,2,2:2:0:0:
25,94,23966,2,0,P|35:144|46:189,1,77.4000000000001,2|8,1:2|2:2,0:0:0:0:
118,334,24282,5,2,2:2:0:0:
214,156,24440,1,2,1:2:0:0:
13,274,24597,1,8,2:2:0:0:
256,342,24755,5,10,2:2:0:0:
41,169,24913,1,2,1:2:0:0:
355,85,25703,6,0,B|238:52|278:138|145:102,1,206.4,4|10,1:2|2:2,0:0:0:0:
0,0,26176,1,2,1:2:0:0:
0,0,26255,1,2,0:0:0:0:
0,0,26334,1,2,2:2:0:0:
62,182,26492,1,2,1:2:0:0:
227,0,26650,1,10,2:2:0:0:
0,98,26808,1,2,2:2:0:0:
203,227,26966,5,2,1:2:0:0:
203,227,27124,2,0,P|194:185|183:129,1,86,2|8,2:2|2:2,0:0:0:0:
380,360,27440,2,0,P|392:303|411:216,1,141.9,2|0,1:2|0:0,0:0:0:0:
318,219,27755,2,0,P|294:259|296:308,1,94.6,2|8,1:2|2:2,0:0:0:0:
492,195,28071,1,2,2:2:0:0:
316,27,28229,6,0,B|333:94|333:94|298:147|298:147|321:233,1,206.4,4|10,1:2|2:2,0:0:0:0:
229,384,28703,1,2,1:2:0:0:
229,384,28782,1,2,0:0:0:0:
229,384,28861,1,2,2:2:0:0:
407,254,29018,1,2,1:2:0:0:
189,159,29176,1,10,2:2:0:0:
323,302,29334,1,2,2:2:0:0:
65,384,29492,5,10,2:2:0:0:
211,148,29650,1,2,2:2:0:0:
351,384,29808,1,0,1:1:0:0:
103,233,29966,2,0,P|94:191|83:135,1,86,10|0,2:2|0:0,0:0:0:0:
240,316,30282,1,2,1:2:0:0:
0,211,30440,1,8,2:2:0:0:
229,125,30597,5,2,2:2:0:0:
229,125,30676,1,2,0:0:0:0:
229,125,30755,2,0,P|252:76|237:24,1,103.2,4|0,1:2|0:0,0:0:0:0:
209,0,31071,2,0,P|167:9|117:18,1,68.8,10|0,2:2|1:1,0:0:0:0:
67,82,31387,1,2,2:2:0:0:
67,82,31545,2,0,P|25:73|-25:64,1,68.8,2|8,1:2|2:2,0:0:0:0:
108,186,31861,6,0,P|164:147|243:168,1,137.6,2|2,2:2|2:2,0:0:0:0:
317,223,32334,1,8,2:2:0:0:
210,371,32492,2,0,P|196:303|183:235,1,137.6,2|0,1:2|1:1,0:0:0:0:
293,309,32966,1,10,2:2:0:0:
293,309,33124,1,2,2:2:0:0:
101,374,33282,6,0,P|51:384|2:347,1,103.2,4|0,1:2|0:0,0:0:0:0:
0,314,33597,2,0,P|6:280|13:246,1,68.8,10|0,2:2|1:1,0:0:0:0:
77,169,33913,1,2,2:2:0:0:
77,169,34071,2,0,P|70:135|63:101,1,68.8,2|8,1:2|2:2,0:0:0:0:
188,220,34387,6,0,P|181:253|174:287,1,68.8,2|0,2:2|1:1,0:0:0:0:
201,374,34703,1,2,2:2:0:0:
88,289,34861,1,8,2:2:0:0:
212,384,35018,2,0,P|245:378|285:370,1,68.8,2|2,1:2|2:2,0:0:0:0:
341,282,35334,1,0,1:1:0:0:
341,282,35413,1,0,1:1:0:0:
341,282,35492,1,8,2:2:0:0:
497,384,35808,6,0,P|517:347|503:282,1,103.2,4|0,1:2|0:0,0:0:0:0:
497,247,36124,2,0,P|463:253|429:260,1,68.8,10|0,2:2|1:1,0:0:0:0:
347,181,36440,1,2,2:2:0:0:
347,181,36597,2,0,P|380:174|414:167,1,68.8,2|8,1:2|2:2,0:0:0:0:
512,73,36913,6,0,P|465:29|396:38,1,137.6,2|2,2:2|2:2,0:0:0:0:
323,100,37387,1,8,2:2:0:0:
229,0,37545,2,0,P|218:50|208:104,1,103.2,2|0,1:2|0:0,0:0:0:0:
180,136,37861,2,0,P|188:176|199:223,1,68.8,2|8,1:2|2:2,0:0:0:0:
254,328,38176,5,2,2:2:0:0:
254,328,38255,1,2,0:0:0:0:
254,328,38334,1,4,1:2:0:0:
114,261,38492,1,2,2:2:0:0:
287,188,38650,2,0,P|314:228|305:270,1,77.4000000000001,10|0,2:2|1:1,0:0:0:0:
179,384,38966,5,2,2:2:0:0:
88,254,39124,2,0,P|38:264|-8:273,1,77.4000000000001,2|8,1:2|2:2,0:0:0:0:
175,369,39440,5,2,2:2:0:0:
211,172,39597,2,0,P|261:182|307:191,1,77.4000000000001,2|0,1:2|0:0,0:0:0:0:
172,358,39913,5,10,2:2:0:0:
12,162,40071,2,0,P|0:128|15:82,1,77.4000000000001,2|0,1:2|0:0,0:0:0:0:
253,4,40387,5,10,2:2:0:0:
129,173,40545,1,10,2:2:0:0:
0,0,40703,1,10,2:2:0:0:
229,102,40861,6,0,B|260:145|260:145|233:217,2,129,4|0|0,1:2|1:1|1:1,0:0:0:0:
162,45,41413,1,0,1:1:0:0:
162,45,41492,1,8,2:2:0:0:
444,0,41808,6,0,B|435:37|435:37|437:40|437:40|425:85,1,77.3999999999998,2|0,2:2|0:0,0:0:0:0:
394,165,42124,6,0,B|436:192|436:192|518:172,2,129,4|0|0,1:2|1:1|1:1,0:0:0:0:
322,203,42676,1,0,1:1:0:0:
322,203,42755,1,2,3:2:0:0:
399,83,42992,5,2,3:2:0:0:
283,0,43229,5,2,3:2:0:0:
163,103,43387,6,0,P|118:139|6:111,1,172,4|0,1:2|0:0,0:0:0:0:
179,0,43861,1,2,1:2:0:0:
179,0,43940,1,0,1:1:0:0:
179,0,44018,1,10,2:2:0:0:
329,125,44255,5,2,2:2:0:0:
232,292,44492,5,2,2:2:0:0:
491,383,44650,6,0,P|511:342|492:276,1,94.6,4|0,1:2|0:0,0:0:0:0:
410,224,44887,2,0,P|390:265|409:331,1,94.6,2|0,2:2|0:0,0:0:0:0:
312,384,45124,5,2,1:2:0:0:
312,384,45203,1,0,1:1:0:0:
312,384,45282,1,0,1:1:0:0:
208,199,45440,1,0,3:3:0:0:
116,384,45597,1,2,3:2:0:0:
312,256,45755,1,0,3:3:0:0:
114,169,45913,6,0,B|90:211|90:211|117:296,2,116.1,4|0|0,1:2|1:1|1:1,0:0:0:0:
178,108,46466,1,0,1:1:0:0:
178,108,46545,1,8,2:2:0:0:
407,0,46861,6,0,B|397:35|397:35|399:38|399:38|390:75,1,77.3999999999998,2|0,2:2|0:0,0:0:0:0:
391,171,47176,6,0,B|434:151|434:151|518:176,2,129,4|0|0,1:2|1:1|1:1,0:0:0:0:
327,237,47729,1,0,1:1:0:0:
327,237,47808,1,2,3:2:0:0:
183,107,48045,5,2,3:2:0:0:
0,170,48282,5,2,3:2:0:0:
127,384,48440,5,10,2:2:0:0:
120,374,48913,5,10,2:2:0:0:
200,75,49071,1,10,2:2:0:0:
187,66,49545,5,10,2:2:0:0:
333,357,49703,6,0,P|385:358|420:326,1,94.6,12|0,1:2|0:0,0:0:0:0:
375,199,49940,2,0,P|348:243|358:289,1,94.6,12|0,1:2|0:0,0:0:0:0:
481,384,50176,2,0,P|521:317|505:247,1,141.9,12|0,1:2|0:0,0:0:0:0:
470,170,50492,5,0,3:3:0:0:
471,163,50571,1,0,3:3:0:0:
472,156,50650,1,8,2:2:0:0:
473,149,50729,1,0,3:3:0:0:
475,142,50808,1,8,2:2:0:0:
477,135,50887,1,8,2:2:0:0:
478,128,50966,6,0,P|468:78|456:15,1,103.2,4|0,1:2|0:0,0:0:0:0:
258,226,51282,1,10,2:2:0:0:
512,315,51440,1,0,1:1:0:0:
278,125,51597,1,10,2:2:0:0:
384,384,51755,1,0,1:1:0:0:
506,109,51913,1,8,2:2:0:0:
293,330,52071,5,2,1:2:0:0:
293,330,52150,1,0,1:1:0:0:
293,330,52229,1,8,2:2:0:0:
109,132,52387,1,2,1:2:0:0:
360,264,52545,1,10,2:2:0:0:
78,384,52703,1,0,1:1:0:0:
335,181,52861,1,10,2:2:0:0:
105,13,53018,5,0,1:1:0:0:
105,13,53097,1,0,1:1:0:0:
105,13,53176,2,0,P|53:5|-9:-2,1,103.2,8|0,2:2|0:0,0:0:0:0:
228,230,53492,6,0,P|247:189|232:130,1,103.2,4|2,1:2|2:2,0:0:0:0:
0,295,53808,1,10,2:2:0:0:
197,375,53966,2,0,P|246:367|310:359,1,103.2,2|0,2:2|1:1,0:0:0:0:
342,384,54203,1,0,1:1:0:0:
342,384,54282,1,2,1:2:0:0:
163,175,54440,1,10,2:2:0:0:
383,285,54597,1,2,3:2:0:0:
275,4,54755,6,0,L|285:74,1,51.6,10|0,2:2|0:0,0:0:0:0:
271,325,54913,1,8,2:2:0:0:
429,77,55229,5,2,1:2:0:0:
210,384,55545,5,2,1:2:0:0:
0,139,55861,5,0,3:3:0:0:
0,139,55940,1,0,3:3:0:0:
0,139,56018,2,0,P|46:133|115:122,1,103.2,4|0,1:2|0:0,0:0:0:0:
278,0,56334,1,10,2:2:0:0:
215,227,56492,1,0,1:1:0:0:
78,33,56650,1,10,2:2:0:0:
338,135,56808,1,0,1:1:0:0:
42,283,56966,1,8,2:2:0:0:
266,89,57124,5,2,1:2:0:0:
266,89,57203,1,0,1:1:0:0:
266,89,57282,1,8,2:2:0:0:
206,303,57440,1,2,1:2:0:0:
421,77,57597,1,10,2:2:0:0:
368,365,57755,1,0,1:1:0:0:
153,94,57913,1,10,2:2:0:0:
443,294,58071,5,0,1:1:0:0:
443,294,58150,1,0,1:1:0:0:
443,294,58229,2,0,P|474:335|455:408,1,103.2,8|0,2:2|0:0,0:0:0:0:
256,166,58545,6,0,P|264:114|272:54,1,103.2,4|2,1:2|2:2,0:0:0:0:
126,259,58861,1,10,2:2:0:0:
361,157,59018,1,2,2:2:0:0:
191,13,59176,2,0,P|137:5|87:39,1,103.2,2|0,1:2|3:3,0:0:0:0:
68,65,59413,1,2,3:2:0:0:
68,65,59492,1,8,2:2:0:0:
234,259,59650,1,10,2:2:0:0:
0,177,59808,6,0,P|74:163|175:145,1,154.8,4|0,1:2|0:0,0:0:0:0:
197,141,60124,1,10,2:2:0:0:
54,344,60282,1,2,1:2:0:0:
54,344,60361,1,0,1:1:0:0:
54,344,60440,2,0,P|17:299|27:254,1,103.2,0|10,1:1|2:2,0:0:0:0:
229,375,60755,1,2,1:2:0:0:
362,143,60913,5,0,3:3:0:0:
362,143,60992,1,0,3:3:0:0:
362,143,61071,2,0,P|414:152|487:165,1,103.2,4|0,1:2|0:0,0:0:0:0:
232,384,61387,1,10,2:2:0:0:
439,239,61545,1,0,1:1:0:0:
168,107,61703,1,10,2:2:0:0:
342,328,61861,1,0,1:1:0:0:
406,27,62018,1,8,2:2:0:0:
207,242,62176,5,2,1:2:0:0:
207,242,62255,1,0,1:1:0:0:
207,242,62334,1,8,2:2:0:0:
429,117,62492,1,2,1:2:0:0:
118,0,62650,1,10,2:2:0:0:
356,175,62808,1,0,1:1:0:0:
55,260,62966,1,10,2:2:0:0:
297,26,63124,5,0,1:1:0:0:
297,26,63203,1,0,1:1:0:0:
297,26,63282,2,0,P|287:78|274:150,1,103.2,8|0,2:2|0:0,0:0:0:0:
369,349,63597,6,0,P|392:308|376:248,1,103.2,4|2,1:2|2:2,0:0:0:0:
192,99,63913,1,10,2:2:0:0:
91,251,64071,2,0,P|101:303|114:375,1,103.2,2|0,2:2|1:1,0:0:0:0:
149,384,64308,1,0,1:1:0:0:
149,384,64387,1,2,1:2:0:0:
0,213,64545,1,10,2:2:0:0:
279,302,64703,1,2,3:2:0:0:
174,32,64861,6,0,L|169:95,1,51.6,10|0,2:2|0:0,0:0:0:0:
193,308,65018,1,8,2:2:0:0:
33,33,65334,5,2,1:2:0:0:
149,384,65650,5,2,1:2:0:0:
411,188,65966,5,0,1:1:0:0:
411,188,66045,1,0,1:1:0:0:
411,188,66124,2,0,P|433:137|409:82,1,103.2,4|0,1:2|0:0,0:0:0:0:
209,293,66440,1,10,2:2:0:0:
463,370,66597,1,0,1:1:0:0:
237,129,66755,1,10,2:2:0:0:
331,383,66913,1,0,1:1:0:0:
433,78,67071,1,8,2:2:0:0:
304,290,67229,5,2,1:2:0:0:
304,290,67308,1,0,1:1:0:0:
304,290,67387,1,8,2:2:0:0:
181,61,67545,1,2,1:2:0:0:
92,329,67703,1,10,2:2:0:0:
312,85,67861,1,0,1:1:0:0:
424,384,68018,1,10,2:2:0:0:
136,221,68176,5,0,1:1:0:0:
136,221,68255,1,0,1:1:0:0:
136,221,68334,2,0,P|84:213|22:206,1,103.2,8|0,2:2|0:0,0:0:0:0:
262,0,68650,6,0,P|290:45|272:106,1,103.2,4|2,1:2|2:2,0:0:0:0:
181,329,68966,1,10,2:2:0:0:
81,99,69124,1,2,2:2:0:0:
327,206,69282,2,0,P|379:198|442:187,1,103.2,2|0,1:2|3:3,0:0:0:0:
462,165,69518,1,2,3:2:0:0:
462,165,69597,1,0,3:3:0:0:
365,375,69755,1,2,1:2:0:0:
197,165,69913,6,0,P|167:87|205:22,1,154.8,4|0,1:2|0:0,0:0:0:0:
238,0,70229,1,10,2:2:0:0:
85,217,70387,1,2,3:2:0:0:
85,217,70466,1,0,3:3:0:0:
85,217,70545,1,0,1:1:0:0:
0,64,70703,1,2,1:2:0:0:
234,256,70861,2,0,P|225:305|217:380,1,103.2,10|0,2:2|1:1,0:0:0:0:
428,99,71176,5,12,2:2:0:0:
164,44,71334,1,0,1:1:0:0:
440,101,71492,5,8,2:2:0:0:
166,213,71650,1,0,1:1:0:0:
512,321,71808,5,8,2:2:0:0:
293,110,71966,1,2,1:2:0:0:
293,110,72045,1,0,1:1:0:0:
293,110,72124,1,10,2:2:0:0:
391,384,72282,1,2,1:2:0:0:
502,23,72440,5,10,2:2:0:0:
289,336,72597,1,8,2:2:0:0:
242,0,73703,6,0,B|222:67|222:67|257:120|257:120|234:206,1,206.4,4|10,1:2|2:2,0:0:0:0:
311,367,74176,1,2,1:2:0:0:
311,367,74255,1,2,2:2:0:0:
311,367,74334,1,2,2:2:0:0:
148,188,74492,1,2,1:2:0:0:
414,298,74650,1,10,2:2:0:0:
164,384,74808,1,2,2:2:0:0:
340,211,74966,5,2,1:2:0:0:
340,211,75124,2,0,P|382:202|438:191,1,86,2|8,2:2|2:2,0:0:0:0:
220,4,75440,2,0,P|277:16|364:35,1,141.9,2|0,1:2|0:0,0:0:0:0:
320,113,75755,2,0,P|277:120|233:93,1,94.6,2|8,1:2|2:2,0:0:0:0:
115,0,76071,1,2,2:2:0:0:
0,258,76229,6,0,B|117:225|77:311|207:275,1,206.4,2|10,1:2|2:2,0:0:0:0:
329,199,76703,1,2,1:2:0:0:
329,199,76782,1,2,2:2:0:0:
329,199,76861,1,2,2:2:0:0:
242,384,77018,1,2,1:2:0:0:
138,144,77176,1,10,2:2:0:0:
340,321,77334,1,2,2:2:0:0:
449,89,77492,5,2,1:2:0:0:
449,89,77650,2,0,P|440:47|429:-9,1,86,2|8,1:2|2:2,0:0:0:0:
251,0,77966,1,2,1:2:0:0:
251,0,78045,1,2,2:2:0:0:
251,0,78124,2,0,P|255:21|259:42,1,43,0|0,3:3|3:3,0:0:0:0:
177,201,78282,5,2,3:2:0:0:
150,167,78361,1,0,3:3:0:0:
112,148,78440,1,8,2:2:0:0:
69,149,78518,1,0,3:3:0:0:
32,168,78597,2,0,P|36:189|40:210,1,43,2|0,1:2|1:1,0:0:0:0:
269,384,78755,6,0,B|284:313|284:313|245:263|245:263|265:175,1,206.4,4|10,1:2|2:2,0:0:0:0:
433,56,79229,1,2,1:2:0:0:
433,56,79308,1,2,2:2:0:0:
433,56,79387,1,2,2:2:0:0:
343,237,79545,1,2,1:2:0:0:
225,0,79703,1,10,2:2:0:0:
401,148,79861,1,2,2:2:0:0:
172,236,80018,5,2,1:2:0:0:
172,236,80176,2,0,P|181:194|192:138,1,86,2|8,2:2|2:2,0:0:0:0:
369,357,80492,2,0,P|357:300|338:213,1,141.9,2|0,1:2|0:0,0:0:0:0:
428,228,80808,2,0,P|457:269|449:316,1,94.6,2|8,1:2|2:2,0:0:0:0:
280,384,81124,1,2,2:2:0:0:
460,140,81282,6,0,B|343:107|383:193|253:157,1,206.4,4|10,1:2|2:2,0:0:0:0:
136,0,81755,1,2,1:2:0:0:
136,0,81834,1,2,2:2:0:0:
136,0,81913,1,2,2:2:0:0:
310,78,82071,1,2,1:2:0:0:
78,214,82229,1,10,2:2:0:0:
228,24,82387,1,2,2:2:0:0:
306,281,82545,5,10,2:2:0:0:
71,90,82703,1,2,2:2:0:0:
168,330,82861,1,0,1:1:0:0:
337,95,83018,2,0,P|379:104|435:115,1,86,10|0,2:2|0:0,0:0:0:0:
242,0,83334,1,2,1:2:0:0:
154,248,83492,1,8,2:2:0:0:
400,199,83650,5,2,2:2:0:0:
400,199,83729,1,2,2:2:0:0:
400,199,83808,2,0,P|442:208|482:215,1,68.8,4|0,1:2|1:1,0:0:0:0:
499,245,84045,1,0,1:1:0:0:
499,245,84124,2,0,P|514:278|503:330,1,68.8,10|0,2:2|1:1,0:0:0:0:
417,384,84440,1,2,1:2:0:0:
417,384,84597,2,0,P|408:342|399:296,1,68.8,2|8,1:2|2:2,0:0:0:0:
288,221,84913,6,0,P|258:271|289:357,1,137.6,2|2,1:2|1:2,0:0:0:0:
395,283,85387,1,8,2:2:0:0:
336,131,85545,2,0,P|274:140|188:152,1,137.6,2|0,1:2|1:1,0:0:0:0:
146,242,86018,1,10,2:2:0:0:
146,242,86176,1,2,2:2:0:0:
0,169,86334,6,0,P|9:127|18:81,1,68.8,4|0,1:2|1:1,0:0:0:0:
43,67,86571,1,0,1:1:0:0:
43,67,86650,2,0,P|34:25|25:-21,1,68.8,10|0,2:2|1:1,0:0:0:0:
151,92,86966,1,2,1:2:0:0:
151,92,87124,2,0,P|142:134|133:180,1,68.8,2|8,1:2|2:2,0:0:0:0:
224,276,87440,6,0,P|234:243|211:196,1,68.8,2|0,1:2|1:1,0:0:0:0:
113,330,87755,1,2,1:2:0:0:
263,384,87913,1,8,2:2:0:0:
101,321,88071,2,0,P|108:276|126:171,1,137.6,2|0,1:2|1:1,0:0:0:0:
229,120,88545,1,8,2:2:0:0:
229,120,88624,1,8,2:2:0:0:
229,120,88703,1,8,2:2:0:0:
30,0,88861,6,0,P|19:31|30:73,1,68.8,4|0,1:2|1:1,0:0:0:0:
55,95,89097,1,0,1:1:0:0:
55,95,89176,2,0,P|97:86|142:77,1,68.8,10|0,2:2|1:1,0:0:0:0:
229,120,89492,1,2,1:2:0:0:
229,120,89650,2,0,P|271:111|317:102,1,68.8,2|8,1:2|2:2,0:0:0:0:
417,169,89966,6,0,P|443:130|404:36,1,137.6,2|2,1:2|1:2,0:0:0:0:
322,189,90440,1,8,2:2:0:0:
478,256,90597,2,0,P|465:316|453:369,1,103.2,2|0,1:2|0:0,0:0:0:0:
410,380,90913,2,0,P|377:384|340:368,1,68.8,2|8,1:2|2:2,0:0:0:0:
249,269,91229,1,2,2:2:0:0:
424,158,91387,5,4,1:2:0:0:
355,279,91545,1,2,1:2:0:0:
355,279,91624,1,0,1:1:0:0:
355,279,91703,2,0,P|343:228|333:183,1,77.4000000000001,10|0,2:2|1:1,0:0:0:0:
455,356,92018,5,2,1:2:0:0:
266,344,92176,2,0,P|254:293|244:248,1,77.4000000000001,2|8,1:2|2:2,0:0:0:0:
142,175,92492,5,2,1:2:0:0:
272,66,92650,2,0,P|260:116|254:162,1,77.4000000000001,2|0,1:2|1:1,0:0:0:0:
175,0,92966,5,10,2:2:0:0:
382,37,93124,2,0,P|370:87|360:132,1,77.4000000000001,2|0,2:2|1:1,0:0:0:0:
345,270,93440,1,2,1:2:0:0:
512,173,93597,5,10,2:2:0:0:
480,177,93676,1,8,2:2:0:0:
450,182,93755,1,10,2:2:0:0:
420,188,93834,1,10,2:2:0:0:
389,193,93913,1,4,1:2:0:0:
275,322,94071,5,2,1:2:0:0:
275,322,94150,1,0,1:1:0:0:
275,322,94229,2,0,P|255:286|259:250,1,77.4000000000001,10|0,2:2|1:1,0:0:0:0:
325,76,94545,5,2,1:2:0:0:
183,167,94703,2,0,P|233:155|278:145,1,77.4000000000001,2|8,1:2|2:2,0:0:0:0:
88,81,95018,5,2,1:2:0:0:
183,268,95176,2,0,P|233:256|278:246,1,77.4000000000001,2|0,1:2|1:1,0:0:0:0:
97,384,95492,5,10,2:2:0:0:
0,230,95650,2,0,P|-9:194|8:147,1,77.4000000000001,2|0,1:2|1:1,0:0:0:0:
173,53,95966,5,2,1:2:0:0:
90,207,96124,1,10,2:2:0:0:
0,0,96282,1,10,2:2:0:0:
209,165,96440,1,4,1:2:0:0:
388,6,98966,6,0,P|480:11|511:93,1,172,4|10,1:2|2:2,0:0:0:0:
335,223,99440,2,0,P|344:181|356:128,1,86,2|0,1:2|0:0,0:0:0:0:
289,0,99755,1,2,1:2:0:0:
457,143,99913,1,10,2:2:0:0:
206,189,100071,6,0,B|116:170|116:170|88:217|33:210,1,172,2|0,2:2|0:0,0:0:0:0:
255,384,100545,2,0,P|245:342|236:300,1,86,8|0,2:2|1:1,0:0:0:0:
326,171,100861,1,2,2:2:0:0:
326,171,100940,1,2,2:2:0:0:
326,171,101018,1,2,1:2:0:0:
127,274,101176,1,10,2:2:0:0:
391,371,101334,6,0,P|479:366|506:287,1,172,2|2,2:2|2:2,0:0:0:0:
326,171,101808,2,0,P|284:181|243:190,1,86,10|0,2:2|1:1,0:0:0:0:
429,298,102124,1,2,2:2:0:0:
488,108,102282,1,2,1:2:0:0:
326,268,102440,1,10,2:2:0:0:
119,72,102597,6,0,B|209:53|209:53|236:93|294:96,1,172,2|2,2:2|1:2,0:0:0:0:
419,170,103071,1,8,2:2:0:0:
289,0,103229,1,0,1:1:0:0:
189,226,103387,1,2,3:2:0:0:
189,226,103466,1,2,3:2:0:0:
189,226,103545,1,2,3:2:0:0:
405,51,103703,1,10,2:2:0:0:
139,0,103861,6,0,B|87:34|87:34|112:145,1,172,2|0,1:2|0:0,0:0:0:0:
283,265,104334,2,0,P|297:224|279:172,1,86,10|0,2:2|1:1,0:0:0:0:
104,303,104650,1,2,2:2:0:0:
104,303,104808,2,0,P|94:344|108:384,1,86,2|8,1:2|2:2,0:0:0:0:
182,195,105124,6,0,P|176:151|167:102,1,86,2|0,2:2|1:1,0:0:0:0:
343,0,105440,1,2,2:2:0:0:
343,0,105597,2,0,P|335:42|329:84,1,86,10|0,2:2|1:1,0:0:0:0:
402,231,105913,1,2,2:2:0:0:
476,62,106071,1,2,1:2:0:0:
274,163,106229,1,10,2:2:0:0:
512,363,106387,6,0,B|422:344|422:344|395:384|337:387,1,172,2|0,2:2|0:0,0:0:0:0:
181,278,106861,1,10,2:2:0:0:
181,278,106940,1,2,2:2:0:0:
181,278,107018,1,2,1:2:0:0:
371,112,107176,5,2,2:2:0:0:
143,0,107334,1,2,1:2:0:0:
385,116,107492,1,10,2:2:0:0:
63,148,107650,1,2,2:2:0:0:
331,374,107808,6,0,B|380:363|380:363|422:386|422:386|484:375,1,154.799995275879,10|0,2:2|0:0,0:0:0:0:
512,302,108124,1,2,1:2:0:0:
235,153,108282,2,0,B|172:198|172:198|205:334,1,206.4,8|2,2:2|1:2,0:0:0:0:
380,213,108755,2,0,P|327:224|266:236,1,103.2,8|2,2:2|2:2,0:0:0:0:
122,384,109071,6,0,P|62:322|75:232,1,172,4|8,1:2|2:2,0:0:0:0:
182,92,109545,2,0,P|192:143|203:197,1,86,2|0,1:2|0:0,0:0:0:0:
159,289,109861,1,0,1:1:0:0:
312,170,110018,2,0,P|302:221|291:275,1,86,10|0,2:2|0:0,0:0:0:0:
433,384,110334,6,0,P|515:341|500:271,1,172,2|8,1:2|2:2,0:0:0:0:
312,170,110808,2,0,B|402:151|402:151|430:198|485:191,1,172,0|2,1:1|1:2,0:0:0:0:
512,11,111282,2,0,P|461:21|407:32,1,86,10|2,2:2|2:2,0:0:0:0:
249,0,111597,6,0,P|196:63|231:146,1,172,2|8,1:2|2:2,0:0:0:0:
322,255,112071,2,0,P|312:306|301:360,1,86,0|2,1:1|2:2,0:0:0:0:
220,244,112387,1,2,1:2:0:0:
396,384,112545,1,8,2:2:0:0:
404,162,112703,5,2,2:2:0:0:
404,162,112782,1,2,2:2:0:0:
404,162,112861,2,0,P|361:151|314:173,1,86,0|2,1:1|1:2,0:0:0:0:
191,384,113176,1,10,2:2:0:0:
367,246,113334,1,0,1:1:0:0:
173,164,113492,1,2,3:2:0:0:
173,164,113571,1,0,3:3:0:0:
173,164,113650,1,0,3:3:0:0:
305,339,113808,1,8,2:2:0:0:
62,384,113966,5,2,1:2:0:0:
62,384,114045,1,2,1:2:0:0:
62,384,114124,2,0,P|11:319|42:223,1,172,4|10,1:2|2:2,0:0:0:0:
173,164,114597,2,0,P|163:215|152:269,1,86,2|0,1:2|0:0,0:0:0:0:
63,122,114913,1,2,1:2:0:0:
240,28,115071,2,0,P|250:79|261:133,1,86,10|2,2:2|2:2,0:0:0:0:
358,260,115387,6,0,B|448:241|448:241|476:288|531:281,1,172,2|8,1:2|2:2,0:0:0:0:
317,384,115861,2,0,P|266:374|212:363,1,86,2|0,1:2|0:0,0:0:0:0:
157,211,116176,1,2,1:2:0:0:
27,384,116334,1,10,2:2:0:0:
256,272,116492,1,2,2:2:0:0:
66,143,116650,6,0,P|-4:213|16:283,1,172,4|8,1:2|2:2,0:0:0:0:
157,384,117124,1,2,1:2:0:0:
248,175,117282,2,0,P|239:132|231:90,1,86,2|0,2:2|1:1,0:0:0:0:
206,62,117518,1,2,2:2:0:0:
206,62,117597,1,8,2:2:0:0:
374,190,117755,1,2,2:2:0:0:
123,297,117913,6,0,B|179:285|179:285|219:311|219:311|281:296,1,161.25,10|0,2:2|0:0,0:0:0:0:
351,331,118229,1,0,1:1:0:0:
512,99,118387,2,0,B|389:81|389:81|352:30|404:-11,1,215,10|0,2:2|1:1,0:0:0:0:
512,230,118861,2,0,P|503:273|487:346,1,107.5,10|2,2:2|2:2,0:0:0:0:
406,384,119097,5,2,2:2:0:0:
406,384,119176,2,0,P|397:341|381:270,1,103.2,10|0,2:2|1:1,0:0:0:0:
204,79,119492,2,0,P|213:122|227:192,1,103.2,8|0,2:2|1:1,0:0:0:0:
120,372,119808,1,10,2:2:0:0:
292,246,119966,1,0,1:1:0:0:
53,198,120124,1,8,2:2:0:0:
238,340,120282,1,0,1:1:0:0:
305,69,120440,5,10,2:2:0:0:
170,259,120597,1,0,1:1:0:0:
102,18,120755,1,8,2:2:0:0:
173,270,120913,1,2,1:2:0:0:
389,27,121071,5,8,2:2:0:0:
91,111,121229,1,0,1:1:0:0:
401,234,121387,1,10,2:2:0:0:
190,0,121545,5,0,1:1:0:0:
190,0,121624,1,0,1:1:0:0:
190,0,121703,2,0,P|198:43|210:117,1,103.2,12|2,2:2|1:2,0:0:0:0:
371,314,122018,5,8,2:2:0:0:
89,239,122176,1,2,1:2:0:0:
401,234,122334,5,8,2:2:0:0:
118,348,122492,1,2,1:2:0:0:
427,384,122650,5,8,2:2:0:0:
179,276,122808,1,2,1:2:0:0:
473,158,122966,5,8,2:2:0:0:
283,384,123124,2,0,P|275:334|266:282,1,103.2,2|8,1:2|2:2,0:0:0:0:
363,118,123440,1,2,1:2:0:0:
92,0,123597,5,8,2:2:0:0:
92,0,123676,1,2,2:2:0:0:
92,0,123755,1,2,1:2:0:0:
300,183,123913,1,10,2:2:0:0:
21,384,124071,5,2,1:2:0:0:
21,384,124150,1,2,2:2:0:0:
21,384,124229,2,0,B|3:310|3:310|31:259|31:259|15:187,1,206.399993701172,10|8,2:2|2:2,0:0:0:0:
89,95,124703,1,2,1:2:0:0:
253,277,124861,5,8,2:2:0:0:
77,94,125018,1,2,1:2:0:0:
310,0,125176,5,8,2:2:0:0:
310,0,125255,1,0,3:3:0:0:
310,0,125334,1,2,3:2:0:0:
81,210,125492,6,0,B|124:197|124:197|175:220|175:220|226:163|309:196,1,232.2,12|8,2:2|2:2,0:0:0:0:
487,287,125966,1,2,1:2:0:0:
487,287,126045,1,2,2:2:0:0:
487,287,126124,1,8,2:2:0:0:
397,139,126282,1,2,1:2:0:0:
347,369,126440,1,8,2:2:0:0:
398,128,126597,1,2,1:2:0:0:
197,347,126755,6,0,B|75:318|121:402|-12:370,1,206.4,10|8,2:2|2:2,0:0:0:0:
189,213,127229,1,2,1:2:0:0:
0,64,127387,5,8,2:2:0:0:
107,262,127545,1,2,1:2:0:0:
188,0,127703,5,8,2:2:0:0:
45,185,127861,1,2,1:2:0:0:
305,85,128018,5,8,2:2:0:0:
32,187,128176,1,2,1:2:0:0:
318,283,128334,5,8,2:2:0:0:
109,81,128492,1,2,1:2:0:0:
389,176,128650,5,8,2:2:0:0:
152,384,128808,2,0,P|130:337|142:277,1,103.2,2|8,1:2|2:2,0:0:0:0:
219,133,129124,1,2,1:2:0:0:
407,289,129282,5,10,2:2:0:0:
407,289,129361,1,8,2:2:0:0:
407,289,129440,2,0,L|398:357,1,51.6,2|2,1:2|1:2,0:0:0:0:
506,158,129597,5,10,2:2:0:0:
506,158,129676,1,8,2:2:0:0:
506,158,129755,2,0,L|515:226,1,51.6,2|0,1:2|1:2,0:0:0:0:
319,51,129913,5,8,2:2:0:0:
319,51,129992,1,8,2:2:0:0:
319,51,130071,2,0,L|310:119,1,51.6,0|0,1:2|1:2,0:0:0:0:
210,237,130229,5,8,2:2:0:0:
179,271,130308,1,8,2:2:0:0:
136,287,130387,1,2,3:2:0:0:
90,283,130466,1,0,3:2:0:0:
51,258,130545,2,0,L|46:207,1,51.6,12|8,2:2|2:2,0:0:0:0:
0,28,130703,5,10,2:2:0:0:
44,3,130782,1,10,2:2:0:0:
95,0,130861,1,10,2:2:0:0:
143,20,130940,1,0,1:2:0:0:
177,58,131018,2,0,L|169:114,1,51.6,14|10,2:2|2:2,0:0:0:0:
256,316,131176,5,10,2:2:0:0:
303,354,131255,1,8,2:2:0:0:
364,361,131334,1,10,2:2:0:0:
419,334,131413,1,10,2:2:0:0:
452,280,131492,2,0,P|443:228|433:159,1,103.2,14|2,2:2|0:2,0:0:0:0:
201,32,131808,6,0,B|177:68|177:68|194:158,2,116.1,4|0|0,1:2|1:1|1:1,0:0:0:0:
283,0,132361,1,0,1:1:0:0:
283,0,132440,1,8,2:2:0:0:
383,212,132755,6,0,B|420:203|420:203|423:205|423:205|468:193,1,77.3999999999998,2|0,2:2|0:0,0:0:0:0:
496,124,133071,6,0,B|523:82|523:82|495:2,2,129,4|0|0,1:2|1:1|1:1,0:0:0:0:
457,199,133624,1,0,1:1:0:0:
457,199,133703,1,2,3:2:0:0:
323,151,133940,5,2,3:2:0:0:
239,266,134176,5,2,3:2:0:0:
98,186,134334,6,0,P|52:230|66:345,1,172,4|0,1:2|0:0,0:0:0:0:
202,181,134808,1,2,1:2:0:0:
202,181,134887,1,0,1:1:0:0:
202,181,134966,1,10,2:2:0:0:
316,349,135203,5,2,2:2:0:0:
492,269,135440,5,2,2:2:0:0:
395,143,135597,6,0,P|346:135|304:165,1,94.6,4|0,1:2|0:0,0:0:0:0:
325,255,135834,2,0,P|373:262|415:232,1,94.6,2|0,2:2|0:0,0:0:0:0:
490,180,136071,5,2,1:2:0:0:
490,180,136150,1,0,1:1:0:0:
490,180,136229,1,0,1:1:0:0:
354,42,136387,1,0,3:3:0:0:
410,239,136545,1,2,3:2:0:0:
512,87,136703,1,0,3:3:0:0:
309,158,136861,6,0,B|273:181|273:181|200:167,2,116.1,4|0|0,1:2|0:0|1:1,0:0:0:0:
386,125,137413,1,0,1:1:0:0:
386,125,137492,1,8,2:2:0:0:
323,384,137808,6,0,B|314:347|314:347|316:344|316:344|304:299,1,77.3999999999998,2|0,2:2|0:0,0:0:0:0:
382,240,138124,6,0,B|423:269|423:269|509:245,2,129,4|0|0,1:2|1:1|1:1,0:0:0:0:
306,191,138676,1,0,1:1:0:0:
306,191,138755,1,2,3:2:0:0:
208,295,138992,5,2,3:2:0:0:
78,237,139229,5,2,3:2:0:0:
119,87,139387,6,0,P|161:114|204:106,1,86,4|0,1:2|0:0,0:0:0:0:
246,129,139624,2,0,P|296:103|307:61,1,86,2|0,2:2|0:0,0:0:0:0:
284,0,139861,2,0,L|230:11,1,43,2|0,1:2|1:1,0:0:0:0:
77,0,140018,5,10,2:2:0:0:
0,178,140255,5,2,2:2:0:0:
162,283,140492,5,2,2:2:0:0:
335,214,140650,6,0,P|359:267|347:312,1,94.6,4|0,1:2|0:0,0:0:0:0:
276,384,140887,2,0,P|252:331|264:286,1,94.6,4|0,1:2|0:0,0:0:0:0:
188,197,141124,1,0,1:1:0:0:
188,197,141203,1,0,1:1:0:0:
188,197,141282,1,0,1:1:0:0:
306,90,141440,5,0,3:3:0:0:
306,90,141518,1,0,3:3:0:0:
306,90,141597,1,2,3:2:0:0:
220,0,141755,1,0,1:1:0:0:
406,145,141913,6,0,B|444:122|444:122|524:144,2,116.1,4|0|0,1:2|1:1|1:1,0:0:0:0:
338,200,142466,1,0,1:1:0:0:
338,200,142545,1,8,2:2:0:0:
512,384,142861,6,0,B|475:375|475:375|472:377|472:377|427:365,1,77.3999999999998,2|0,2:2|0:0,0:0:0:0:
347,343,143176,6,0,B|319:301|319:301|348:221,2,129,4|0|0,1:2|1:1|1:1,0:0:0:0:
262,384,143729,1,0,1:1:0:0:
262,384,143808,1,2,3:2:0:0:
147,300,144045,5,2,3:2:0:0:
226,182,144282,5,2,3:2:0:0:
126,68,144440,6,0,P|70:71|46:102,1,86,4|0,1:2|0:0,0:0:0:0:
17,129,144676,2,0,P|-8:179|8:215,1,86,2|0,2:2|0:0,0:0:0:0:
68,266,144913,2,0,L|122:251,1,43,2|0,1:2|1:1,0:0:0:0:
226,182,145071,5,10,2:2:0:0:
416,223,145308,5,2,2:2:0:0:
512,54,145545,5,2,2:2:0:0:
330,1,145703,6,0,P|280:-8|232:18,1,94.6,4|0,1:2|0:0,0:0:0:0:
260,103,145940,2,0,P|310:112|358:86,1,94.6,2|0,2:2|0:0,0:0:0:0:
420,37,146176,5,2,1:2:0:0:
420,37,146255,1,0,1:1:0:0:
420,37,146334,1,0,1:1:0:0:
504,243,146492,1,0,3:3:0:0:
311,198,146650,1,2,3:2:0:0:
489,124,146808,1,0,3:3:0:0:
407,338,146966,6,0,B|378:306|378:306|402:232,2,116.1,4|0|0,1:2|1:1|1:1,0:0:0:0:
484,384,147518,1,0,1:1:0:0:
484,384,147597,1,8,2:2:0:0:
183,192,147913,6,0,B|192:226|192:226|190:229|190:229|199:266,1,77.3999999999998,2|0,2:2|0:0,0:0:0:0:
139,336,148229,6,0,B|99:310|99:310|11:334,2,129,4|0|0,1:2|1:1|1:1,0:0:0:0:
230,384,148782,1,0,1:1:0:0:
230,384,148861,1,2,3:2:0:0:
365,246,149097,5,2,3:2:0:0:
275,74,149334,5,2,3:2:0:0:
71,210,149492,5,10,2:2:0:0:
63,207,149966,5,10,2:2:0:0:
392,129,150124,1,10,2:2:0:0:
400,130,150597,5,10,2:2:0:0:
93,0,150755,6,0,P|41:-1|6:31,1,94.6,12|0,1:2|0:0,0:0:0:0:
164,130,150992,2,0,P|191:86|181:40,1,94.6,12|0,1:2|0:0,0:0:0:0:
0,125,151229,2,0,P|36:194|106:196,1,141.9,12|0,1:2|3:3,0:0:0:0:
195,220,151545,5,0,3:3:0:0:
199,226,151624,1,0,3:3:0:0:
201,233,151703,1,0,3:3:0:0:
203,240,151782,1,0,3:3:0:0:
205,247,151861,1,8,2:2:0:0:
208,254,151940,1,8,2:2:0:0:
211,260,152018,6,0,L|189:372,1,103.2,2|0,2:1|0:0,0:0:0:0:
267,384,152334,6,0,L|291:264,1,116.1,2|0,2:1|0:0,0:0:0:0:
376,196,152650,6,0,L|409:361,1,141.9,2|0,2:1|0:0,0:0:0:0:
505,384,152966,5,8,2:2:0:0:
410,119,153282,6,0,P|357:111|309:143,1,103.2,4|0,1:2|0:0,0:0:0:0:
121,312,153597,1,10,2:2:0:0:
400,361,153755,1,0,1:1:0:0:
186,132,153913,1,10,2:2:0:0:
285,384,154071,1,0,1:1:0:0:
421,93,154229,1,8,2:2:0:0:
276,285,154387,5,2,1:2:0:0:
276,285,154466,1,0,1:1:0:0:
276,285,154545,1,8,2:2:0:0:
493,208,154703,1,2,1:2:0:0:
198,101,154861,1,10,2:2:0:0:
420,265,155018,1,0,1:1:0:0:
132,384,155176,1,10,2:2:0:0:
335,139,155334,5,0,1:1:0:0:
335,139,155413,1,0,1:1:0:0:
335,139,155492,2,0,P|387:130|440:121,1,103.2,8|0,2:2|0:0,0:0:0:0:
119,0,155808,6,0,P|92:43|104:103,1,103.2,4|2,1:2|2:2,0:0:0:0:
179,306,156124,1,10,2:2:0:0:
0,165,156282,2,0,P|52:173|116:183,1,103.2,2|0,2:2|1:1,0:0:0:0:
136,203,156518,1,0,1:1:0:0:
136,203,156597,1,2,1:2:0:0:
275,0,156755,1,10,2:2:0:0:
98,93,156913,1,2,3:2:0:0:
314,276,157071,6,0,L|306:216,1,51.6,10|0,2:2|0:0,0:0:0:0:
429,0,157229,1,8,2:2:0:0:
139,173,157545,5,2,1:2:0:0:
482,384,157861,5,2,1:2:0:0:
102,349,158176,5,0,3:3:0:0:
102,349,158255,1,0,3:3:0:0:
102,349,158334,2,0,P|49:342|-9:334,1,103.2,4|0,1:2|0:0,0:0:0:0:
225,111,158650,1,10,2:2:0:0:
285,384,158808,1,0,1:1:0:0:
372,94,158966,1,10,2:2:0:0:
208,307,159124,1,0,1:1:0:0:
80,37,159282,1,8,2:2:0:0:
279,220,159440,5,2,1:2:0:0:
279,220,159518,1,0,1:1:0:0:
279,220,159597,1,8,2:2:0:0:
32,277,159755,1,2,1:2:0:0:
243,29,159913,1,10,2:2:0:0:
0,167,160071,1,0,1:1:0:0:
304,306,160229,1,10,2:2:0:0:
112,100,160387,5,0,1:1:0:0:
112,100,160466,1,0,1:1:0:0:
112,100,160545,2,0,P|121:152|130:205,1,103.2,8|0,2:2|0:0,0:0:0:0:
387,359,160861,6,0,P|404:313|387:255,1,103.2,4|2,1:2|2:2,0:0:0:0:
216,108,161176,1,10,2:2:0:0:
304,306,161334,1,2,2:2:0:0:
512,187,161492,2,0,P|460:178|407:169,1,103.2,2|0,1:2|3:3,0:0:0:0:
365,181,161729,1,2,3:2:0:0:
365,181,161808,1,8,2:2:0:0:
255,384,161966,1,10,2:2:0:0:
110,158,162124,6,0,P|77:88|120:14,1,154.8,4|0,1:2|0:0,0:0:0:0:
149,0,162440,1,10,2:2:0:0:
279,176,162597,1,2,1:2:0:0:
279,176,162676,1,0,1:1:0:0:
279,176,162755,2,0,P|270:228|261:281,1,103.2,0|10,1:1|2:2,0:0:0:0:
474,146,163071,1,2,1:2:0:0:
241,3,163229,5,0,3:3:0:0:
241,3,163308,1,0,3:3:0:0:
241,3,163387,2,0,P|188:-7|138:25,1,103.2,4|0,1:2|0:0,0:0:0:0:
0,231,163703,1,10,2:2:0:0:
201,78,163861,1,0,1:1:0:0:
118,304,164018,1,10,2:2:0:0:
0,39,164176,1,0,1:1:0:0:
204,219,164334,1,8,2:2:0:0:
285,0,164492,5,2,1:2:0:0:
285,0,164571,1,0,1:1:0:0:
285,0,164650,1,8,2:2:0:0:
121,182,164808,1,2,1:2:0:0:
423,132,164966,1,10,2:2:0:0:
154,56,165124,1,0,1:1:0:0:
371,270,165282,1,10,2:2:0:0:
512,17,165440,5,0,1:1:0:0:
512,17,165518,1,0,1:1:0:0:
512,17,165597,2,0,P|460:8|407:-1,1,103.2,8|0,2:2|0:0,0:0:0:0:
196,244,165913,6,0,P|248:235|301:226,1,103.2,4|2,1:2|2:2,0:0:0:0:
512,384,166229,1,10,2:2:0:0:
471,142,166387,2,0,P|419:133|366:124,1,103.2,2|0,2:2|1:1,0:0:0:0:
336,156,166624,1,0,1:1:0:0:
336,156,166703,1,2,1:2:0:0:
102,0,166861,1,10,2:2:0:0:
211,223,167018,1,2,3:2:0:0:
401,0,167176,6,0,L|342:12,1,51.6,10|0,2:2|0:0,0:0:0:0:
81,86,167334,1,8,2:2:0:0:
225,384,167650,5,2,1:2:0:0:
102,0,167966,5,2,1:2:0:0:
471,215,168282,5,0,1:1:0:0:
471,215,168361,1,0,1:1:0:0:
471,215,168440,2,0,P|417:228|365:202,1,103.2,4|0,1:2|0:0,0:0:0:0:
170,70,168755,1,10,2:2:0:0:
310,292,168913,1,0,1:1:0:0:
384,12,169071,1,10,2:2:0:0:
218,210,169229,1,0,1:1:0:0:
499,89,169387,1,8,2:2:0:0:
261,0,169545,5,2,1:2:0:0:
261,0,169624,1,0,1:1:0:0:
261,0,169703,1,8,2:2:0:0:
184,225,169861,1,2,1:2:0:0:
0,0,170018,1,10,2:2:0:0:
256,108,170176,1,0,1:1:0:0:
0,268,170334,1,10,2:2:0:0:
159,16,170492,5,0,1:1:0:0:
159,16,170571,1,0,1:1:0:0:
159,16,170650,2,0,P|209:8|263:-1,1,103.2,8|0,2:2|0:0,0:0:0:0:
377,294,170966,6,0,P|332:302|282:273,1,103.2,4|2,1:2|2:2,0:0:0:0:
512,100,171282,1,10,2:2:0:0:
347,220,171440,1,2,2:2:0:0:
385,0,171597,2,0,P|394:52|403:105,1,103.2,2|0,1:2|3:3,0:0:0:0:
422,141,171834,1,2,3:2:0:0:
422,141,171913,1,0,3:3:0:0:
235,0,172071,1,2,1:2:0:0:
94,214,172229,6,0,P|64:294|101:362,1,154.8,4|0,1:2|0:0,0:0:0:0:
121,384,172545,1,10,2:2:0:0:
311,238,172703,2,0,P|261:230|207:221,1,103.2,2|0,3:2|1:1,0:0:0:0:
0,104,173018,1,2,1:2:0:0:
0,104,173097,1,0,1:2:0:0:
0,104,173176,2,0,P|50:96|104:87,1,103.2,10|0,2:2|1:1,0:0:0:0:
391,24,173492,5,12,2:2:0:0:
312,257,173650,1,0,1:1:0:0:
202,0,173808,5,8,2:2:0:0:
311,271,173966,1,0,1:1:0:0:
61,14,174124,5,8,2:2:0:0:
335,99,174282,1,2,1:2:0:0:
30,199,174440,5,10,2:2:0:0:
361,181,174597,1,2,1:2:0:0:
92,384,174755,5,10,2:2:0:0:
234,85,174913,1,0,1:1:0:0:
388,384,175071,5,8,2:2:0:0:
91,110,175229,1,2,1:2:0:0:
454,270,175387,5,8,2:2:0:0:
92,384,175545,1,0,1:1:0:0:
92,384,175624,1,0,1:1:0:0:
92,384,175703,2,0,P|70:338|90:274,1,103.2,10|0,2:2|1:1,0:0:0:0:
379,66,176018,5,12,2:2:0:0:
117,0,176176,1,0,1:1:0:0:
393,67,176334,5,8,2:2:0:0:
89,145,176492,1,0,1:1:0:0:
365,375,176650,5,8,2:2:0:0:
307,102,176808,1,2,1:2:0:0:
119,332,176966,5,10,2:2:0:0:
236,49,177124,1,2,1:2:0:0:
465,311,177282,5,10,2:2:0:0:
170,105,177440,1,0,1:1:0:0:
512,148,177597,5,8,2:2:0:0:
151,253,177755,1,2,1:2:0:0:
475,0,177913,5,8,2:2:0:0:
353,367,178071,2,0,L|346:298,1,51.6,2|0,1:2|1:1,0:0:0:0:
153,22,178229,5,8,2:2:0:0:
418,203,178387,1,2,1:2:0:0:
433,201,178466,1,0,1:1:0:0:
448,199,178545,5,12,2:2:0:0:
490,227,178624,1,0,1:1:0:0:
510,274,178703,1,0,1:1:0:0:
501,325,178782,1,0,1:1:0:0:
464,368,178861,5,8,2:2:0:0:
408,383,178940,1,0,1:1:0:0:
353,367,179018,1,0,1:1:0:0:
315,328,179097,1,0,1:1:0:0:
260,299,179176,5,8,2:2:0:0:
198,292,179255,1,0,1:1:0:0:
151,333,179334,2,0,L|159:400,1,51.6,2|0,1:2|1:1,0:0:0:0:
335,186,179492,2,0,L|328:134,1,51.6,10|0,2:2|1:1,0:0:0:0:
85,0,179650,5,2,1:2:0:0:
85,0,179729,1,0,1:1:0:0:
85,0,179808,1,10,2:2:0:0:
409,254,179966,1,8,2:2:0:0:
409,254,181071,6,0,B|289:226|335:310|202:278,1,206.4,4|10,1:2|2:2,0:0:0:0:
67,372,181545,1,2,1:2:0:0:
67,372,181624,1,2,2:2:0:0:
67,372,181703,1,2,2:2:0:0:
250,197,181861,1,2,1:2:0:0:
1,131,182018,1,10,2:2:0:0:
131,301,182176,1,2,2:2:0:0:
253,104,182334,5,2,1:2:0:0:
253,104,182492,2,0,P|244:62|233:6,1,86,2|8,2:2|2:2,0:0:0:0:
417,250,182808,2,0,P|429:193|448:106,1,141.9,2|0,1:2|0:0,0:0:0:0:
360,113,183124,2,0,P|334:149|337:199,1,94.6,2|8,1:2|2:2,0:0:0:0:
482,307,183440,1,2,2:2:0:0:
222,384,183597,6,0,B|202:312|202:312|237:259|237:259|220:192,1,206.4,2|10,1:2|2:2,0:0:0:0:
103,0,184071,1,2,1:2:0:0:
103,0,184150,1,2,2:2:0:0:
103,0,184229,1,2,2:2:0:0:
282,121,184387,1,2,1:2:0:0:
38,111,184545,1,10,2:2:0:0:
248,12,184703,1,2,2:2:0:0:
133,226,184861,5,2,1:2:0:0:
133,226,185018,2,0,P|92:218|32:205,1,86,2|8,1:2|2:2,0:0:0:0:
190,374,185334,1,2,1:2:0:0:
190,374,185413,1,2,2:2:0:0:
190,374,185492,2,0,L|242:365,1,43,0|0,3:3|3:3,0:0:0:0:
410,384,185650,5,2,3:2:0:0:
439,354,185729,1,0,3:3:0:0:
452,313,185808,1,8,2:2:0:0:
445,271,185887,1,0,0:0:0:0:
419,237,185966,2,0,L|367:228,1,43,2|0,1:2|1:1,0:0:0:0:
145,105,186124,6,0,B|265:77|219:161|352:129,1,206.4,4|10,1:2|2:2,0:0:0:0:
502,0,186597,1,2,1:2:0:0:
502,0,186676,1,2,2:2:0:0:
502,0,186755,1,2,2:2:0:0:
301,49,186913,1,2,1:2:0:0:
512,198,187071,1,10,2:2:0:0:
391,0,187229,1,2,2:2:0:0:
281,180,187387,5,2,1:2:0:0:
281,180,187545,2,0,P|290:222|301:278,1,86,2|8,2:2|2:2,0:0:0:0:
117,18,187861,2,0,P|105:75|86:162,1,141.9,2|0,1:2|0:0,0:0:0:0:
176,144,188176,2,0,P|200:105|191:44,1,94.6,2|8,1:2|2:2,0:0:0:0:
0,180,188492,1,2,2:2:0:0:
229,308,188650,6,0,B|109:280|155:364|22:332,1,206.4,6|10,1:2|2:2,0:0:0:0:
201,161,189124,1,2,1:2:0:0:
201,161,189203,1,2,2:2:0:0:
201,161,189282,1,2,2:2:0:0:
188,384,189440,1,2,1:2:0:0:
88,130,189597,1,10,2:2:0:0:
318,230,189755,1,2,2:2:0:0:
55,384,189913,5,10,2:2:0:0:
287,112,190071,1,2,2:2:0:0:
0,221,190229,1,0,1:1:0:0:
273,384,190387,2,0,P|264:341|255:299,1,86,10|0,2:2|0:0,0:0:0:0:
103,122,190703,1,2,1:2:0:0:
331,233,190861,1,8,2:2:0:0:
92,384,191018,1,2,1:2:0:0:
368,151,191176,5,12,2:2:0:0:
0,14,191334,2,0,B|101:4|101:4|161:46|161:46|287:32|287:32|224:29|202:-7,1,378.400011547852,12|0,2:2|0:0,0:0:0:0:
