osu file format v14

[General]
AudioFilename: audio.mp3
AudioLeadIn: 0
PreviewTime: 131176
Countdown: 0
SampleSet: Soft
StackLeniency: 0.3
Mode: 0
LetterboxInBreaks: 0
WidescreenStoryboard: 1

[Editor]
Bookmarks: 96440,96518,96597,96676,96755,96834,96913,96992,97071,97150,97229,97308,97387,97466,97545,97624,97703,97782,97861,97940,98018,98097,98176,98255,98334,98413,98492,98571,98650,98729,98808,98887,98966,181071,191966
DistanceSpacing: 0.3
BeatDivisor: 4
GridSize: 32
TimelineZoom: 2.2

[Metadata]
Title:Fumetsu no Gekijou
TitleUnicode:不滅の激情
Artist:KINEMA106
ArtistUnicode:キネマ106
Creator:SupaV
Version:Riene's Extra
Source:
Tags:艦隊これくしょん -艦これ- original song featured artist fa mappers mappers' guild mpg mg kancolle kantai collection fleet girls immortal passion kiso 木曾 no 41 dahkjdas leomine leominexd riene Tom kalon jun-jun japanese rock j-rock jrock female vocal vocals vocalist
BeatmapID:4471182
BeatmapSetID:1985962

[Difficulty]
HPDrainRate:5.6
CircleSize:4
OverallDifficulty:8.8
ApproachRate:9.3
SliderMultiplier:1.9
SliderTickRate:1

[Events]
//Background and Video events
0,0,"backed ground.jpg",0,0
//Break Periods
//Storyboard Layer 0 (Background)
//Storyboard Layer 1 (Fail)
//Storyboard Layer 2 (Pass)
//Storyboard Layer 3 (Foreground)
//Storyboard Layer 4 (Overlay)
//Storyboard Sound Samples

[TimingPoints]
440,315.789473684211,4,2,1,85,1,0
5018,-100,4,2,1,65,0,0
5176,-142.857142857143,4,2,1,65,0,0
5492,-100,4,2,1,80,0,0
15597,-100,4,2,1,70,0,0
15913,-111.111111111111,4,2,1,70,0,0
25229,-111.111111111111,4,2,1,60,0,0
25703,-100,4,2,1,80,0,0
30755,-100,4,2,1,70,0,0
31071,-111.111111111111,4,2,1,70,0,0
40861,-125,4,2,1,65,0,0
48440,-125,4,2,1,75,0,0
49703,-105.263157894737,4,2,1,78,0,0
50966,-95.2380952380952,4,2,1,85,0,0
72597,-95.2380952380952,4,2,1,55,0,0
73703,-100,4,2,1,80,0,0
83808,-100,4,2,1,70,0,0
84124,-111.111111111111,4,2,1,70,0,0
96440,-111.111111111111,4,2,1,55,0,0
98966,-111.111111111111,4,2,1,75,0,0
99440,-100,4,2,1,75,0,0
119176,-100,4,2,1,80,0,0
125492,-83.3333333333333,4,2,1,80,0,0
126755,-100,4,2,1,80,0,0
131808,-125,4,2,1,65,0,0
149492,-125,4,2,1,75,0,0
150755,-105.263157894737,4,2,1,78,0,0
152018,-125,4,2,1,50,0,0
152966,-100,4,2,1,70,0,0
153282,-95.2380952380952,4,2,1,85,0,0
179966,-95.2380952380952,4,2,1,55,0,0
181071,-100,4,2,1,80,0,0
191966,-100,4,2,1,5,0,0

[Colours]
Combo1 : 223,179,0
Combo2 : 107,216,35
Combo3 : 255,64,64
Combo4 : 68,122,65

[HitObjects]
369,52,5018,5,0,1:1:0:0:
481,125,5176,2,1,B|448:119|448:119|444:115|444:115|401:107,1,66.4999999999999,12|0,2:2|0:0,0:0:0:0:
242,263,5492,6,1,B|294:282|321:235|321:235|323:232|323:232|354:184|425:211,1,190,4|10,1:2|2:2,0:0:0:0:
316,359,5966,2,1,P|258:371|217:385,1,95,2|2,1:2|2:2,0:0:0:0:
255,181,6282,1,2,1:2:0:0:
70,288,6440,2,1,P|128:300|169:314,1,95,10|2,2:2|2:2,0:0:0:0:
196,116,6755,5,2,1:2:0:0:
196,116,6913,2,1,P|212:67|223:17,1,95,2|8,2:2|2:2,0:0:0:0:
406,69,7229,2,1,P|364:101|312:103,1,95,2|0,1:2|0:0,0:0:0:0:
24,12,7545,2,1,P|72:32|100:76,1,95,2|8,1:2|2:2,0:0:0:0:
180,216,7861,1,2,2:2:0:0:
221,24,8018,6,1,B|200:75|248:106|248:106|251:108|251:108|295:138|279:187,1,190,2|10,1:2|2:2,0:0:0:0:
76,283,8492,2,1,P|63:237|85:192,1,95,2|2,1:2|2:2,0:0:0:0:
248,297,8808,1,2,1:2:0:0:
73,366,8966,2,1,P|25:350|-2:313,1,95,10|2,2:2|2:2,0:0:0:0:
190,200,9282,5,2,1:2:0:0:
190,200,9440,2,1,P|241:188|286:177,1,95,2|8,1:2|2:2,0:0:0:0:
373,339,9755,1,2,1:2:0:0:
496,151,9913,1,0,3:3:0:0:
460,147,9992,1,0,3:3:0:0:
427,159,10071,1,2,3:2:0:0:
402,184,10150,1,0,3:3:0:0:
390,217,10229,2,1,P|401:246|406:263,1,47.5,8|0,2:2|3:3,0:0:0:0:
286,382,10387,5,2,1:2:0:0:
292,374,10466,1,0,1:1:0:0:
298,366,10545,2,1,B|363:354|363:354|406:317|406:317|481:302,1,190,4|10,1:2|2:2,0:0:0:0:
326,154,11018,2,1,P|299:189|297:240,1,95,2|2,1:2|2:2,0:0:0:0:
400,323,11334,1,2,1:2:0:0:
213,256,11492,2,1,P|231:301|273:324,1,95,10|2,2:2|2:2,0:0:0:0:
483,239,11808,5,2,1:2:0:0:
483,239,11966,2,1,P|432:227|387:216,1,95,2|8,2:2|2:2,0:0:0:0:
259,93,12282,2,1,P|299:65|348:68,1,95,2|0,1:2|0:0,0:0:0:0:
498,330,12597,2,1,P|451:330|413:303,1,95,2|8,1:2|2:2,0:0:0:0:
444,129,12913,1,2,2:2:0:0:
284,339,13071,6,1,P|300:282|328:138,1,190,4|10,1:2|2:2,0:0:0:0:
123,20,13545,2,1,P|140:72|149:121,1,95,2|2,1:2|2:2,0:0:0:0:
86,241,13861,1,2,1:2:0:0:
233,87,14018,2,1,P|230:143|218:184,1,95,10|2,2:2|2:2,0:0:0:0:
28,305,14334,5,10,2:2:0:0:
219,180,14492,1,2,2:2:0:0:
14,302,14650,1,0,1:1:0:0:
259,342,14808,2,1,B|302:287|364:310|364:310|382:347|441:347,1,190,10|2,2:2|1:2,0:0:0:0:
470,142,15282,2,1,P|455:188|445:236,1,95,8|2,2:2|2:2,0:0:0:0:
451,253,15518,1,2,0:0:0:0:
459,260,15597,5,4,1:2:0:0:
459,260,15913,2,1,P|413:262|374:292,1,85.5000000000001,10|0,2:2|1:1,0:0:0:0:
418,354,16229,1,2,2:2:0:0:
307,236,16387,1,2,1:2:0:0:
307,236,16545,2,1,P|291:280|277:365,1,128.25,8|0,2:2|0:0,0:0:0:0:
285,374,16861,5,0,1:1:0:0:
116,285,17018,2,1,P|157:276|200:256,1,85.5000000000001,2|8,2:2|2:2,0:0:0:0:
246,105,17334,2,1,P|189:99|141:199,1,171,2|0,1:2|1:1,0:0:0:0:
32,294,17808,2,1,P|17:250|0:215,1,85.5000000000001,10|2,2:2|2:2,0:0:0:0:
196,258,18124,5,4,1:2:0:0:
196,258,18440,2,1,P|185:302|178:343,1,85.5000000000001,10|0,2:2|1:1,0:0:0:0:
239,384,18755,1,2,2:2:0:0:
345,283,18913,1,2,1:2:0:0:
345,283,19071,2,1,P|331:232|311:139,1,128.25,8|0,2:2|0:0,0:0:0:0:
366,100,19387,6,1,P|436:85|487:166,1,171,0|8,1:1|2:2,0:0:0:0:
261,93,19861,2,1,B|216:109|193:69|193:69|191:66|191:66|165:25|104:48,1,171,2|0,1:2|1:1,0:0:0:0:
52,199,20334,2,1,B|24:176|24:176|43:114,1,85.5000000000001,8|0,2:2|0:0,0:0:0:0:
200,14,20650,5,4,1:2:0:0:
200,14,20966,2,1,P|159:39|117:49,1,85.5000000000001,10|0,2:2|1:1,0:0:0:0:
58,8,21282,1,2,2:2:0:0:
41,200,21440,1,2,1:2:0:0:
41,200,21597,2,1,P|88:174|185:147,1,128.25,8|0,2:2|0:0,0:0:0:0:
176,150,21913,5,0,1:1:0:0:
286,247,22071,2,1,P|272:294|267:334,1,85.5000000000001,2|8,2:2|2:2,0:0:0:0:
449,214,22387,2,1,B|387:198|387:198|359:160|359:160|283:143,1,171,2|2,1:2|1:2,0:0:0:0:
203,45,22861,2,1,P|244:27|300:19,1,85.5000000000001,8|2,2:2|2:2,0:0:0:0:
443,125,23176,5,4,1:2:0:0:
355,0,23334,1,2,2:2:0:0:
355,0,23492,2,1,P|367:44|375:86,1,85.5000000000001,10|0,2:2|1:1,0:0:0:0:
209,220,23808,1,2,2:2:0:0:
209,220,23966,2,1,P|197:176|189:134,1,85.5000000000001,2|8,1:2|2:2,0:0:0:0:
320,235,24282,1,2,2:2:0:0:
189,136,24440,5,2,1:2:0:0:
128,366,24597,1,8,2:2:0:0:
365,304,24755,1,10,2:2:0:0:
221,261,24913,5,2,1:2:0:0:
221,261,25703,6,1,B|169:280|142:233|142:233|140:230|140:230|109:182|38:209,1,190,4|10,1:2|2:2,0:0:0:0:
176,44,26176,2,1,P|188:89|194:136,1,95,2|2,1:2|2:2,0:0:0:0:
338,12,26492,1,2,1:2:0:0:
295,189,26650,2,1,P|288:141|276:96,1,95,10|2,2:2|2:2,0:0:0:0:
484,202,26966,5,2,1:2:0:0:
484,202,27124,2,1,P|435:212|391:230,1,95,2|8,2:2|2:2,0:0:0:0:
228,354,27440,2,1,P|199:314|205:264,1,95,2|0,1:2|0:0,0:0:0:0:
467,301,27755,2,1,P|469:347|440:384,1,95,2|8,1:2|2:2,0:0:0:0:
295,189,28071,1,2,2:2:0:0:
330,330,28229,6,1,P|336:253|361:142,1,190,4|10,1:2|2:2,0:0:0:0:
197,38,28703,2,1,P|167:78|166:128,1,95,2|2,1:2|2:2,0:0:0:0:
304,198,29018,1,2,1:2:0:0:
85,143,29176,2,1,P|115:195|150:214,1,95,10|2,2:2|2:2,0:0:0:0:
330,330,29492,5,10,2:2:0:0:
464,221,29650,2,1,B|424:232|424:232|421:236|421:236|362:249,1,95,2|0,2:2|1:1,0:0:0:0:
197,38,29966,2,1,B|273:56|273:56|306:96|306:96|374:108,1,190,10|2,2:2|1:2,0:0:0:0:
475,229,30440,2,1,B|500:204|500:204|477:144,1,95,8|2,2:2|2:2,0:0:0:0:
361,20,30755,5,4,1:2:0:0:
361,20,31071,2,1,P|342:63|339:107,1,85.5000000000001,10|0,2:2|1:1,0:0:0:0:
399,159,31387,1,2,2:2:0:0:
241,95,31545,1,2,1:2:0:0:
241,95,31703,2,1,P|256:156|271:242,1,128.25,8|0,2:2|0:0,0:0:0:0:
265,232,32018,5,0,1:1:0:0:
399,159,32176,2,1,P|444:175|491:183,1,85.5000000000001,2|8,2:2|2:2,0:0:0:0:
305,317,32492,2,1,P|253:332|175:252,1,171,2|0,1:2|1:1,0:0:0:0:
56,147,32966,2,1,P|50:191|41:236,1,85.5000000000001,10|2,2:2|2:2,0:0:0:0:
157,99,33282,5,4,1:2:0:0:
157,99,33597,2,1,P|202:93|242:73,1,85.5000000000001,10|0,2:2|1:1,0:0:0:0:
251,4,33913,1,2,2:2:0:0:
364,142,34071,1,2,1:2:0:0:
364,142,34229,2,1,P|318:147|228:202,1,128.25,8|0,2:2|0:0,0:0:0:0:
234,186,34545,6,1,P|221:240|211:280,1,85.5000000000001,0|2,1:1|2:2,0:0:0:0:
348,233,34861,1,8,2:2:0:0:
265,353,35018,2,1,P|258:289|232:181,1,171,2|0,1:2|1:1,0:0:0:0:
169,136,35413,1,0,1:1:0:0:
160,136,35492,2,1,P|117:152|99:202,1,85.5000000000001,8|0,2:2|0:0,0:0:0:0:
64,334,35808,6,1,B|111:351|135:308|135:308|137:305|137:305|165:262|230:286,1,171,4|10,1:2|2:2,0:0:0:0:
298,368,36282,2,1,P|304:322|315:273,1,85.5000000000001,0|2,1:1|2:2,0:0:0:0:
135,196,36597,1,2,1:2:0:0:
135,196,36755,2,1,P|129:242|118:291,1,85.5000000000001,8|2,2:2|2:2,0:0:0:0:
312,283,37071,6,1,B|380:264|380:264|402:231|402:231|470:212,1,171,0|8,1:1|2:2,0:0:0:0:
512,361,37545,2,1,P|461:368|397:272,1,171,2|2,1:2|1:2,0:0:0:0:
254,208,38018,2,1,P|264:164|270:116,1,85.5000000000001,8|2,2:2|2:2,0:0:0:0:
349,51,38334,5,4,1:2:0:0:
406,184,38492,1,2,2:2:0:0:
406,184,38650,2,1,P|424:135|420:98,1,85.5000000000001,10|0,2:2|1:1,0:0:0:0:
204,16,38966,1,2,2:2:0:0:
204,16,39124,2,1,P|186:65|190:102,1,85.5000000000001,2|8,1:2|2:2,0:0:0:0:
288,267,39440,5,2,2:2:0:0:
288,267,39597,2,1,P|306:218|302:181,1,85.5000000000001,2|0,1:2|0:0,0:0:0:0:
86,99,39913,1,10,2:2:0:0:
86,99,40071,2,1,P|68:148|72:185,1,85.5000000000001,2|0,1:2|0:0,0:0:0:0:
236,383,40387,5,10,2:2:0:0:
173,220,40545,1,10,2:2:0:0:
52,350,40703,1,10,2:2:0:0:
252,281,40861,6,1,B|302:262|302:262|379:297,2,114,4|0|0,1:2|1:1|1:1,0:0:0:0:
195,336,41413,1,0,1:1:0:0:
186,345,41492,2,1,P|201:270|210:173,1,152,8|2,2:2|2:2,0:0:0:0:
106,83,42124,6,1,B|56:102|56:102|-21:67,2,114,4|0|0,1:2|1:1|1:1,0:0:0:0:
167,40,42676,1,0,1:1:0:0:
173,28,42755,5,2,3:2:0:0:
364,161,42992,1,2,3:2:0:0:
252,281,43229,1,2,3:2:0:0:
352,313,43387,6,1,B|396:326|396:326|481:299,2,114,4|2|2,1:2|2:2|1:2,0:0:0:0:
305,217,43940,1,0,1:1:0:0:
296,209,44018,2,1,B|252:196|252:196|167:223,2,114,10|2|2,2:2|2:2|2:2,0:0:0:0:
457,226,44650,5,4,1:2:0:0:
287,109,44887,1,2,2:2:0:0:
392,23,45124,1,2,1:2:0:0:
392,23,45203,1,0,1:1:0:0:
392,23,45282,5,0,1:1:0:0:
426,137,45440,1,0,3:3:0:0:
499,86,45597,2,1,P|486:47|475:6,1,76,2|0,3:2|3:3,0:0:0:0:
212,65,45913,6,1,B|199:109|199:109|226:194,2,114,4|0|0,1:2|1:1|1:1,0:0:0:0:
259,10,46466,1,0,1:1:0:0:
268,2,46545,2,1,P|186:41|111:44,1,152,8|2,2:2|2:2,0:0:0:0:
265,228,47176,6,1,B|278:272|278:272|251:357,2,114,4|0|0,1:2|1:1|1:1,0:0:0:0:
219,173,47729,1,0,1:1:0:0:
211,167,47808,5,2,3:2:0:0:
377,321,48045,1,2,3:2:0:0:
496,211,48282,1,2,3:2:0:0:
389,220,48440,5,10,2:2:0:0:
486,308,48913,5,10,2:2:0:0:
265,228,49071,1,10,2:2:0:0:
512,92,49545,5,10,2:2:0:0:
265,228,49703,2,1,P|249:197|249:141,1,90.2499975900651,12|0,1:2|0:0,0:0:0:0:
316,89,49940,2,1,P|297:118|246:142,1,90.2499975900651,12|0,1:2|0:0,0:0:0:0:
149,21,50176,2,1,P|183:22|234:52,1,90.2499975900651,12|0,1:2|0:0,0:0:0:0:
361,203,50492,5,0,3:3:0:0:
380,219,50571,1,0,3:3:0:0:
403,229,50650,1,8,2:2:0:0:
428,230,50729,1,0,3:3:0:0:
452,223,50808,1,8,2:2:0:0:
473,209,50887,1,8,2:2:0:0:
488,189,50966,6,1,P|499:138|517:72,1,99.75,4|0,1:2|0:0,0:0:0:0:
328,278,51282,2,1,P|337:326|350:375,1,99.75,10|0,2:2|1:1,0:0:0:0:
216,149,51597,1,10,2:2:0:0:
423,256,51755,1,0,1:1:0:0:
209,362,51913,1,8,2:2:0:0:
326,192,52071,5,2,1:2:0:0:
326,192,52150,1,0,1:1:0:0:
326,192,52229,1,8,2:2:0:0:
426,334,52387,1,2,1:2:0:0:
206,252,52545,2,1,P|144:271|102:281,1,99.75,10|0,2:2|1:1,0:0:0:0:
316,68,52861,1,10,2:2:0:0:
414,175,53018,1,0,1:1:0:0:
414,175,53097,1,0,1:1:0:0:
414,175,53176,2,1,P|467:184|515:194,1,99.75,8|0,2:2|0:0,0:0:0:0:
252,11,53492,6,1,B|186:0|164:49|164:49|162:52|162:52|139:99|71:79,1,199.5,4|10,1:2|2:2,0:0:0:0:
216,256,53966,1,2,2:2:0:0:
15,162,54124,1,0,1:1:0:0:
15,162,54203,1,0,1:1:0:0:
15,162,54282,2,1,P|74:174|110:194,1,99.75,2|10,1:2|2:2,0:0:0:0:
193,350,54597,1,2,3:2:0:0:
297,143,54755,5,10,2:2:0:0:
45,338,54913,2,1,B|20:298|20:298|51:242,1,99.75,8|0,2:2|0:0,0:0:0:0:
371,93,55229,2,1,B|396:133|396:133|365:189,1,99.75,2|0,1:2|0:0,0:0:0:0:
188,361,55545,6,1,B|268:349|268:349|295:306|295:306|381:288,1,199.5,2|0,1:2|3:3,0:0:0:0:
432,239,55940,1,0,3:3:0:0:
442,245,56018,2,1,P|454:293|463:345,1,99.75,4|0,1:2|0:0,0:0:0:0:
198,258,56334,2,1,P|186:210|177:158,1,99.75,10|0,2:2|1:1,0:0:0:0:
409,9,56650,5,10,2:2:0:0:
295,233,56808,1,0,1:1:0:0:
160,4,56966,1,8,2:2:0:0:
407,142,57124,5,2,1:2:0:0:
407,142,57203,1,0,1:1:0:0:
407,142,57282,1,8,2:2:0:0:
186,264,57440,1,2,1:2:0:0:
327,31,57597,2,1,P|315:97|311:140,1,99.75,10|0,2:2|1:1,0:0:0:0:
150,13,57913,1,10,2:2:0:0:
295,233,58071,1,0,1:1:0:0:
295,233,58150,1,0,1:1:0:0:
295,233,58229,2,1,P|352:219|406:205,1,99.75,8|0,2:2|0:0,0:0:0:0:
127,92,58545,6,1,P|67:91|6:212,1,199.5,4|10,1:2|2:2,0:0:0:0:
206,337,59018,1,2,2:2:0:0:
126,204,59176,1,2,1:2:0:0:
33,354,59334,1,0,3:3:0:0:
33,354,59413,1,2,3:2:0:0:
33,354,59492,1,8,2:2:0:0:
206,248,59650,1,10,2:2:0:0:
2,199,59808,6,1,B|57:215|80:168|80:168|82:165|82:165|111:114|170:127,1,199.5,4|10,1:2|2:2,0:0:0:0:
304,281,60282,1,2,1:2:0:0:
304,281,60361,1,0,1:1:0:0:
304,281,60440,2,1,P|293:315|278:379,1,99.75,0|10,1:1|2:2,0:0:0:0:
232,172,60755,1,2,1:2:0:0:
389,331,60913,5,0,3:3:0:0:
389,331,60992,1,0,3:3:0:0:
389,331,61071,2,1,P|403:262|415:216,1,99.75,4|0,1:2|0:0,0:0:0:0:
134,109,61387,2,1,P|148:178|160:224,1,99.75,10|0,2:2|1:1,0:0:0:0:
366,57,61703,5,10,2:2:0:0:
246,265,61861,1,0,1:1:0:0:
143,3,62018,1,8,2:2:0:0:
346,197,62176,5,2,1:2:0:0:
346,197,62255,1,0,1:1:0:0:
346,197,62334,1,8,2:2:0:0:
144,351,62492,1,2,1:2:0:0:
418,267,62650,2,1,P|443:218|441:172,1,99.75,10|0,2:2|1:1,0:0:0:0:
219,85,62966,1,10,2:2:0:0:
343,328,63124,1,0,1:1:0:0:
343,328,63203,1,0,1:1:0:0:
343,328,63282,2,1,P|386:362|438:364,1,99.75,8|0,2:2|0:0,0:0:0:0:
192,171,63597,6,1,P|138:180|-1:226,1,199.5,4|10,1:2|2:2,0:0:0:0:
186,302,64071,1,2,2:2:0:0:
50,123,64229,1,0,1:1:0:0:
50,123,64308,1,0,1:1:0:0:
50,123,64387,2,1,P|71:73|81:19,1,99.75,2|10,1:2|2:2,0:0:0:0:
206,184,64703,1,2,3:2:0:0:
391,41,64861,5,10,2:2:0:0:
142,242,65018,2,1,B|116:201|116:201|135:143,1,99.75,8|0,2:2|0:0,0:0:0:0:
464,0,65334,2,1,B|490:41|490:41|471:99,1,99.75,2|0,1:2|0:0,0:0:0:0:
269,268,65650,6,1,B|349:280|349:280|376:323|376:323|462:341,1,199.5,2|0,1:2|1:1,0:0:0:0:
484,279,66045,1,0,1:1:0:0:
487,267,66124,2,1,P|474:217|465:158,1,99.75,4|0,1:2|0:0,0:0:0:0:
181,286,66440,2,1,P|194:336|203:395,1,99.75,10|0,2:2|1:1,0:0:0:0:
80,117,66755,5,10,2:2:0:0:
265,288,66913,1,0,1:1:0:0:
322,32,67071,1,8,2:2:0:0:
158,187,67229,5,2,1:2:0:0:
158,187,67308,1,0,1:1:0:0:
158,187,67387,1,8,2:2:0:0:
386,258,67545,1,2,1:2:0:0:
233,13,67703,2,1,P|221:58|212:112,1,99.75,10|0,2:2|1:1,0:0:0:0:
277,298,68018,1,10,2:2:0:0:
455,182,68176,1,0,1:1:0:0:
455,182,68255,1,0,1:1:0:0:
455,182,68334,2,1,P|467:137|476:83,1,99.75,8|0,2:2|0:0,0:0:0:0:
225,220,68650,6,1,B|166:207|137:258|137:258|135:261|135:261|112:308|57:292,1,199.5,4|10,1:2|2:2,0:0:0:0:
6,143,69124,1,2,2:2:0:0:
183,343,69282,1,2,1:2:0:0:
300,142,69440,5,0,3:3:0:0:
300,142,69518,1,2,3:2:0:0:
300,142,69597,1,0,3:3:0:0:
121,220,69755,1,2,1:2:0:0:
322,344,69913,6,1,P|394:355|458:254,1,199.5,4|10,1:2|2:2,0:0:0:0:
217,87,70387,1,2,3:2:0:0:
217,87,70466,1,0,3:3:0:0:
217,87,70545,2,1,P|202:141|195:186,1,99.75,0|2,1:1|1:2,0:0:0:0:
446,163,70861,2,1,P|461:109|468:64,1,99.75,10|0,2:2|1:1,0:0:0:0:
275,251,71176,5,12,2:2:0:0:
170,9,71334,1,0,1:1:0:0:
150,304,71492,5,8,2:2:0:0:
303,91,71650,1,0,1:1:0:0:
347,359,71808,5,8,2:2:0:0:
213,146,71966,1,2,1:2:0:0:
190,384,72124,5,10,2:2:0:0:
312,100,72282,1,2,1:2:0:0:
66,194,72440,5,10,2:2:0:0:
435,289,72597,1,8,2:2:0:0:
435,289,73703,6,1,B|381:278|345:333|345:333|288:329|271:274,1,190,4|10,1:2|2:2,0:0:0:0:
369,113,74176,2,1,P|429:98|477:86,1,95,2|2,1:2|2:2,0:0:0:0:
331,226,74492,1,2,1:2:0:0:
267,57,74650,2,1,P|214:49|172:40,1,95,10|2,2:2|2:2,0:0:0:0:
140,234,74966,5,2,1:2:0:0:
140,234,75124,2,1,P|122:182|112:137,1,95,2|8,2:2|2:2,0:0:0:0:
0,26,75440,2,1,P|46:36|84:63,1,95,2|0,1:2|0:0,0:0:0:0:
292,138,75755,2,1,P|249:168|207:176,1,95,2|8,1:2|2:2,0:0:0:0:
43,278,76071,1,2,2:2:0:0:
207,175,76229,6,1,B|259:156|286:203|286:203|288:206|288:206|319:254|390:227,1,190,2|10,1:2|2:2,0:0:0:0:
469,63,76703,2,1,P|411:76|378:109,1,95,2|2,1:2|2:2,0:0:0:0:
461,238,77018,1,2,1:2:0:0:
317,51,77176,2,1,P|296:111|307:150,1,95,10|2,2:2|2:2,0:0:0:0:
437,329,77492,5,2,1:2:0:0:
437,329,77650,2,1,P|447:279|464:230,1,95,2|8,1:2|2:2,0:0:0:0:
295,333,77966,1,2,1:2:0:0:
491,164,78124,5,0,3:3:0:0:
469,192,78203,1,0,3:3:0:0:
438,210,78282,1,2,3:2:0:0:
403,215,78361,1,0,3:3:0:0:
369,207,78440,2,1,P|362:182|355:158,1,47.5,8|0,2:2|3:3,0:0:0:0:
287,66,78597,5,2,1:2:0:0:
296,63,78676,1,0,1:1:0:0:
305,60,78755,2,1,P|291:142|276:255,1,190,4|10,1:2|2:2,0:0:0:0:
93,315,79229,2,1,P|80:258|68:218,1,95,2|2,1:2|2:2,0:0:0:0:
210,309,79545,1,2,1:2:0:0:
180,123,79703,2,1,P|167:174|159:223,1,95,10|2,2:2|2:2,0:0:0:0:
307,240,80018,5,2,1:2:0:0:
307,240,80176,2,1,P|354:225|400:209,1,95,2|8,2:2|2:2,0:0:0:0:
486,348,80492,2,1,P|433:347|401:317,1,95,2|0,1:2|0:0,0:0:0:0:
235,116,80808,2,1,P|288:117|320:147,1,95,2|8,1:2|2:2,0:0:0:0:
245,307,81124,1,2,2:2:0:0:
470,181,81282,6,1,B|418:162|391:209|391:209|389:212|389:212|358:260|287:233,1,190,4|10,1:2|2:2,0:0:0:0:
132,116,81755,2,1,P|121:63|108:22,1,95,2|2,1:2|2:2,0:0:0:0:
317,143,82071,1,2,1:2:0:0:
105,214,82229,2,1,P|57:191|37:149,1,95,10|2,2:2|2:2,0:0:0:0:
234,71,82545,5,10,2:2:0:0:
289,234,82703,1,2,2:2:0:0:
230,55,82861,1,0,1:1:0:0:
381,272,83018,2,1,B|323:232|271:274|271:274|265:314|209:332,1,190,10|2,2:2|1:2,0:0:0:0:
16,246,83492,2,1,P|75:230|105:213,1,95,8|2,2:2|2:2,0:0:0:0:
121,192,83729,1,2,2:2:0:0:
126,180,83808,5,4,1:2:0:0:
61,54,83966,1,0,1:1:0:0:
61,54,84045,1,0,1:1:0:0:
61,54,84124,2,1,P|43:103|37:147,1,85.5000000000001,10|0,2:2|1:1,0:0:0:0:
206,264,84440,1,2,1:2:0:0:
121,192,84597,1,2,1:2:0:0:
121,192,84755,2,1,P|66:205|27:218,1,85.5000000000001,8|2,2:2|1:2,0:0:0:0:
149,335,85071,5,0,1:1:0:0:
0,306,85229,2,1,P|55:293|94:280,1,85.5000000000001,2|8,1:2|2:2,0:0:0:0:
211,169,85545,2,1,P|132:157|26:134,1,171,2|0,1:2|1:1,0:0:0:0:
130,0,86018,2,1,P|143:42|155:85,1,85.5000000000001,10|2,2:2|2:2,0:0:0:0:
121,192,86334,5,4,1:2:0:0:
240,64,86492,1,0,1:1:0:0:
240,64,86571,1,0,1:1:0:0:
240,64,86650,2,1,P|288:78|326:83,1,85.5000000000001,10|0,2:2|1:1,0:0:0:0:
438,166,86966,1,2,1:2:0:0:
429,0,87124,1,2,1:2:0:0:
429,0,87282,2,1,P|415:47|408:85,1,85.5000000000001,8|2,2:2|1:2,0:0:0:0:
304,172,87597,5,0,1:1:0:0:
496,98,87755,1,2,1:2:0:0:
496,98,87913,1,8,2:2:0:0:
382,243,88071,6,1,B|335:259|311:218|311:218|310:215|310:215|282:172|219:196,1,171,2|0,1:2|1:1,0:0:0:0:
163,265,88545,1,8,2:2:0:0:
163,265,88624,1,8,2:2:0:0:
163,265,88703,1,8,2:2:0:0:
327,333,88861,5,4,1:2:0:0:
229,361,89018,1,0,1:1:0:0:
229,361,89097,1,0,1:1:0:0:
229,361,89176,2,1,P|241:301|244:264,1,85.5000000000001,10|0,2:2|1:1,0:0:0:0:
86,191,89492,1,2,1:2:0:0:
163,265,89650,1,2,1:2:0:0:
163,265,89808,2,1,P|168:222|177:180,1,85.5000000000001,8|2,2:2|1:2,0:0:0:0:
266,41,90124,5,0,1:1:0:0:
104,107,90282,2,1,P|156:99|191:83,1,85.5000000000001,2|8,1:2|2:2,0:0:0:0:
338,0,90597,2,1,P|320:58|297:171,1,171,2|2,1:2|1:2,0:0:0:0:
409,252,91071,2,1,P|395:202|391:159,1,85.5000000000001,8|2,2:2|2:2,0:0:0:0:
445,92,91387,5,4,1:2:0:0:
297,165,91545,1,2,1:2:0:0:
297,165,91624,1,0,1:1:0:0:
297,165,91703,2,1,P|247:154|209:148,1,85.5000000000001,10|0,2:2|1:1,0:0:0:0:
348,323,92018,1,2,1:2:0:0:
348,323,92176,2,1,P|398:334|436:340,1,85.5000000000001,2|8,1:2|2:2,0:0:0:0:
168,210,92492,5,2,1:2:0:0:
168,210,92650,2,1,P|118:199|80:193,1,85.5000000000001,2|0,1:2|1:1,0:0:0:0:
219,368,92966,1,10,2:2:0:0:
219,368,93124,2,1,P|269:379|307:385,1,85.5000000000001,2|0,2:2|1:1,0:0:0:0:
388,196,93440,5,2,1:2:0:0:
297,307,93597,1,10,2:2:0:0:
265,302,93676,1,8,2:2:0:0:
234,297,93755,1,10,2:2:0:0:
202,292,93834,1,10,2:2:0:0:
171,287,93913,1,4,1:2:0:0:
50,150,94071,5,2,1:2:0:0:
50,150,94150,1,0,1:1:0:0:
50,150,94229,2,1,P|108:140|147:130,1,85.5000000000001,10|0,2:2|1:1,0:0:0:0:
339,229,94545,1,2,1:2:0:0:
339,229,94703,2,1,P|281:239|242:249,1,85.5000000000001,2|8,1:2|2:2,0:0:0:0:
133,49,95018,5,2,1:2:0:0:
133,49,95176,2,1,P|191:39|230:29,1,85.5000000000001,2|0,1:2|1:1,0:0:0:0:
422,128,95492,1,10,2:2:0:0:
422,128,95650,2,1,P|364:138|325:148,1,85.5000000000001,2|0,1:2|1:1,0:0:0:0:
291,5,95966,5,2,1:2:0:0:
375,222,96124,1,10,2:2:0:0:
511,42,96282,1,10,2:2:0:0:
387,94,96440,5,4,1:2:0:0:
56,231,98966,5,4,1:2:0:0:
235,288,99124,1,2,2:2:0:0:
151,154,99282,1,10,2:2:0:0:
0,311,99440,6,1,B|52:330|79:283|79:283|81:280|81:280|112:232|183:259,1,190,2|2,1:2|1:2,0:0:0:0:
310,324,99913,1,10,2:2:0:0:
151,154,100071,2,1,P|168:213|194:342,1,190,2|0,2:2|0:0,0:0:0:0:
380,384,100545,2,1,P|398:341|387:291,1,95,8|0,2:2|1:1,0:0:0:0:
279,182,100861,5,2,2:2:0:0:
279,182,100940,1,2,2:2:0:0:
279,182,101018,1,2,1:2:0:0:
455,236,101176,1,10,2:2:0:0:
310,324,101334,1,2,2:2:0:0:
409,155,101492,6,1,P|465:145|510:133,1,95,0|2,1:1|2:2,0:0:0:0:
245,378,101808,2,1,P|224:335|231:287,1,95,10|0,2:2|1:1,0:0:0:0:
400,145,102124,1,2,2:2:0:0:
500,320,102282,1,2,1:2:0:0:
291,195,102440,1,10,2:2:0:0:
495,44,102597,6,1,P|506:104|514:140,1,95,2|0,2:2|1:1,0:0:0:0:
205,249,102913,2,1,P|194:189|186:153,1,95,2|8,1:2|2:2,0:0:0:0:
425,237,103229,1,0,1:1:0:0:
281,44,103387,1,2,3:2:0:0:
281,44,103466,1,2,3:2:0:0:
281,44,103545,1,2,3:2:0:0:
186,155,103703,1,10,2:2:0:0:
390,35,103861,1,2,1:2:0:0:
177,166,104018,6,1,P|125:165|85:115,1,95,4|0,1:2|0:0,0:0:0:0:
378,44,104334,2,1,P|363:105|358:137,1,95,10|0,2:2|1:1,0:0:0:0:
237,239,104650,1,2,2:2:0:0:
449,120,104808,2,1,P|463:169|473:216,1,95,2|8,1:2|2:2,0:0:0:0:
230,103,105124,1,2,2:2:0:0:
230,103,105203,1,0,0:0:0:0:
230,103,105282,6,1,P|216:54|206:7,1,95,0|2,1:1|2:2,0:0:0:0:
323,273,105597,2,1,P|281:318|244:325,1,95,10|0,2:2|1:1,0:0:0:0:
62,188,105913,1,2,2:2:0:0:
165,362,106071,1,2,1:2:0:0:
285,170,106229,1,10,2:2:0:0:
65,315,106387,1,2,2:2:0:0:
296,161,106545,6,1,B|336:146|357:182|357:182|358:184|358:184|382:222|437:201,1,142.5,4|0,1:2|0:0,0:0:0:0:
463,144,106861,2,1,P|472:91|483:43,1,95,10|2,2:2|1:2,0:0:0:0:
208,142,107176,1,2,2:2:0:0:
480,258,107334,1,2,1:2:0:0:
285,43,107492,5,10,2:2:0:0:
477,143,107650,1,2,2:2:0:0:
236,268,107808,6,1,P|159:272|98:167,1,190,10|2,2:2|1:2,0:0:0:0:
194,41,108282,1,8,2:2:0:0:
14,231,108440,1,2,2:2:0:0:
292,124,108597,1,2,1:2:0:0:
76,4,108755,2,1,P|63:64|50:114,1,95,8|2,2:2|2:2,0:0:0:0:
236,268,109071,6,1,B|184:247|153:295|153:295|151:298|151:298|124:345|72:326,1,190,4|8,1:2|2:2,0:0:0:0:
224,168,109545,2,1,B|267:159|309:115|309:115|283:166|295:211,1,190,2|0,1:2|1:1,0:0:0:0:
393,384,110018,2,1,B|413:368|436:359|436:359|419:343|405:311,1,95,10|0,2:2|0:0,0:0:0:0:
292,200,110334,6,1,P|361:218|501:242,1,190,2|8,1:2|2:2,0:0:0:0:
449,0,110808,2,1,B|386:11|381:73|381:73|425:105|409:161,1,190,0|2,1:1|1:2,0:0:0:0:
477,239,111282,1,10,2:2:0:0:
334,136,111440,1,2,2:2:0:0:
271,340,111597,6,1,P|340:345|383:234,1,190,2|8,1:2|2:2,0:0:0:0:
248,75,112071,2,1,P|235:141|213:268,1,190,0|2,1:1|1:2,0:0:0:0:
58,339,112545,2,1,P|42:285|26:239,1,95,8|2,2:2|2:2,0:0:0:0:
236,138,112861,5,0,1:1:0:0:
136,291,113018,1,2,1:2:0:0:
72,108,113176,1,10,2:2:0:0:
259,237,113334,1,0,1:1:0:0:
46,350,113492,5,2,3:2:0:0:
54,357,113571,1,0,3:3:0:0:
54,357,113650,1,0,3:3:0:0:
151,161,113808,1,8,2:2:0:0:
287,369,113966,1,2,1:2:0:0:
287,369,114045,1,2,1:2:0:0:
287,369,114124,6,1,B|339:390|370:342|370:342|372:339|372:339|399:292|451:311,1,190,4|10,1:2|2:2,0:0:0:0:
392,155,114597,2,1,P|360:197|353:242,1,95,2|0,1:2|0:0,0:0:0:0:
495,375,114913,1,2,1:2:0:0:
254,219,115071,2,1,P|265:283|281:311,1,95,10|2,2:2|2:2,0:0:0:0:
500,179,115387,6,1,P|501:124|451:-6,1,190,2|8,1:2|2:2,0:0:0:0:
202,157,115861,2,1,P|183:113|183:66,1,95,2|0,1:2|0:0,0:0:0:0:
380,212,116176,1,2,1:2:0:0:
293,0,116334,2,1,P|273:49|270:92,1,95,10|2,2:2|2:2,0:0:0:0:
297,247,116650,6,1,P|234:215|105:197,1,190,4|8,1:2|2:2,0:0:0:0:
173,363,117124,1,2,1:2:0:0:
0,314,117282,2,1,P|51:294|104:284,1,95,2|0,2:2|1:1,0:0:0:0:
106,289,117518,1,2,2:2:0:0:
115,297,117597,1,8,2:2:0:0:
266,186,117755,1,2,2:2:0:0:
114,51,117913,6,1,B|56:127|56:127|121:206,1,190,10|0,2:2|1:1,0:0:0:0:
291,373,118387,2,1,B|248:318|186:341|186:341|166:380|109:378,1,190,10|0,2:2|1:1,0:0:0:0:
266,186,118861,2,1,P|274:141|283:83,1,95,10|2,2:2|2:2,0:0:0:0:
355,261,119176,5,10,2:2:0:0:
185,89,119334,1,0,1:1:0:0:
221,264,119492,5,8,2:2:0:0:
355,37,119650,1,0,1:1:0:0:
443,242,119808,5,10,2:2:0:0:
195,98,119966,1,0,1:1:0:0:
442,2,120124,2,1,P|454:52|465:100,1,95,8|0,2:2|1:1,0:0:0:0:
197,178,120440,6,1,B|147:196|120:149|120:149|118:146|118:146|87:98|35:119,1,190,10|8,2:2|2:2,0:0:0:0:
211,357,120913,2,1,P|233:320|231:264,1,95,2|8,1:2|2:2,0:0:0:0:
195,98,121229,1,0,1:1:0:0:
125,257,121387,1,10,2:2:0:0:
293,78,121545,1,0,1:1:0:0:
91,170,121703,5,12,2:2:0:0:
324,292,121861,2,1,P|275:277|222:267,1,95,2|8,1:2|2:2,0:0:0:0:
93,342,122176,1,2,1:2:0:0:
195,98,122334,5,8,2:2:0:0:
324,292,122492,1,2,1:2:0:0:
375,44,122650,5,8,2:2:0:0:
231,239,122808,1,2,1:2:0:0:
177,12,122966,5,8,2:2:0:0:
414,206,123124,2,1,P|423:159|437:114,1,95,2|8,1:2|2:2,0:0:0:0:
231,239,123440,1,2,1:2:0:0:
425,384,123597,5,8,2:2:0:0:
302,101,123755,1,2,1:2:0:0:
265,384,123913,5,10,2:2:0:0:
512,184,124071,1,2,1:2:0:0:
231,239,124229,6,1,B|283:223|311:267|311:267|313:270|313:270|340:317|405:296,1,190,10|8,2:2|2:2,0:0:0:0:
512,201,124703,1,2,1:2:0:0:
283,384,124861,5,8,2:2:0:0:
191,117,125018,1,2,1:2:0:0:
394,298,125176,5,8,2:2:0:0:
394,298,125255,1,0,3:3:0:0:
394,298,125334,1,2,3:2:0:0:
100,139,125492,6,1,B|164:167|188:112|188:112|190:122|190:122|239:45|298:90,1,228,12|8,2:2|2:2,0:0:0:0:
153,289,125966,1,2,1:2:0:0:
153,289,126045,1,2,2:2:0:0:
153,289,126124,1,8,2:2:0:0:
28,106,126282,1,2,1:2:0:0:
234,226,126440,1,8,2:2:0:0:
35,324,126597,1,2,1:2:0:0:
193,136,126755,6,1,P|254:128|298:119,1,95,10|2,2:2|1:2,0:0:0:0:
394,223,127071,5,8,2:2:0:0:
158,57,127229,1,2,1:2:0:0:
377,0,127387,5,8,2:2:0:0:
106,150,127545,1,2,1:2:0:0:
314,258,127703,5,8,2:2:0:0:
262,48,127861,1,2,1:2:0:0:
188,285,128018,6,1,P|267:296|383:332,1,190,8|8,2:2|2:2,0:0:0:0:
413,116,128492,1,2,1:2:0:0:
501,193,128650,2,1,P|449:198|406:213,1,95,8|2,2:2|1:2,0:0:0:0:
251,82,128966,2,1,P|303:77|346:62,1,95,8|2,2:2|1:2,0:0:0:0:
239,192,129282,5,10,2:2:0:0:
225,194,129361,1,8,2:2:0:0:
210,193,129440,1,2,1:2:0:0:
196,189,129518,1,2,1:2:0:0:
184,180,129597,2,1,P|176:155|170:134,1,47.5,10|8,2:2|2:2,0:0:0:0:
101,63,129755,2,1,P|93:88|87:109,1,47.5,2|0,1:2|1:2,0:0:0:0:
2,250,129913,5,8,2:2:0:0:
19,234,129992,1,8,2:2:0:0:
39,222,130071,1,0,1:2:0:0:
62,219,130150,1,0,1:2:0:0:
84,226,130229,2,1,P|105:248|117:263,1,47.5,8|8,2:2|2:2,0:0:0:0:
198,358,130387,2,1,P|204:332|216:304,1,47.5,2|0,3:2|3:2,0:0:0:0:
349,221,130545,6,1,P|408:236|446:241,1,95,12|10,2:2|2:2,0:0:0:0:
457,235,130782,1,10,2:2:0:0:
464,229,130861,1,10,2:2:0:0:
316,305,131018,5,14,2:2:0:0:
307,327,131097,1,10,2:2:0:0:
302,350,131176,1,10,2:2:0:0:
177,119,131334,5,10,2:2:0:0:
188,87,131413,1,10,2:2:0:0:
190,53,131492,2,1,P|167:22|108:14,1,95,14|2,2:2|0:2,0:0:0:0:
132,257,131808,6,1,B|173:235|173:235|244:262,2,114,4|0|0,1:2|1:1|1:1,0:0:0:0:
59,219,132361,1,0,1:1:0:0:
48,228,132440,2,1,P|34:282|19:380,1,152,8|2,2:2|2:2,0:0:0:0:
323,164,133071,6,1,B|364:186|364:186|435:159,2,114,4|0|0,1:2|1:1|1:1,0:0:0:0:
337,88,133624,1,0,1:1:0:0:
343,77,133703,1,2,3:2:0:0:
208,187,133940,1,2,3:2:0:0:
99,98,134176,1,2,3:2:0:0:
176,29,134334,6,1,B|217:51|217:51|288:24,2,114,4|2|2,1:2|1:2|1:2,0:0:0:0:
115,89,134887,1,0,1:1:0:0:
104,96,134966,2,1,B|63:74|63:74|-8:101,2,114,10|2|2,2:2|2:2|2:2,0:0:0:0:
237,263,135597,5,4,1:2:0:0:
374,133,135834,1,2,2:2:0:0:
472,250,136071,1,2,1:2:0:0:
472,250,136150,1,0,1:1:0:0:
472,250,136229,5,0,1:1:0:0:
379,222,136387,1,0,3:3:0:0:
364,312,136545,2,1,P|418:326|456:341,1,76,2|0,3:2|3:3,0:0:0:0:
294,181,136861,6,1,B|272:140|272:140|299:69,2,114,4|0|0,1:2|0:0|1:1,0:0:0:0:
360,225,137413,1,0,1:1:0:0:
374,232,137492,2,1,P|321:245|228:299,1,152,8|2,2:2|2:2,0:0:0:0:
90,42,138124,6,1,B|112:83|112:83|85:154,2,114,4|0|0,1:2|1:1|1:1,0:0:0:0:
18,18,138676,1,0,1:1:0:0:
7,22,138755,1,2,3:2:0:0:
201,151,138992,1,2,3:2:0:0:
65,248,139229,1,2,3:2:0:0:
182,333,139387,6,1,B|204:292|204:292|177:221,2,114,4|2|2,1:2|2:2|1:2,0:0:0:0:
76,272,139940,1,0,1:1:0:0:
65,267,140018,2,1,B|43:308|43:308|70:379,2,114,10|2|2,2:2|2:2|2:2,0:0:0:0:
210,141,140650,6,1,P|250:171|296:180,1,76,4|0,1:2|0:0,0:0:0:0:
326,236,140887,2,1,P|371:223|397:207,1,76,4|0,1:2|0:0,0:0:0:0:
474,221,141124,2,1,P|495:189|500:167,2,38,0|0|0,1:1|1:1|1:1,0:0:0:0:
381,30,141440,5,0,3:3:0:0:
381,30,141518,1,0,3:3:0:0:
381,30,141597,1,2,3:2:0:0:
345,138,141755,1,0,1:1:0:0:
224,44,141913,6,1,B|183:22|183:22|112:49,2,114,4|0|0,1:2|1:1|1:1,0:0:0:0:
282,0,142466,1,0,1:1:0:0:
289,9,142545,2,1,P|274:60|254:173,1,152,8|2,2:2|2:2,0:0:0:0:
407,322,143176,6,1,B|448:344|448:344|519:317,2,114,4|0|0,1:2|1:1|1:1,0:0:0:0:
352,266,143729,1,0,1:1:0:0:
343,258,143808,1,2,3:2:0:0:
211,384,144045,1,2,3:2:0:0:
128,305,144282,1,2,3:2:0:0:
231,237,144440,6,1,B|272:215|272:215|343:242,2,114,4|2|2,1:2|2:2|1:2,0:0:0:0:
137,300,144992,1,0,1:1:0:0:
128,305,145071,2,1,B|87:327|87:327|16:300,2,114,10|2|2,2:2|2:2|2:2,0:0:0:0:
270,177,145703,5,4,1:2:0:0:
101,77,145940,1,2,2:2:0:0:
211,3,146176,1,2,1:2:0:0:
211,3,146255,1,0,1:1:0:0:
211,3,146334,5,0,1:1:0:0:
190,89,146492,1,0,3:3:0:0:
287,97,146650,2,1,P|296:50|303:14,1,76,2|0,3:2|3:3,0:0:0:0:
134,161,146966,6,1,B|112:202|112:202|139:273,2,114,4|0|0,1:2|1:1|1:1,0:0:0:0:
181,96,147518,1,0,1:1:0:0:
190,89,147597,2,1,P|149:94|29:50,1,152,8|2,2:2|2:2,0:0:0:0:
373,86,148229,6,1,B|395:127|395:127|368:198,2,114,4|0|0,1:2|1:1|1:1,0:0:0:0:
308,39,148782,1,0,1:1:0:0:
296,35,148861,1,2,3:2:0:0:
470,187,149097,1,2,3:2:0:0:
342,304,149334,1,2,3:2:0:0:
251,177,149492,5,10,2:2:0:0:
149,276,149966,5,10,2:2:0:0:
358,191,150124,1,10,2:2:0:0:
104,87,150597,5,10,2:2:0:0:
358,191,150755,2,1,P|380:233|382:277,1,90.2499975900651,12|0,1:2|0:0,0:0:0:0:
321,337,150992,2,1,P|346:296|385:273,1,90.2499975900651,12|0,1:2|0:0,0:0:0:0:
498,375,151229,2,1,P|450:373|411:354,1,90.2499975900651,12|0,1:2|3:3,0:0:0:0:
277,102,151545,5,0,3:3:0:0:
303,105,151624,1,0,3:3:0:0:
331,110,151703,1,0,3:3:0:0:
359,114,151782,1,0,3:3:0:0:
387,118,151861,1,8,2:2:0:0:
416,122,151940,1,8,2:2:0:0:
444,126,152019,1,2,2:1:0:0:
444,126,152966,6,1,B|395:136|395:136|399:138|399:138|343:151,1,95,8|0,2:2|0:0,0:0:0:0:
112,105,153282,6,1,P|92:55|82:4,1,99.75,4|0,1:2|0:0,0:0:0:0:
254,197,153597,2,1,P|243:245|224:291,1,99.75,10|0,2:2|1:1,0:0:0:0:
73,361,153913,1,10,2:2:0:0:
165,182,154071,1,0,1:1:0:0:
285,384,154229,1,8,2:2:0:0:
74,220,154387,5,2,1:2:0:0:
74,220,154466,1,0,1:1:0:0:
74,220,154545,1,8,2:2:0:0:
274,113,154703,1,2,1:2:0:0:
125,294,154861,2,1,P|86:304|24:322,1,99.75,10|0,2:2|1:1,0:0:0:0:
111,116,155176,1,10,2:2:0:0:
212,338,155334,1,0,1:1:0:0:
212,338,155413,1,0,1:1:0:0:
212,338,155492,2,1,P|225:282|236:237,1,99.75,8|0,2:2|0:0,0:0:0:0:
151,23,155808,6,1,P|87:21|9:126,1,199.5,4|10,1:2|2:2,0:0:0:0:
224,236,156282,1,2,2:2:0:0:
278,100,156440,1,0,1:1:0:0:
278,100,156518,1,0,1:1:0:0:
278,100,156597,2,1,P|333:88|380:70,1,99.75,2|10,1:2|2:2,0:0:0:0:
456,182,156913,1,2,3:2:0:0:
211,39,157071,5,10,2:2:0:0:
437,274,157229,2,1,B|460:237|460:237|438:182,1,99.75,8|0,2:2|0:0,0:0:0:0:
139,0,157545,2,1,B|117:44|117:44|138:92,1,99.75,2|0,1:2|0:0,0:0:0:0:
298,269,157861,2,1,B|234:283|234:283|193:333|193:333|121:352,1,199.5,2|0,1:2|3:3,0:0:0:0:
55,312,158255,5,0,3:3:0:0:
46,301,158334,2,1,P|58:248|66:201,1,99.75,4|0,1:2|0:0,0:0:0:0:
385,287,158650,2,1,P|373:340|365:387,1,99.75,10|0,2:2|1:1,0:0:0:0:
195,132,158966,1,10,2:2:0:0:
273,358,159124,1,0,1:1:0:0:
400,122,159282,1,8,2:2:0:0:
183,232,159440,5,2,1:2:0:0:
183,232,159518,1,0,1:1:0:0:
183,232,159597,1,8,2:2:0:0:
398,296,159755,1,2,1:2:0:0:
315,83,159913,2,1,P|302:145|295:187,1,99.75,10|0,2:2|1:1,0:0:0:0:
163,11,160229,1,10,2:2:0:0:
29,227,160387,1,0,1:1:0:0:
29,227,160466,1,0,1:1:0:0:
29,227,160545,2,1,P|37:177|48:129,1,99.75,8|0,2:2|0:0,0:0:0:0:
299,349,160861,6,1,P|306:274|326:146,1,199.5,4|10,1:2|2:2,0:0:0:0:
456,34,161334,1,2,2:2:0:0:
352,224,161492,1,2,1:2:0:0:
256,94,161650,1,0,3:3:0:0:
256,94,161729,1,2,3:2:0:0:
256,94,161808,1,8,2:2:0:0:
462,219,161966,1,10,2:2:0:0:
178,44,162124,6,1,B|224:39|275:-7|275:-7|249:49|266:90,1,199.5,4|10,1:2|2:2,0:0:0:0:
462,219,162597,1,2,1:2:0:0:
462,219,162676,1,0,1:1:0:0:
462,219,162755,2,1,P|490:162|487:120,1,99.75,0|10,1:1|2:2,0:0:0:0:
268,194,163071,1,2,1:2:0:0:
407,332,163229,5,0,3:3:0:0:
407,332,163308,1,0,3:3:0:0:
407,332,163387,2,1,P|466:316|506:305,1,99.75,4|0,1:2|0:0,0:0:0:0:
191,162,163703,2,1,P|132:178|92:189,1,99.75,10|0,2:2|1:1,0:0:0:0:
344,42,164018,5,10,2:2:0:0:
251,278,164176,1,0,1:1:0:0:
207,1,164334,1,8,2:2:0:0:
389,195,164492,5,2,1:2:0:0:
389,195,164571,1,0,1:1:0:0:
389,195,164650,1,8,2:2:0:0:
138,76,164808,1,2,1:2:0:0:
362,284,164966,2,1,P|420:285|454:261,1,99.75,10|0,2:2|1:1,0:0:0:0:
267,90,165282,1,10,2:2:0:0:
158,303,165440,1,0,1:1:0:0:
158,303,165518,1,0,1:1:0:0:
158,303,165597,2,1,P|108:323|66:305,1,99.75,8|0,2:2|0:0,0:0:0:0:
249,17,165913,6,1,B|310:-1|333:50|333:50|335:53|335:53|358:100|421:83,1,199.5,4|10,1:2|2:2,0:0:0:0:
283,197,166387,1,2,2:2:0:0:
486,39,166545,1,0,1:1:0:0:
486,39,166624,1,0,1:1:0:0:
486,39,166703,2,1,P|472:94|467:137,1,99.75,2|10,1:2|2:2,0:0:0:0:
321,280,167018,1,2,3:2:0:0:
176,120,167176,5,10,2:2:0:0:
406,288,167334,2,1,B|436:245|436:245|414:191,1,99.75,8|0,2:2|0:0,0:0:0:0:
111,71,167650,2,1,B|81:114|81:114|103:168,1,99.75,2|0,1:2|0:0,0:0:0:0:
322,106,167966,2,1,B|386:92|386:92|427:42|427:42|499:23,1,199.5,2|0,1:2|1:1,0:0:0:0:
511,94,168361,1,0,1:1:0:0:
511,104,168440,6,1,P|497:155|492:203,1,99.75,4|0,1:2|0:0,0:0:0:0:
231,98,168755,2,1,P|245:47|250:-1,1,99.75,10|0,2:2|1:1,0:0:0:0:
354,196,169071,5,10,2:2:0:0:
144,47,169229,1,0,1:1:0:0:
415,111,169387,1,8,2:2:0:0:
182,243,169545,5,2,1:2:0:0:
182,243,169624,1,0,1:1:0:0:
182,243,169703,1,8,2:2:0:0:
266,9,169861,1,2,1:2:0:0:
361,207,170018,2,1,P|422:218|468:232,1,99.75,10|0,2:2|1:1,0:0:0:0:
356,47,170334,1,10,2:2:0:0:
228,141,170492,1,0,1:1:0:0:
228,141,170571,1,0,1:1:0:0:
228,141,170650,2,1,P|168:151|127:161,1,99.75,8|0,2:2|0:0,0:0:0:0:
216,360,170966,6,1,B|277:378|300:327|300:327|302:324|302:324|325:277|388:294,1,199.5,4|10,1:2|2:2,0:0:0:0:
507,360,171440,1,2,2:2:0:0:
319,198,171597,1,2,1:2:0:0:
376,372,171755,1,0,3:3:0:0:
376,372,171834,1,2,3:2:0:0:
376,372,171913,1,0,3:3:0:0:
484,191,172071,1,2,1:2:0:0:
166,101,172229,6,1,B|178:149|235:153|235:153|271:98|325:109,1,199.5,4|10,1:2|2:2,0:0:0:0:
475,178,172703,2,1,P|492:124|493:77,1,99.75,2|0,3:2|1:1,0:0:0:0:
239,235,173018,1,2,1:2:0:0:
239,235,173097,1,0,1:2:0:0:
239,235,173176,2,1,P|222:289|221:336,1,99.75,10|0,2:2|1:1,0:0:0:0:
158,88,173492,5,12,2:2:0:0:
368,215,173650,1,0,1:1:0:0:
104,256,173808,5,8,2:2:0:0:
398,117,173966,1,0,1:1:0:0:
79,43,174124,5,8,2:2:0:0:
263,311,174282,1,2,1:2:0:0:
378,20,174440,5,10,2:2:0:0:
182,207,174597,1,2,1:2:0:0:
434,292,174755,6,1,P|454:240|459:184,1,99.75,10|0,2:2|1:1,0:0:0:0:
298,31,175071,1,8,2:2:0:0:
78,230,175229,2,1,P|84:180|103:134,1,99.75,2|8,1:2|2:2,0:0:0:0:
348,289,175545,1,0,1:1:0:0:
348,289,175624,1,0,1:1:0:0:
348,289,175703,2,1,P|342:339|323:385,1,99.75,10|0,2:2|1:1,0:0:0:0:
196,76,176018,5,12,2:2:0:0:
250,304,176176,1,0,1:1:0:0:
371,68,176334,5,8,2:2:0:0:
134,225,176492,1,0,1:1:0:0:
373,302,176650,5,8,2:2:0:0:
98,111,176808,1,2,1:2:0:0:
219,384,176966,5,10,2:2:0:0:
371,68,177124,1,2,1:2:0:0:
65,298,177282,6,1,P|38:254|34:200,1,99.75,10|0,2:2|1:1,0:0:0:0:
187,14,177597,1,8,2:2:0:0:
408,198,177755,2,1,P|402:148|376:106,1,99.75,2|8,1:2|2:2,0:0:0:0:
91,30,178071,1,2,1:2:0:0:
91,30,178150,1,0,1:1:0:0:
91,30,178229,2,1,P|96:79|122:121,1,99.75,8|2,2:2|1:2,0:0:0:0:
202,169,178466,1,0,1:1:0:0:
213,176,178545,5,12,2:2:0:0:
247,176,178624,1,0,1:1:0:0:
275,155,178703,1,0,1:1:0:0:
286,121,178782,1,0,1:1:0:0:
277,87,178861,1,8,2:2:0:0:
287,53,178940,1,0,1:1:0:0:
313,30,179018,1,0,1:1:0:0:
346,20,179097,1,0,1:1:0:0:
380,27,179176,1,8,2:2:0:0:
405,51,179255,1,0,1:1:0:0:
413,84,179334,6,1,P|405:114|399:139,1,49.875,2|0,1:2|1:1,0:0:0:0:
345,202,179492,2,1,P|342:228|344:254,1,49.875,10|0,2:2|1:1,0:0:0:0:
286,25,179650,2,1,P|273:56|265:83,1,49.875,2|0,1:2|1:1,0:0:0:0:
202,169,179808,5,10,2:2:0:0:
500,71,179966,1,8,2:2:0:0:
500,71,181071,6,1,B|448:90|421:43|421:43|419:40|419:40|388:-8|317:19,1,190,4|10,1:2|2:2,0:0:0:0:
205,162,181545,2,1,P|191:106|179:64,1,95,2|2,1:2|2:2,0:0:0:0:
352,144,181861,1,2,1:2:0:0:
168,244,182018,2,1,P|124:214|116:172,1,95,10|2,2:2|2:2,0:0:0:0:
361,257,182334,5,2,1:2:0:0:
361,257,182492,2,1,P|345:307|334:351,1,95,2|8,2:2|2:2,0:0:0:0:
512,375,182808,2,1,P|470:340|430:332,1,95,2|0,1:2|0:0,0:0:0:0:
166,334,183124,2,1,P|211:322|246:290,1,95,2|8,1:2|2:2,0:0:0:0:
375,166,183440,1,2,2:2:0:0:
325,362,183597,6,1,B|345:310|297:279|297:279|294:277|294:277|247:250|266:198,1,190,2|10,1:2|2:2,0:0:0:0:
415,64,184071,2,1,P|366:75|320:93,1,95,2|2,1:2|2:2,0:0:0:0:
285,199,184387,1,2,1:2:0:0:
170,0,184545,2,1,P|219:11|265:29,1,95,10|2,2:2|2:2,0:0:0:0:
176,269,184861,5,2,1:2:0:0:
176,269,185018,2,1,P|127:258|81:240,1,95,2|8,1:2|2:2,0:0:0:0:
171,99,185334,1,2,1:2:0:0:
0,222,185492,1,0,3:3:0:0:
35,225,185571,1,0,3:3:0:0:
68,213,185650,1,2,3:2:0:0:
92,188,185729,1,0,3:3:0:0:
103,154,185808,2,1,P|99:133|89:99,1,47.5,8|0,2:2|0:0,0:0:0:0:
49,2,185966,5,2,1:2:0:0:
40,13,186045,1,0,1:1:0:0:
31,24,186124,2,1,B|108:38|108:38|149:72|149:72|245:94,1,190,4|10,1:2|2:2,0:0:0:0:
303,240,186597,2,1,P|266:203|255:160,1,95,2|2,1:2|2:2,0:0:0:0:
362,23,186913,1,2,1:2:0:0:
164,168,187071,2,1,P|183:113|212:79,1,95,10|2,2:2|2:2,0:0:0:0:
445,139,187387,5,2,1:2:0:0:
445,139,187545,2,1,P|384:155|348:167,1,95,2|8,2:2|2:2,0:0:0:0:
296,324,187861,2,1,P|357:311|380:281,1,95,2|0,1:2|0:0,0:0:0:0:
482,0,188176,2,1,P|421:13|398:43,1,95,2|8,1:2|2:2,0:0:0:0:
483,230,188492,1,2,2:2:0:0:
259,100,188650,6,1,P|359:116|454:141,1,190,6|10,1:2|2:2,0:0:0:0:
286,332,189124,2,1,P|269:278|252:233,1,95,2|2,1:2|2:2,0:0:0:0:
344,144,189440,1,2,1:2:0:0:
164,252,189597,2,1,P|179:197|185:156,1,95,10|2,2:2|2:2,0:0:0:0:
368,236,189913,5,10,2:2:0:0:
140,90,190071,1,2,2:2:0:0:
382,246,190229,1,0,1:1:0:0:
292,5,190387,6,1,B|233:23|227:77|227:77|267:107|269:163,1,190,10|2,2:2|1:2,0:0:0:0:
97,318,190861,2,1,P|72:276|73:225,1,95,8|2,2:2|1:2,0:0:0:0:
343,78,191176,5,12,2:2:0:0:
63,220,191334,2,1,B|268:158|191:369|408:313,1,380,12|0,2:2|0:0,0:0:0:0:
