osu file format v14

[General]
AudioFilename: audio.mp3
AudioLeadIn: 0
PreviewTime:131176
Countdown: 0
SampleSet: Soft
StackLeniency: 0.7
Mode: 0
LetterboxInBreaks: 0
WidescreenStoryboard: 1

[Editor]
Bookmarks: 96440,96518,96597,96676,96755,96834,96913,96992,97071,97150,97229,97308,97387,97466,97545,97624,97703,97782,97861,97940,98018,98097,98176,98255,98334,98413,98492,98571,98650,98729,98808,98887,98966,191966
DistanceSpacing: 1
BeatDivisor: 4
GridSize: 32
TimelineZoom: 1.9

[Metadata]
Title:Fumetsu no Gekijou
TitleUnicode:不滅の激情
Artist:KINEMA106
ArtistUnicode:キネマ106
Creator:SupaV
Version:Normal
Source:
Tags:艦隊これくしょん -艦これ- original song featured artist fa mappers mappers' guild mpg mg kancolle kantai collection fleet girls immortal passion kiso 木曾 no 41 dahkjdas leomine leominexd riene Tom kalon jun-jun japanese rock j-rock jrock female vocal vocals vocalist
BeatmapID:4471181
BeatmapSetID:1985962

[Difficulty]
HPDrainRate:3
CircleSize:3.2
OverallDifficulty:4
ApproachRate:5.5
SliderMultiplier:1.08
SliderTickRate:1

[Events]
//Background and Video events
0,0,"backed ground.jpg",0,0
//Break Periods
//Storyboard Layer 0 (Background)
//Storyboard Layer 1 (Fail)
//Storyboard Layer 2 (Pass)
//Storyboard Layer 3 (Foreground)
//Storyboard Layer 4 (Overlay)
//Storyboard Sound Samples

[TimingPoints]
440,315.789473684211,4,2,1,85,1,0
5018,-100,4,2,1,65,0,0
5492,-100,4,2,1,80,0,0
15597,-100,4,2,1,70,0,0
15913,-111.111111111111,4,2,1,70,0,0
25229,-111.111111111111,4,2,1,60,0,0
25703,-100,4,2,1,80,0,0
30755,-100,4,2,1,70,0,0
31071,-111.111111111111,4,2,1,70,0,0
40861,-100,4,2,1,65,0,0
48440,-100,4,2,1,75,0,0
49703,-100,4,2,1,78,0,0
50966,-90.9090909090909,4,2,1,85,0,0
72597,-90.9090909090909,4,2,1,55,0,0
73703,-100,4,2,1,80,0,0
83808,-100,4,2,1,70,0,0
84124,-111.111111111111,4,2,1,70,0,0
96440,-111.111111111111,4,2,1,55,0,0
98966,-100,4,2,1,75,0,0
119176,-100,4,2,1,80,0,0
119808,-90.9090909090909,4,2,1,80,0,0
131808,-100,4,2,1,65,0,0
149492,-100,4,2,1,75,0,0
150755,-100,4,2,1,78,0,0
152018,-100,4,2,1,50,0,0
152966,-100,4,2,1,70,0,0
153282,-90.9090909090909,4,2,1,85,0,0
179966,-90.9090909090909,4,2,1,55,0,0
181071,-100,4,2,1,80,0,0
191966,-100,4,2,1,5,0,0

[Colours]
Combo1 : 223,179,0
Combo2 : 107,216,35
Combo3 : 255,64,64
Combo4 : 68,122,65

[HitObjects]
361,142,5018,5,0,1:1:0:0:
361,142,5176,1,12,2:2:0:0:
454,196,5492,6,1,P|501:248|486:294,1,108,4|10,1:2|2:2,0:0:0:0:
500,338,5966,1,2,1:2:0:0:
500,338,6124,2,1,L|434:347,1,54,2|2,2:2|1:2,0:0:0:0:
402,377,6440,1,10,2:2:0:0:
317,319,6755,1,2,1:2:0:0:
317,319,6913,2,1,L|326:253,1,54,2|8,2:2|2:2,0:0:0:0:
360,225,7229,2,1,P|351:171|339:105,1,108,2|2,1:2|1:2,0:0:0:0:
288,30,7861,1,2,2:2:0:0:
288,30,8018,6,1,P|233:20|186:60,1,108,2|10,1:2|2:2,0:0:0:0:
153,85,8492,1,2,1:2:0:0:
153,85,8650,2,1,L|87:76,2,54,2|2|10,2:2|1:2|2:2,0:0:0:0:
241,157,9282,1,2,1:2:0:0:
241,157,9440,2,1,L|232:223,1,54,2|8,1:2|2:2,0:0:0:0:
194,247,9755,2,1,L|212:379,1,108,2|2,1:2|3:2,0:0:0:0:
254,382,10229,2,1,L|320:373,1,54,8|2,2:2|1:2,0:0:0:0:
348,337,10545,5,4,1:2:0:0:
451,384,10861,1,10,2:2:0:0:
451,384,11018,2,1,P|487:333|466:285,1,108,2|2,1:2|1:2,0:0:0:0:
441,250,11492,1,10,2:2:0:0:
506,165,11808,1,2,1:2:0:0:
506,165,11966,2,1,L|497:99,1,54,2|8,2:2|2:2,0:0:0:0:
509,58,12282,2,1,P|471:22|417:33,1,108,2|2,1:2|1:2,0:0:0:0:
315,2,12913,1,2,2:2:0:0:
315,2,13071,6,1,P|324:57|336:127,1,108,4|10,1:2|2:2,0:0:0:0:
363,159,13545,1,2,1:2:0:0:
363,159,13703,2,1,L|429:150,2,54,2|2|10,2:2|1:2|2:2,0:0:0:0:
315,256,14334,2,1,P|261:248|183:238,1,108,10|0,2:2|1:1,0:0:0:0:
170,202,14808,2,1,P|116:209|38:220,1,108,10|2,2:2|1:2,0:0:0:0:
11,199,15282,2,1,P|6:169|-1:139,1,54,8|2,2:2|2:2,0:0:0:0:
2,92,15597,5,4,1:2:0:0:
78,16,15913,2,1,P|124:4|169:33,1,97.2000000000001,10|2,2:2|2:2,0:0:0:0:
196,71,16387,1,2,1:2:0:0:
138,161,16703,1,2,2:2:0:0:
224,223,17018,1,2,2:2:0:0:
300,148,17334,2,1,P|350:136|395:175,1,97.2000000000001,2|0,1:2|1:1,0:0:0:0:
425,197,17808,2,1,L|413:263,1,48.6000000000001,10|2,2:2|2:2,0:0:0:0:
431,296,18124,5,4,1:2:0:0:
368,382,18440,2,1,P|318:346|271:363,1,97.2000000000001,10|2,2:2|2:2,0:0:0:0:
242,382,18913,1,2,1:2:0:0:
152,323,19229,2,1,P|160:273|169:216,1,97.2000000000001,2|2,2:2|2:2,0:0:0:0:
233,142,19861,2,1,P|225:92|216:35,1,97.2000000000001,2|0,1:2|1:1,0:0:0:0:
190,0,20334,1,8,2:2:0:0:
111,73,20650,5,4,1:2:0:0:
18,18,20966,2,1,P|10:66|2:113,1,97.2000000000001,10|2,2:2|2:2,0:0:0:0:
2,167,21440,1,2,1:2:0:0:
78,241,21755,2,1,P|126:248|170:219,1,97.2000000000001,2|2,2:2|2:2,0:0:0:0:
242,147,22387,1,2,1:2:0:0:
336,196,22703,1,2,1:2:0:0:
419,129,23018,1,2,2:2:0:0:
419,129,23176,6,1,L|407:61,2,48.6000000000001,4|2|10,1:2|2:2|2:2,0:0:0:0:
508,197,23808,1,2,2:2:0:0:
508,197,23966,2,1,P|501:249|492:315,1,97.2000000000001,2|2,1:2|2:2,0:0:0:0:
464,337,24440,2,1,L|474:384,2,48.6000000000001,2|8|10,1:2|2:2|2:2,0:0:0:0:
411,324,24913,1,2,1:2:0:0:
119,382,25703,6,1,P|85:329|107:277,1,108,4|10,1:2|2:2,0:0:0:0:
114,240,26176,1,2,1:2:0:0:
114,240,26334,2,1,L|100:173,1,54,2|2,2:2|1:2,0:0:0:0:
60,153,26650,1,10,2:2:0:0:
113,60,26966,1,2,1:2:0:0:
113,60,27124,2,1,L|180:46,1,54,2|8,2:2|2:2,0:0:0:0:
209,16,27440,2,1,P|255:69|239:115,1,108,2|2,1:2|1:2,0:0:0:0:
189,192,28071,1,2,2:2:0:0:
189,192,28229,6,1,L|213:317,1,108,4|10,1:2|2:2,0:0:0:0:
203,355,28703,1,2,1:2:0:0:
203,355,28861,2,1,L|141:366,2,54,2|2|10,2:2|1:2|2:2,0:0:0:0:
307,382,29492,2,1,P|338:347|323:287,1,108,10|0,2:2|1:1,0:0:0:0:
293,247,29966,2,1,L|313:138,1,108,10|2,2:2|1:2,0:0:0:0:
348,99,30440,2,1,L|336:39,1,54,8|2,2:2|2:2,0:0:0:0:
370,4,30755,5,4,1:2:0:0:
469,43,31071,2,1,L|451:143,1,97.2000000000001,10|2,2:2|2:2,0:0:0:0:
479,185,31545,1,2,1:2:0:0:
423,276,31861,1,2,2:2:0:0:
329,224,32176,1,2,2:2:0:0:
271,314,32492,2,1,P|221:326|176:287,1,97.2000000000001,2|0,1:2|1:1,0:0:0:0:
145,265,32966,2,1,L|153:217,1,48.6000000000001,10|2,2:2|2:2,0:0:0:0:
178,169,33282,5,4,1:2:0:0:
120,78,33597,2,1,P|70:66|25:105,1,97.2000000000001,10|2,2:2|2:2,0:0:0:0:
0,132,34071,1,2,1:2:0:0:
58,221,34387,2,1,P|50:269|42:316,1,97.2000000000001,2|2,2:2|2:2,0:0:0:0:
135,369,35018,2,1,P|142:321|150:273,1,97.2000000000001,2|0,1:2|1:1,0:0:0:0:
171,223,35492,1,8,2:2:0:0:
257,286,35808,5,4,1:2:0:0:
335,213,36124,2,1,P|369:186|433:204,1,97.2000000000001,10|2,2:2|2:2,0:0:0:0:
464,222,36597,1,2,1:2:0:0:
511,126,36913,2,1,P|503:77|495:30,1,97.2000000000001,2|2,2:2|2:2,0:0:0:0:
391,2,37545,1,2,1:2:0:0:
315,77,37861,1,2,1:2:0:0:
217,47,38176,1,2,2:2:0:0:
217,47,38334,6,1,P|210:-5|208:-18,2,48.6000000000001,4|2|10,1:2|2:2|2:2,0:0:0:0:
130,109,38966,1,2,2:2:0:0:
130,109,39124,2,1,P|85:88|33:101,1,97.2000000000001,2|2,1:2|2:2,0:0:0:0:
3,136,39597,1,2,1:2:0:0:
4,246,39913,1,10,2:2:0:0:
4,246,40071,1,2,1:2:0:0:
84,316,40387,2,1,P|80:343|75:373,2,48.6000000000001,10|10|10,2:2|2:2|2:2,0:0:0:0:
127,282,40861,6,1,B|253:247|199:364|332:320,1,216,4|8,1:2|2:2,0:0:0:0:
418,374,41808,1,2,2:2:0:0:
487,291,42124,2,1,P|474:220|458:121,1,162,4|0,1:2|1:1,0:0:0:0:
439,81,42755,2,1,B|474:57|474:57|526:65,2,81,2|2|2,3:2|3:2|3:2,0:0:0:0:
392,52,43387,2,1,P|332:42|268:30,1,108,4|0,1:2|0:0,0:0:0:0:
183,69,44018,2,1,B|156:37|156:37|170:-16,2,81,10|2|2,2:2|2:2|2:2,0:0:0:0:
204,119,44650,2,1,P|188:187|169:280,1,162,4|2,1:2|1:2,0:0:0:0:
156,330,45282,1,0,1:1:0:0:
252,378,45597,1,2,3:2:0:0:
303,282,45913,6,1,B|431:251|368:366|498:336,1,216,4|8,1:2|2:2,0:0:0:0:
511,229,46861,1,2,2:2:0:0:
434,153,47176,2,1,P|322:171|266:179,1,162,4|0,1:2|1:1,0:0:0:0:
219,177,47808,2,1,B|197:139|197:139|221:86,2,81,2|2|2,3:2|3:2|3:2,0:0:0:0:
191,224,48440,5,10,2:2:0:0:
135,378,48913,1,10,2:2:0:0:
135,378,49071,1,10,2:2:0:0:
16,275,49545,1,10,2:2:0:0:
16,275,49703,6,1,B|-7:236|-7:236|2:185,2,81,12|12|12,1:2|1:2|1:2,0:0:0:0:
128,282,50492,1,0,3:3:0:0:
128,282,50650,2,1,L|115:219,1,54,8|8,2:2|2:2,0:0:0:0:
115,169,50966,6,1,P|170:135|231:155,1,118.8,4|10,1:2|2:2,0:0:0:0:
320,208,51597,2,1,P|377:218|424:185,1,118.8,10|8,2:2|2:2,0:0:0:0:
478,158,52071,2,1,P|466:96|453:23,1,118.8,2|2,1:2|1:2,0:0:0:0:
413,1,52545,2,1,L|347:11,1,59.4,10|0,2:2|1:1,0:0:0:0:
306,45,52861,1,10,2:2:0:0:
196,0,53176,1,8,2:2:0:0:
106,78,53492,6,1,P|80:139|110:189,1,118.8,4|10,1:2|2:2,0:0:0:0:
146,222,53966,1,2,2:2:0:0:
236,144,54282,1,2,1:2:0:0:
236,144,54440,2,1,L|300:156,1,59.4,10|2,2:2|3:2,0:0:0:0:
343,197,54755,1,10,2:2:0:0:
343,197,54913,1,8,2:2:0:0:
450,145,55229,1,2,1:2:0:0:
511,246,55545,1,2,1:2:0:0:
413,311,55861,1,0,3:3:0:0:
413,311,56018,6,1,P|369:345|293:326,1,118.8,4|10,1:2|2:2,0:0:0:0:
206,277,56650,2,1,P|148:269|102:304,1,118.8,10|8,2:2|2:2,0:0:0:0:
80,359,57124,2,1,P|141:370|215:384,1,118.8,2|2,1:2|1:2,0:0:0:0:
256,380,57597,1,10,2:2:0:0:
340,295,57913,2,1,P|363:236|322:185,1,118.8,10|8,2:2|2:2,0:0:0:0:
272,91,58545,6,1,P|211:102|137:116,1,118.8,4|10,1:2|2:2,0:0:0:0:
101,100,59018,1,2,2:2:0:0:
101,100,59176,2,1,B|72:65|72:65|85:21,2,89.1,2|2|10,1:2|3:2|2:2,0:0:0:0:
68,150,59808,2,1,P|35:213|63:272,1,118.8,4|10,1:2|2:2,0:0:0:0:
82,304,60282,1,2,1:2:0:0:
184,241,60597,1,10,2:2:0:0:
184,241,60755,2,1,L|255:248,1,59.4,2|0,1:2|3:3,0:0:0:0:
302,250,61071,6,1,P|313:311|327:385,1,118.8,4|10,1:2|2:2,0:0:0:0:
441,349,61703,2,1,P|430:290|419:232,1,118.8,10|8,2:2|2:2,0:0:0:0:
442,177,62176,2,1,P|394:132|334:149,1,118.8,2|2,1:2|1:2,0:0:0:0:
292,167,62650,2,1,L|226:157,1,59.4,10|0,2:2|1:1,0:0:0:0:
185,122,62966,1,10,2:2:0:0:
101,206,63282,1,8,2:2:0:0:
9,129,63597,6,1,P|-13:75|13:24,1,118.8,4|10,1:2|2:2,0:0:0:0:
68,1,64071,1,2,2:2:0:0:
184,42,64387,1,2,1:2:0:0:
184,42,64545,2,1,L|248:30,1,59.4,10|2,2:2|3:2,0:0:0:0:
297,4,64861,1,10,2:2:0:0:
297,4,65018,1,8,2:2:0:0:
403,57,65334,1,2,1:2:0:0:
319,141,65650,1,2,1:2:0:0:
417,216,65966,1,0,1:1:0:0:
417,216,66124,6,1,P|453:270|427:336,1,118.8,4|10,1:2|2:2,0:0:0:0:
337,377,66755,2,1,P|301:323|327:257,1,118.8,10|8,2:2|2:2,0:0:0:0:
284,220,67229,2,1,P|223:209|149:195,1,118.8,2|2,1:2|1:2,0:0:0:0:
121,160,67703,1,10,2:2:0:0:
17,218,68018,2,1,P|-10:268|13:320,1,118.8,10|8,2:2|2:2,0:0:0:0:
129,347,68650,6,1,P|190:336|264:322,1,118.8,4|10,1:2|2:2,0:0:0:0:
305,308,69124,1,2,2:2:0:0:
305,308,69282,2,1,B|334:343|334:343|321:387,2,89.1,2|2|2,1:2|3:2|1:2,0:0:0:0:
338,258,69913,2,1,P|327:197|313:123,1,118.8,4|10,1:2|2:2,0:0:0:0:
280,93,70387,1,2,3:2:0:0:
358,4,70703,1,2,1:2:0:0:
358,4,70861,2,1,P|389:7|424:12,1,59.4,10|0,2:2|1:1,0:0:0:0:
472,33,71176,5,12,2:2:0:0:
510,145,71492,2,0,P|503:201|497:270,1,118.8,8|8,2:2|2:2,0:0:0:0:
466,315,71966,1,2,1:2:0:0:
466,315,72124,2,1,P|435:318|400:323,1,59.4,10|2,2:2|1:2,0:0:0:0:
362,360,72440,1,10,2:2:0:0:
362,360,72597,1,8,2:2:0:0:
23,220,73703,6,1,P|-8:264|6:319,1,108,4|10,1:2|2:2,0:0:0:0:
9,372,74176,1,2,1:2:0:0:
9,372,74334,2,1,L|75:363,1,54,2|2,2:2|1:2,0:0:0:0:
112,384,74650,1,10,2:2:0:0:
187,307,74966,1,2,1:2:0:0:
187,307,75124,2,1,P|181:273|176:240,1,54,2|8,2:2|2:2,0:0:0:0:
141,214,75440,2,1,P|150:160|161:90,1,108,2|2,1:2|1:2,0:0:0:0:
186,5,76071,1,2,2:2:0:0:
186,5,76229,6,1,P|241:-5|288:35,1,108,2|10,1:2|2:2,0:0:0:0:
307,76,76703,1,2,1:2:0:0:
307,76,76861,2,1,L|298:142,2,54,2|2|10,2:2|1:2|2:2,0:0:0:0:
391,7,77492,1,2,1:2:0:0:
391,7,77650,2,1,L|457:16,1,54,2|8,1:2|2:2,0:0:0:0:
492,38,77966,2,1,P|520:89|503:135,1,108,2|2,1:2|3:2,0:0:0:0:
461,165,78440,2,1,L|473:230,1,54,8|2,2:2|1:2,0:0:0:0:
508,257,78755,5,4,1:2:0:0:
451,350,79071,1,10,2:2:0:0:
451,350,79229,2,1,P|401:366|344:320,1,108,2|2,1:2|1:2,0:0:0:0:
318,299,79703,1,10,2:2:0:0:
382,213,80018,1,2,1:2:0:0:
382,213,80176,2,1,L|371:144,1,54,2|8,2:2|2:2,0:0:0:0:
359,107,80492,2,1,P|321:71|267:82,1,108,2|2,1:2|1:2,0:0:0:0:
206,168,81124,1,2,2:2:0:0:
206,168,81282,6,1,P|151:159|81:147,1,108,4|10,1:2|2:2,0:0:0:0:
56,127,81755,1,2,1:2:0:0:
56,127,81913,2,1,L|65:61,2,54,2|2|10,2:2|1:2|2:2,0:0:0:0:
1,220,82545,2,1,P|9:274|19:352,1,108,10|0,2:2|1:1,0:0:0:0:
49,370,83018,2,1,P|104:382|145:332,1,108,10|2,2:2|1:2,0:0:0:0:
181,315,83492,2,1,P|211:320|243:324,1,54,8|2,2:2|2:2,0:0:0:0:
273,352,83808,5,4,1:2:0:0:
360,290,84124,2,1,P|372:244|343:199,1,97.2000000000001,10|2,2:2|1:2,0:0:0:0:
308,166,84597,1,2,1:2:0:0:
227,240,84913,1,2,1:2:0:0:
137,182,85229,1,2,1:2:0:0:
166,79,85545,2,1,P|202:72|269:61,1,97.2000000000001,2|0,1:2|1:1,0:0:0:0:
297,21,86018,2,1,L|363:33,1,48.6000000000001,10|2,2:2|2:2,0:0:0:0:
390,57,86334,5,4,1:2:0:0:
486,10,86650,2,1,P|518:59|504:107,1,97.2000000000001,10|2,2:2|1:2,0:0:0:0:
488,142,87124,1,2,1:2:0:0:
420,225,87440,2,1,P|428:275|437:332,1,97.2000000000001,2|2,1:2|1:2,0:0:0:0:
344,377,88071,2,1,P|336:327|327:270,1,97.2000000000001,2|0,1:2|1:1,0:0:0:0:
293,240,88545,2,1,L|303:176,1,48.6000000000001,8|8,2:2|2:2,0:0:0:0:
328,145,88861,5,4,1:2:0:0:
258,63,89176,2,1,P|207:38|160:56,1,97.2000000000001,10|2,2:2|1:2,0:0:0:0:
126,79,89650,1,2,1:2:0:0:
35,22,89966,2,1,P|27:72|18:129,1,97.2000000000001,2|2,1:2|1:2,0:0:0:0:
3,224,90597,1,2,1:2:0:0:
85,292,90913,1,2,1:2:0:0:
179,239,91229,1,2,2:2:0:0:
179,239,91387,6,0,L|170:177,2,48.6000000000001,4|2|10,1:2|1:2|2:2,0:0:0:0:
251,325,92018,1,2,1:2:0:0:
251,325,92176,2,1,P|303:332|369:341,1,97.2000000000001,2|2,1:2|1:2,0:0:0:0:
389,370,92650,2,1,P|441:363|507:354,1,97.2000000000001,2|10,1:2|2:2,0:0:0:0:
510,309,93124,1,2,2:2:0:0:
450,226,93440,1,2,1:2:0:0:
450,226,93597,2,1,L|457:172,1,48.6000000000001,10|10,2:2|2:2,0:0:0:0:
487,134,93913,6,1,P|476:84|467:35,1,97.2000000000001,4|10,1:2|2:2,0:0:0:0:
372,4,94545,1,2,1:2:0:0:
372,4,94703,2,1,P|335:38|347:94,1,97.2000000000001,2|2,1:2|1:2,0:0:0:0:
370,124,95176,2,1,P|361:171|350:219,1,97.2000000000001,2|10,1:2|2:2,0:0:0:0:
322,265,95650,1,2,1:2:0:0:
227,228,95966,1,2,1:2:0:0:
227,228,96124,2,1,L|173:235,1,48.6000000000001,10|10,2:2|2:2,0:0:0:0:
140,272,96440,1,4,1:2:0:0:
0,161,98966,6,1,P|7:108|14:45,1,108,4|10,1:2|2:2,0:0:0:0:
24,0,99440,1,2,1:2:0:0:
124,38,99755,2,1,L|186:25,1,54,2|10,1:2|2:2,0:0:0:0:
224,1,100071,2,1,P|264:41|246:104,1,108,2|0,2:2|0:0,0:0:0:0:
229,134,100545,1,8,2:2:0:0:
161,218,100861,2,1,L|174:280,1,54,2|2,2:2|1:2,0:0:0:0:
184,328,101176,1,10,2:2:0:0:
184,328,101334,6,1,P|239:340|283:307,1,108,2|2,2:2|2:2,0:0:0:0:
317,273,101808,1,10,2:2:0:0:
407,331,102124,2,1,L|396:391,2,54,2|2|10,2:2|1:2|2:2,0:0:0:0:
450,298,102597,2,1,P|441:250|429:185,1,108,2|2,2:2|1:2,0:0:0:0:
451,141,103071,1,8,2:2:0:0:
362,78,103387,2,1,L|302:89,1,54,2|2,3:2|3:2,0:0:0:0:
272,127,103703,1,10,2:2:0:0:
272,127,103861,6,1,P|216:119|154:111,1,108,2|0,1:2|0:0,0:0:0:0:
115,133,104334,1,10,2:2:0:0:
31,72,104650,1,2,2:2:0:0:
31,72,104808,1,2,1:2:0:0:
112,0,105124,2,1,P|165:6|222:14,1,108,2|2,2:2|2:2,0:0:0:0:
263,43,105597,1,10,2:2:0:0:
363,2,105913,2,1,P|389:5|418:9,1,54,2|2,2:2|1:2,0:0:0:0:
469,0,106229,1,10,2:2:0:0:
469,0,106387,6,1,P|511:48|493:98,1,108,2|0,2:2|0:0,0:0:0:0:
471,131,106861,2,1,L|407:121,1,54,10|2,2:2|1:2,0:0:0:0:
368,100,107176,1,2,2:2:0:0:
285,169,107492,1,10,2:2:0:0:
354,251,107808,6,1,P|396:219|461:233,1,108,10|2,2:2|1:2,0:0:0:0:
502,250,108282,1,8,2:2:0:0:
502,250,108440,2,1,P|508:279|514:315,1,54,2|2,2:2|1:2,0:0:0:0:
501,356,108755,1,8,2:2:0:0:
393,347,109071,6,1,P|338:355|286:363,1,108,4|8,1:2|2:2,0:0:0:0:
235,382,109545,2,1,P|206:340|226:270,1,108,2|0,1:2|1:1,0:0:0:0:
247,243,110018,1,10,2:2:0:0:
183,155,110334,2,1,P|128:163|76:171,1,108,2|8,1:2|2:2,0:0:0:0:
21,168,110808,2,1,P|29:221|37:274,1,108,0|2,1:1|1:2,0:0:0:0:
26,327,111282,1,10,2:2:0:0:
118,382,111597,6,1,P|161:347|218:354,1,108,2|8,1:2|2:2,0:0:0:0:
254,382,112071,2,1,P|307:373|360:365,1,108,0|2,1:1|1:2,0:0:0:0:
412,350,112545,2,1,L|399:286,1,54,8|2,2:2|2:2,0:0:0:0:
370,252,112861,1,0,1:1:0:0:
431,163,113176,1,10,2:2:0:0:
339,106,113492,2,1,L|283:113,1,54,2|0,3:2|3:3,0:0:0:0:
245,149,113808,1,8,2:2:0:0:
143,111,114124,6,1,P|110:78|125:18,1,108,4|10,1:2|2:2,0:0:0:0:
171,1,114597,2,1,L|296:17,1,108,2|2,1:2|1:2,0:0:0:0:
331,2,115071,1,10,2:2:0:0:
425,54,115387,2,1,P|453:107|423:165,1,108,2|8,1:2|2:2,0:0:0:0:
404,191,115861,1,2,1:2:0:0:
478,276,116176,1,2,1:2:0:0:
478,276,116334,1,10,2:2:0:0:
384,329,116650,6,1,P|327:318|260:306,1,108,4|8,1:2|2:2,0:0:0:0:
227,313,117124,1,2,1:2:0:0:
227,313,117282,2,1,B|210:352|210:352|237:392,2,81,2|2|2,2:2|2:2|2:2,0:0:0:0:
197,268,117913,2,1,P|164:213|185:161,1,108,10|0,2:2|1:1,0:0:0:0:
203,127,118387,2,1,P|260:138|327:150,1,108,10|0,2:2|1:1,0:0:0:0:
351,181,118861,1,10,2:2:0:0:
453,121,119176,5,10,2:2:0:0:
511,224,119492,1,8,2:2:0:0:
424,305,119808,2,1,P|375:320|312:275,1,118.8,10|8,2:2|2:2,0:0:0:0:
258,184,120440,2,1,P|204:193|135:204,1,118.8,10|8,2:2|2:2,0:0:0:0:
115,258,120913,1,2,1:2:0:0:
115,258,121071,2,1,L|130:325,1,59.4,8|0,2:2|1:1,0:0:0:0:
144,373,121387,1,10,2:2:0:0:
25,380,121703,6,1,P|-10:330|20:259,1,118.8,12|8,2:2|2:2,0:0:0:0:
30,226,122176,1,2,1:2:0:0:
30,226,122334,2,1,P|17:167|-2:85,1,118.8,8|8,2:2|2:2,0:0:0:0:
70,11,122966,2,1,P|126:-4|183:37,1,118.8,8|8,2:2|2:2,0:0:0:0:
219,75,123440,1,2,1:2:0:0:
219,75,123597,2,1,P|215:106|207:147,1,59.4,8|2,2:2|1:2,0:0:0:0:
173,181,123913,1,10,2:2:0:0:
248,272,124229,6,1,P|317:280|365:237,1,118.8,10|8,2:2|2:2,0:0:0:0:
395,210,124703,1,2,1:2:0:0:
395,210,124861,1,8,2:2:0:0:
315,121,125176,2,1,L|325:49,1,59.4,8|2,2:2|3:2,0:0:0:0:
353,10,125492,2,1,P|412:-3|469:47,1,118.8,12|8,2:2|2:2,0:0:0:0:
507,61,125966,1,2,1:2:0:0:
507,61,126124,2,1,L|492:129,1,59.4,8|2,2:2|1:2,0:0:0:0:
510,176,126440,1,8,2:2:0:0:
411,241,126755,6,1,P|350:232|283:222,1,118.8,10|8,2:2|2:2,0:0:0:0:
250,191,127229,1,2,1:2:0:0:
250,191,127387,2,1,P|210:197|120:212,1,118.8,8|8,2:2|2:2,0:0:0:0:
22,165,128018,2,1,P|-10:224|27:287,1,118.8,8|8,2:2|2:2,0:0:0:0:
5,332,128492,1,2,1:2:0:0:
5,332,128650,2,1,P|45:338|135:353,1,118.8,8|8,2:2|2:2,0:0:0:0:
237,379,129282,6,1,P|275:323|250:266,1,118.8,10|10,2:2|2:2,0:0:0:0:
217,246,129755,1,2,1:2:0:0:
217,246,129913,2,1,P|223:212|231:171,1,59.4,8|0,2:2|1:2,0:0:0:0:
260,137,130229,2,1,P|254:103|246:62,1,59.4,8|2,2:2|3:2,0:0:0:0:
220,26,130545,6,1,P|175:-3|107:11,1,118.8,12|10,2:2|2:2,0:0:0:0:
63,39,131018,1,14,2:2:0:0:
149,129,131334,1,10,2:2:0:0:
149,129,131492,2,1,L|135:203,1,59.4,14|2,2:2|0:2,0:0:0:0:
122,239,131808,6,1,B|248:204|194:321|327:277,1,216,4|8,1:2|2:2,0:0:0:0:
411,335,132755,1,2,2:2:0:0:
496,268,133071,2,1,P|480:184|460:89,1,162,4|0,1:2|1:1,0:0:0:0:
439,61,133703,2,1,B|476:38|476:38|529:50,2,81,2|2|2,3:2|3:2|3:2,0:0:0:0:
385,52,134334,2,1,P|326:62|259:73,1,108,4|0,1:2|0:0,0:0:0:0:
191,134,134966,2,1,B|183:179|183:179|211:213,2,81,10|2|2,2:2|2:2|2:2,0:0:0:0:
155,93,135597,2,1,P|72:76|7:142,1,162,4|2,1:2|1:2,0:0:0:0:
1,173,136229,1,0,1:1:0:0:
56,265,136545,1,2,3:2:0:0:
153,218,136861,6,1,B|279:183|225:300|358:256,1,216,4|8,1:2|2:2,0:0:0:0:
441,199,137808,1,2,2:2:0:0:
507,283,138124,2,1,P|484:347|388:349,1,162,4|0,1:2|1:1,0:0:0:0:
358,320,138755,2,1,B|344:282|344:282|364:241,2,81,2|2|2,3:2|3:2|3:2,0:0:0:0:
316,355,139387,2,1,P|245:313|162:343,1,162,4|2,1:2|1:2,0:0:0:0:
124,357,140018,2,1,B|114:315|95:234,1,108,10|0,2:2|0:0,0:0:0:0:
12,186,140650,2,1,P|63:137|162:160,1,162,4|0,1:2|1:1,0:0:0:0:
182,176,141282,2,1,L|192:237,1,54,0|0,1:1|3:3,0:0:0:0:
168,278,141597,1,2,3:2:0:0:
259,335,141913,6,1,B|385:300|331:417|464:373,1,216,4|8,1:2|2:2,0:0:0:0:
511,282,142861,1,2,2:2:0:0:
437,202,143176,2,1,P|359:216|270:230,1,162,4|0,1:2|1:1,0:0:0:0:
233,261,143808,2,1,B|218:299|218:299|239:340,2,81,2|2|2,3:2|3:2|3:2,0:0:0:0:
184,235,144440,2,1,P|141:181|175:103,1,162,4|2,1:2|1:2,0:0:0:0:
222,76,145071,2,1,P|273:70|332:63,1,108,10|0,2:2|0:0,0:0:0:0:
416,1,145703,2,1,P|430:79|446:165,1,162,4|2,1:2|1:2,0:0:0:0:
485,198,146334,1,0,1:1:0:0:
416,281,146650,1,2,3:2:0:0:
315,240,146966,6,1,B|187:209|250:324|120:294,1,216,4|8,1:2|2:2,0:0:0:0:
20,257,147913,1,2,2:2:0:0:
53,154,148229,2,1,P|101:100|200:115,1,162,4|0,1:2|1:1,0:0:0:0:
225,140,148861,2,1,B|240:181|240:181|213:219,2,81,2|2|2,3:2|3:2|3:2,0:0:0:0:
265,104,149492,5,10,2:2:0:0:
406,192,149966,1,10,2:2:0:0:
406,192,150124,1,10,2:2:0:0:
512,71,150597,1,10,2:2:0:0:
512,71,150755,6,1,B|527:31|527:31|497:-14,2,81,12|12|12,1:2|1:2|1:2,0:0:0:0:
409,94,151545,1,0,3:3:0:0:
409,94,151703,2,1,L|346:81,1,54,0|8,3:3|2:2,0:0:0:0:
302,89,152018,2,1,P|268:34|291:-7,2,108,2|2|2,2:1|2:1|2:1,0:0:0:0:
249,183,152966,1,8,2:2:0:0:
346,251,153282,6,1,P|404:240|481:226,1,118.8,4|10,1:2|2:2,0:0:0:0:
510,338,153913,2,1,P|452:349|375:363,1,118.8,10|8,2:2|2:2,0:0:0:0:
337,382,154387,2,1,P|279:371|202:357,1,118.8,2|2,1:2|1:2,0:0:0:0:
169,328,154861,2,1,L|179:262,1,59.4,10|0,2:2|1:1,0:0:0:0:
207,217,155176,1,10,2:2:0:0:
136,121,155492,1,8,2:2:0:0:
222,39,155808,6,1,P|276:8|335:29,1,118.8,4|10,1:2|2:2,0:0:0:0:
374,58,156282,1,2,2:2:0:0:
481,4,156597,1,2,1:2:0:0:
481,4,156755,2,1,L|493:68,1,59.4,10|2,2:2|3:2,0:0:0:0:
512,123,157071,1,10,2:2:0:0:
512,123,157229,1,8,2:2:0:0:
437,215,157545,1,2,1:2:0:0:
337,149,157861,1,2,1:2:0:0:
239,214,158176,1,0,3:3:0:0:
239,214,158334,6,1,P|202:260|224:334,1,118.8,4|10,1:2|2:2,0:0:0:0:
321,357,158966,2,1,P|358:311|336:237,1,118.8,10|8,2:2|2:2,0:0:0:0:
323,201,159440,2,1,P|334:140|348:66,1,118.8,2|2,1:2|1:2,0:0:0:0:
359,26,159913,1,10,2:2:0:0:
242,3,160229,2,1,P|202:52|227:119,1,118.8,10|8,2:2|2:2,0:0:0:0:
236,219,160861,6,1,P|175:208|101:194,1,118.8,4|10,1:2|2:2,0:0:0:0:
63,206,161334,1,2,2:2:0:0:
63,206,161492,2,1,B|34:241|34:241|47:285,2,89.1,2|2|10,1:2|3:2|2:2,0:0:0:0:
19,165,162124,2,1,P|-1:104|38:52,1,118.8,4|10,1:2|2:2,0:0:0:0:
70,21,162597,1,2,1:2:0:0:
183,71,162913,1,10,2:2:0:0:
183,71,163071,2,1,L|254:61,1,59.4,2|0,1:2|3:3,0:0:0:0:
286,22,163387,6,1,P|347:33|421:47,1,118.8,4|10,1:2|2:2,0:0:0:0:
447,154,164018,2,1,P|388:143|330:132,1,118.8,10|8,2:2|2:2,0:0:0:0:
273,148,164492,2,1,P|235:194|260:260,1,118.8,2|2,1:2|1:2,0:0:0:0:
293,285,164966,2,1,L|283:351,1,59.4,10|0,2:2|1:1,0:0:0:0:
238,382,165282,1,10,2:2:0:0:
146,306,165597,1,8,2:2:0:0:
50,377,165913,6,1,P|12:328|27:269,1,118.8,4|10,1:2|2:2,0:0:0:0:
63,232,166387,1,2,2:2:0:0:
6,133,166703,1,2,1:2:0:0:
6,133,166861,2,1,L|18:69,1,59.4,10|2,2:2|3:2,0:0:0:0:
33,20,167176,1,10,2:2:0:0:
33,20,167334,1,8,2:2:0:0:
134,82,167650,1,2,1:2:0:0:
221,1,167966,1,2,1:2:0:0:
332,56,168282,1,0,1:1:0:0:
332,56,168440,6,1,P|368:110|342:176,1,118.8,4|10,1:2|2:2,0:0:0:0:
284,254,169071,2,1,P|274:321|308:363,1,118.8,10|8,2:2|2:2,0:0:0:0:
357,382,169545,2,1,P|418:371|492:357,1,118.8,2|2,1:2|1:2,0:0:0:0:
510,313,170018,1,10,2:2:0:0:
450,210,170334,2,1,P|461:149|475:75,1,118.8,10|8,2:2|2:2,0:0:0:0:
382,13,170966,6,1,P|322:0|267:46,1,118.8,4|10,1:2|2:2,0:0:0:0:
282,92,171440,1,2,2:2:0:0:
282,92,171597,2,1,B|321:116|321:116|373:101,2,89.1,2|2|2,1:2|3:2|1:2,0:0:0:0:
240,135,172229,2,1,P|179:146|105:160,1,118.8,4|10,1:2|2:2,0:0:0:0:
78,195,172703,1,2,3:2:0:0:
4,109,173018,1,2,1:2:0:0:
4,109,173176,2,1,P|7:78|12:43,1,59.4,10|0,2:2|1:1,0:0:0:0:
48,3,173492,5,12,2:2:0:0:
158,46,173808,2,0,P|208:40|278:33,1,118.8,8|8,2:2|2:2,0:0:0:0:
332,7,174282,1,2,1:2:0:0:
332,7,174440,2,1,P|360:13|396:20,1,59.4,10|2,2:2|1:2,0:0:0:0:
449,18,174755,2,1,P|476:69|460:138,1,118.8,10|8,2:2|2:2,0:0:0:0:
465,187,175229,2,1,P|404:196|333:207,1,118.8,2|0,1:2|1:1,0:0:0:0:
288,212,175703,1,10,2:2:0:0:
195,138,176018,5,12,2:2:0:0:
86,186,176334,2,0,P|63:244|86:311,1,118.8,8|8,2:2|2:2,0:0:0:0:
118,346,176808,1,2,1:2:0:0:
118,346,176966,2,0,L|195:352,1,59.4,10|2,2:2|1:2,0:0:0:0:
227,383,177282,2,1,P|278:377|347:368,1,118.8,10|8,2:2|2:2,0:0:0:0:
402,382,177755,2,1,P|423:336|408:261,1,118.8,2|2,1:2|1:2,0:0:0:0:
385,216,178229,2,1,P|389:182|392:145,1,59.4,8|2,2:2|1:2,0:0:0:0:
414,102,178545,5,12,2:2:0:0:
347,3,178861,1,8,2:2:0:0:
250,71,179176,2,1,L|179:58,1,59.4,8|2,2:2|1:2,0:0:0:0:
136,37,179492,2,1,L|65:50,1,59.4,10|2,2:2|1:2,0:0:0:0:
35,90,179808,1,10,2:2:0:0:
35,90,179966,1,8,2:2:0:0:
436,54,181071,6,1,P|469:89|454:152,1,108,4|10,1:2|2:2,0:0:0:0:
437,195,181545,1,2,1:2:0:0:
437,195,181703,2,1,L|446:261,1,54,2|2,2:2|1:2,0:0:0:0:
470,296,182018,1,10,2:2:0:0:
401,379,182334,1,2,1:2:0:0:
401,379,182492,2,1,L|336:368,1,54,2|8,2:2|2:2,0:0:0:0:
301,341,182808,2,1,P|246:350|177:360,1,108,2|2,1:2|1:2,0:0:0:0:
90,356,183440,1,2,2:2:0:0:
90,356,183597,6,1,P|55:314|71:246,1,108,2|10,1:2|2:2,0:0:0:0:
94,223,184071,1,2,1:2:0:0:
94,223,184229,2,1,L|78:156,2,54,2|2|10,2:2|1:2|2:2,0:0:0:0:
189,273,184861,1,2,1:2:0:0:
189,273,185018,2,1,L|255:282,1,54,2|8,1:2|2:2,0:0:0:0:
284,314,185334,2,1,L|416:296,1,108,2|2,1:2|3:2,0:0:0:0:
441,280,185808,2,1,L|432:214,1,54,8|2,2:2|1:2,0:0:0:0:
442,172,186124,5,4,1:2:0:0:
361,109,186440,1,10,2:2:0:0:
361,109,186597,2,1,P|304:95|258:133,1,108,2|2,1:2|1:2,0:0:0:0:
236,166,187071,1,10,2:2:0:0:
138,134,187387,1,2,1:2:0:0:
138,134,187545,2,1,L|129:68,1,54,2|8,2:2|2:2,0:0:0:0:
129,26,187861,2,1,P|167:-10|221:1,1,108,2|2,1:2|1:2,0:0:0:0:
302,74,188492,1,2,2:2:0:0:
302,74,188650,6,1,P|357:65|427:53,1,108,6|10,1:2|2:2,0:0:0:0:
466,52,189124,1,2,1:2:0:0:
466,52,189282,2,1,L|452:-12,2,54,2|2|10,2:2|1:2|2:2,0:0:0:0:
510,150,189913,2,1,P|502:204|492:282,1,108,10|0,2:2|1:1,0:0:0:0:
501,310,190387,2,1,P|456:339|395:316,1,108,10|2,2:2|1:2,0:0:0:0:
352,316,190861,2,1,P|347:286|340:256,1,54,8|2,2:2|1:2,0:0:0:0:
305,230,191176,5,12,2:2:0:0:
305,230,191334,2,1,B|195:208|195:208|137:247|168:307,1,216,12|0,2:2|0:0,0:0:0:0:
