osu file format v14

[General]
AudioFilename: ^^106.mp3
AudioLeadIn: 0
PreviewTime: 54065
Countdown: 0
SampleSet: Soft
StackLeniency: 0.7
Mode: 0
LetterboxInBreaks: 1
WidescreenStoryboard: 1

[Editor]
Bookmarks: 92397,170731
DistanceSpacing: 1.2
BeatDivisor: 4
GridSize: 4
TimelineZoom: 3

[Metadata]
Title:Fly Away
TitleUnicode:フライアウェイ
Artist:KINEMA106
ArtistUnicode:キネマ106
Creator:Asagi
Version:UWS's Insane
Source:
Tags:featured artist fa kantai collection kancolle maikaze kalon. tom zany 艦隊これくしょん 艦これ 雪月花 setsugetsuka unitedwesin uws akitoshi -laura- corinn comiket c88 jpop j-pop pop jp japanese female vocalist vocals rock jrock j-rock
BeatmapID:865364
BeatmapSetID:397917

[Difficulty]
HPDrainRate:6.2
CircleSize:4
OverallDifficulty:7
ApproachRate:9
SliderMultiplier:1.7
SliderTickRate:2

[Events]
//Background and Video events
0,0,"maikaze.png",0,0
//Break Periods
2,161931,166131
//Storyboard Layer 0 (Background)
//Storyboard Layer 1 (Fail)
//Storyboard Layer 2 (Pass)
//Storyboard Layer 3 (Foreground)
//Storyboard Layer 4 (Overlay)
//Storyboard Sound Samples

[TimingPoints]
398,333.333333333333,4,2,1,40,1,0
1064,-100,4,2,2,45,0,0
1731,-125,4,2,3,55,0,0
22897,-125,4,2,3,5,0,0
23064,-100,4,2,1,75,0,0
23397,-100,4,2,4,75,0,0
23481,-100,4,2,2,75,0,0
23731,-100,4,2,4,75,0,0
23815,-100,4,2,2,75,0,0
24064,-100,4,2,4,75,0,0
24148,-100,4,2,2,75,0,0
24731,-100,4,2,8,75,0,0
24815,-100,4,2,2,75,0,0
25064,-100,4,2,8,75,0,0
25148,-100,4,2,2,75,0,0
25397,-100,4,2,8,75,0,0
25481,-100,4,2,2,75,0,0
25731,-100,4,2,3,75,0,0
26064,-100,4,2,4,75,0,0
26148,-100,4,2,2,75,0,0
26397,-100,4,2,4,75,0,0
26481,-100,4,2,2,75,0,0
26731,-100,4,2,4,75,0,0
26815,-100,4,2,2,75,0,0
27397,-100,4,2,8,75,0,0
27481,-100,4,2,2,75,0,0
27731,-100,4,2,8,75,0,0
27815,-100,4,2,2,75,0,0
28064,-100,4,2,8,75,0,0
28148,-100,4,2,2,75,0,0
28731,-100,4,2,4,75,0,0
28815,-100,4,2,2,75,0,0
29064,-100,4,2,4,75,0,0
29148,-100,4,2,2,75,0,0
29397,-100,4,2,4,75,0,0
29481,-100,4,2,2,75,0,0
29731,-100,4,2,4,75,0,0
29815,-100,4,2,2,75,0,0
30064,-100,4,2,4,75,0,0
30148,-100,4,2,2,75,0,0
30397,-100,4,2,4,75,0,0
30481,-100,4,2,2,75,0,0
30731,-100,4,2,4,75,0,0
30815,-100,4,2,2,75,0,0
31064,-100,4,2,3,75,0,0
31397,-100,4,2,4,75,0,0
31481,-100,4,2,2,75,0,0
31731,-100,4,2,4,75,0,0
31815,-100,4,2,2,75,0,0
32064,-100,4,2,4,75,0,0
32148,-100,4,2,2,75,0,0
32397,-100,4,2,4,75,0,0
32481,-100,4,2,2,75,0,0
32731,-100,4,2,4,75,0,0
32815,-100,4,2,2,75,0,0
33064,-100,4,2,4,75,0,0
33148,-100,4,2,2,75,0,0
33397,-100,4,2,4,75,0,0
33481,-100,4,2,2,75,0,0
33564,-100,4,2,3,75,0,0
33730,-111.111111111111,4,2,1,70,0,0
34064,-111.111111111111,4,2,6,70,0,0
34147,-111.111111111111,4,2,2,70,0,0
34397,-111.111111111111,4,2,6,70,0,0
34480,-111.111111111111,4,2,2,70,0,0
34731,-111.111111111111,4,2,6,70,0,0
34814,-111.111111111111,4,2,2,70,0,0
35064,-111.111111111111,4,2,6,70,0,0
35147,-111.111111111111,4,2,2,70,0,0
35397,-111.111111111111,4,2,6,70,0,0
35480,-111.111111111111,4,2,2,70,0,0
35731,-111.111111111111,4,2,6,70,0,0
35814,-111.111111111111,4,2,2,70,0,0
36064,-111.111111111111,4,2,6,70,0,0
36147,-111.111111111111,4,2,2,70,0,0
36397,-111.111111111111,4,2,6,70,0,0
36480,-111.111111111111,4,2,2,70,0,0
36731,-111.111111111111,4,2,6,70,0,0
36814,-111.111111111111,4,2,2,70,0,0
37064,-111.111111111111,4,2,6,70,0,0
37147,-111.111111111111,4,2,2,70,0,0
37397,-111.111111111111,4,2,6,70,0,0
37480,-111.111111111111,4,2,2,70,0,0
37731,-111.111111111111,4,2,6,70,0,0
37814,-111.111111111111,4,2,2,70,0,0
38064,-111.111111111111,4,2,6,70,0,0
38147,-111.111111111111,4,2,2,70,0,0
38397,-111.111111111111,4,2,6,70,0,0
38480,-111.111111111111,4,2,2,70,0,0
38731,-111.111111111111,4,2,6,70,0,0
38814,-111.111111111111,4,2,2,70,0,0
39397,-111.111111111111,4,2,6,70,0,0
39480,-111.111111111111,4,2,2,70,0,0
39731,-111.111111111111,4,2,6,70,0,0
39814,-111.111111111111,4,2,2,70,0,0
40064,-111.111111111111,4,2,6,70,0,0
40147,-111.111111111111,4,2,2,70,0,0
40397,-111.111111111111,4,2,6,70,0,0
40480,-111.111111111111,4,2,2,70,0,0
40731,-111.111111111111,4,2,6,70,0,0
40814,-111.111111111111,4,2,2,70,0,0
41064,-111.111111111111,4,2,6,70,0,0
41147,-111.111111111111,4,2,2,70,0,0
41397,-111.111111111111,4,2,6,70,0,0
41480,-111.111111111111,4,2,2,70,0,0
41731,-111.111111111111,4,2,6,70,0,0
41814,-111.111111111111,4,2,2,70,0,0
42064,-111.111111111111,4,2,6,70,0,0
42147,-111.111111111111,4,2,2,70,0,0
42397,-111.111111111111,4,2,6,70,0,0
42480,-111.111111111111,4,2,2,70,0,0
42731,-111.111111111111,4,2,6,70,0,0
42814,-111.111111111111,4,2,2,70,0,0
43064,-111.111111111111,4,2,6,70,0,0
43147,-111.111111111111,4,2,2,70,0,0
43397,-111.111111111111,4,2,6,70,0,0
43480,-111.111111111111,4,2,2,70,0,0
43731,-111.111111111111,4,2,6,70,0,0
43814,-111.111111111111,4,2,2,70,0,0
44064,-111.111111111111,4,2,6,70,0,0
44147,-111.111111111111,4,2,2,70,0,0
44397,-111.111111111111,4,2,3,70,0,0
44731,-111.111111111111,4,2,4,70,0,0
44814,-111.111111111111,4,2,2,70,0,0
45064,-111.111111111111,4,2,4,70,0,0
45147,-111.111111111111,4,2,2,70,0,0
45398,-111.111111111111,4,2,4,70,0,0
45481,-111.111111111111,4,2,2,70,0,0
45731,-111.111111111111,4,2,4,70,0,0
45814,-111.111111111111,4,2,2,70,0,0
46064,-111.111111111111,4,2,4,70,0,0
46147,-111.111111111111,4,2,2,70,0,0
46398,-111.111111111111,4,2,4,70,0,0
46481,-111.111111111111,4,2,2,70,0,0
46731,-111.111111111111,4,2,4,70,0,0
46814,-111.111111111111,4,2,2,70,0,0
47064,-111.111111111111,4,2,4,70,0,0
47147,-111.111111111111,4,2,2,70,0,0
47398,-111.111111111111,4,2,4,70,0,0
47481,-111.111111111111,4,2,2,70,0,0
47731,-111.111111111111,4,2,4,70,0,0
47814,-111.111111111111,4,2,2,70,0,0
48064,-111.111111111111,4,2,4,70,0,0
48147,-111.111111111111,4,2,2,70,0,0
48398,-111.111111111111,4,2,4,70,0,0
48481,-111.111111111111,4,2,2,70,0,0
48731,-111.111111111111,4,2,4,70,0,0
48814,-111.111111111111,4,2,2,70,0,0
49064,-111.111111111111,4,2,4,70,0,0
49147,-111.111111111111,4,2,2,70,0,0
49398,-111.111111111111,4,2,4,70,0,0
49481,-111.111111111111,4,2,2,70,0,0
50064,-111.111111111111,4,2,4,70,0,0
50147,-111.111111111111,4,2,2,70,0,0
50398,-111.111111111111,4,2,4,70,0,0
50481,-111.111111111111,4,2,2,70,0,0
50731,-111.111111111111,4,2,4,70,0,0
50814,-111.111111111111,4,2,2,70,0,0
51064,-111.111111111111,4,2,4,70,0,0
51147,-111.111111111111,4,2,2,70,0,0
51398,-111.111111111111,4,2,4,70,0,0
51481,-111.111111111111,4,2,2,70,0,0
51731,-111.111111111111,4,2,4,70,0,0
51814,-111.111111111111,4,2,2,70,0,0
52064,-111.111111111111,4,2,4,70,0,0
52147,-111.111111111111,4,2,2,70,0,0
52398,-111.111111111111,4,2,4,70,0,0
52481,-111.111111111111,4,2,2,70,0,0
52731,-111.111111111111,4,2,4,70,0,0
52814,-111.111111111111,4,2,2,70,0,0
53064,-111.111111111111,4,2,4,70,0,0
53147,-111.111111111111,4,2,2,70,0,0
53398,-111.111111111111,4,2,4,70,0,0
53481,-111.111111111111,4,2,2,70,0,0
53564,-111.111111111111,4,2,5,70,0,0
53731,-111.111111111111,4,2,2,70,0,0
54731,-111.111111111111,4,2,2,70,0,0
55064,-100,4,2,1,80,0,1
55397,-100,4,2,4,80,0,1
55481,-100,4,2,2,80,0,1
55731,-100,4,2,4,80,0,1
55815,-100,4,2,2,80,0,1
56064,-100,4,2,4,80,0,1
56148,-100,4,2,2,80,0,1
56731,-100,4,2,4,80,0,1
56815,-100,4,2,2,80,0,1
57397,-100,4,2,5,80,0,1
57731,-100,4,2,2,80,0,1
58064,-100,4,2,4,80,0,1
58148,-100,4,2,2,80,0,1
58397,-100,4,2,4,80,0,1
58481,-100,4,2,2,80,0,1
58731,-100,4,2,4,80,0,1
58815,-100,4,2,2,80,0,1
59397,-100,4,2,4,80,0,1
59481,-100,4,2,2,80,0,1
60231,-100,4,2,3,80,0,1
60731,-100,4,2,4,80,0,1
60815,-100,4,2,2,80,0,1
61064,-100,4,2,4,80,0,1
61148,-100,4,2,2,80,0,1
61397,-100,4,2,4,80,0,1
61481,-100,4,2,2,80,0,1
62064,-100,4,2,4,80,0,1
62148,-100,4,2,2,80,0,1
62397,-100,4,2,4,80,0,1
62481,-100,4,2,2,80,0,1
62731,-100,4,2,5,80,0,1
63064,-100,4,2,3,80,0,1
63231,-100,4,2,3,60,0,1
63397,-100,4,2,4,62,0,1
63481,-100,4,2,2,62,0,1
63731,-100,4,2,4,65,0,1
63815,-100,4,2,2,65,0,1
64064,-100,4,2,4,68,0,1
64148,-100,4,2,2,68,0,1
64397,-100,4,2,4,71,0,1
64481,-100,4,2,2,71,0,1
64731,-100,4,2,4,74,0,1
64815,-100,4,2,2,74,0,1
65064,-100,4,2,4,77,0,1
65148,-100,4,2,2,77,0,1
65397,-100,4,2,3,80,0,1
65731,-100,4,2,1,80,0,1
66064,-100,4,2,4,80,0,1
66148,-100,4,2,2,80,0,1
66397,-100,4,2,4,80,0,1
66481,-100,4,2,2,80,0,1
66731,-100,4,2,4,80,0,1
66815,-100,4,2,2,80,0,1
67397,-100,4,2,4,80,0,1
67481,-100,4,2,2,80,0,1
68064,-100,4,2,5,80,0,1
68397,-100,4,2,2,80,0,1
68731,-100,4,2,4,80,0,1
68815,-100,4,2,2,80,0,1
69064,-100,4,2,4,80,0,1
69148,-100,4,2,2,80,0,1
69397,-100,4,2,4,80,0,1
69481,-100,4,2,2,80,0,1
70231,-100,4,2,3,80,0,1
70397,-100,4,2,3,80,0,1
70564,-100,4,2,3,80,0,1
71397,-100,4,2,4,80,0,1
71481,-100,4,2,2,80,0,1
71731,-100,4,2,4,80,0,1
71815,-100,4,2,2,80,0,1
72064,-100,4,2,4,80,0,1
72148,-100,4,2,2,80,0,1
72731,-100,4,2,4,80,0,1
72815,-100,4,2,2,80,0,1
73064,-100,4,2,4,80,0,1
73148,-100,4,2,2,80,0,1
73397,-100,4,2,4,80,0,1
73481,-100,4,2,2,80,0,1
73731,-100,4,2,3,80,0,1
74064,-100,4,2,4,80,0,1
74148,-100,4,2,2,80,0,1
74397,-100,4,2,4,80,0,1
74481,-100,4,2,2,80,0,1
74731,-100,4,2,4,80,0,1
74815,-100,4,2,2,80,0,1
75064,-100,4,2,4,80,0,1
75148,-100,4,2,2,80,0,1
75564,-100,4,2,3,80,0,1
75731,-100,4,2,2,80,0,1
76064,-100,4,2,3,80,0,1
76397,-100,4,2,1,75,0,0
76730,-100,4,2,4,75,0,0
76814,-100,4,2,2,75,0,0
77064,-100,4,2,4,75,0,0
77148,-100,4,2,2,75,0,0
77397,-100,4,2,4,75,0,0
77481,-100,4,2,2,75,0,0
78064,-100,4,2,8,75,0,0
78148,-100,4,2,2,75,0,0
78397,-100,4,2,8,75,0,0
78481,-100,4,2,2,75,0,0
78730,-100,4,2,8,75,0,0
78814,-100,4,2,2,75,0,0
79064,-100,4,2,3,75,0,0
79397,-100,4,2,4,75,0,0
79481,-100,4,2,2,75,0,0
79730,-100,4,2,4,75,0,0
79814,-100,4,2,2,75,0,0
80064,-100,4,2,4,75,0,0
80148,-100,4,2,2,75,0,0
80730,-100,4,2,8,75,0,0
80814,-100,4,2,2,75,0,0
81064,-100,4,2,8,75,0,0
81148,-100,4,2,2,75,0,0
81397,-100,4,2,8,75,0,0
81481,-100,4,2,2,75,0,0
82064,-100,4,2,4,75,0,0
82148,-100,4,2,2,75,0,0
82397,-100,4,2,4,75,0,0
82481,-100,4,2,2,75,0,0
82730,-100,4,2,4,75,0,0
82814,-100,4,2,2,75,0,0
83064,-100,4,2,4,75,0,0
83148,-100,4,2,2,75,0,0
83397,-100,4,2,4,75,0,0
83481,-100,4,2,2,75,0,0
83730,-100,4,2,4,75,0,0
83814,-100,4,2,2,75,0,0
84064,-100,4,2,4,75,0,0
84148,-100,4,2,2,75,0,0
84397,-100,4,2,3,75,0,0
84730,-100,4,2,4,75,0,0
84814,-100,4,2,2,75,0,0
85064,-100,4,2,4,75,0,0
85148,-100,4,2,2,75,0,0
85397,-100,4,2,4,75,0,0
85481,-100,4,2,2,75,0,0
85730,-100,4,2,4,75,0,0
85814,-100,4,2,2,75,0,0
86064,-100,4,2,4,75,0,0
86148,-100,4,2,2,75,0,0
86397,-100,4,2,4,75,0,0
86481,-100,4,2,2,75,0,0
86730,-100,4,2,4,75,0,0
86814,-100,4,2,2,75,0,0
86897,-100,4,2,3,75,0,0
87064,-111.111111111111,4,2,1,70,0,0
87397,-111.111111111111,4,2,6,70,0,0
87480,-111.111111111111,4,2,2,70,0,0
87730,-111.111111111111,4,2,6,70,0,0
87813,-111.111111111111,4,2,2,70,0,0
88064,-111.111111111111,4,2,6,70,0,0
88147,-111.111111111111,4,2,2,70,0,0
88397,-111.111111111111,4,2,6,70,0,0
88480,-111.111111111111,4,2,2,70,0,0
88730,-111.111111111111,4,2,6,70,0,0
88813,-111.111111111111,4,2,2,70,0,0
89064,-111.111111111111,4,2,6,70,0,0
89147,-111.111111111111,4,2,2,70,0,0
89397,-111.111111111111,4,2,6,70,0,0
89480,-111.111111111111,4,2,2,70,0,0
89730,-111.111111111111,4,2,6,70,0,0
89813,-111.111111111111,4,2,2,70,0,0
90064,-111.111111111111,4,2,6,70,0,0
90147,-111.111111111111,4,2,2,70,0,0
90397,-111.111111111111,4,2,6,70,0,0
90480,-111.111111111111,4,2,2,70,0,0
90730,-111.111111111111,4,2,6,70,0,0
90813,-111.111111111111,4,2,2,70,0,0
91064,-111.111111111111,4,2,6,70,0,0
91147,-111.111111111111,4,2,2,70,0,0
91397,-111.111111111111,4,2,6,70,0,0
91480,-111.111111111111,4,2,2,70,0,0
91730,-111.111111111111,4,2,6,70,0,0
91813,-111.111111111111,4,2,2,70,0,0
92064,-111.111111111111,4,2,6,70,0,0
92147,-111.111111111111,4,2,2,70,0,0
92730,-111.111111111111,4,2,6,70,0,0
92813,-111.111111111111,4,2,2,70,0,0
93064,-111.111111111111,4,2,6,70,0,0
93147,-111.111111111111,4,2,2,70,0,0
93397,-111.111111111111,4,2,6,70,0,0
93480,-111.111111111111,4,2,2,70,0,0
93730,-111.111111111111,4,2,6,70,0,0
93813,-111.111111111111,4,2,2,70,0,0
94064,-111.111111111111,4,2,6,70,0,0
94147,-111.111111111111,4,2,2,70,0,0
94397,-111.111111111111,4,2,6,70,0,0
94480,-111.111111111111,4,2,2,70,0,0
94730,-111.111111111111,4,2,6,70,0,0
94813,-111.111111111111,4,2,2,70,0,0
95064,-111.111111111111,4,2,6,70,0,0
95147,-111.111111111111,4,2,2,70,0,0
95397,-111.111111111111,4,2,6,70,0,0
95480,-111.111111111111,4,2,2,70,0,0
95730,-111.111111111111,4,2,6,70,0,0
95813,-111.111111111111,4,2,2,70,0,0
96064,-111.111111111111,4,2,6,70,0,0
96147,-111.111111111111,4,2,2,70,0,0
96397,-111.111111111111,4,2,6,70,0,0
96480,-111.111111111111,4,2,2,70,0,0
96730,-111.111111111111,4,2,6,70,0,0
96813,-111.111111111111,4,2,2,70,0,0
97064,-111.111111111111,4,2,6,70,0,0
97147,-111.111111111111,4,2,2,70,0,0
97397,-111.111111111111,4,2,6,70,0,0
97480,-111.111111111111,4,2,2,70,0,0
97731,-100,4,2,3,70,0,0
98065,-100,4,2,4,70,0,0
98148,-100,4,2,2,70,0,0
98398,-100,4,2,4,70,0,0
98481,-100,4,2,2,70,0,0
98732,-100,4,2,4,70,0,0
98815,-100,4,2,2,70,0,0
99065,-100,4,2,4,70,0,0
99148,-100,4,2,2,70,0,0
99398,-100,4,2,4,70,0,0
99481,-100,4,2,2,70,0,0
99732,-100,4,2,4,70,0,0
99815,-100,4,2,2,70,0,0
100065,-100,4,2,4,70,0,0
100148,-100,4,2,2,70,0,0
100398,-100,4,2,4,70,0,0
100481,-100,4,2,2,70,0,0
100732,-100,4,2,4,70,0,0
100815,-100,4,2,2,70,0,0
101065,-100,4,2,4,70,0,0
101148,-100,4,2,2,70,0,0
101398,-100,4,2,4,70,0,0
101481,-100,4,2,2,70,0,0
101732,-100,4,2,4,70,0,0
101815,-100,4,2,2,70,0,0
102065,-100,4,2,4,70,0,0
102148,-100,4,2,2,70,0,0
102398,-100,4,2,4,70,0,0
102481,-100,4,2,2,70,0,0
102732,-100,4,2,4,70,0,0
102815,-100,4,2,2,70,0,0
103398,-100,4,2,4,70,0,0
103481,-100,4,2,2,70,0,0
103732,-100,4,2,4,70,0,0
103815,-100,4,2,2,70,0,0
104065,-100,4,2,4,70,0,0
104148,-100,4,2,2,70,0,0
104398,-100,4,2,4,70,0,0
104481,-100,4,2,2,70,0,0
104732,-100,4,2,4,70,0,0
104815,-100,4,2,2,70,0,0
105065,-100,4,2,4,70,0,0
105148,-100,4,2,2,70,0,0
105398,-100,4,2,4,70,0,0
105481,-100,4,2,2,70,0,0
105732,-100,4,2,4,70,0,0
105815,-100,4,2,2,70,0,0
106065,-100,4,2,4,70,0,0
106148,-100,4,2,2,70,0,0
106398,-100,4,2,4,70,0,0
106481,-100,4,2,2,70,0,0
106732,-100,4,2,4,70,0,0
106815,-100,4,2,2,70,0,0
106898,-100,4,2,5,70,0,0
107064,-100,4,2,2,70,0,0
107397,-100,4,2,5,70,0,0
107481,-100,4,2,2,70,0,0
107731,-100,4,2,3,70,0,0
108397,-125,4,2,1,70,0,0
108731,-125,4,2,7,70,0,0
108814,-125,4,2,2,70,0,0
109397,-125,4,2,7,70,0,0
109480,-125,4,2,2,70,0,0
110064,-125,4,2,7,70,0,0
110147,-125,4,2,2,70,0,0
110731,-125,4,2,7,70,0,0
110814,-125,4,2,2,70,0,0
111064,-125,4,2,1,70,0,0
111397,-125,4,2,7,70,0,0
111480,-125,4,2,2,70,0,0
112064,-125,4,2,7,70,0,0
112147,-125,4,2,2,70,0,0
112897,-125,4,2,3,70,0,0
113397,-125,4,2,5,70,0,0
113731,-125,4,2,1,70,0,0
114064,-125,4,2,7,70,0,0
114147,-125,4,2,2,70,0,0
114731,-125,4,2,7,70,0,0
114814,-125,4,2,2,70,0,0
115397,-125,4,2,7,70,0,0
115480,-125,4,2,2,70,0,0
116064,-125,4,2,3,70,0,0
116397,-125,4,2,1,70,0,0
116731,-125,4,2,4,61,0,0
116814,-125,4,2,2,61,0,0
117064,-125,4,2,4,64,0,0
117147,-125,4,2,2,64,0,0
117397,-125,4,2,4,67,0,0
117480,-125,4,2,2,67,0,0
117731,-125,4,2,2,70,0,0
117897,-125,4,2,2,70,0,0
119064,-100,4,2,1,80,0,1
119397,-100,4,2,4,80,0,1
119481,-100,4,2,2,80,0,1
119731,-100,4,2,4,80,0,1
119815,-100,4,2,2,80,0,1
120064,-100,4,2,4,80,0,1
120148,-100,4,2,2,80,0,1
120731,-100,4,2,4,80,0,1
120815,-100,4,2,2,80,0,1
121397,-100,4,2,5,80,0,1
121731,-100,4,2,2,80,0,1
122064,-100,4,2,4,80,0,1
122148,-100,4,2,2,80,0,1
122397,-100,4,2,4,80,0,1
122481,-100,4,2,2,80,0,1
122731,-100,4,2,4,80,0,1
122815,-100,4,2,2,80,0,1
123397,-100,4,2,4,80,0,1
123481,-100,4,2,2,80,0,1
124231,-100,4,2,3,80,0,1
124731,-100,4,2,4,80,0,1
124815,-100,4,2,2,80,0,1
125064,-100,4,2,4,80,0,1
125148,-100,4,2,2,80,0,1
125397,-100,4,2,4,80,0,1
125481,-100,4,2,2,80,0,1
126064,-100,4,2,4,80,0,1
126148,-100,4,2,2,80,0,1
126397,-100,4,2,4,80,0,1
126481,-100,4,2,2,80,0,1
126731,-100,4,2,5,80,0,1
127064,-100,4,2,3,80,0,1
127231,-100,4,2,3,60,0,1
127397,-100,4,2,4,62,0,1
127481,-100,4,2,2,62,0,1
127731,-100,4,2,4,65,0,1
127815,-100,4,2,2,65,0,1
128064,-100,4,2,4,68,0,1
128148,-100,4,2,2,68,0,1
128397,-100,4,2,4,71,0,1
128481,-100,4,2,2,71,0,1
128731,-100,4,2,4,74,0,1
128815,-100,4,2,2,74,0,1
129064,-100,4,2,4,77,0,1
129148,-100,4,2,2,77,0,1
129397,-100,4,2,3,80,0,1
129731,-100,4,2,1,80,0,1
130064,-100,4,2,4,80,0,1
130148,-100,4,2,2,80,0,1
130397,-100,4,2,4,80,0,1
130481,-100,4,2,2,80,0,1
130731,-100,4,2,4,80,0,1
130815,-100,4,2,2,80,0,1
131397,-100,4,2,4,80,0,1
131481,-100,4,2,2,80,0,1
132064,-100,4,2,5,80,0,1
132397,-100,4,2,2,80,0,1
132731,-100,4,2,4,80,0,1
132815,-100,4,2,2,80,0,1
133064,-100,4,2,4,80,0,1
133148,-100,4,2,2,80,0,1
133397,-100,4,2,4,80,0,1
133481,-100,4,2,2,80,0,1
134231,-100,4,2,3,80,0,1
134397,-100,4,2,3,80,0,1
134564,-100,4,2,3,80,0,1
135397,-100,4,2,4,80,0,1
135481,-100,4,2,2,80,0,1
135731,-100,4,2,4,80,0,1
135815,-100,4,2,2,80,0,1
136064,-100,4,2,4,80,0,1
136148,-100,4,2,2,80,0,1
136731,-100,4,2,4,80,0,1
136815,-100,4,2,2,80,0,1
137064,-100,4,2,4,80,0,1
137148,-100,4,2,2,80,0,1
137397,-100,4,2,4,80,0,1
137481,-100,4,2,2,80,0,1
137731,-100,4,2,3,80,0,1
138064,-100,4,2,4,80,0,1
138148,-100,4,2,2,80,0,1
138397,-100,4,2,4,80,0,1
138481,-100,4,2,2,80,0,1
138731,-100,4,2,4,80,0,1
138815,-100,4,2,2,80,0,1
139064,-100,4,2,4,80,0,1
139148,-100,4,2,2,80,0,1
140231,-100,4,2,3,80,0,1
140314,-100,4,2,3,5,0,1
140397,-100,4,2,3,75,0,1
140731,-100,4,2,4,75,0,1
140814,-100,4,2,2,75,0,1
141064,-100,4,2,4,75,0,1
141147,-100,4,2,2,75,0,1
141397,-100,4,2,4,75,0,1
141480,-100,4,2,2,75,0,1
142064,-100,4,2,4,75,0,1
142147,-100,4,2,2,75,0,1
142397,-100,4,2,4,75,0,1
142480,-100,4,2,2,75,0,1
142731,-100,4,2,4,75,0,1
142814,-100,4,2,2,75,0,1
143064,-100,4,2,3,75,0,1
143397,-100,4,2,4,75,0,1
143480,-100,4,2,2,75,0,1
143731,-100,4,2,4,75,0,1
143814,-100,4,2,2,75,0,1
144064,-100,4,2,4,75,0,1
144147,-100,4,2,2,75,0,1
144731,-100,4,2,3,75,0,1
145064,-100,4,2,4,75,0,1
145147,-100,4,2,2,75,0,1
145397,-100,4,2,3,75,0,1
145647,-100,4,2,3,5,0,1
145731,-100,4,2,3,75,0,1
146064,-100,4,2,4,75,0,1
146147,-100,4,2,2,75,0,1
146397,-100,4,2,4,75,0,1
146480,-100,4,2,2,75,0,1
146731,-100,4,2,4,75,0,1
146814,-100,4,2,2,75,0,1
147397,-100,4,2,4,75,0,1
147480,-100,4,2,2,75,0,1
147731,-100,4,2,4,75,0,1
147814,-100,4,2,2,75,0,1
148064,-100,4,2,4,75,0,1
148147,-100,4,2,2,75,0,1
148397,-100,4,2,3,75,0,1
148731,-100,4,2,4,75,0,1
148814,-100,4,2,2,75,0,1
149064,-100,4,2,4,75,0,1
149147,-100,4,2,2,75,0,1
149397,-100,4,2,4,75,0,1
149480,-100,4,2,2,75,0,1
150064,-100,4,2,4,75,0,1
150147,-100,4,2,2,75,0,1
150397,-100,4,2,4,75,0,1
150480,-100,4,2,2,75,0,1
150731,-100,4,2,4,75,0,1
150814,-100,4,2,2,75,0,1
151064,-100,4,2,1,70,0,0
151397,-100,4,2,4,70,0,0
151481,-100,4,2,2,70,0,0
151731,-100,4,2,4,70,0,0
151815,-100,4,2,2,70,0,0
152064,-100,4,2,4,70,0,0
152148,-100,4,2,2,70,0,0
152731,-100,4,2,8,70,0,0
152815,-100,4,2,2,70,0,0
153064,-100,4,2,8,70,0,0
153148,-100,4,2,2,70,0,0
153397,-100,4,2,8,70,0,0
153481,-100,4,2,2,70,0,0
153731,-100,4,2,1,70,0,0
154064,-100,4,2,4,70,0,0
154148,-100,4,2,2,70,0,0
154398,-100,4,2,4,70,0,0
154482,-100,4,2,2,70,0,0
154731,-100,4,2,4,70,0,0
154815,-100,4,2,2,70,0,0
155398,-100,4,2,8,70,0,0
155482,-100,4,2,2,70,0,0
155731,-100,4,2,8,70,0,0
155815,-100,4,2,2,70,0,0
156064,-100,4,2,8,70,0,0
156148,-100,4,2,2,70,0,0
156397,-100,4,2,2,70,0,0
156731,-100,4,2,4,70,0,0
156815,-100,4,2,2,70,0,0
157064,-100,4,2,4,70,0,0
157148,-100,4,2,2,70,0,0
157397,-100,4,2,4,70,0,0
157481,-100,4,2,2,70,0,0
157731,-100,4,2,4,70,0,0
157815,-100,4,2,2,70,0,0
158064,-100,4,2,4,70,0,0
158148,-100,4,2,2,70,0,0
158397,-100,4,2,4,70,0,0
158481,-100,4,2,2,70,0,0
158647,-100,4,2,2,70,0,0
158731,-100,4,2,4,70,0,0
158814,-100,4,2,2,70,0,0
159064,-100,4,2,3,70,0,0
159397,-100,4,2,4,70,0,0
159481,-100,4,2,2,70,0,0
159731,-100,4,2,4,70,0,0
159815,-100,4,2,2,70,0,0
160064,-100,4,2,4,70,0,0
160148,-100,4,2,2,70,0,0
160397,-100,4,2,4,70,0,0
160481,-100,4,2,2,70,0,0
160731,-100,4,2,4,70,0,0
160815,-100,4,2,2,70,0,0
161564,-100,4,2,3,70,0,0
161730,-100,4,2,1,70,0,0
161814,-100,4,2,1,60,0,0
166730,-166.666666666667,4,2,3,65,0,0
166897,-166.666666666667,4,2,3,65,0,0
166980,-166.666666666667,4,2,3,5,0,0
167064,-125,4,2,2,70,0,0
167731,-125,4,2,3,70,0,0
168397,-125,4,2,2,70,0,0
169064,-125,4,2,3,70,0,0
169730,-111.111111111111,4,2,4,58,0,0
169814,-111.111111111111,4,2,2,58,0,0
170064,-111.111111111111,4,2,4,61,0,0
170147,-111.111111111111,4,2,2,61,0,0
170397,-111.111111111111,4,2,4,64,0,0
170480,-111.111111111111,4,2,2,64,0,0
170731,-111.111111111111,4,2,4,67,0,0
170814,-111.111111111111,4,2,2,67,0,0
171064,-111.111111111111,4,2,2,70,0,0
171397,-125,4,2,2,70,0,0
172397,-100,4,2,1,80,0,1
172730,-100,4,2,4,80,0,1
172814,-100,4,2,2,80,0,1
173064,-100,4,2,4,80,0,1
173148,-100,4,2,2,80,0,1
173397,-100,4,2,4,80,0,1
173481,-100,4,2,2,80,0,1
174064,-100,4,2,4,80,0,1
174148,-100,4,2,2,80,0,1
174730,-100,4,2,5,80,0,1
175064,-100,4,2,2,80,0,1
175397,-100,4,2,4,80,0,1
175481,-100,4,2,2,80,0,1
175730,-100,4,2,4,80,0,1
175814,-100,4,2,2,80,0,1
176064,-100,4,2,4,80,0,1
176148,-100,4,2,2,80,0,1
176730,-100,4,2,4,80,0,1
176814,-100,4,2,2,80,0,1
177564,-100,4,2,3,80,0,1
178064,-100,4,2,4,80,0,1
178148,-100,4,2,2,80,0,1
178397,-100,4,2,4,80,0,1
178481,-100,4,2,2,80,0,1
178730,-100,4,2,4,80,0,1
178814,-100,4,2,2,80,0,1
179397,-100,4,2,4,80,0,1
179481,-100,4,2,2,80,0,1
179730,-100,4,2,4,80,0,1
179814,-100,4,2,2,80,0,1
180064,-100,4,2,5,80,0,1
180397,-100,4,2,3,80,0,1
180564,-100,4,2,3,60,0,1
180730,-100,4,2,4,62,0,1
180814,-100,4,2,2,62,0,1
181064,-100,4,2,4,65,0,1
181148,-100,4,2,2,65,0,1
181397,-100,4,2,4,68,0,1
181481,-100,4,2,2,68,0,1
181730,-100,4,2,4,71,0,1
181814,-100,4,2,2,71,0,1
182064,-100,4,2,4,74,0,1
182148,-100,4,2,2,74,0,1
182397,-100,4,2,4,77,0,1
182481,-100,4,2,2,77,0,1
182730,-100,4,2,3,80,0,1
183064,-100,4,2,1,80,0,1
183397,-100,4,2,4,80,0,1
183481,-100,4,2,2,80,0,1
183730,-100,4,2,4,80,0,1
183814,-100,4,2,2,80,0,1
184064,-100,4,2,4,80,0,1
184148,-100,4,2,2,80,0,1
184730,-100,4,2,4,80,0,1
184814,-100,4,2,2,80,0,1
185397,-100,4,2,5,80,0,1
185730,-100,4,2,2,80,0,1
186064,-100,4,2,4,80,0,1
186148,-100,4,2,2,80,0,1
186397,-100,4,2,4,80,0,1
186481,-100,4,2,2,80,0,1
186730,-100,4,2,4,80,0,1
186814,-100,4,2,2,80,0,1
187564,-100,4,2,3,80,0,1
187731,-100,4,2,3,80,0,1
187897,-100,4,2,3,80,0,1
188730,-100,4,2,4,80,0,1
188814,-100,4,2,2,80,0,1
189064,-100,4,2,4,80,0,1
189148,-100,4,2,2,80,0,1
189397,-100,4,2,4,80,0,1
189481,-100,4,2,2,80,0,1
190064,-100,4,2,4,80,0,1
190148,-100,4,2,2,80,0,1
190397,-100,4,2,4,80,0,1
190481,-100,4,2,2,80,0,1
190730,-100,4,2,4,80,0,1
190814,-100,4,2,2,80,0,1
191064,-100,4,2,3,80,0,1
191397,-100,4,2,4,80,0,1
191481,-100,4,2,2,80,0,1
191730,-100,4,2,4,80,0,1
191814,-100,4,2,2,80,0,1
192064,-100,4,2,4,80,0,1
192148,-100,4,2,2,80,0,1
192397,-100,4,2,4,80,0,1
192481,-100,4,2,2,80,0,1
192897,-100,4,2,3,80,0,1
193064,-100,4,2,2,80,0,1
193397,-100,4,2,3,80,0,1
193731,-100,4,2,1,75,0,0
194064,-100,4,2,4,75,0,0
194148,-100,4,2,2,75,0,0
194398,-100,4,2,4,75,0,0
194482,-100,4,2,2,75,0,0
194731,-100,4,2,4,75,0,0
194815,-100,4,2,2,75,0,0
195398,-100,4,2,8,75,0,0
195482,-100,4,2,2,75,0,0
195731,-100,4,2,8,75,0,0
195815,-100,4,2,2,75,0,0
196064,-100,4,2,8,75,0,0
196148,-100,4,2,2,75,0,0
196398,-100,4,2,3,75,0,0
196731,-100,4,2,4,75,0,0
196815,-100,4,2,2,75,0,0
197064,-100,4,2,4,75,0,0
197148,-100,4,2,2,75,0,0
197398,-100,4,2,4,75,0,0
197482,-100,4,2,2,75,0,0
198064,-100,4,2,8,75,0,0
198148,-100,4,2,2,75,0,0
198398,-100,4,2,8,75,0,0
198482,-100,4,2,2,75,0,0
198731,-100,4,2,8,75,0,0
198815,-100,4,2,2,75,0,0
199398,-100,4,2,4,75,0,0
199482,-100,4,2,2,75,0,0
199731,-100,4,2,4,75,0,0
199815,-100,4,2,2,75,0,0
200064,-100,4,2,4,75,0,0
200148,-100,4,2,2,75,0,0
200398,-100,4,2,4,75,0,0
200482,-100,4,2,2,75,0,0
200731,-100,4,2,4,75,0,0
200815,-100,4,2,2,75,0,0
201064,-100,4,2,4,75,0,0
201148,-100,4,2,2,75,0,0
201398,-100,4,2,4,75,0,0
201482,-100,4,2,2,75,0,0
201731,-100,4,2,3,75,0,0
202064,-100,4,2,4,75,0,0
202148,-100,4,2,2,75,0,0
202398,-100,4,2,4,75,0,0
202482,-100,4,2,2,75,0,0
202731,-100,4,2,4,75,0,0
202815,-100,4,2,2,75,0,0
203064,-100,4,2,4,75,0,0
203148,-100,4,2,2,75,0,0
203398,-100,4,2,4,75,0,0
203482,-100,4,2,2,75,0,0
203731,-100,4,2,4,75,0,0
203815,-100,4,2,2,75,0,0
204064,-100,4,2,4,75,0,0
204147,-100,4,2,2,75,0,0
204397,-100,4,2,1,70,0,0
204731,-100,4,2,4,70,0,0
204814,-100,4,2,2,70,0,0
205064,-100,4,2,4,70,0,0
205147,-100,4,2,2,70,0,0
205397,-100,4,2,4,70,0,0
205480,-100,4,2,2,70,0,0
206064,-100,4,2,4,70,0,0
206147,-100,4,2,2,70,0,0
206397,-100,4,2,4,70,0,0
206480,-100,4,2,2,70,0,0
206731,-100,4,2,4,70,0,0
206814,-100,4,2,2,70,0,0
207064,-100,4,2,3,70,0,0
207397,-100,4,2,4,70,0,0
207480,-100,4,2,2,70,0,0
207731,-100,4,2,4,70,0,0
207814,-100,4,2,2,70,0,0
208064,-100,4,2,4,70,0,0
208147,-100,4,2,2,70,0,0
208731,-100,4,2,4,70,0,0
208814,-100,4,2,2,70,0,0
209064,-100,4,2,4,70,0,0
209147,-100,4,2,2,70,0,0
209731,-100,4,2,1,70,0,0
210064,-100,4,2,4,70,0,0
210147,-100,4,2,2,70,0,0
210397,-100,4,2,4,70,0,0
210480,-100,4,2,2,70,0,0
210731,-100,4,2,4,70,0,0
210814,-100,4,2,2,70,0,0
211064,-100,4,2,4,70,0,0
211147,-100,4,2,2,70,0,0
211397,-100,4,2,4,70,0,0
211480,-100,4,2,2,70,0,0
211731,-100,4,2,4,70,0,0
211814,-100,4,2,2,70,0,0
212064,-100,4,2,4,70,0,0
212147,-100,4,2,2,70,0,0
212397,-100,4,2,3,70,0,0
212731,-100,4,2,4,70,0,0
212814,-100,4,2,2,70,0,0
213064,-100,4,2,4,70,0,0
213147,-100,4,2,2,70,0,0
213397,-100,4,2,4,70,0,0
213480,-100,4,2,2,70,0,0
213731,-100,4,2,4,70,0,0
213814,-100,4,2,2,70,0,0
214064,-100,4,2,4,70,0,0
214147,-100,4,2,2,70,0,0
214397,-100,4,2,4,70,0,0
214480,-100,4,2,2,70,0,0
214731,-100,4,2,4,70,0,0
214814,-100,4,2,2,70,0,0
214897,-100,4,2,3,70,0,0
215064,-100,4,2,1,75,0,0
215397,-100,4,2,1,75,0,0
215731,-100,4,2,1,75,0,0
216064,-100,4,2,1,75,0,0
216397,-100,4,2,1,75,0,0
216731,-100,4,2,1,75,0,0
217064,-100,4,2,1,75,0,0
217397,-100,4,2,1,75,0,0
217731,-100,4,2,1,75,0,0
219064,-100,4,2,1,75,0,0
219731,-100,4,2,1,75,0,0
220397,-100,4,2,1,75,0,0

[Colours]
Combo1 : 94,255,255
Combo2 : 254,160,33
Combo3 : 255,74,74
Combo4 : 254,224,14

[HitObjects]
333,135,1064,5,2,0:0:0:0:
301,231,1397,1,2,0:0:0:0:
248,320,1731,6,0,P|208:328|180:324,1,68,2|2,0:0|0:0,0:0:0:0:
136,256,2064,1,0,0:0:0:0:
176,184,2231,2,0,L|168:108,1,68,2|0,0:0|0:0,0:0:0:0:
48,236,2564,2,0,L|55:303,1,68,2|0,0:0|0:0,0:0:0:0:
176,184,2897,6,0,P|220:164|316:176,1,136,2|2,0:0|0:0,0:0:0:0:
356,236,3397,2,0,L|376:304,1,68
396,156,3731,2,0,L|415:90,1,68
356,236,4064,1,2,0:0:0:0:
304,164,4231,1,2,0:0:0:0:
440,248,4397,6,0,L|516:236,1,68,2|2,0:0|0:0,0:0:0:0:
484,160,4731,1,0,0:0:0:0:
380,324,4897,2,0,L|304:312,1,68,2|0,0:0|0:0,0:0:0:0:
128,284,5231,2,0,L|52:296,1,68,2|0,0:0|0:0,0:0:0:0:
208,352,5564,6,0,P|232:292|208:220,1,136,2|0,0:0|0:0,0:0:0:0:
136,196,6064,1,0,0:0:0:0:
108,120,6231,1,0,0:0:0:0:
212,225,6397,2,0,L|288:217,1,68,2|0,0:0|0:0,0:0:0:0:
392,344,6731,2,0,L|384:268,1,68,2|0,0:0|0:0,0:0:0:0:
432,128,7064,6,0,L|356:136,1,68,2|2,0:0|0:0,0:0:0:0:
312,196,7397,1,0,0:0:0:0:
216,88,7564,2,0,P|251:98|278:121,1,68,2|0,0:0|0:0,0:0:0:0:
248,248,7897,1,2,0:0:0:0:
204,176,8064,1,0,0:0:0:0:
212,332,8231,6,0,B|273:351|296:308|348:328,1,136,2|2,0:0|0:0,0:0:0:0:
424,340,8731,2,0,P|456:312|468:284,1,68
380,192,9064,2,0,L|388:276,1,68
468,200,9397,1,2,0:0:0:0:
432,128,9564,1,2,0:0:0:0:
386,259,9731,6,0,P|346:259|314:247,1,68,2|2,0:0|0:0,0:0:0:0:
268,188,10064,1,0,0:0:0:0:
140,120,10231,2,0,P|180:120|212:132,1,68,2|0,0:0|0:0,0:0:0:0:
244,328,10564,2,0,L|236:256,1,68,2|0,0:0|0:0,0:0:0:0:
324,88,10897,6,0,L|344:232,1,136,2|0,0:0|0:0,0:0:0:0:
344,304,11397,1,0,0:0:0:0:
344,304,11564,1,0,0:0:0:0:
424,224,11731,2,0,L|496:236,1,68,2|0,0:0|0:0,0:0:0:0:
336,160,12064,2,0,L|248:172,1,68,2|0,0:0|0:0,0:0:0:0:
400,84,12397,6,0,P|424:112|436:152,1,68,2|2,0:0|0:0,0:0:0:0:
424,224,12731,1,0,0:0:0:0:
336,176,12897,2,0,L|248:188,1,68,2|0,0:0|0:0,0:0:0:0:
220,328,13231,2,0,L|290:274,1,68,2|0,0:0|0:0,0:0:0:0:
180,112,13564,6,0,P|164:160|176:248,1,136,2|2,0:0|0:0,0:0:0:0:
264,100,14064,1,0,0:0:0:0:
264,100,14231,1,0,0:0:0:0:
208,28,14397,1,0,0:0:0:0:
208,28,14564,1,0,0:0:0:0:
236,180,14731,1,2,0:0:0:0:
180,112,14897,1,2,0:0:0:0:
324,164,15064,5,2,0:0:0:0:
324,164,15231,2,0,L|330:90,1,68,2|0,0:0|0:0,0:0:0:0:
211,249,15564,2,0,L|199:181,1,68,2|0,0:0|0:0,0:0:0:0:
252,344,15897,2,0,P|288:356|324:352,1,68,2|0,0:0|0:0,0:0:0:0:
211,249,16231,6,0,P|155:233|75:253,1,136,2|0,0:0|0:0,0:0:0:0:
53,327,16731,1,0,0:0:0:0:
53,327,16897,1,0,0:0:0:0:
211,249,17064,2,0,L|201:175,1,68,2|0,0:0|0:0,0:0:0:0:
102,82,17397,2,0,L|92:149,1,68,2|0,0:0|0:0,0:0:0:0:
140,333,17731,5,2,0:0:0:0:
140,333,17897,2,0,L|130:256,1,68,2|0,0:0|0:0,0:0:0:0:
14,173,18231,2,0,P|30:206|56:226,1,68,2|0,0:0|0:0,0:0:0:0:
213,174,18564,2,0,P|196:140|170:120,1,68,2|0,0:0|0:0,0:0:0:0:
140,333,18897,6,0,P|173:354|281:338,1,136,2|2,0:0|0:0,0:0:0:0:
312,281,19397,2,0,L|304:210,1,68
204,109,19731,2,0,P|232:139|259:150,1,68
361,96,20064,1,2,0:0:0:0:
312,22,20231,1,2,0:0:0:0:
256,149,20397,5,2,0:0:0:0:
256,149,20564,2,0,L|250:72,1,68,2|0,0:0|0:0,0:0:0:0:
333,183,20897,2,0,P|341:223|362:255,1,68,2|0,0:0|0:0,0:0:0:0:
445,120,21231,2,0,P|437:160|416:192,1,68,2|0,0:0|0:0,0:0:0:0:
397,25,21564,1,2,0:0:0:0:
445,332,22064,5,2,0:0:0:0:
257,32,22397,1,2,0:0:0:0:
67,332,22731,2,0,P|49:300|23:279,1,68,8|0,0:3|0:0,0:0:0:0:
67,332,23064,6,0,B|132:333|132:333|169:314|169:314|234:315,1,170,14|8,0:1|0:2,0:0:0:0:
333,329,23564,1,10,0:1:0:0:
288,236,23731,1,10,0:2:0:0:
232,314,23897,1,8,0:1:0:0:
384,236,24064,1,10,0:2:0:0:
196,204,24231,6,0,P|257:143|340:156,1,170,14|8,0:1|0:1,0:0:0:0:
288,236,24731,1,8,0:2:0:0:
132,268,24897,2,0,B|111:225|111:225|109:177,1,85,2|8,0:0|0:1,0:0:0:0:
196,204,25231,1,10,0:1:0:0:
164,356,25397,2,0,B|118:359|118:359|73:344,1,85,10|2,0:2|0:0,0:0:0:0:
288,236,25731,6,0,L|458:254,1,170,14|8,0:1|0:2,0:0:0:0:
304,332,26231,1,10,0:1:0:0:
404,160,26397,1,8,0:2:0:0:
288,236,26564,1,10,0:1:0:0:
388,68,26731,1,8,0:2:0:0:
288,236,26897,6,0,B|218:269|191:201|120:233,1,170,14|10,0:1|0:1,0:0:0:0:
123,231,27397,2,0,P|126:189|146:143,1,85,10|2,0:2|0:0,0:0:0:0:
235,107,27731,1,8,0:1:0:0:
123,231,27897,1,8,0:1:0:0:
51,91,28064,2,0,P|48:133|32:172,1,85,10|0,0:2|0:0,0:0:0:0:
172,46,28397,6,0,P|211:30|253:27,1,85,14|2,0:1|0:0,0:0:0:0:
338,99,28731,1,10,0:2:0:0:
300,267,28897,2,0,P|281:229|276:187,1,85,2|8,0:0|0:1,0:0:0:0:
368,24,29231,1,10,0:1:0:0:
396,160,29397,1,10,0:2:0:0:
256,96,29564,6,0,P|218:114|181:162,1,85,10|2,0:1|0:3,0:0:0:0:
200,292,29897,1,10,0:1:0:0:
276,187,30064,1,10,0:2:0:0:
108,216,30231,2,0,P|88:177|84:128,1,85,2|8,0:0|0:1,0:0:0:0:
288,276,30564,1,8,0:3:0:0:
288,276,30647,1,4,0:3:0:0:
288,276,30731,2,0,P|326:258|363:210,1,85,10|0,0:2|0:0,0:0:0:0:
368,32,31064,6,0,L|357:149,1,85,14|0,0:1|0:0,0:0:0:0:
420,298,31397,1,10,0:2:0:0:
506,171,31564,2,0,L|420:183,1,85,2|8,0:0|0:1,0:0:0:0:
212,154,31897,2,0,L|298:142,1,85,10|8,0:1|0:2,0:0:0:0:
353,342,32231,6,0,P|332:296|224:256,1,170,10|8,0:1|0:1,0:0:0:0:
107,271,32731,2,0,L|138:362,1,85,10|0,0:2|0:0,0:0:0:0:
140,162,33064,1,10,0:1:0:0:
18,238,33231,1,8,0:2:0:0:
18,238,33314,1,8,0:2:0:0:
18,238,33397,1,10,0:2:0:0:
46,139,33564,1,8,0:3:0:0:
107,271,33731,6,0,P|149:260|176:236,1,76.4999976654053,14|2,0:1|0:0,0:0:0:0:
222,160,34064,1,8,0:2:0:0:
169,84,34231,2,0,L|184:-11,1,76.4999976654053,2|8,0:0|0:1,0:0:0:0:
260,253,34564,2,0,L|245:348,1,76.4999976654053,10|8,0:1|0:2,0:0:0:0:
222,160,34897,6,0,P|265:129|360:146,1,152.999995330811,10|10,0:1|0:1,0:0:0:0:
420,223,35397,2,0,P|449:188|459:152,1,76.4999976654053,8|0,0:2|0:0,0:0:0:0:
456,11,35731,2,0,P|426:45|416:81,1,76.4999976654053,8|8,0:1|0:1,0:0:0:0:
416,320,36064,1,10,0:2:0:0:
497,263,36231,1,2,0:0:0:0:
328,273,36397,6,0,P|312:232|318:194,1,76.4999976654053,10|2,0:1|0:0,0:0:0:0:
354,107,36731,1,8,0:2:0:0:
420,223,36897,2,0,L|335:234,1,76.4999976654053,2|8,0:0|0:1,0:0:0:0:
122,162,37231,2,0,L|207:173,1,76.4999976654053,10|8,0:1|0:2,0:0:0:0:
270,361,37564,6,0,B|256:308|256:308|271:260|271:260|260:199,1,152.999995330811,10|8,0:1|0:1,0:0:0:0:
254,113,38064,1,8,0:2:0:0:
163,72,38231,1,0,0:0:0:0:
177,252,38397,2,0,L|160:166,1,76.4999976654053,10|8,0:1|0:1,0:0:0:0:
305,12,38731,2,0,L|229:26,1,76.4999976654053,10|0,0:2|0:0,0:0:0:0:
39,170,39064,6,0,L|25:95,1,76.4999976654053,14|2,0:1|0:0,0:0:0:0:
163,72,39397,1,8,0:2:0:0:
124,224,39564,2,0,P|95:255|56:271,1,76.4999976654053,2|8,0:0|0:1,0:0:0:0:
189,158,39897,2,0,L|269:180,1,76.4999976654053,10|8,0:1|0:2,0:0:0:0:
378,328,40231,6,0,L|223:285,1,152.999995330811,10|10,0:1|0:1,0:0:0:0:
380,214,40731,1,8,0:2:0:0:
230,287,40897,1,0,0:0:0:0:
247,134,41064,1,8,0:1:0:0:
247,134,41231,1,8,0:1:0:0:
327,309,41397,1,10,0:2:0:0:
335,127,41564,1,2,0:0:0:0:
183,213,41731,6,0,L|263:214,1,76.4999976654053,10|2,0:1|0:0,0:0:0:0:
409,132,42064,1,8,0:2:0:0:
397,322,42231,2,0,P|367:284|362:243,1,76.4999976654053,2|8,0:0|0:1,0:0:0:0:
459,62,42564,2,0,P|489:100|494:141,1,76.4999976654053,10|8,0:1|0:2,0:0:0:0:
361,257,42897,6,0,P|321:242|200:263,1,152.999995330811,10|8,0:1|0:1,0:0:0:0:
138,321,43397,2,0,P|167:345|204:356,1,76.4999976654053,8|0,0:2|0:0,0:0:0:0:
96,240,43731,1,10,0:1:0:0:
96,240,43897,1,8,0:1:0:0:
68,384,44064,2,0,P|52:344|52:292,1,76.4999976654053,10|0,0:2|0:0,0:0:0:0:
224,160,44397,6,0,P|191:179|154:189,1,76.4999976654053,14|2,0:1|0:0,0:0:0:0:
156,36,44731,1,8,0:2:0:0:
224,160,44897,2,0,P|250:185|297:199,1,76.4999976654053,2|8,0:0|0:1,0:0:0:0:
300,32,45231,2,0,L|293:118,1,76.4999976654053,10|8,0:1|0:2,0:0:0:0:
313,288,45564,6,0,P|365:243|376:163,1,152.999995330811,10|10,0:1|0:1,0:0:0:0:
230,271,46064,2,0,L|143:214,1,76.4999976654053,8|0,0:2|0:0,0:0:0:0:
285,203,46397,2,0,L|297:122,1,76.4999976654053,8|8,0:1|0:1,0:0:0:0:
254,351,46731,1,10,0:2:0:0:
285,204,46897,1,2,0:0:0:0:
254,351,47064,6,0,P|292:372|340:364,1,76.4999976654053,10|2,0:1|0:0,0:0:0:0:
406,302,47397,1,10,0:2:0:0:
285,204,47564,2,0,P|278:146|286:115,1,76.4999976654053,2|8,0:0|0:1,0:0:0:0:
442,76,47897,2,0,L|364:95,1,76.4999976654053,10|8,0:1|0:2,0:0:0:0:
212,208,48231,6,0,B|272:235|296:173|359:203,1,152.999995330811,10|8,0:1|0:1,0:0:0:0:
416,284,48731,1,8,0:2:0:0:
472,208,48897,1,0,0:0:0:0:
324,288,49064,2,0,L|340:373,1,76.4999976654053,10|8,0:1|0:1,0:0:0:0:
381,169,49397,2,0,L|365:84,1,76.4999976654053,10|0,0:2|0:0,0:0:0:0:
324,288,49731,5,14,0:1:0:0:
227,267,49897,2,0,P|244:222|274:195,1,76.4999976654053,2|8,0:0|0:2,0:0:0:0:
251,356,50231,2,0,L|174:369,1,76.4999976654053,2|8,0:0|0:1,0:0:0:0:
32,292,50564,2,0,L|115:303,1,76.4999976654053,10|8,0:1|0:2,0:0:0:0:
306,244,50897,6,0,P|294:177|233:105,1,152.999995330811,10|10,0:1|0:1,0:0:0:0:
151,124,51397,1,8,0:2:0:0:
178,36,51564,1,0,0:0:0:0:
203,198,51731,2,0,L|177:284,1,76.4999976654053,8|8,0:1|0:1,0:0:0:0:
242,111,52064,1,10,0:2:0:0:
242,111,52231,1,2,0:0:0:0:
306,244,52397,6,0,L|328:170,1,76.4999976654053,10|2,0:1|0:0,0:0:0:0:
256,324,52731,1,8,0:2:0:0:
427,297,52897,2,0,P|392:322|349:328,1,76.4999976654053,2|8,0:0|0:1,0:0:0:0:
100,293,53231,2,0,P|135:268|178:262,1,76.4999976654053,10|8,0:1|0:2,0:0:0:0:
251,384,53564,6,0,B|242:357|242:357|263:319|263:319|242:276|263:222,1,152.999995330811,14|8,0:1|0:2,0:0:0:0:
328,168,54064,1,10,0:2:0:0:
176,200,54231,1,8,0:2:0:0:
222,55,54397,1,10,0:1:0:0:
286,247,54564,5,8,0:2:0:0:
286,247,54647,1,8,0:2:0:0:
286,247,54731,2,0,L|303:291,1,38.2499988327027,10|4,0:3|0:3,0:0:0:0:
177,178,54897,2,0,L|160:134,1,38.2499988327027,8|8,0:2|0:2,0:0:0:0:
279,123,55064,6,0,B|320:108|320:108|352:128|352:128|400:96|452:120,1,170,14|8,0:1|0:2,0:0:0:0:
412,212,55564,1,2,0:0:0:0:
352,28,55731,1,10,0:1:0:0:
232,192,55897,2,0,P|204:156|200:100,1,85,8|8,0:1|0:2,0:0:0:0:
284,296,56231,6,0,B|225:309|225:309|172:292|172:292|100:304,1,170,10|10,0:1|0:1,0:0:0:0:
112,168,56731,1,8,0:2:0:0:
56,384,56897,2,0,P|20:324|56:224,1,170,10|10,0:1|0:1,0:0:0:0:
204,204,57397,1,12,0:2:0:0:
112,92,57564,1,2,0:0:0:0:
136,304,57731,6,0,L|124:212,1,85,14|0,0:1|0:0,0:0:0:0:
328,72,58064,2,0,L|243:82,1,85,8|2,0:2|0:0,0:0:0:0:
112,92,58397,1,10,0:1:0:0:
172,8,58564,1,8,0:1:0:0:
184,176,58731,1,8,0:2:0:0:
36,84,58897,6,0,P|-1:157|8:254,1,170,10|10,0:1|0:1,0:0:0:0:
76,312,59397,1,8,0:2:0:0:
200,176,59564,2,0,L|216:272,1,85,10|0,0:1|0:0,0:0:0:0:
180,76,59897,1,10,0:3:0:0:
180,76,59981,1,8,0:3:0:0:
180,76,60064,1,4,0:3:0:0:
200,176,60231,1,8,0:3:0:0:
312,64,60397,6,0,P|340:96|352:136,1,85,12|2,0:1|0:0,0:0:0:0:
296,232,60731,1,10,0:2:0:0:
200,176,60897,1,2,0:0:0:0:
232,356,61064,1,10,0:1:0:0:
200,176,61231,2,0,L|216:272,1,85,10|8,0:1|0:2,0:0:0:0:
180,76,61564,1,2,0:0:0:0:
80,200,61731,6,0,P|80:152|93:116,1,85,14|0,0:1|0:0,0:0:0:0:
128,288,62064,2,0,L|44:308,1,85,10|0,0:2|0:0,0:0:0:0:
282,156,62397,2,0,L|198:176,1,85,10|8,0:1|0:1,0:0:0:0:
384,48,62731,1,12,0:2:0:0:
384,48,63064,6,0,L|392:144,1,85,12|2,0:1|0:0,0:0:0:0:
412,240,63397,1,10,0:2:0:0:
496,168,63564,1,10,0:1:0:0:
464,328,63731,1,10,0:2:0:0:
320,212,63897,2,0,L|327:297,1,85,10|8,0:1|0:2,0:0:0:0:
400,108,64230,1,10,0:1:0:0:
477,249,64397,6,0,B|500:208|496:168,1,85,10|8,0:2|0:1,0:0:0:0:
320,212,64731,2,0,B|279:189|239:193,1,85,10|8,0:2|0:1,0:0:0:0:
216,352,65064,1,10,0:2:0:0:
237,334,65147,1,8,0:1:0:0:
251,309,65231,1,8,0:1:0:0:
168,96,65397,2,0,L|152:179,1,85,10|0,0:3|0:0,0:0:0:0:
76,360,65731,6,0,P|120:332|236:356,1,170,14|8,0:1|0:2,0:0:0:0:
332,360,66231,1,2,0:0:0:0:
296,216,66397,1,10,0:1:0:0:
152,324,66564,2,0,P|162:282|197:244,1,85,8|8,0:1|0:2,0:0:0:0:
424,296,66897,6,0,B|344:281|339:338|257:319,1,170,10|10,0:1|0:1,0:0:0:0:
188,250,67397,1,8,0:2:0:0:
301,52,67564,2,0,B|320:129|320:129|293:224,1,170,10|10,0:1|0:1,0:0:0:0:
188,128,68064,1,12,0:2:0:0:
301,52,68231,1,2,0:0:0:0:
376,256,68397,6,0,L|404:160,1,85,14|0,0:1|0:0,0:0:0:0:
208,56,68731,2,0,L|232:156,1,85,8|2,0:2|0:0,0:0:0:0:
376,256,69064,1,10,0:1:0:0:
324,136,69231,1,8,0:1:0:0:
272,328,69397,1,8,0:2:0:0:
476,246,69564,6,0,P|457:320|368:360,1,170,10|10,0:1|0:1,0:0:0:0:
272,328,70064,1,4,0:3:0:0:
376,256,70231,1,10,0:3:0:0:
256,208,70397,1,4,0:3:0:0:
380,364,70564,5,10,0:2:0:0:
184,280,70731,1,8,0:2:0:0:
356,136,70897,1,8,0:2:0:0:
280,348,71064,6,0,P|297:304|327:277,1,85,12|2,0:1|0:0,0:0:0:0:
476,246,71397,1,10,0:2:0:0:
416,344,71564,1,2,0:0:0:0:
376,168,71731,1,10,0:1:0:0:
416,344,71897,2,0,L|396:260,1,85,10|8,0:1|0:2,0:0:0:0:
356,80,72231,1,2,0:0:0:0:
308,214,72397,6,0,P|336:182|375:166,1,85,14|0,0:1|0:0,0:0:0:0:
308,316,72731,2,0,L|216:304,1,85,10|0,0:2|0:0,0:0:0:0:
88,252,73064,1,10,0:1:0:0:
132,364,73231,1,8,0:1:0:0:
188,108,73397,1,12,0:2:0:0:
188,108,73731,6,0,P|148:128|104:128,1,85,12|2,0:1|0:0,0:0:0:0:
276,40,74064,1,10,0:2:0:0:
208,200,74231,1,10,0:1:0:0:
244,20,74397,1,10,0:2:0:0:
320,188,74564,2,0,P|308:148|277:117,1,85,10|8,0:1|0:2,0:0:0:0:
272,280,74897,1,10,0:1:0:0:
408,156,75064,5,10,0:2:0:0:
400,296,75231,2,0,B|411:343,2,42.5,8|8|4,0:3|0:3|0:3,0:0:0:0:
320,188,75564,1,8,0:3:0:0:
392,28,75731,5,10,0:2:0:0:
392,28,75842,2,0,L|370:88,1,56.6666666666667,8|4,0:3|0:3,0:0:0:0:
336,242,76064,5,10,0:3:0:0:
336,242,76175,2,0,L|316:178,1,56.6666666666667,4|4,0:3|0:3,0:0:0:0:
216,56,76397,6,0,B|244:130|184:150|216:230,1,170,14|8,0:1|0:2,0:0:0:0:
272,316,76897,1,10,0:1:0:0:
440,232,77064,1,10,0:2:0:0:
384,328,77231,1,8,0:1:0:0:
376,144,77397,1,10,0:2:0:0:
272,316,77564,6,0,P|208:332|113:272,1,170,14|8,0:1|0:1,0:0:0:0:
100,176,78064,1,8,0:2:0:0:
192,116,78231,2,0,L|176:28,1,85,2|8,0:0|0:1,0:0:0:0:
100,176,78564,1,10,0:1:0:0:
213,222,78731,2,0,L|333:198,1,85,10|2,0:2|0:0,0:0:0:0:
496,276,79064,6,0,B|434:292|434:292|404:320|404:320|341:337,1,170,14|8,0:1|0:2,0:0:0:0:
436,188,79564,1,10,0:1:0:0:
341,337,79731,1,8,0:2:0:0:
320,152,79897,1,10,0:1:0:0:
341,337,80064,1,8,0:2:0:0:
176,192,80231,6,0,B|237:208|237:208|267:236|267:236|330:253,1,170,14|10,0:1|0:1,0:0:0:0:
436,188,80731,2,0,L|456:104,1,85,10|2,0:2|0:0,0:0:0:0:
320,152,81064,1,8,0:1:0:0:
432,280,81231,1,8,0:1:0:0:
408,56,81397,1,10,0:2:0:0:
408,56,81731,5,14,0:1:0:0:
360,248,81897,1,2,0:0:0:0:
312,80,82064,1,10,0:2:0:0:
491,138,82231,2,0,L|375:146,1,85,2|8,0:0|0:1,0:0:0:0:
240,164,82564,1,10,0:1:0:0:
312,80,82731,1,10,0:2:0:0:
332,296,82897,6,0,L|324:180,1,85,10|2,0:1|0:3,0:0:0:0:
208,60,83231,1,10,0:1:0:0:
144,148,83397,1,10,0:2:0:0:
52,4,83564,2,0,P|76:44|84:100,1,85,2|8,0:0|0:1,0:0:0:0:
88,328,83897,1,8,0:3:0:0:
76,232,84064,2,0,P|85:190|108:154,1,85,10|0,0:2|0:0,0:0:0:0:
332,228,84397,6,0,B|265:258|238:190|168:223,1,170,14|10,0:1|0:2,0:0:0:0:
304,152,84897,2,0,P|320:112|320:68,1,85,2|8,0:0|0:1,0:0:0:0:
208,300,85231,2,0,P|192:340|192:384,1,85,10|8,0:1|0:2,0:0:0:0:
380,328,85564,6,0,P|418:286|418:174,1,170,10|8,0:1|0:1,0:0:0:0:
336,124,86064,1,10,0:2:0:0:
420,68,86231,1,0,0:0:0:0:
332,228,86397,1,10,0:1:0:0:
236,104,86564,2,0,L|248:148,2,42.5,8|8|10,0:2|0:2|0:2,0:0:0:0:
308,24,86897,1,8,0:3:0:0:
332,228,87064,6,0,P|306:255|271:271,1,76.4999976654053,14|2,0:1|0:0,0:0:0:0:
184,240,87397,1,8,0:2:0:0:
96,264,87564,2,0,L|72:348,1,76.4999976654053,2|8,0:0|0:1,0:0:0:0:
252,184,87897,2,0,L|232:108,1,76.4999976654053,10|8,0:1|0:2,0:0:0:0:
16,136,88231,6,0,P|56:120|156:160,1,152.999995330811,10|10,0:1|0:1,0:0:0:0:
203,313,88731,2,0,L|183:237,1,76.4999976654053,8|0,0:2|0:0,0:0:0:0:
128,380,89064,1,8,0:1:0:0:
203,313,89231,1,8,0:1:0:0:
292,356,89397,2,0,P|325:318|336:280,1,76.4999976654053,10|2,0:2|0:0,0:0:0:0:
312,128,89731,6,0,P|327:162|354:189,1,76.4999976654053,10|2,0:1|0:0,0:0:0:0:
416,100,90064,1,8,0:2:0:0:
312,128,90231,2,0,L|232:112,1,76.4999976654053,2|8,0:0|0:1,0:0:0:0:
420,256,90564,2,0,L|500:240,1,76.4999976654053,10|8,0:1|0:2,0:0:0:0:
312,128,90897,6,0,P|264:132|176:200,1,152.999995330811,10|8,0:1|0:1,0:0:0:0:
180,284,91397,1,8,0:2:0:0:
272,284,91564,1,0,0:0:0:0:
88,284,91731,2,0,L|92:204,1,76.4999976654053,10|8,0:1|0:1,0:0:0:0:
268,360,92064,2,0,L|272:280,1,76.4999976654053,10|0,0:2|0:0,0:0:0:0:
196,100,92397,6,0,L|192:176,1,76.4999976654053,14|2,0:1|0:0,0:0:0:0:
271,283,92731,1,8,0:2:0:0:
296,196,92897,2,0,P|328:168|372:160,1,76.4999976654053,2|8,0:0|0:1,0:0:0:0:
436,284,93231,2,0,P|404:312|360:320,1,76.4999976654053,10|8,0:1|0:2,0:0:0:0:
352,88,93564,6,0,L|368:244,1,152.999995330811,10|10,0:1|0:1,0:0:0:0:
468,183,94064,2,0,L|456:95,1,76.4999976654053,8|0,0:2|0:0,0:0:0:0:
352,88,94397,1,8,0:1:0:0:
237,175,94564,1,8,0:1:0:0:
365,237,94731,1,10,0:2:0:0:
319,165,94897,1,2,0:0:0:0:
296,324,95064,6,0,P|328:348|364:356,1,76.4999976654053,10|2,0:1|0:0,0:0:0:0:
365,237,95397,1,8,0:2:0:0:
296,324,95564,2,0,L|208:328,1,76.4999976654053,2|8,0:0|0:1,0:0:0:0:
88,224,95897,2,0,L|176:228,1,76.4999976654053,10|8,0:1|0:2,0:0:0:0:
392,212,96231,6,0,B|337:211|337:211|294:236|294:236|228:239,1,152.999995330811,14|8,0:1|0:1,0:0:0:0:
236,148,96731,2,0,L|228:56,1,76.4999976654053,8|0,0:2|0:0,0:0:0:0:
245,238,97064,1,10,0:1:0:0:
140,208,97231,5,8,0:2:0:0:
342,120,97397,1,10,0:2:0:0:
140,15,97564,1,8,0:2:0:0:
236,148,97731,6,0,P|204:116|167:101,1,85,14|2,0:1|0:0,0:0:0:0:
76,148,98064,1,8,0:2:0:0:
245,238,98231,2,0,P|283:221|313:191,1,85,2|8,0:0|0:1,0:0:0:0:
308,24,98564,2,0,L|304:112,1,85,10|8,0:1|0:2,0:0:0:0:
356,312,98897,6,0,P|368:264|432:216,1,127.5,10|0,0:1|0:0,0:0:0:0:
427,217,99231,1,10,0:1:0:0:
476,384,99397,2,0,P|452:340|448:296,1,85,8|0,0:2|0:0,0:0:0:0:
436,64,99731,2,0,P|428:105|407:142,1,85,8|8,0:1|0:1,0:0:0:0:
252,168,100064,1,10,0:2:0:0:
312,56,100231,1,2,0:0:0:0:
348,248,100397,6,0,L|328:148,1,85,10|2,0:1|0:0,0:0:0:0:
200,68,100731,1,8,0:2:0:0:
140,160,100897,2,0,P|104:176|52:168,1,85,2|8,0:0|0:1,0:0:0:0:
252,168,101231,2,0,P|268:208|260:256,1,85,10|8,0:1|0:2,0:0:0:0:
92,92,101564,6,0,P|117:38|219:4,1,170,10|8,0:1|0:1,0:0:0:0:
308,68,102064,1,8,0:2:0:0:
308,68,102231,1,0,0:0:0:0:
216,168,102397,2,0,L|308:188,1,85,10|8,0:1|0:1,0:0:0:0:
440,276,102731,2,0,L|348:296,1,85,10|0,0:2|0:0,0:0:0:0:
176,312,103064,5,14,0:1:0:0:
284,360,103231,2,0,P|264:320|264:280,1,85,2|8,0:0|0:2,0:0:0:0:
232,68,103564,2,0,L|250:151,1,85,2|8,0:0|0:1,0:0:0:0:
416,188,103897,2,0,L|332:206,1,85,10|8,0:1|0:2,0:0:0:0:
184,248,104231,6,0,B|107:276|91:223|16:252,1,170,10|8,0:1|0:1,0:0:0:0:
140,144,104731,2,0,L|120:48,1,85,8|0,0:2|0:0,0:0:0:0:
324,48,105064,1,8,0:1:0:0:
256,152,105231,1,8,0:1:0:0:
188,0,105397,2,0,L|208:92,1,85,10|0,0:2|0:0,0:0:0:0:
272,288,105731,6,0,P|292:244|340:216,1,85,10|2,0:1|0:0,0:0:0:0:
380,308,106064,1,8,0:2:0:0:
224,360,106231,2,0,L|136:344,1,85,2|8,0:0|0:1,0:0:0:0:
380,308,106564,2,0,L|484:288,1,85,10|8,0:1|0:2,0:0:0:0:
272,200,106897,6,0,P|185:168|111:199,1,170,14|8,0:1|0:3,0:0:0:0:
188,272,107397,1,2,0:3:0:0:
272,200,107564,1,6,0:3:0:0:
372,248,107731,2,0,P|413:222|437:189,1,85,14|8,0:2|0:3,0:0:0:0:
440,84,108064,1,10,0:2:0:0:
344,152,108231,1,4,0:3:0:0:
344,152,108314,1,4,0:3:0:0:
344,152,108397,6,0,P|332:92|268:52,1,136,14|4,0:1|0:2,0:0:0:0:
200,88,108897,1,10,0:1:0:0:
204,168,109064,2,0,L|188:240,1,68,10|0,0:2|0:0,0:0:0:0:
128,136,109397,1,4,0:2:0:0:
128,292,109564,6,0,P|156:312|192:316,1,68,10|0,0:1|0:0,0:0:0:0:
324,244,109897,2,0,P|290:249|261:272,1,68,10|4,0:1|0:2,0:0:0:0:
316,372,110231,2,0,P|349:366|378:343,2,68,10|8|2,0:1|0:2|0:0,0:0:0:0:
220,336,110731,1,6,0:2:0:0:
263,269,110897,1,2,0:0:0:0:
172,188,111064,6,0,L|180:264,2,68,12|0|4,0:1|0:0|0:2,0:0:0:0:
184,108,111564,1,10,0:1:0:0:
84,208,111731,2,0,P|84:168|100:136,1,68,10|0,0:2|0:0,0:0:0:0:
184,108,112064,1,4,0:2:0:0:
248,232,112231,6,0,L|320:252,1,68,14|0,0:1|0:0,0:0:0:0:
376,348,112564,2,0,L|394:282,1,68,10|8,0:1|0:2,0:0:0:0:
488,200,112897,2,0,L|356:163,1,136,14|10,0:1|0:1,0:0:0:0:
292,112,113397,1,12,0:2:0:0:
368,76,113564,1,0,0:0:0:0:
352,248,113731,6,0,P|324:276|288:292,1,68,12|2,0:1|0:0,0:0:0:0:
220,276,114064,1,6,0:2:0:0:
268,196,114231,1,10,0:1:0:0:
244,368,114397,1,10,0:2:0:0:
148,232,114564,2,0,P|136:272|140:316,1,68,2|4,0:0|0:2,0:0:0:0:
268,196,114897,6,0,P|280:156|276:112,1,68,10|0,0:1|0:0,0:0:0:0:
132,120,115231,2,0,L|196:152,1,68,10|4,0:1|0:2,0:0:0:0:
332,268,115564,2,0,L|268:300,1,68,10|8,0:1|0:2,0:0:0:0:
104,332,115897,1,10,0:3:0:0:
128,344,115981,1,8,0:3:0:0:
152,356,116064,1,8,0:3:0:0:
204,240,116231,1,2,0:2:0:0:
104,332,116397,6,0,B|83:302|83:302|74:267,1,68,14|0,0:1|0:0,0:0:0:0:
168,136,116731,1,8,0:2:0:0:
104,332,116897,1,8,0:1:0:0:
220,264,117064,1,8,0:2:0:0:
36,192,117231,1,8,0:1:0:0:
320,248,117397,1,8,0:2:0:0:
128,224,117564,6,0,P|156:184|248:168,1,136,10|8,0:1|0:2,0:0:0:0:
408,280,118064,2,0,L|392:116,2,136,10|2|2,0:2|0:2|0:2,0:0:0:0:
452,300,119064,6,0,B|408:280|408:280|376:300|376:300|332:272|276:296,1,170,14|8,0:1|0:2,0:0:0:0:
204,332,119564,1,2,0:0:0:0:
276,168,119731,1,10,0:1:0:0:
324,368,119897,2,0,L|332:264,1,85,8|8,0:1|0:2,0:0:0:0:
196,108,120231,6,0,P|168:152|216:252,1,170,10|10,0:1|0:1,0:0:0:0:
330,283,120731,1,8,0:2:0:0:
456,108,120897,2,0,P|484:152|436:252,1,170,10|10,0:1|0:1,0:0:0:0:
330,283,121397,1,12,0:2:0:0:
380,168,121564,1,2,0:0:0:0:
450,334,121731,6,0,L|438:246,1,85,14|0,0:1|0:0,0:0:0:0:
367,69,122064,1,8,0:2:0:0:
284,124,122231,1,2,0:0:0:0:
440,0,122397,2,0,P|465:41|465:90,1,85,10|8,0:1|0:1,0:0:0:0:
380,168,122731,1,8,0:2:0:0:
280,44,122897,6,0,B|207:14|187:74|113:46,1,170,10|10,0:1|0:1,0:0:0:0:
36,136,123397,1,8,0:2:0:0:
124,232,123564,2,0,L|136:140,1,85,10|0,0:1|0:0,0:0:0:0:
20,32,123897,1,10,0:3:0:0:
20,32,123981,1,8,0:3:0:0:
20,32,124064,1,4,0:3:0:0:
114,47,124231,1,8,0:3:0:0:
43,217,124397,6,0,P|80:234|130:229,1,85,12|2,0:1|0:0,0:0:0:0:
204,136,124731,1,10,0:2:0:0:
114,47,124897,1,2,0:0:0:0:
123,231,125064,1,10,0:1:0:0:
114,47,125231,2,0,L|120:136,1,85,10|8,0:1|0:2,0:0:0:0:
132,316,125564,1,2,0:0:0:0:
280,292,125731,6,0,P|240:272|192:268,1,85,14|0,0:1|0:0,0:0:0:0:
0,352,126064,2,0,P|40:372|88:376,1,85,10|0,0:2|0:0,0:0:0:0:
280,292,126397,1,10,0:1:0:0:
176,188,126564,1,8,0:1:0:0:
256,24,126731,1,12,0:2:0:0:
256,24,127064,6,0,P|280:63|282:108,1,85,12|2,0:1|0:0,0:0:0:0:
144,216,127397,1,10,0:2:0:0:
180,96,127564,1,10,0:1:0:0:
260,208,127731,1,10,0:2:0:0:
76,132,127897,2,0,P|70:89|81:49,1,85,10|8,0:1|0:2,0:0:0:0:
180,96,128231,1,10,0:1:0:0:
60,228,128397,6,0,L|160:220,1,85,10|8,0:2|0:1,0:0:0:0:
304,296,128731,1,10,0:2:0:0:
144,221,128897,1,8,0:1:0:0:
268,120,129064,1,10,0:2:0:0:
144,221,129231,1,8,0:1:0:0:
160,48,129397,2,0,P|144:88|144:132,1,85,10|0,0:3|0:0,0:0:0:0:
304,296,129731,6,0,B|363:283|363:283|416:300|416:300|488:288,1,170,14|8,0:1|0:2,0:0:0:0:
428,200,130231,1,2,0:0:0:0:
356,384,130397,1,10,0:1:0:0:
248,224,130564,2,0,P|216:264|208:304,1,85,8|8,0:1|0:2,0:0:0:0:
328,172,130897,6,0,L|312:-12,1,170,10|10,0:1|0:1,0:0:0:0:
336,288,131397,1,8,0:2:0:0:
248,224,131564,2,0,P|176:204|80:240,1,170,10|10,0:1|0:1,0:0:0:0:
72,336,132064,1,12,0:2:0:0:
96,128,132231,1,2,0:0:0:0:
172,288,132397,6,0,L|164:196,1,85,14|0,0:1|0:0,0:0:0:0:
340,288,132731,2,0,L|348:196,1,85,8|2,0:2|0:0,0:0:0:0:
256,344,133064,1,10,0:1:0:0:
256,120,133231,1,8,0:1:0:0:
144,264,133397,1,8,0:2:0:0:
347,203,133564,6,0,B|391:195|391:195|427:215|427:215|463:199|515:219,1,170,10|10,0:1|0:1,0:0:0:0:
388,324,134064,1,4,0:3:0:0:
276,336,134231,1,10,0:3:0:0:
176,292,134397,1,4,0:3:0:0:
289,176,134564,5,10,0:2:0:0:
276,336,134731,1,8,0:2:0:0:
295,96,134897,1,8,0:2:0:0:
284,256,135064,6,0,P|260:225|220:204,1,85,12|2,0:1|0:0,0:0:0:0:
108,200,135397,1,10,0:2:0:0:
156,100,135564,1,2,0:0:0:0:
176,292,135731,1,10,0:1:0:0:
108,200,135897,2,0,P|76:236|32:248,1,85,10|8,0:1|0:2,0:0:0:0:
24,136,136231,1,2,0:0:0:0:
148,296,136397,6,0,P|180:260|224:248,1,85,14|0,0:1|0:0,0:0:0:0:
376,348,136731,2,0,L|288:356,1,85,10|0,0:2|0:0,0:0:0:0:
480,336,137064,1,10,0:1:0:0:
291,355,137231,1,8,0:1:0:0:
368,192,137397,1,12,0:2:0:0:
368,192,137731,6,0,P|380:240|368:284,1,85,12|2,0:1|0:0,0:0:0:0:
264,136,138064,1,10,0:2:0:0:
420,84,138231,1,10,0:1:0:0:
368,192,138397,1,10,0:2:0:0:
316,28,138564,2,0,P|268:16|232:20,1,85,10|8,0:1|0:2,0:0:0:0:
148,120,138897,1,10,0:1:0:0:
264,136,139064,5,10,0:1:0:0:
120,24,139231,1,8,0:0:0:0:
184,208,139398,1,8,0:2:0:0:
233,19,139564,1,4,0:3:0:0:
84,132,139731,1,10,0:2:0:0:
176,108,139897,1,8,0:3:0:0:
176,108,139981,1,8,0:3:0:0:
176,108,140064,2,0,L|184:248,1,127.5,4|0,0:3|0:0,0:0:0:0:
204,312,140397,6,0,P|248:328|296:320,1,85,14|8,0:2|0:1,0:0:0:0:
352,248,140731,1,10,0:2:0:0:
404,336,140897,1,10,0:1:0:0:
468,188,141064,2,0,L|460:272,1,85,10|10,0:2|0:1,0:0:0:0:
396,100,141397,2,0,L|403:15,1,85,8|10,0:2|0:1,0:0:0:0:
360,216,141731,6,0,P|308:224|272:216,1,85,12|8,0:2|0:1,0:0:0:0:
184,156,142064,1,10,0:2:0:0:
296,48,142231,1,10,0:1:0:0:
140,80,142397,2,0,P|192:72|228:80,1,85,10|10,0:2|0:1,0:0:0:0:
360,216,142731,2,0,L|340:304,1,85,8|10,0:2|0:1,0:0:0:0:
160,352,143064,6,0,L|144:256,1,85,12|10,0:2|0:1,0:0:0:0:
92,172,143397,1,10,0:2:0:0:
56,308,143564,1,10,0:1:0:0:
224,212,143731,2,0,L|237:295,1,85,10|10,0:2|0:1,0:0:0:0:
24,224,144064,1,10,0:2:0:0:
172,152,144231,1,10,0:1:0:0:
40,32,144397,6,0,P|67:63|75:104,1,85,14|8,0:2|0:1,0:0:0:0:
252,12,144731,2,0,P|224:43|216:84,1,85,14|8,0:2|0:1,0:0:0:0:
128,272,145064,2,0,P|172:256|224:264,1,85,10|8,0:2|0:1,0:0:0:0:
452,328,145397,2,0,P|384:336|320:300,1,127.5,14|0,0:2|0:0,0:0:0:0:
288,240,145731,6,0,L|296:144,1,85,14|8,0:2|0:1,0:0:0:0:
348,56,146064,1,8,0:2:0:0:
404,228,146231,1,10,0:1:0:0:
295,155,146397,2,0,P|243:155|176:196,1,127.5,10|2,0:2|0:0,0:0:0:0:
179,192,146731,2,0,L|196:288,1,85,8|10,0:2|0:1,0:0:0:0:
160,100,147064,5,12,0:2:0:0:
100,256,147231,1,10,0:1:0:0:
12,124,147397,1,10,0:2:0:0:
92,168,147564,1,10,0:1:0:0:
68,4,147731,2,0,L|80:92,1,85,10|10,0:2|0:1,0:0:0:0:
16,271,148064,2,0,L|104:255,1,85,10|8,0:2|0:1,0:0:0:0:
296,212,148397,6,0,P|239:227|173:315,1,170,14|8,0:2|0:2,0:0:0:0:
292,380,148897,2,0,P|332:360|360:320,1,85,10|8,0:1|0:2,0:0:0:0:
404,228,149231,1,8,0:1:0:0:
272,128,149397,2,0,L|364:116,1,85,10|8,0:2|0:1,0:0:0:0:
192,212,149731,6,0,B|138:153|188:114|136:54,1,170,14|8,0:2|0:2,0:0:0:0:
48,120,150231,1,8,0:1:0:0:
192,212,150397,1,10,0:2:0:0:
40,284,150564,1,8,0:3:0:0:
192,212,150731,2,0,P|172:256|176:296,1,85,8|4,0:2|0:3,0:0:0:0:
376,376,151064,6,0,P|420:320|408:204,1,170,14|10,0:1|0:2,0:0:0:0:
364,128,151564,1,10,0:1:0:0:
256,112,151731,2,0,L|208:24,1,85,10|10,0:2|0:1,0:0:0:0:
380,32,152064,1,10,0:2:0:0:
288,220,152231,6,0,P|208:224|148:152,1,170,14|10,0:1|0:1,0:0:0:0:
172,52,152731,1,10,0:2:0:0:
288,220,152897,2,0,L|275:311,1,85,2|8,0:0|0:1,0:0:0:0:
184,368,153231,1,10,0:1:0:0:
376,304,153397,1,10,0:2:0:0:
224,160,153564,1,0,0:0:0:0:
184,368,153731,6,0,L|195:283,1,85,14|0,0:1|0:0,0:0:0:0:
312,124,154064,1,10,0:2:0:0:
280,336,154231,1,10,0:1:0:0:
224,160,154397,1,10,0:2:0:0:
376,304,154564,1,10,0:1:0:0:
400,96,154731,1,10,0:2:0:0:
300,236,154897,6,0,P|280:196|224:164,1,85,14|0,0:1|0:0,0:0:0:0:
100,268,155231,2,0,L|184:272,1,85,10|8,0:1|0:2,0:0:0:0:
364,340,155564,2,0,L|280:336,1,85,2|8,0:0|0:1,0:0:0:0:
176,376,155897,1,10,0:1:0:0:
256,108,156064,1,10,0:2:0:0:
256,108,156397,6,0,L|268:148,3,42.5,14|0|2|2,0:1|0:0|0:0|0:0,0:0:0:0:
340,112,156731,2,0,L|352:152,3,42.5,10|0|2|2,0:2|0:0|0:0|0:0,0:0:0:0:
436,128,157064,5,10,0:1:0:0:
462,144,157147,1,0,0:0:0:0:
478,170,157231,1,10,0:1:0:0:
478,198,157314,1,2,0:0:0:0:
470,228,157397,2,0,L|452:274,3,42.5,10|0|10|2,0:2|0:0|0:1|0:0,0:0:0:0:
368,252,157731,5,2,0:3:0:0:
344,216,157814,1,0,0:0:0:0:
308,192,157897,1,10,0:1:0:0:
268,184,157981,1,2,0:0:0:0:
228,196,158064,2,0,L|184:284,1,85,10|2,0:2|0:0,0:0:0:0:
368,252,158397,2,0,L|404:176,1,85,10|8,0:1|0:1,0:0:0:0:
220,336,158731,2,0,P|192:300|112:280,1,127.5,10|0,0:2|0:0,0:0:0:0:
72,344,159064,6,0,P|43:304|44:244,1,85,14|2,0:1|0:0,0:0:0:0:
84,168,159397,1,10,0:2:0:0:
220,336,159564,2,0,L|304:320,1,85,2|8,0:0|0:1,0:0:0:0:
424,160,159897,2,0,L|340:176,1,85,10|8,0:1|0:2,0:0:0:0:
220,336,160231,6,0,B|244:261|183:245|206:169,1,170,10|10,0:1|0:1,0:0:0:0:
288,96,160731,2,0,P|292:52|268:0,1,85,10|2,0:2|0:0,0:0:0:0:
205,170,161064,1,10,0:3:0:0:
380,96,161231,1,8,0:3:0:0:
200,68,161397,1,6,0:3:0:0:
328,200,161564,1,8,0:3:0:0:
304,8,161731,5,14,0:1:0:0:
292,248,166731,6,0,P|300:208|288:172,1,76.4999976654053,8|0,0:3|0:0,0:0:0:0:
289,174,167064,6,0,L|129:162,1,136,12|2,0:1|0:0,0:0:0:0:
84,220,167564,1,2,0:0:0:0:
192,84,167731,2,0,L|327:94,1,136,14|0,0:1|0:0,0:0:0:0:
376,168,168231,1,2,0:0:0:0:
400,4,168397,6,0,P|437:39|441:127,1,136,14|2,0:1|0:0,0:0:0:0:
244,268,169064,2,0,P|206:232|202:144,1,136,14|8,0:1|0:0,0:0:0:0:
199,151,169481,1,8,0:3:0:0:
199,151,169564,1,8,0:3:0:0:
332,292,169731,6,0,L|420:284,1,76.4999976654053,8|10,0:2|0:1,0:0:0:0:
192,352,170064,2,0,L|116:336,1,76.4999976654053,10|10,0:2|0:1,0:0:0:0:
344,380,170397,2,0,L|432:372,1,76.4999976654053,10|10,0:2|0:1,0:0:0:0:
208,260,170731,2,0,L|133:244,1,76.4999976654053,8|10,0:2|0:1,0:0:0:0:
360,164,171064,5,10,0:2:0:0:
176,56,171231,1,10,0:2:0:0:
212,164,171397,6,0,P|266:126|285:62,2,136,2|2|2,0:2|0:2|0:2,0:0:0:0:
208,168,172397,6,0,B|245:152|245:152|272:176|272:176|289:164|289:164|325:180|368:160,1,170,14|8,0:1|0:2,0:0:0:0:
424,72,172897,1,2,0:0:0:0:
316,260,173064,1,10,0:1:0:0:
223,84,173231,2,0,L|207:168,1,85,8|8,0:1|0:2,0:0:0:0:
180,348,173564,6,0,P|224:300|148:244,1,170,10|10,0:1|0:1,0:0:0:0:
88,336,174064,1,8,0:2:0:0:
48,136,174231,2,0,P|4:199|67:243,1,170,10|10,0:1|0:1,0:0:0:0:
152,112,174731,2,0,P|128:70|92:46,1,85,12|2,0:2|0:0,0:0:0:0:
168,212,175064,6,0,L|280:204,1,85,14|0,0:1|0:0,0:0:0:0:
420,104,175397,2,0,L|308:112,1,85,8|2,0:2|0:0,0:0:0:0:
252,205,175731,1,10,0:1:0:0:
344,276,175897,1,8,0:1:0:0:
248,92,176064,1,8,0:2:0:0:
240,312,176231,6,0,L|64:328,1,170,10|10,0:1|0:1,0:0:0:0:
152,212,176731,1,8,0:2:0:0:
240,312,176897,2,0,P|268:280|280:240,1,85,10|0,0:1|0:0,0:0:0:0:
180,104,177231,1,10,0:3:0:0:
180,104,177314,1,8,0:3:0:0:
180,104,177397,1,4,0:3:0:0:
252,20,177564,1,8,0:3:0:0:
280,239,177731,6,0,P|248:199|240:167,1,85,12|2,0:1|0:0,0:0:0:0:
280,239,178064,1,10,0:2:0:0:
424,88,178231,1,2,0:0:0:0:
288,64,178397,1,10,0:1:0:0:
400,220,178564,2,0,L|344:148,1,85,10|8,0:1|0:2,0:0:0:0:
288,64,178897,1,2,0:0:0:0:
456,16,179064,6,0,P|405:13|364:34,1,85,14|0,0:1|0:0,0:0:0:0:
316,228,179397,2,0,P|343:186|345:139,1,85,10|0,0:2|0:0,0:0:0:0:
224,148,179731,1,10,0:1:0:0:
332,312,179897,1,8,0:1:0:0:
424,88,180064,1,12,0:2:0:0:
424,88,180397,6,0,L|448:176,1,85,12|2,0:1|0:0,0:0:0:0:
480,284,180731,1,10,0:2:0:0:
316,228,180897,1,10,0:1:0:0:
380,384,181064,1,10,0:2:0:0:
404,204,181231,2,0,L|394:288,1,85,10|8,0:1|0:2,0:0:0:0:
316,132,181564,1,10,0:1:0:0:
268,312,181731,6,0,P|239:282|224:242,1,85,10|8,0:2|0:1,0:0:0:0:
216,80,182064,2,0,P|224:124|204:184,1,85,10|8,0:2|0:1,0:0:0:0:
124,284,182397,1,10,0:2:0:0:
124,120,182564,1,8,0:1:0:0:
124,120,182647,1,8,0:1:0:0:
124,120,182731,2,0,L|44:160,1,85,10|0,0:3|0:0,0:0:0:0:
240,336,183064,6,0,B|280:316|280:316|320:336|360:312|360:312|400:328,1,170,14|8,0:1|0:2,0:0:0:0:
316,244,183564,1,2,0:0:0:0:
152,356,183731,1,10,0:1:0:0:
184,192,183897,2,0,P|172:232|176:274,1,85,8|8,0:1|0:2,0:0:0:0:
398,327,184231,6,0,P|424:240|392:160,1,170,10|10,0:1|0:1,0:0:0:0:
308,356,184731,1,8,0:2:0:0:
256,164,184897,2,0,P|286:78|359:32,1,170,10|10,0:1|0:1,0:0:0:0:
456,88,185397,1,12,0:2:0:0:
316,244,185564,1,2,0:0:0:0:
180,84,185731,6,0,P|168:120|168:172,1,85,14|0,0:1|0:0,0:0:0:0:
216,264,186064,1,8,0:2:0:0:
268,40,186231,1,2,0:0:0:0:
167,166,186397,1,10,0:1:0:0:
336,108,186564,1,8,0:1:0:0:
192,0,186731,1,8,0:2:0:0:
284,200,186897,6,0,B|228:88|228:88|232:144,1,170,10|10,0:1|0:1,0:0:0:0:
208,292,187397,1,4,0:3:0:0:
108,336,187564,1,10,0:3:0:0:
208,292,187731,1,4,0:3:0:0:
12,296,187897,5,10,0:2:0:0:
192,380,188064,1,8,0:2:0:0:
92,124,188231,1,8,0:2:0:0:
108,336,188397,6,0,P|99:288|109:246,1,85,12|2,0:1|0:0,0:0:0:0:
188,180,188731,1,10,0:2:0:0:
192,380,188897,1,2,0:0:0:0:
106,253,189064,1,10,0:1:0:0:
216,100,189231,2,0,P|167:97|133:114,1,85,10|8,0:1|0:2,0:0:0:0:
196,288,189564,1,2,0:0:0:0:
368,192,189731,6,0,L|380:288,1,85,14|0,0:1|0:0,0:0:0:0:
256,72,190064,2,0,L|244:168,1,85,10|0,0:2|0:0,0:0:0:0:
376,40,190397,1,10,0:1:0:0:
272,252,190564,1,8,0:1:0:0:
192,16,190731,1,12,0:2:0:0:
192,16,191064,6,0,P|212:64|212:104,1,85,12|2,0:1|0:0,0:0:0:0:
144,188,191397,1,10,0:2:0:0:
80,76,191564,1,10,0:1:0:0:
104,324,191731,1,10,0:2:0:0:
36,176,191897,2,0,P|16:224|16:264,1,85,10|8,0:1|0:2,0:0:0:0:
104,324,192231,1,10,0:1:0:0:
164,96,192397,5,10,0:2:0:0:
128,216,192564,1,8,0:3:0:0:
128,216,192647,1,8,0:3:0:0:
128,216,192731,2,0,P|176:188|216:192,1,85,4|8,0:3|0:3,0:0:0:0:
312,272,193064,5,10,0:2:0:0:
312,272,193175,2,0,L|324:204,1,56.6666666666667,8|4,0:3|0:3,0:0:0:0:
412,112,193397,5,10,0:3:0:0:
412,112,193508,2,0,L|400:180,1,56.6666666666667,4|4,0:3|0:3,0:0:0:0:
360,352,193731,6,0,B|301:365|301:365|248:348|248:348|176:360,1,170,14|8,0:1|0:2,0:0:0:0:
88,336,194231,1,10,0:1:0:0:
168,136,194397,1,10,0:2:0:0:
204,252,194564,1,8,0:1:0:0:
40,124,194731,1,10,0:2:0:0:
256,72,194897,6,0,P|220:36|100:52,1,170,14|8,0:1|0:1,0:0:0:0:
92,228,195397,1,8,0:2:0:0:
256,176,195564,2,0,P|296:184|336:208,1,85,2|8,0:0|0:1,0:0:0:0:
368,312,195897,1,10,0:1:0:0:
160,304,196064,2,0,P|168:264|192:224,1,85,10|2,0:2|0:0,0:0:0:0:
380,64,196397,6,0,B|404:104|404:104|388:140|388:140|428:184|424:232,1,170,14|8,0:1|0:2,0:0:0:0:
368,312,196897,1,10,0:1:0:0:
268,112,197064,1,8,0:2:0:0:
252,296,197231,1,10,0:1:0:0:
423,214,197397,1,8,0:2:0:0:
208,196,197564,6,0,B|148:182|148:182|100:224|68:208|68:208|100:176,1,170,14|10,0:1|0:1,0:0:0:0:
156,88,198064,2,0,L|240:112,1,85,10|2,0:2|0:0,0:0:0:0:
352,244,198397,1,8,0:1:0:0:
252,296,198564,1,8,0:1:0:0:
336,96,198731,1,10,0:2:0:0:
336,96,199064,5,14,0:1:0:0:
352,244,199231,1,2,0:0:0:0:
260,180,199397,1,10,0:2:0:0:
428,148,199564,2,0,P|444:104|436:60,1,85,2|8,0:0|0:1,0:0:0:0:
228,72,199897,1,10,0:1:0:0:
260,180,200064,1,10,0:2:0:0:
320,12,200231,6,0,L|336:100,1,85,10|2,0:1|0:3,0:0:0:0:
360,284,200564,1,10,0:1:0:0:
264,228,200731,1,10,0:2:0:0:
440,224,200897,2,0,P|412:196|346:184,1,85,2|8,0:0|0:1,0:0:0:0:
264,228,201231,1,8,0:1:0:0:
440,340,201397,2,0,P|409:368|369:383,1,85,10|0,0:2|0:0,0:0:0:0:
128,324,201731,6,0,B|198:291|225:359|292:329,1,170,14|10,0:1|0:2,0:0:0:0:
344,232,202231,2,0,L|352:136,1,85,2|8,0:0|0:1,0:0:0:0:
248,56,202564,2,0,L|240:140,1,85,10|8,0:1|0:2,0:0:0:0:
128,324,202897,6,0,L|144:152,1,170,10|8,0:1|0:1,0:0:0:0:
128,44,203397,1,10,0:2:0:0:
143,154,203564,1,0,0:0:0:0:
48,120,203731,1,10,0:1:0:0:
48,120,203897,1,4,0:3:0:0:
228,84,204064,1,10,0:2:0:0:
128,44,204231,1,8,0:3:0:0:
120,248,204397,6,0,P|164:248|208:228,1,85,14|2,0:1|0:0,0:0:0:0:
280,152,204731,1,8,0:2:0:0:
252,320,204897,2,0,P|283:288|300:243,1,85,2|8,0:0|0:1,0:0:0:0:
224,64,205231,2,0,P|192:95|175:140,1,85,10|8,0:1|0:2,0:0:0:0:
384,204,205564,6,0,P|400:148|336:56,1,170,14|10,0:1|0:1,0:0:0:0:
280,152,206064,2,0,L|256:236,1,85,8|0,0:2|0:0,0:0:0:0:
224,64,206397,1,8,0:1:0:0:
224,64,206564,1,8,0:1:0:0:
280,152,206731,1,10,0:2:0:0:
116,48,206897,1,2,0:0:0:0:
168,228,207064,6,0,L|191:146,1,85,14|2,0:1|0:0,0:0:0:0:
308,60,207397,1,8,0:2:0:0:
336,224,207564,2,0,P|292:245|250:241,1,85,2|8,0:0|0:1,0:0:0:0:
128,344,207897,2,0,P|171:322|213:326,1,85,10|8,0:1|0:2,0:0:0:0:
455,313,208231,6,0,P|399:309|335:209,1,170,14|8,0:1|0:1,0:0:0:0:
376,120,208731,2,0,L|388:32,1,85,8|0,0:2|0:0,0:0:0:0:
432,216,209064,1,10,0:1:0:0:
292,148,209231,1,8,0:1:0:0:
453,83,209397,2,0,P|421:47|381:35,1,85,10|0,0:2|0:0,0:0:0:0:
220,112,209731,5,14,0:1:0:0:
176,212,209897,2,0,P|136:184|120:148,1,85,2|8,0:0|0:2,0:0:0:0:
276,216,210231,2,0,L|288:300,1,85,2|8,0:0|0:1,0:0:0:0:
220,112,210564,2,0,L|232:28,1,85,10|8,0:1|0:2,0:0:0:0:
388,232,210897,6,0,P|389:182|279:106,1,170,10|10,0:1|0:1,0:0:0:0:
276,216,211397,2,0,P|248:256|216:272,1,85,8|0,0:2|0:0,0:0:0:0:
40,232,211731,2,0,P|87:222|122:233,1,85,8|8,0:1|0:1,0:0:0:0:
188,360,212064,1,10,0:2:0:0:
84,320,212231,1,2,0:0:0:0:
200,188,212397,6,0,L|184:100,1,85,14|2,0:1|0:0,0:0:0:0:
88,52,212731,1,8,0:2:0:0:
152,264,212897,2,0,P|200:276|248:264,1,85,2|8,0:0|0:1,0:0:0:0:
376,124,213231,2,0,P|328:112|280:124,1,85,10|8,0:1|0:2,0:0:0:0:
328,364,213564,6,0,B|358:291|298:271|326:197,1,170,10|8,0:1|0:1,0:0:0:0:
432,188,214064,2,0,P|444:228|440:280,1,85,8|0,0:2|0:0,0:0:0:0:
236,324,214397,2,0,P|195:301|172:263,1,85,10|8,0:1|0:2,0:0:0:0:
180,240,214647,1,8,0:2:0:0:
200,216,214731,1,8,0:2:0:0:
320,164,214897,1,8,0:3:0:0:
328,364,215064,5,14,0:1:0:0:
256,192,215147,12,0,220397,0:0:0:0:
