osu file format v14

[General]
AudioFilename: ^^106.mp3
AudioLeadIn: 0
PreviewTime: 54065
Countdown: 0
SampleSet: Soft
StackLeniency: 0.5
Mode: 0
LetterboxInBreaks: 1
WidescreenStoryboard: 1

[Editor]
Bookmarks: 183064,193731,204397,215064,220397
DistanceSpacing: 1
BeatDivisor: 4
GridSize: 32
TimelineZoom: 3.2

[Metadata]
Title:Fly Away
TitleUnicode:フライアウェイ
Artist:KINEMA106
ArtistUnicode:キネマ106
Creator:Asagi
Version:Extra
Source:
Tags:featured artist fa kantai collection kancolle maikaze kalon. tom zany 艦隊これくしょん 艦これ 雪月花 setsugetsuka unitedwesin uws akitoshi -laura- corinn comiket c88 jpop j-pop pop jp japanese female vocalist vocals rock jrock j-rock
BeatmapID:865363
BeatmapSetID:397917

[Difficulty]
HPDrainRate:7
CircleSize:4.2
OverallDifficulty:8.5
ApproachRate:9.2
SliderMultiplier:1.8
SliderTickRate:2

[Events]
//Background and Video events
0,0,"maikaze.png",0,0
//Break Periods
2,161931,166131
//Storyboard Layer 0 (Background)
//Storyboard Layer 1 (Fail)
//Storyboard Layer 2 (Pass)
//Storyboard Layer 3 (Foreground)
//Storyboard Layer 4 (Overlay)
//Storyboard Sound Samples

[TimingPoints]
398,333.333333333333,4,2,1,40,1,0
1064,-100,4,2,2,45,0,0
1731,-125,4,2,3,55,0,0
22897,-125,4,2,3,55,0,0
22981,-125,4,2,3,5,0,0
23064,-100,4,2,1,75,0,1
23147,-100,4,2,1,75,0,0
23397,-100,4,2,4,75,0,0
23481,-100,4,2,2,75,0,0
23731,-100,4,2,4,75,0,0
23815,-100,4,2,2,75,0,0
24064,-100,4,2,4,75,0,0
24148,-100,4,2,2,75,0,0
24731,-100,4,2,8,75,0,0
24815,-100,4,2,2,75,0,0
25064,-100,4,2,8,75,0,0
25148,-100,4,2,2,75,0,0
25397,-100,4,2,8,75,0,0
25481,-100,4,2,2,75,0,0
25731,-100,4,2,3,75,0,0
26064,-100,4,2,4,75,0,0
26148,-100,4,2,2,75,0,0
26397,-100,4,2,4,75,0,0
26481,-100,4,2,2,75,0,0
26731,-100,4,2,4,75,0,0
26815,-100,4,2,2,75,0,0
27397,-100,4,2,8,75,0,0
27481,-100,4,2,2,75,0,0
27731,-100,4,2,8,75,0,0
27815,-100,4,2,2,75,0,0
28064,-100,4,2,8,75,0,0
28148,-100,4,2,2,75,0,0
28731,-100,4,2,4,75,0,0
28815,-100,4,2,2,75,0,0
29064,-100,4,2,4,75,0,0
29148,-100,4,2,2,75,0,0
29397,-100,4,2,4,75,0,0
29481,-100,4,2,2,75,0,0
29731,-100,4,2,4,75,0,0
29815,-100,4,2,2,75,0,0
30064,-100,4,2,4,75,0,0
30148,-100,4,2,2,75,0,0
30397,-100,4,2,4,75,0,0
30481,-100,4,2,2,75,0,0
30731,-100,4,2,4,75,0,0
30815,-100,4,2,2,75,0,0
31064,-100,4,2,3,75,0,0
31397,-100,4,2,4,75,0,0
31481,-100,4,2,2,75,0,0
31731,-100,4,2,4,75,0,0
31815,-100,4,2,2,75,0,0
32064,-100,4,2,4,75,0,0
32148,-100,4,2,2,75,0,0
32397,-100,4,2,4,75,0,0
32481,-100,4,2,2,75,0,0
32731,-100,4,2,4,75,0,0
32815,-100,4,2,2,75,0,0
33064,-100,4,2,4,75,0,0
33148,-100,4,2,2,75,0,0
33397,-100,4,2,4,75,0,0
33481,-100,4,2,2,75,0,0
33564,-100,4,2,3,75,0,0
33730,-100,4,2,1,70,0,0
33731,-111.111111111111,4,2,1,70,0,0
34064,-111.111111111111,4,2,6,70,0,0
34147,-111.111111111111,4,2,2,70,0,0
34397,-111.111111111111,4,2,6,70,0,0
34480,-111.111111111111,4,2,2,70,0,0
34731,-111.111111111111,4,2,6,70,0,0
34814,-111.111111111111,4,2,2,70,0,0
35064,-111.111111111111,4,2,6,70,0,0
35147,-111.111111111111,4,2,2,70,0,0
35397,-111.111111111111,4,2,6,70,0,0
35480,-111.111111111111,4,2,2,70,0,0
35731,-111.111111111111,4,2,6,70,0,0
35814,-111.111111111111,4,2,2,70,0,0
36064,-111.111111111111,4,2,6,70,0,0
36147,-111.111111111111,4,2,2,70,0,0
36397,-111.111111111111,4,2,6,70,0,0
36480,-111.111111111111,4,2,2,70,0,0
36731,-111.111111111111,4,2,6,70,0,0
36814,-111.111111111111,4,2,2,70,0,0
37064,-111.111111111111,4,2,6,70,0,0
37147,-111.111111111111,4,2,2,70,0,0
37397,-111.111111111111,4,2,6,70,0,0
37480,-111.111111111111,4,2,2,70,0,0
37731,-111.111111111111,4,2,6,70,0,0
37814,-111.111111111111,4,2,2,70,0,0
38064,-111.111111111111,4,2,6,70,0,0
38147,-111.111111111111,4,2,2,70,0,0
38397,-111.111111111111,4,2,6,70,0,0
38480,-111.111111111111,4,2,2,70,0,0
38731,-111.111111111111,4,2,6,70,0,0
38814,-111.111111111111,4,2,2,70,0,0
39397,-111.111111111111,4,2,6,70,0,0
39480,-111.111111111111,4,2,2,70,0,0
39731,-111.111111111111,4,2,6,70,0,0
39814,-111.111111111111,4,2,2,70,0,0
40064,-111.111111111111,4,2,6,70,0,0
40147,-111.111111111111,4,2,2,70,0,0
40397,-111.111111111111,4,2,6,70,0,0
40480,-111.111111111111,4,2,2,70,0,0
40731,-111.111111111111,4,2,6,70,0,0
40814,-111.111111111111,4,2,2,70,0,0
41064,-111.111111111111,4,2,6,70,0,0
41147,-111.111111111111,4,2,2,70,0,0
41397,-111.111111111111,4,2,6,70,0,0
41480,-111.111111111111,4,2,2,70,0,0
41731,-111.111111111111,4,2,6,70,0,0
41814,-111.111111111111,4,2,2,70,0,0
42064,-111.111111111111,4,2,6,70,0,0
42147,-111.111111111111,4,2,2,70,0,0
42397,-111.111111111111,4,2,6,70,0,0
42480,-111.111111111111,4,2,2,70,0,0
42731,-111.111111111111,4,2,6,70,0,0
42814,-111.111111111111,4,2,2,70,0,0
43064,-111.111111111111,4,2,6,70,0,0
43147,-111.111111111111,4,2,2,70,0,0
43397,-111.111111111111,4,2,6,70,0,0
43480,-111.111111111111,4,2,2,70,0,0
43731,-111.111111111111,4,2,6,70,0,0
43814,-111.111111111111,4,2,2,70,0,0
44064,-111.111111111111,4,2,6,70,0,0
44147,-111.111111111111,4,2,2,70,0,0
44397,-111.111111111111,4,2,3,70,0,0
44731,-111.111111111111,4,2,4,70,0,0
44814,-111.111111111111,4,2,2,70,0,0
45064,-111.111111111111,4,2,4,70,0,0
45147,-111.111111111111,4,2,2,70,0,0
45398,-111.111111111111,4,2,4,70,0,0
45481,-111.111111111111,4,2,2,70,0,0
45731,-111.111111111111,4,2,4,70,0,0
45814,-111.111111111111,4,2,2,70,0,0
46064,-111.111111111111,4,2,4,70,0,0
46147,-111.111111111111,4,2,2,70,0,0
46398,-111.111111111111,4,2,4,70,0,0
46481,-111.111111111111,4,2,2,70,0,0
46731,-111.111111111111,4,2,4,70,0,0
46814,-111.111111111111,4,2,2,70,0,0
47064,-111.111111111111,4,2,4,70,0,0
47147,-111.111111111111,4,2,2,70,0,0
47398,-111.111111111111,4,2,4,70,0,0
47481,-111.111111111111,4,2,2,70,0,0
47731,-111.111111111111,4,2,4,70,0,0
47814,-111.111111111111,4,2,2,70,0,0
48064,-111.111111111111,4,2,4,70,0,0
48147,-111.111111111111,4,2,2,70,0,0
48398,-111.111111111111,4,2,4,70,0,0
48481,-111.111111111111,4,2,2,70,0,0
48731,-111.111111111111,4,2,4,70,0,0
48814,-111.111111111111,4,2,2,70,0,0
49064,-111.111111111111,4,2,4,70,0,0
49147,-111.111111111111,4,2,2,70,0,0
49398,-111.111111111111,4,2,4,70,0,0
49481,-111.111111111111,4,2,2,70,0,0
50064,-111.111111111111,4,2,4,70,0,0
50147,-111.111111111111,4,2,2,70,0,0
50398,-111.111111111111,4,2,4,70,0,0
50481,-111.111111111111,4,2,2,70,0,0
50731,-111.111111111111,4,2,4,70,0,0
50814,-111.111111111111,4,2,2,70,0,0
51064,-111.111111111111,4,2,4,70,0,0
51147,-111.111111111111,4,2,2,70,0,0
51398,-111.111111111111,4,2,4,70,0,0
51481,-111.111111111111,4,2,2,70,0,0
51731,-111.111111111111,4,2,4,70,0,0
51814,-111.111111111111,4,2,2,70,0,0
52064,-111.111111111111,4,2,4,70,0,0
52147,-111.111111111111,4,2,2,70,0,0
52398,-111.111111111111,4,2,4,70,0,0
52481,-111.111111111111,4,2,2,70,0,0
52731,-111.111111111111,4,2,4,70,0,0
52814,-111.111111111111,4,2,2,70,0,0
53064,-111.111111111111,4,2,4,70,0,0
53147,-111.111111111111,4,2,2,70,0,0
53398,-111.111111111111,4,2,4,70,0,0
53481,-111.111111111111,4,2,2,70,0,0
53564,-111.111111111111,4,2,5,70,0,0
53731,-111.111111111111,4,2,2,70,0,0
54731,-111.111111111111,4,2,2,70,0,0
55064,-100,4,2,1,80,0,1
55397,-100,4,2,4,80,0,1
55481,-100,4,2,2,80,0,1
55731,-100,4,2,4,80,0,1
55815,-100,4,2,2,80,0,1
56064,-100,4,2,4,80,0,1
56148,-100,4,2,2,80,0,1
56731,-100,4,2,4,80,0,1
56815,-100,4,2,2,80,0,1
57397,-100,4,2,5,80,0,1
57731,-100,4,2,2,80,0,1
58064,-100,4,2,4,80,0,1
58148,-100,4,2,2,80,0,1
58397,-100,4,2,4,80,0,1
58481,-100,4,2,2,80,0,1
58731,-100,4,2,4,80,0,1
58815,-100,4,2,2,80,0,1
59397,-100,4,2,4,80,0,1
59481,-100,4,2,2,80,0,1
60231,-100,4,2,3,80,0,1
60731,-100,4,2,4,80,0,1
60815,-100,4,2,2,80,0,1
61064,-100,4,2,4,80,0,1
61148,-100,4,2,2,80,0,1
61397,-100,4,2,4,80,0,1
61481,-100,4,2,2,80,0,1
62064,-100,4,2,4,80,0,1
62148,-100,4,2,2,80,0,1
62397,-100,4,2,4,80,0,1
62481,-100,4,2,2,80,0,1
62731,-100,4,2,5,80,0,1
63064,-100,4,2,3,80,0,1
63231,-100,4,2,3,60,0,1
63397,-100,4,2,4,62,0,1
63481,-100,4,2,2,62,0,1
63731,-100,4,2,4,65,0,1
63815,-100,4,2,2,65,0,1
64064,-100,4,2,4,68,0,1
64148,-100,4,2,2,68,0,1
64397,-100,4,2,4,71,0,1
64481,-100,4,2,2,71,0,1
64731,-100,4,2,4,74,0,1
64815,-100,4,2,2,74,0,1
65064,-100,4,2,4,77,0,1
65148,-100,4,2,2,77,0,1
65397,-100,4,2,3,80,0,0
65731,-100,4,2,1,80,0,1
66064,-100,4,2,4,80,0,1
66148,-100,4,2,2,80,0,1
66397,-100,4,2,4,80,0,1
66481,-100,4,2,2,80,0,1
66731,-100,4,2,4,80,0,1
66815,-100,4,2,2,80,0,1
67397,-100,4,2,4,80,0,1
67481,-100,4,2,2,80,0,1
68064,-100,4,2,5,80,0,1
68397,-100,4,2,2,80,0,1
68731,-100,4,2,4,80,0,1
68815,-100,4,2,2,80,0,1
69064,-100,4,2,4,80,0,1
69148,-100,4,2,2,80,0,1
69397,-100,4,2,4,80,0,1
69481,-100,4,2,2,80,0,1
70231,-100,4,2,3,80,0,1
70397,-100,4,2,3,80,0,1
70564,-100,4,2,3,80,0,1
71397,-100,4,2,4,80,0,1
71481,-100,4,2,2,80,0,1
71731,-100,4,2,4,80,0,1
71815,-100,4,2,2,80,0,1
72064,-100,4,2,4,80,0,1
72148,-100,4,2,2,80,0,1
72731,-100,4,2,4,80,0,1
72815,-100,4,2,2,80,0,1
73064,-100,4,2,4,80,0,1
73148,-100,4,2,2,80,0,1
73397,-100,4,2,4,80,0,1
73481,-100,4,2,2,80,0,1
73731,-100,4,2,3,80,0,1
74064,-100,4,2,4,80,0,1
74148,-100,4,2,2,80,0,1
74397,-100,4,2,4,80,0,1
74481,-100,4,2,2,80,0,1
74731,-100,4,2,4,80,0,1
74815,-100,4,2,2,80,0,1
75064,-100,4,2,4,80,0,1
75148,-100,4,2,2,80,0,1
75564,-100,4,2,3,80,0,1
75731,-100,4,2,2,80,0,1
76064,-100,4,2,3,80,0,1
76397,-100,4,2,1,75,0,0
76730,-100,4,2,4,75,0,0
76814,-100,4,2,2,75,0,0
77064,-100,4,2,4,75,0,0
77148,-100,4,2,2,75,0,0
77397,-100,4,2,4,75,0,0
77481,-100,4,2,2,75,0,0
78064,-100,4,2,8,75,0,0
78148,-100,4,2,2,75,0,0
78397,-100,4,2,8,75,0,0
78481,-100,4,2,2,75,0,0
78730,-100,4,2,8,75,0,0
78814,-100,4,2,2,75,0,0
79064,-100,4,2,3,75,0,0
79397,-100,4,2,4,75,0,0
79481,-100,4,2,2,75,0,0
79730,-100,4,2,4,75,0,0
79814,-100,4,2,2,75,0,0
80064,-100,4,2,4,75,0,0
80148,-100,4,2,2,75,0,0
80730,-100,4,2,8,75,0,0
80814,-100,4,2,2,75,0,0
81064,-100,4,2,8,75,0,0
81148,-100,4,2,2,75,0,0
81397,-100,4,2,8,75,0,0
81481,-100,4,2,2,75,0,0
82064,-100,4,2,4,75,0,0
82148,-100,4,2,2,75,0,0
82397,-100,4,2,4,75,0,0
82481,-100,4,2,2,75,0,0
82730,-100,4,2,4,75,0,0
82814,-100,4,2,2,75,0,0
83064,-100,4,2,4,75,0,0
83148,-100,4,2,2,75,0,0
83397,-100,4,2,4,75,0,0
83481,-100,4,2,2,75,0,0
83730,-100,4,2,4,75,0,0
83814,-100,4,2,2,75,0,0
84064,-100,4,2,4,75,0,0
84148,-100,4,2,2,75,0,0
84397,-100,4,2,3,75,0,0
84730,-100,4,2,4,75,0,0
84814,-100,4,2,2,75,0,0
85064,-100,4,2,4,75,0,0
85148,-100,4,2,2,75,0,0
85397,-100,4,2,4,75,0,0
85481,-100,4,2,2,75,0,0
85730,-100,4,2,4,75,0,0
85814,-100,4,2,2,75,0,0
86064,-100,4,2,4,75,0,0
86148,-100,4,2,2,75,0,0
86397,-100,4,2,4,75,0,0
86481,-100,4,2,2,75,0,0
86730,-100,4,2,4,75,0,0
86814,-100,4,2,2,75,0,0
86897,-100,4,2,3,75,0,0
87064,-111.111111111111,4,2,1,70,0,0
87397,-111.111111111111,4,2,6,70,0,0
87480,-111.111111111111,4,2,2,70,0,0
87730,-111.111111111111,4,2,6,70,0,0
87813,-111.111111111111,4,2,2,70,0,0
88064,-111.111111111111,4,2,6,70,0,0
88147,-111.111111111111,4,2,2,70,0,0
88397,-111.111111111111,4,2,6,70,0,0
88480,-111.111111111111,4,2,2,70,0,0
88730,-111.111111111111,4,2,6,70,0,0
88813,-111.111111111111,4,2,2,70,0,0
89064,-111.111111111111,4,2,6,70,0,0
89147,-111.111111111111,4,2,2,70,0,0
89397,-111.111111111111,4,2,6,70,0,0
89480,-111.111111111111,4,2,2,70,0,0
89730,-111.111111111111,4,2,6,70,0,0
89813,-111.111111111111,4,2,2,70,0,0
90064,-111.111111111111,4,2,6,70,0,0
90147,-111.111111111111,4,2,2,70,0,0
90397,-111.111111111111,4,2,6,70,0,0
90480,-111.111111111111,4,2,2,70,0,0
90730,-111.111111111111,4,2,6,70,0,0
90813,-111.111111111111,4,2,2,70,0,0
91064,-111.111111111111,4,2,6,70,0,0
91147,-111.111111111111,4,2,2,70,0,0
91397,-111.111111111111,4,2,6,70,0,0
91480,-111.111111111111,4,2,2,70,0,0
91730,-111.111111111111,4,2,6,70,0,0
91813,-111.111111111111,4,2,2,70,0,0
92064,-111.111111111111,4,2,6,70,0,0
92147,-111.111111111111,4,2,2,70,0,0
92730,-111.111111111111,4,2,6,70,0,0
92813,-111.111111111111,4,2,2,70,0,0
93064,-111.111111111111,4,2,6,70,0,0
93147,-111.111111111111,4,2,2,70,0,0
93397,-111.111111111111,4,2,6,70,0,0
93480,-111.111111111111,4,2,2,70,0,0
93730,-111.111111111111,4,2,6,70,0,0
93813,-111.111111111111,4,2,2,70,0,0
94064,-111.111111111111,4,2,6,70,0,0
94147,-111.111111111111,4,2,2,70,0,0
94397,-111.111111111111,4,2,6,70,0,0
94480,-111.111111111111,4,2,2,70,0,0
94730,-111.111111111111,4,2,6,70,0,0
94813,-111.111111111111,4,2,2,70,0,0
95064,-111.111111111111,4,2,6,70,0,0
95147,-111.111111111111,4,2,2,70,0,0
95397,-111.111111111111,4,2,6,70,0,0
95480,-111.111111111111,4,2,2,70,0,0
95730,-111.111111111111,4,2,6,70,0,0
95813,-111.111111111111,4,2,2,70,0,0
96064,-111.111111111111,4,2,6,70,0,0
96147,-111.111111111111,4,2,2,70,0,0
96397,-111.111111111111,4,2,6,70,0,0
96480,-111.111111111111,4,2,2,70,0,0
96730,-111.111111111111,4,2,6,70,0,0
96813,-111.111111111111,4,2,2,70,0,0
97064,-111.111111111111,4,2,6,70,0,0
97147,-111.111111111111,4,2,2,70,0,0
97397,-111.111111111111,4,2,6,70,0,0
97480,-111.111111111111,4,2,2,70,0,0
97731,-111.111111111111,4,2,3,70,0,0
98065,-111.111111111111,4,2,4,70,0,0
98148,-111.111111111111,4,2,2,70,0,0
98398,-111.111111111111,4,2,4,70,0,0
98481,-111.111111111111,4,2,2,70,0,0
98732,-111.111111111111,4,2,4,70,0,0
98815,-111.111111111111,4,2,2,70,0,0
99065,-111.111111111111,4,2,4,70,0,0
99148,-111.111111111111,4,2,2,70,0,0
99398,-111.111111111111,4,2,4,70,0,0
99481,-111.111111111111,4,2,2,70,0,0
99732,-111.111111111111,4,2,4,70,0,0
99815,-111.111111111111,4,2,2,70,0,0
100065,-111.111111111111,4,2,4,70,0,0
100148,-111.111111111111,4,2,2,70,0,0
100398,-111.111111111111,4,2,4,70,0,0
100481,-111.111111111111,4,2,2,70,0,0
100732,-111.111111111111,4,2,4,70,0,0
100815,-111.111111111111,4,2,2,70,0,0
101065,-111.111111111111,4,2,4,70,0,0
101148,-111.111111111111,4,2,2,70,0,0
101398,-111.111111111111,4,2,4,70,0,0
101481,-111.111111111111,4,2,2,70,0,0
101732,-111.111111111111,4,2,4,70,0,0
101815,-111.111111111111,4,2,2,70,0,0
102065,-111.111111111111,4,2,4,70,0,0
102148,-111.111111111111,4,2,2,70,0,0
102398,-111.111111111111,4,2,4,70,0,0
102481,-111.111111111111,4,2,2,70,0,0
102732,-111.111111111111,4,2,4,70,0,0
102815,-111.111111111111,4,2,2,70,0,0
103398,-111.111111111111,4,2,4,70,0,0
103481,-111.111111111111,4,2,2,70,0,0
103732,-111.111111111111,4,2,4,70,0,0
103815,-111.111111111111,4,2,2,70,0,0
104065,-111.111111111111,4,2,4,70,0,0
104148,-111.111111111111,4,2,2,70,0,0
104398,-111.111111111111,4,2,4,70,0,0
104481,-111.111111111111,4,2,2,70,0,0
104732,-111.111111111111,4,2,4,70,0,0
104815,-111.111111111111,4,2,2,70,0,0
105065,-111.111111111111,4,2,4,70,0,0
105148,-111.111111111111,4,2,2,70,0,0
105398,-111.111111111111,4,2,4,70,0,0
105481,-111.111111111111,4,2,2,70,0,0
105732,-111.111111111111,4,2,4,70,0,0
105815,-111.111111111111,4,2,2,70,0,0
106065,-111.111111111111,4,2,4,70,0,0
106148,-111.111111111111,4,2,2,70,0,0
106398,-111.111111111111,4,2,4,70,0,0
106481,-111.111111111111,4,2,2,70,0,0
106732,-111.111111111111,4,2,4,70,0,0
106815,-111.111111111111,4,2,2,70,0,0
106898,-111.111111111111,4,2,5,70,0,0
107064,-111.111111111111,4,2,2,70,0,0
107397,-111.111111111111,4,2,5,70,0,0
107481,-111.111111111111,4,2,2,70,0,0
107731,-111.111111111111,4,2,3,70,0,0
108397,-125,4,2,1,70,0,0
108731,-125,4,2,7,70,0,0
108814,-125,4,2,2,70,0,0
109397,-125,4,2,7,70,0,0
109480,-125,4,2,2,70,0,0
110064,-125,4,2,7,70,0,0
110147,-125,4,2,2,70,0,0
110731,-125,4,2,7,70,0,0
110814,-125,4,2,2,70,0,0
111064,-125,4,2,1,70,0,0
111397,-125,4,2,7,70,0,0
111480,-125,4,2,2,70,0,0
112064,-125,4,2,7,70,0,0
112147,-125,4,2,2,70,0,0
112897,-125,4,2,3,70,0,0
113397,-125,4,2,5,70,0,0
113731,-125,4,2,1,70,0,0
114064,-125,4,2,7,70,0,0
114147,-125,4,2,2,70,0,0
114731,-125,4,2,7,70,0,0
114814,-125,4,2,2,70,0,0
115397,-125,4,2,7,70,0,0
115480,-125,4,2,2,70,0,0
116064,-125,4,2,3,70,0,0
116397,-100,4,2,1,70,0,0
116731,-100,4,2,4,61,0,0
116814,-100,4,2,2,61,0,0
117064,-100,4,2,4,64,0,0
117147,-100,4,2,2,64,0,0
117397,-100,4,2,4,67,0,0
117480,-100,4,2,2,67,0,0
117731,-100,4,2,2,70,0,0
117897,-100,4,2,2,70,0,0
119064,-100,4,2,1,80,0,1
119397,-100,4,2,4,80,0,1
119481,-100,4,2,2,80,0,1
119731,-100,4,2,4,80,0,1
119815,-100,4,2,2,80,0,1
120064,-100,4,2,4,80,0,1
120148,-100,4,2,2,80,0,1
120731,-100,4,2,4,80,0,1
120815,-100,4,2,2,80,0,1
121397,-100,4,2,5,80,0,1
121731,-100,4,2,2,80,0,1
122064,-100,4,2,4,80,0,1
122148,-100,4,2,2,80,0,1
122397,-100,4,2,4,80,0,1
122481,-100,4,2,2,80,0,1
122731,-100,4,2,4,80,0,1
122815,-100,4,2,2,80,0,1
123397,-100,4,2,4,80,0,1
123481,-100,4,2,2,80,0,1
124231,-100,4,2,3,80,0,1
124731,-100,4,2,4,80,0,1
124815,-100,4,2,2,80,0,1
125064,-100,4,2,4,80,0,1
125148,-100,4,2,2,80,0,1
125397,-100,4,2,4,80,0,1
125481,-100,4,2,2,80,0,1
126064,-100,4,2,4,80,0,1
126148,-100,4,2,2,80,0,1
126397,-100,4,2,4,80,0,1
126481,-100,4,2,2,80,0,1
126731,-100,4,2,5,80,0,1
127064,-100,4,2,3,80,0,1
127231,-100,4,2,3,60,0,1
127397,-100,4,2,4,62,0,1
127481,-100,4,2,2,62,0,1
127731,-100,4,2,4,65,0,1
127815,-100,4,2,2,65,0,1
128064,-100,4,2,4,68,0,1
128148,-100,4,2,2,68,0,1
128397,-100,4,2,4,71,0,1
128481,-100,4,2,2,71,0,1
128731,-100,4,2,4,74,0,1
128815,-100,4,2,2,74,0,1
129064,-100,4,2,4,77,0,1
129148,-100,4,2,2,77,0,1
129397,-100,4,2,3,80,0,0
129731,-100,4,2,1,80,0,1
130064,-100,4,2,4,80,0,1
130148,-100,4,2,2,80,0,1
130397,-100,4,2,4,80,0,1
130481,-100,4,2,2,80,0,1
130731,-100,4,2,4,80,0,1
130815,-100,4,2,2,80,0,1
131397,-100,4,2,4,80,0,1
131481,-100,4,2,2,80,0,1
132064,-100,4,2,5,80,0,1
132397,-100,4,2,2,80,0,1
132731,-100,4,2,4,80,0,1
132815,-100,4,2,2,80,0,1
133064,-100,4,2,4,80,0,1
133148,-100,4,2,2,80,0,1
133397,-100,4,2,4,80,0,1
133481,-100,4,2,2,80,0,1
134231,-100,4,2,3,80,0,1
134397,-100,4,2,3,80,0,1
134564,-100,4,2,3,80,0,1
135397,-100,4,2,4,80,0,1
135481,-100,4,2,2,80,0,1
135731,-100,4,2,4,80,0,1
135815,-100,4,2,2,80,0,1
136064,-100,4,2,4,80,0,1
136148,-100,4,2,2,80,0,1
136731,-100,4,2,4,80,0,1
136815,-100,4,2,2,80,0,1
137064,-100,4,2,4,80,0,1
137148,-100,4,2,2,80,0,1
137397,-100,4,2,4,80,0,1
137481,-100,4,2,2,80,0,1
137731,-100,4,2,3,80,0,1
138064,-100,4,2,4,80,0,1
138148,-100,4,2,2,80,0,1
138397,-100,4,2,4,80,0,1
138481,-100,4,2,2,80,0,1
138731,-100,4,2,4,80,0,1
138815,-100,4,2,2,80,0,1
139064,-100,4,2,4,80,0,1
139148,-100,4,2,2,80,0,1
140064,-100,4,2,2,80,0,0
140231,-100,4,2,3,80,0,0
140314,-100,4,2,3,5,0,0
140397,-100,4,2,3,75,0,1
140731,-100,4,2,4,75,0,1
140814,-100,4,2,2,75,0,1
141064,-100,4,2,4,75,0,1
141147,-100,4,2,2,75,0,1
141397,-100,4,2,4,75,0,1
141480,-100,4,2,2,75,0,1
142064,-100,4,2,4,75,0,1
142147,-100,4,2,2,75,0,1
142397,-100,4,2,4,75,0,1
142480,-100,4,2,2,75,0,1
142731,-100,4,2,4,75,0,1
142814,-100,4,2,2,75,0,1
143064,-100,4,2,3,75,0,1
143397,-100,4,2,4,75,0,1
143480,-100,4,2,2,75,0,1
143731,-100,4,2,4,75,0,1
143814,-100,4,2,2,75,0,1
144064,-100,4,2,4,75,0,1
144147,-100,4,2,2,75,0,1
144397,-111.111111111111,4,2,2,75,0,1
144731,-100,4,2,3,75,0,1
145064,-90.9090909090909,4,2,4,75,0,1
145147,-90.9090909090909,4,2,2,75,0,1
145397,-83.3333333333333,4,2,3,75,0,1
145647,-83.3333333333333,4,2,3,5,0,1
145731,-100,4,2,3,75,0,1
146064,-100,4,2,4,75,0,1
146147,-100,4,2,2,75,0,1
146397,-100,4,2,4,75,0,1
146480,-100,4,2,2,75,0,1
146731,-100,4,2,4,75,0,1
146814,-100,4,2,2,75,0,1
147397,-100,4,2,4,75,0,1
147480,-100,4,2,2,75,0,1
147731,-100,4,2,4,75,0,1
147814,-100,4,2,2,75,0,1
148064,-100,4,2,4,75,0,1
148147,-100,4,2,2,75,0,1
148397,-100,4,2,3,75,0,1
148731,-100,4,2,4,75,0,1
148814,-100,4,2,2,75,0,1
149064,-100,4,2,4,75,0,1
149147,-100,4,2,2,75,0,1
149397,-100,4,2,4,75,0,1
149480,-100,4,2,2,75,0,1
150064,-100,4,2,4,75,0,1
150147,-100,4,2,2,75,0,1
150397,-100,4,2,4,75,0,1
150480,-100,4,2,2,75,0,1
150731,-100,4,2,4,75,0,1
150814,-100,4,2,2,75,0,1
151064,-100,4,2,1,70,0,0
151397,-100,4,2,4,70,0,0
151481,-100,4,2,2,70,0,0
151731,-100,4,2,4,70,0,0
151815,-100,4,2,2,70,0,0
152064,-100,4,2,4,70,0,0
152148,-100,4,2,2,70,0,0
152731,-100,4,2,8,70,0,0
152815,-100,4,2,2,70,0,0
153064,-100,4,2,8,70,0,0
153148,-100,4,2,2,70,0,0
153397,-100,4,2,8,70,0,0
153481,-100,4,2,2,70,0,0
153731,-100,4,2,1,70,0,0
154064,-100,4,2,4,70,0,0
154148,-100,4,2,2,70,0,0
154398,-100,4,2,4,70,0,0
154482,-100,4,2,2,70,0,0
154731,-100,4,2,4,70,0,0
154815,-100,4,2,2,70,0,0
155398,-100,4,2,8,70,0,0
155482,-100,4,2,2,70,0,0
155731,-100,4,2,8,70,0,0
155815,-100,4,2,2,70,0,0
156064,-100,4,2,8,70,0,0
156148,-100,4,2,2,70,0,0
156397,-100,4,2,2,70,0,0
156731,-100,4,2,4,70,0,0
156815,-100,4,2,2,70,0,0
157064,-100,4,2,4,70,0,0
157148,-100,4,2,2,70,0,0
157397,-100,4,2,4,70,0,0
157481,-100,4,2,2,70,0,0
157731,-100,4,2,4,70,0,0
157815,-100,4,2,2,70,0,0
158064,-100,4,2,4,70,0,0
158148,-100,4,2,2,70,0,0
158397,-83.3333333333333,4,2,4,70,0,0
158481,-83.3333333333333,4,2,2,70,0,0
158647,-83.3333333333333,4,2,2,5,0,0
158731,-100,4,2,4,70,0,0
158814,-100,4,2,2,70,0,0
159064,-100,4,2,3,70,0,0
159397,-100,4,2,4,70,0,0
159481,-100,4,2,2,70,0,0
159731,-100,4,2,4,70,0,0
159815,-100,4,2,2,70,0,0
160064,-100,4,2,4,70,0,0
160148,-100,4,2,2,70,0,0
160397,-100,4,2,4,70,0,0
160481,-100,4,2,2,70,0,0
160731,-100,4,2,4,70,0,0
160815,-100,4,2,2,70,0,0
161564,-100,4,2,3,70,0,0
161730,-100,4,2,1,70,0,0
161814,-100,4,2,1,60,0,0
166731,-166.666666666667,4,2,3,65,0,0
166897,-166.666666666667,4,2,3,65,0,0
166980,-166.666666666667,4,2,3,5,0,0
167064,-125,4,2,2,70,0,0
167731,-125,4,2,3,70,0,0
168397,-125,4,2,2,70,0,0
169064,-125,4,2,3,70,0,0
169730,-125,4,2,4,58,0,0
169814,-125,4,2,2,58,0,0
170064,-125,4,2,4,61,0,0
170147,-125,4,2,2,61,0,0
170397,-125,4,2,4,64,0,0
170480,-125,4,2,2,64,0,0
170731,-125,4,2,4,67,0,0
170814,-125,4,2,2,67,0,0
171064,-125,4,2,2,70,0,0
172397,-95.2380952380952,4,2,1,80,0,1
172730,-95.2380952380952,4,2,4,80,0,1
172814,-95.2380952380952,4,2,2,80,0,1
173064,-95.2380952380952,4,2,4,80,0,1
173148,-95.2380952380952,4,2,2,80,0,1
173397,-95.2380952380952,4,2,4,80,0,1
173481,-95.2380952380952,4,2,2,80,0,1
174064,-95.2380952380952,4,2,4,80,0,1
174148,-95.2380952380952,4,2,2,80,0,1
174730,-95.2380952380952,4,2,5,80,0,1
175064,-95.2380952380952,4,2,2,80,0,1
175397,-95.2380952380952,4,2,4,80,0,1
175481,-95.2380952380952,4,2,2,80,0,1
175730,-95.2380952380952,4,2,4,80,0,1
175814,-95.2380952380952,4,2,2,80,0,1
176064,-95.2380952380952,4,2,4,80,0,1
176148,-95.2380952380952,4,2,2,80,0,1
176730,-95.2380952380952,4,2,4,80,0,1
176814,-95.2380952380952,4,2,2,80,0,1
177564,-95.2380952380952,4,2,3,80,0,1
178064,-95.2380952380952,4,2,4,80,0,1
178148,-95.2380952380952,4,2,2,80,0,1
178397,-95.2380952380952,4,2,4,80,0,1
178481,-95.2380952380952,4,2,2,80,0,1
178730,-95.2380952380952,4,2,4,80,0,1
178814,-95.2380952380952,4,2,2,80,0,1
179397,-95.2380952380952,4,2,4,80,0,1
179481,-95.2380952380952,4,2,2,80,0,1
179730,-95.2380952380952,4,2,4,80,0,1
179814,-95.2380952380952,4,2,2,80,0,1
180064,-95.2380952380952,4,2,5,80,0,1
180397,-95.2380952380952,4,2,3,80,0,1
180564,-95.2380952380952,4,2,3,60,0,1
180730,-95.2380952380952,4,2,4,62,0,1
180814,-95.2380952380952,4,2,2,62,0,1
181064,-95.2380952380952,4,2,4,65,0,1
181148,-95.2380952380952,4,2,2,65,0,1
181397,-95.2380952380952,4,2,4,68,0,1
181481,-95.2380952380952,4,2,2,68,0,1
181730,-95.2380952380952,4,2,4,71,0,1
181814,-95.2380952380952,4,2,2,71,0,1
182064,-95.2380952380952,4,2,4,74,0,1
182148,-95.2380952380952,4,2,2,74,0,1
182397,-95.2380952380952,4,2,4,77,0,1
182481,-95.2380952380952,4,2,2,77,0,1
182731,-95.2380952380952,4,2,3,80,0,0
183064,-95.2380952380952,4,2,1,80,0,1
183397,-95.2380952380952,4,2,4,80,0,1
183481,-95.2380952380952,4,2,2,80,0,1
183730,-95.2380952380952,4,2,4,80,0,1
183814,-95.2380952380952,4,2,2,80,0,1
184064,-95.2380952380952,4,2,4,80,0,1
184148,-95.2380952380952,4,2,2,80,0,1
184730,-95.2380952380952,4,2,4,80,0,1
184814,-95.2380952380952,4,2,2,80,0,1
185397,-95.2380952380952,4,2,5,80,0,1
185730,-95.2380952380952,4,2,2,80,0,1
186064,-95.2380952380952,4,2,4,80,0,1
186148,-95.2380952380952,4,2,2,80,0,1
186397,-95.2380952380952,4,2,4,80,0,1
186481,-95.2380952380952,4,2,2,80,0,1
186730,-95.2380952380952,4,2,4,80,0,1
186814,-95.2380952380952,4,2,2,80,0,1
187564,-95.2380952380952,4,2,3,80,0,1
187731,-95.2380952380952,4,2,3,80,0,1
187897,-95.2380952380952,4,2,3,80,0,1
188730,-95.2380952380952,4,2,4,80,0,1
188814,-95.2380952380952,4,2,2,80,0,1
189064,-95.2380952380952,4,2,4,80,0,1
189148,-95.2380952380952,4,2,2,80,0,1
189397,-95.2380952380952,4,2,4,80,0,1
189481,-95.2380952380952,4,2,2,80,0,1
190064,-95.2380952380952,4,2,4,80,0,1
190148,-95.2380952380952,4,2,2,80,0,1
190397,-95.2380952380952,4,2,4,80,0,1
190481,-95.2380952380952,4,2,2,80,0,1
190730,-95.2380952380952,4,2,4,80,0,1
190814,-95.2380952380952,4,2,2,80,0,1
191064,-95.2380952380952,4,2,3,80,0,1
191397,-95.2380952380952,4,2,4,80,0,1
191481,-95.2380952380952,4,2,2,80,0,1
191730,-95.2380952380952,4,2,4,80,0,1
191814,-95.2380952380952,4,2,2,80,0,1
192064,-95.2380952380952,4,2,4,80,0,1
192148,-95.2380952380952,4,2,2,80,0,1
192397,-95.2380952380952,4,2,4,80,0,1
192481,-95.2380952380952,4,2,2,80,0,1
192897,-95.2380952380952,4,2,3,80,0,1
193064,-95.2380952380952,4,2,2,80,0,1
193397,-95.2380952380952,4,2,3,80,0,1
193731,-95.2380952380952,4,2,1,75,0,0
194064,-95.2380952380952,4,2,4,75,0,0
194148,-95.2380952380952,4,2,2,75,0,0
194398,-95.2380952380952,4,2,4,75,0,0
194482,-95.2380952380952,4,2,2,75,0,0
194731,-95.2380952380952,4,2,4,75,0,0
194815,-95.2380952380952,4,2,2,75,0,0
195398,-95.2380952380952,4,2,8,75,0,0
195482,-95.2380952380952,4,2,2,75,0,0
195731,-95.2380952380952,4,2,8,75,0,0
195815,-95.2380952380952,4,2,2,75,0,0
196064,-95.2380952380952,4,2,8,75,0,0
196148,-95.2380952380952,4,2,2,75,0,0
196398,-95.2380952380952,4,2,3,75,0,0
196731,-95.2380952380952,4,2,4,75,0,0
196815,-95.2380952380952,4,2,2,75,0,0
197064,-95.2380952380952,4,2,4,75,0,0
197148,-95.2380952380952,4,2,2,75,0,0
197398,-95.2380952380952,4,2,4,75,0,0
197482,-95.2380952380952,4,2,2,75,0,0
198064,-95.2380952380952,4,2,8,75,0,0
198148,-95.2380952380952,4,2,2,75,0,0
198398,-95.2380952380952,4,2,8,75,0,0
198482,-95.2380952380952,4,2,2,75,0,0
198731,-95.2380952380952,4,2,8,75,0,0
198815,-95.2380952380952,4,2,2,75,0,0
199398,-95.2380952380952,4,2,4,75,0,0
199482,-95.2380952380952,4,2,2,75,0,0
199731,-95.2380952380952,4,2,4,75,0,0
199815,-95.2380952380952,4,2,2,75,0,0
200064,-95.2380952380952,4,2,4,75,0,0
200148,-95.2380952380952,4,2,2,75,0,0
200398,-95.2380952380952,4,2,4,75,0,0
200482,-95.2380952380952,4,2,2,75,0,0
200731,-95.2380952380952,4,2,4,75,0,0
200815,-95.2380952380952,4,2,2,75,0,0
201064,-95.2380952380952,4,2,4,75,0,0
201148,-95.2380952380952,4,2,2,75,0,0
201398,-95.2380952380952,4,2,4,75,0,0
201482,-95.2380952380952,4,2,2,75,0,0
201731,-95.2380952380952,4,2,3,75,0,0
202064,-95.2380952380952,4,2,4,75,0,0
202148,-95.2380952380952,4,2,2,75,0,0
202398,-95.2380952380952,4,2,4,75,0,0
202482,-95.2380952380952,4,2,2,75,0,0
202731,-95.2380952380952,4,2,4,75,0,0
202815,-95.2380952380952,4,2,2,75,0,0
203064,-95.2380952380952,4,2,4,75,0,0
203148,-95.2380952380952,4,2,2,75,0,0
203398,-95.2380952380952,4,2,4,75,0,0
203482,-95.2380952380952,4,2,2,75,0,0
203731,-95.2380952380952,4,2,4,75,0,0
203815,-95.2380952380952,4,2,2,75,0,0
204064,-95.2380952380952,4,2,4,75,0,0
204147,-95.2380952380952,4,2,2,75,0,0
204397,-95.2380952380952,4,2,1,70,0,0
204731,-95.2380952380952,4,2,4,70,0,0
204814,-95.2380952380952,4,2,2,70,0,0
205064,-95.2380952380952,4,2,4,70,0,0
205147,-95.2380952380952,4,2,2,70,0,0
205397,-95.2380952380952,4,2,4,70,0,0
205480,-95.2380952380952,4,2,2,70,0,0
206064,-95.2380952380952,4,2,4,70,0,0
206147,-95.2380952380952,4,2,2,70,0,0
206397,-95.2380952380952,4,2,4,70,0,0
206480,-95.2380952380952,4,2,2,70,0,0
206731,-95.2380952380952,4,2,4,70,0,0
206814,-95.2380952380952,4,2,2,70,0,0
207064,-95.2380952380952,4,2,3,70,0,0
207397,-95.2380952380952,4,2,4,70,0,0
207480,-95.2380952380952,4,2,2,70,0,0
207731,-95.2380952380952,4,2,4,70,0,0
207814,-95.2380952380952,4,2,2,70,0,0
208064,-95.2380952380952,4,2,4,70,0,0
208147,-95.2380952380952,4,2,2,70,0,0
208731,-95.2380952380952,4,2,4,70,0,0
208814,-95.2380952380952,4,2,2,70,0,0
209064,-95.2380952380952,4,2,4,70,0,0
209147,-95.2380952380952,4,2,2,70,0,0
209731,-95.2380952380952,4,2,1,70,0,0
210064,-95.2380952380952,4,2,4,70,0,0
210147,-95.2380952380952,4,2,2,70,0,0
210397,-95.2380952380952,4,2,4,70,0,0
210480,-95.2380952380952,4,2,2,70,0,0
210731,-95.2380952380952,4,2,4,70,0,0
210814,-95.2380952380952,4,2,2,70,0,0
211064,-95.2380952380952,4,2,4,70,0,0
211147,-95.2380952380952,4,2,2,70,0,0
211397,-95.2380952380952,4,2,4,70,0,0
211480,-95.2380952380952,4,2,2,70,0,0
211731,-95.2380952380952,4,2,4,70,0,0
211814,-95.2380952380952,4,2,2,70,0,0
212064,-95.2380952380952,4,2,4,70,0,0
212147,-95.2380952380952,4,2,2,70,0,0
212397,-95.2380952380952,4,2,3,70,0,0
212731,-95.2380952380952,4,2,4,70,0,0
212814,-95.2380952380952,4,2,2,70,0,0
213064,-95.2380952380952,4,2,4,70,0,0
213147,-95.2380952380952,4,2,2,70,0,0
213397,-95.2380952380952,4,2,4,70,0,0
213480,-95.2380952380952,4,2,2,70,0,0
213731,-95.2380952380952,4,2,4,70,0,0
213814,-95.2380952380952,4,2,2,70,0,0
214064,-95.2380952380952,4,2,4,70,0,0
214147,-95.2380952380952,4,2,2,70,0,0
214397,-95.2380952380952,4,2,4,70,0,0
214480,-95.2380952380952,4,2,2,70,0,0
214731,-95.2380952380952,4,2,4,70,0,0
214814,-95.2380952380952,4,2,2,70,0,0
214897,-95.2380952380952,4,2,3,70,0,0
215064,-95.2380952380952,4,2,1,75,0,0
216397,-95.2380952380952,4,2,1,75,0,0
217731,-95.2380952380952,4,2,1,75,0,0
219064,-95.2380952380952,4,2,1,75,0,0
219731,-95.2380952380952,4,2,1,75,0,0
220397,-95.2380952380952,4,2,1,75,0,0

[Colours]
Combo1 : 94,255,255
Combo2 : 254,160,33
Combo3 : 255,74,74
Combo4 : 254,224,14

[HitObjects]
128,316,1731,6,0,P|84:260|90:190,1,144,2|0,0:0|0:0,0:0:0:0:
172,144,2231,2,0,L|244:148,1,72,2|0,0:0|0:0,0:0:0:0:
176,232,2564,1,2,0:0:0:0:
92,108,2731,1,0,0:0:0:0:
176,232,2897,6,0,L|319:243,1,144,2|2,0:0|0:0,0:0:0:0:
400,232,3397,1,0,0:0:0:0:
372,308,3564,1,0,0:0:0:0:
344,168,3731,1,0,0:0:0:0:
480,216,3897,1,0,0:0:0:0:
319,243,4064,1,2,0:0:0:0:
319,243,4147,1,0,0:0:0:0:
319,243,4231,1,2,0:0:0:0:
436,112,4397,6,0,P|366:116|308:75,1,144,2|0,0:0|0:0,0:0:0:0:
192,184,4897,2,0,P|227:181|260:166,1,72,2|0,0:0|0:0,0:0:0:0:
216,20,5231,2,0,L|211:91,1,72,2|0,0:0|0:0,0:0:0:0:
128,252,5564,6,0,P|101:186|123:120,1,144,2|0,0:0|0:0,0:0:0:0:
210,91,6064,1,0,0:0:0:0:
276,144,6231,1,0,0:0:0:0:
200,176,6397,1,2,0:0:0:0:
288,60,6564,1,0,0:0:0:0:
336,208,6731,1,2,0:0:0:0:
200,176,6897,1,0,0:0:0:0:
360,120,7064,6,0,P|432:128|492:92,1,144,2|0,0:0|0:0,0:0:0:0:
512,260,7564,2,0,P|481:241|458:213,1,72,2|0,0:0|0:0,0:0:0:0:
336,320,7897,2,0,P|371:316|403:299,1,72,2|0,0:0|0:0,0:0:0:0:
336,224,8231,6,0,B|264:240|264:204|192:224,1,144,2|2,0:0|0:0,0:0:0:0:
300,144,8731,2,0,P|315:111|318:75,1,72
193,223,9064,2,0,P|199:256|218:290,1,72
332,352,9397,1,2,0:0:0:0:
296,228,9564,1,2,0:0:0:0:
144,348,9731,6,0,P|74:332|-4:324,1,144,2|0,0:0|0:0,0:0:0:0:
0,172,10231,2,0,P|18:202|45:227,1,72,2|0,0:0|0:0,0:0:0:0:
91,56,10564,2,0,P|91:91|99:126,1,72,2|0,0:0|0:0,0:0:0:0:
180,204,10897,6,0,P|249:216|311:183,1,144,2|0,0:0|0:0,0:0:0:0:
228,32,11397,1,0,0:0:0:0:
236,128,11564,1,0,0:0:0:0:
320,72,11731,6,0,P|355:67|391:62,1,72,2|0,0:0|0:0,0:0:0:0:
471,179,12064,2,0,P|442:159|407:152,1,72,2|0,0:0|0:0,0:0:0:0:
336,232,12397,5,2,0:0:0:0:
408,324,12564,2,0,P|444:321|475:299,1,72,2|0,0:0|0:0,0:0:0:0:
335,232,12897,2,0,L|262:239,1,72,2|0,0:0|0:0,0:0:0:0:
92,176,13231,2,0,L|165:170,1,72,2|0,0:0|0:0,0:0:0:0:
256,332,13564,6,0,P|186:342|128:302,1,144,2|2,0:0|0:0,0:0:0:0:
200,180,14064,2,0,L|203:251,1,72
248,99,14397,1,0,0:0:0:0:
154,89,14564,1,0,0:0:0:0:
288,184,14731,1,2,0:0:0:0:
302,21,14897,1,2,0:0:0:0:
444,100,15064,6,0,L|440:176,1,72,2|2,0:0|0:0,0:0:0:0:
364,264,15397,1,0,0:0:0:0:
488,355,15564,2,0,P|499:322|493:286,1,72,2|0,0:0|0:0,0:0:0:0:
363,228,15897,2,0,P|328:227|292:224,1,72,2|0,0:0|0:0,0:0:0:0:
120,330,16231,6,0,P|189:337|245:295,1,144,2|0,0:0|0:0,0:0:0:0:
80,234,16731,1,0,0:0:0:0:
80,234,16897,1,0,0:0:0:0:
180,179,17064,2,0,L|168:249,1,72,2|0,0:0|0:0,0:0:0:0:
89,127,17397,2,0,L|76:57,1,72,2|0,0:0|0:0,0:0:0:0:
202,15,17731,5,2,0:0:0:0:
303,103,17897,2,0,P|338:104|376:92,1,72,2|0,0:0|0:0,0:0:0:0:
473,226,18231,2,0,P|437:219|408:197,1,72,2|0,0:0|0:0,0:0:0:0:
484,60,18564,2,0,P|479:95|475:131,1,72,2|0,0:0|0:0,0:0:0:0:
335,250,18897,6,0,P|264:237|192:233,1,144,2|2,0:0|0:0,0:0:0:0:
74,260,19397,1,0,0:0:0:0:
186,136,19564,1,0,0:0:0:0:
181,251,19731,6,0,L|173:324,1,72
270,158,20064,1,2,0:0:0:0:
164,244,20231,1,2,0:0:0:0:
64,150,20397,6,0,L|56:78,2,72,2|2|0,0:0|0:0|0:0,0:0:0:0:
164,244,20897,2,0,P|200:246|237:234,1,72,2|0,0:0|0:0,0:0:0:0:
345,359,21230,2,0,P|309:353|278:335,1,72,2|0,0:0|0:0,0:0:0:0:
340,192,21564,1,2,0:0:0:0:
340,192,22731,6,0,L|351:84,1,108,8|0,0:3|0:0,0:0:0:0:
364,223,23064,6,0,P|277:239|212:172,1,180,14|8,0:1|0:2,0:0:0:0:
360,56,23564,1,10,0:1:0:0:
260,284,23731,1,10,0:2:0:0:
244,68,23897,1,8,0:1:0:0:
424,156,24064,1,10,0:2:0:0:
214,180,24231,6,0,L|24:200,1,180,14|8,0:1|0:1,0:0:0:0:
189,370,24731,2,0,P|200:327|188:284,1,90,8|2,0:2|0:0,0:0:0:0:
130,108,25064,1,8,0:1:0:0:
105,325,25231,1,10,0:1:0:0:
282,239,25397,2,0,P|326:234|371:230,1,90,10|2,0:2|0:0,0:0:0:0:
172,12,25731,6,0,P|180:98|187:191,1,180,14|8,0:1|0:2,0:0:0:0:
374,356,26231,1,10,0:1:0:0:
434,178,26397,1,8,0:2:0:0:
247,353,26564,1,10,0:1:0:0:
328,115,26731,1,8,0:2:0:0:
357,359,26897,6,0,B|311:301|311:301|331:191,1,180,14|10,0:1|0:1,0:0:0:0:
421,2,27397,2,0,L|408:91,1,90,10|2,0:2|0:0,0:0:0:0:
432,272,27731,1,8,0:1:0:0:
512,81,27897,1,8,0:1:0:0:
312,132,28064,2,0,P|245:126|178:118,1,135,10|0,0:2|0:0,0:0:0:0:
143,131,28397,6,0,P|139:87|152:44,1,90,14|2,0:1|0:0,0:0:0:0:
312,132,28731,1,10,0:2:0:0:
152,224,28897,2,0,L|62:212,1,90,2|8,0:0|0:1,0:0:0:0:
232,96,29231,5,10,0:1:0:0:
152,224,29397,1,10,0:2:0:0:
324,180,29564,2,0,L|413:187,1,90,10|2,0:1|0:3,0:0:0:0:
332,296,29897,5,10,0:1:0:0:
212,152,30064,1,10,0:2:0:0:
189,318,30231,2,0,P|225:292|244:252,1,90,2|8,0:0|0:1,0:0:0:0:
224,48,30564,1,8,0:3:0:0:
224,48,30647,1,4,0:3:0:0:
224,48,30731,1,10,0:2:0:0:
152,224,30897,1,0,0:0:0:0:
34,117,31064,6,0,L|124:111,1,90,14|0,0:1|0:0,0:0:0:0:
328,16,31397,1,10,0:2:0:0:
228,135,31564,2,0,P|216:91|224:47,1,90,2|8,0:0|0:1,0:0:0:0:
396,156,31897,2,0,P|361:184|318:195,1,90,10|8,0:1|0:2,0:0:0:0:
48,232,32231,6,0,B|137:260|137:208|225:232,1,180,10|8,0:1|0:1,0:0:0:0:
252,384,32731,2,0,P|211:366|186:329,1,90,10|0,0:2|0:0,0:0:0:0:
292,168,33064,1,10,0:1:0:0:
396,240,33231,1,8,0:2:0:0:
392,268,33314,1,8,0:2:0:0:
388,296,33397,1,10,0:2:0:0:
480,144,33564,1,8,0:3:0:0:
288,288,33731,6,0,L|298:207,1,80.9999975280763,14|2,0:1|0:0,0:0:0:0:
288,104,34064,1,8,0:2:0:0:
396,56,34231,2,0,L|384:136,1,80.9999975280763,2|8,0:0|0:1,0:0:0:0:
416,236,34564,1,10,0:1:0:0:
480,144,34731,1,8,0:2:0:0:
297,207,34897,6,0,L|137:181,1,161.999995056153,10|10,0:1|0:1,0:0:0:0:
132,328,35397,2,0,L|212:296,1,80.9999975280763,8|0,0:2|0:0,0:0:0:0:
137,181,35731,1,8,0:1:0:0:
137,181,35897,1,8,0:1:0:0:
32,220,36064,2,0,L|40:300,1,80.9999975280763,10|2,0:2|0:0,0:0:0:0:
0,96,36397,6,0,P|62:144|140:134,1,161.999995056153,10|8,0:1|0:2,0:0:0:0:
241,0,36898,2,0,P|236:39|217:74,1,80.9999975280763,2|8,0:0|0:1,0:0:0:0:
148,308,37231,2,0,P|126:275|117:236,1,80.9999975280763,10|8,0:1|0:2,0:0:0:0:
272,216,37564,6,0,L|433:227,1,161.999995056153,10|8,0:1|0:1,0:0:0:0:
431,68,38064,2,0,P|411:102|384:132,1,80.9999975280763,8|0,0:2|0:0,0:0:0:0:
512,156,38397,1,10,0:1:0:0:
512,156,38564,1,8,0:1:0:0:
469,295,38731,2,0,P|443:264|432:225,1,80.9999975280763,10|0,0:2|0:0,0:0:0:0:
336,36,39064,6,0,P|341:116|344:197,1,161.999995056153,14|8,0:1|0:2,0:0:0:0:
352,328,39564,1,2,0:0:0:0:
433,226,39731,1,8,0:1:0:0:
272,280,39897,2,0,L|191:283,1,80.9999975280763,10|8,0:1|0:2,0:0:0:0:
84,368,40231,6,0,P|56:294|74:216,1,161.999995056153,10|10,0:1|0:1,0:0:0:0:
255,159,40731,2,0,L|171:167,1,80.9999975280763,8|0,0:2|0:0,0:0:0:0:
96,120,41064,1,8,0:1:0:0:
224,252,41231,1,8,0:1:0:0:
204,80,41397,2,0,L|197:-1,1,80.9999975280763,10|2,0:2|0:0,0:0:0:0:
255,159,41731,6,0,P|334:169|399:124,1,161.999995056153,10|8,0:1|0:2,0:0:0:0:
460,216,42231,1,2,0:0:0:0:
400,332,42397,2,0,P|378:298|372:258,1,80.9999975280763,8|10,0:1|0:1,0:0:0:0:
255,159,42731,1,8,0:2:0:0:
272,336,42897,6,0,P|276:254|283:174,1,161.999995056153,10|8,0:1|0:1,0:0:0:0:
140,112,43397,2,0,P|163:145|184:179,1,80.9999975280763,8|0,0:2|0:0,0:0:0:0:
248,80,43731,1,10,0:1:0:0:
176,280,43897,1,8,0:1:0:0:
136,31,44064,1,10,0:2:0:0:
136,31,44397,5,14,0:1:0:0:
333,110,44564,2,0,P|370:113|410:93,1,80.9999975280763,2|8,0:0|0:2,0:0:0:0:
152,189,44897,2,0,P|111:189|76:169,1,80.9999975280763,2|8,0:0|0:1,0:0:0:0:
239,21,45231,2,0,P|235:61|232:101,1,80.9999975280763,10|8,0:1|0:2,0:0:0:0:
287,332,45564,6,0,P|338:272|331:193,1,161.999995056153,10|10,0:1|0:1,0:0:0:0:
428,120,46064,2,0,L|511:128,1,80.9999975280763,8|0,0:2|0:0,0:0:0:0:
330,171,46397,1,8,0:1:0:0:
373,3,46564,1,8,0:1:0:0:
248,77,46731,2,0,L|167:66,1,80.9999975280763,10|2,0:2|0:0,0:0:0:0:
104,231,47064,5,10,0:1:0:0:
59,15,47231,1,2,0:0:0:0:
248,77,47397,1,10,0:2:0:0:
80,136,47564,2,0,L|0:124,1,80.9999975280763,2|8,0:0|0:1,0:0:0:0:
271,185,47897,2,0,L|355:173,1,80.9999975280763,10|8,0:1|0:2,0:0:0:0:
132,380,48231,6,0,P|93:310|105:231,1,161.999995056153,10|8,0:1|0:1,0:0:0:0:
272,280,48731,2,0,L|192:292,1,80.9999975280763,8|0,0:2|0:0,0:0:0:0:
271,185,49064,1,10,0:1:0:0:
368,316,49231,1,8,0:1:0:0:
452,228,49397,2,0,L|440:107,1,121.499996292114,10|0,0:2|0:0,0:0:0:0:
424,88,49731,6,0,L|504:82,1,80.9999975280763,14|2,0:1|0:0,0:0:0:0:
356,192,50064,1,8,0:2:0:0:
296,56,50231,2,0,L|212:64,1,80.9999975280763,2|8,0:0|0:1,0:0:0:0:
208,220,50564,2,0,P|235:188|263:160,1,80.9999975280763,10|8,0:1|0:2,0:0:0:0:
92,16,50897,6,0,L|108:184,1,161.999995056153,10|10,0:1|0:1,0:0:0:0:
60,300,51397,2,0,P|36:263|12:228,1,80.9999975280763,8|0,0:2|0:0,0:0:0:0:
184,136,51731,1,8,0:1:0:0:
201,311,51897,1,8,0:1:0:0:
64,104,52064,5,10,0:2:0:0:
260,220,52231,1,2,0:0:0:0:
212,64,52397,1,10,0:1:0:0:
108,236,52564,1,2,0:0:0:0:
304,312,52731,2,0,P|344:299|384:292,1,80.9999975280763,8|2,0:2|0:0,0:0:0:0:
276,116,53064,1,8,0:1:0:0:
201,311,53231,1,10,0:1:0:0:
132,60,53397,1,8,0:2:0:0:
312,192,53564,6,0,B|324:136|284:84|308:20,1,161.999995056153,14|8,0:1|0:2,0:0:0:0:
184,168,54064,1,10,0:2:0:0:
433,58,54231,1,8,0:2:0:0:
377,328,54397,5,10,0:1:0:0:
347,314,54481,1,8,0:1:0:0:
315,307,54564,1,8,0:2:0:0:
282,304,54647,1,8,0:2:0:0:
241,304,54731,1,10,0:3:0:0:
201,311,54814,1,4,0:3:0:0:
162,323,54897,1,8,0:2:0:0:
128,345,54981,1,8,0:2:0:0:
95,371,55064,6,0,P|37:306|44:218,1,180,14|8,0:1|0:2,0:0:0:0:
208,96,55564,1,2,0:0:0:0:
140,268,55731,1,10,0:1:0:0:
80,24,55897,1,8,0:1:0:0:
132,240,56064,1,8,0:2:0:0:
355,157,56231,6,0,P|295:93|207:95,1,180,10|10,0:1|0:1,0:0:0:0:
300,288,56731,1,8,0:2:0:0:
76,192,56897,2,0,B|165:164|165:216|253:190,1,180,10|10,0:1|0:1,0:0:0:0:
376,335,57397,2,0,P|339:308|299:287,1,90,12|2,0:2|0:0,0:0:0:0:
392,128,57731,6,0,P|394:171|399:217,1,90,14|0,0:1|0:0,0:0:0:0:
284,84,58064,2,0,P|312:48|338:12,1,90,8|2,0:2|0:0,0:0:0:0:
296,184,58397,1,10,0:1:0:0:
204,24,58564,1,8,0:1:0:0:
392,128,58731,1,8,0:2:0:0:
188,132,58897,6,0,L|8:120,1,180,10|10,0:1|0:1,0:0:0:0:
76,328,59397,1,8,0:2:0:0:
240,240,59564,2,0,L|150:234,1,90,10|0,0:1|0:0,0:0:0:0:
332,180,59897,1,10,0:3:0:0:
360,184,59981,1,8,0:3:0:0:
388,188,60064,1,4,0:3:0:0:
220,84,60231,1,8,0:3:0:0:
440,328,60397,6,0,P|455:286|452:241,1,90,12|2,0:1|0:0,0:0:0:0:
320,16,60731,1,10,0:2:0:0:
360,268,60897,1,2,0:0:0:0:
504,60,61064,1,10,0:1:0:0:
269,147,61231,2,0,L|179:139,1,90,10|8,0:1|0:2,0:0:0:0:
412,36,61564,1,2,0:0:0:0:
178,138,61731,6,0,P|165:96|171:52,1,90,14|0,0:1|0:0,0:0:0:0:
264,256,62064,2,0,P|264:300|241:338,1,90,10|0,0:2|0:0,0:0:0:0:
88,184,62397,1,10,0:1:0:0:
304,160,62564,1,8,0:1:0:0:
28,272,62731,1,12,0:2:0:0:
28,272,63064,5,12,0:1:0:0:
60,36,63231,1,2,0:0:0:0:
120,300,63397,5,10,0:2:0:0:
108,72,63564,1,10,0:1:0:0:
212,300,63731,5,10,0:2:0:0:
164,92,63897,1,10,0:1:0:0:
300,256,64064,5,8,0:2:0:0:
224,96,64231,1,10,0:1:0:0:
392,225,64397,6,0,P|400:268|389:311,1,90,10|8,0:2|0:1,0:0:0:0:
278,90,64731,2,0,P|265:48|277:5,1,90,10|8,0:2|0:1,0:0:0:0:
300,256,65064,5,10,0:2:0:0:
356,44,65231,1,8,0:1:0:0:
407,292,65397,1,10,0:3:0:0:
419,305,65731,6,0,P|330:292|240:282,1,180,14|8,0:1|0:2,0:0:0:0:
36,318,66231,1,2,0:0:0:0:
203,164,66397,1,10,0:1:0:0:
21,211,66564,1,8,0:1:0:0:
166,368,66731,1,8,0:2:0:0:
261,81,66897,6,0,P|175:73|102:133,1,180,10|10,0:1|0:1,0:0:0:0:
116,288,67397,1,8,0:2:0:0:
307,279,67564,2,0,P|284:195|204:164,1,180,10|10,0:1|0:1,0:0:0:0:
192,353,68064,2,0,P|211:313|209:268,1,90,12|2,0:2|0:0,0:0:0:0:
48,72,68397,6,0,P|37:117|51:159,1,90,14|0,0:1|0:0,0:0:0:0:
345,85,68731,2,0,P|300:87|255:92,1,90,8|2,0:2|0:0,0:0:0:0:
125,15,69064,1,10,0:1:0:0:
152,262,69231,1,8,0:1:0:0:
6,145,69397,1,8,0:2:0:0:
251,226,69564,6,0,P|272:140|243:56,1,180,10|10,0:1|0:1,0:0:0:0:
156,148,70064,1,4,0:3:0:0:
359,83,70231,1,10,0:3:0:0:
251,227,70397,1,4,0:3:0:0:
336,16,70564,5,10,0:2:0:0:
412,300,70731,1,8,0:2:0:0:
156,148,70897,1,8,0:2:0:0:
423,275,71064,6,0,P|467:268|512:265,1,90,12|2,0:1|0:0,0:0:0:0:
264,200,71397,1,10,0:2:0:0:
340,368,71564,1,2,0:0:0:0:
376,148,71731,1,10,0:1:0:0:
184,244,71897,2,0,P|172:196|180:154,1,90,10|8,0:1|0:2,0:0:0:0:
248,324,72231,1,2,0:0:0:0:
91,248,72397,6,0,P|47:250|2:256,1,90,14|0,0:1|0:0,0:0:0:0:
216,140,72731,2,0,P|171:135|126:129,1,90,10|0,0:2|0:0,0:0:0:0:
244,288,73064,1,10,0:1:0:0:
280,20,73231,1,8,0:1:0:0:
360,180,73397,1,12,0:2:0:0:
352,200,73731,5,12,0:1:0:0:
100,72,73897,1,2,0:0:0:0:
348,224,74064,5,10,0:2:0:0:
92,156,74231,1,10,0:1:0:0:
352,248,74397,5,10,0:2:0:0:
120,240,74563,1,10,0:1:0:0:
360,272,74731,5,8,0:2:0:0:
172,312,74897,1,10,0:1:0:0:
372,291,75064,6,0,P|416:286|461:285,1,90,10|8,0:2|0:3,0:0:0:0:
472,272,75314,1,8,0:3:0:0:
484,252,75397,2,0,P|496:208|480:160,1,90,4|8,0:3|0:3,0:0:0:0:
300,236,75731,6,0,P|288:262|284:294,2,60,10|8|4,0:2|0:3|0:3,0:0:0:0:
352,88,76064,2,0,P|364:56|364:12,2,60,10|4|4,0:3|0:3|0:3,0:0:0:0:
268,152,76397,6,0,P|181:163|112:104,1,180,14|8,0:1|0:2,0:0:0:0:
366,30,76897,1,10,0:1:0:0:
272,244,77064,1,10,0:2:0:0:
216,56,77231,1,8,0:1:0:0:
440,168,77397,1,10,0:2:0:0:
279,331,77564,6,0,L|267:151,1,180,14|8,0:1|0:1,0:0:0:0:
402,61,78064,2,0,L|376:148,1,90,8|2,0:2|0:0,0:0:0:0:
256,40,78397,1,8,0:1:0:0:
256,40,78564,1,10,0:1:0:0:
136,147,78731,2,0,L|108:56,1,90,10|2,0:2|0:0,0:0:0:0:
39,248,79064,6,0,P|129:253|219:263,1,180,14|8,0:1|0:2,0:0:0:0:
440,352,79564,1,10,0:1:0:0:
320,152,79731,1,8,0:2:0:0:
296,376,79897,1,10,0:1:0:0:
448,216,80064,1,8,0:2:0:0:
219,263,80231,6,0,P|129:253|39:248,1,180,14|10,0:1|0:1,0:0:0:0:
168,21,80731,2,0,P|182:62|173:106,1,90,10|2,0:2|0:0,0:0:0:0:
39,247,81064,1,8,0:1:0:0:
92,62,81231,1,8,0:1:0:0:
240,180,81397,2,0,P|304:184|374:191,1,135,10|0,0:2|0:0,0:0:0:0:
400,207,81731,6,0,P|402:163|406:118,1,90,14|2,0:1|0:0,0:0:0:0:
256,44,82064,1,10,0:2:0:0:
304,230,82231,2,0,L|300:275|296:320,1,90,2|8,0:0|0:1,0:0:0:0:
314,141,82564,5,10,0:1:0:0:
296,321,82731,1,10,0:2:0:0:
124,212,82897,2,0,L|213:220,1,90,10|2,0:1|0:3,0:0:0:0:
388,288,83231,5,10,0:1:0:0:
228,176,83397,1,10,0:2:0:0:
296,321,83564,2,0,B|292:268|320:196|314:142,1,180,2|8,0:0|0:3,0:0:0:0:
452,80,84064,2,0,P|427:114|407:158,1,90,10|0,0:2|0:0,0:0:0:0:
224,135,84397,6,0,P|216:91|205:48,1,90,14|0,0:1|0:0,0:0:0:0:
328,52,84731,1,10,0:2:0:0:
126,117,84897,2,0,P|79:113|38:101,1,90,2|8,0:0|0:1,0:0:0:0:
288,208,85231,2,0,P|332:205|375:192,1,90,10|8,0:1|0:2,0:0:0:0:
192,364,85564,6,0,P|104:364|44:296,1,180,10|8,0:1|0:1,0:0:0:0:
155,188,86064,2,0,P|149:232|146:277,1,90,10|0,0:2|0:0,0:0:0:0:
252,68,86397,1,10,0:1:0:0:
48,144,86564,1,8,0:2:0:0:
24,140,86647,1,8,0:2:0:0:
0,136,86731,1,10,0:2:0:0:
176,288,86897,1,8,0:3:0:0:
296,60,87064,6,0,L|288:140,1,80.9999975280763,14|2,0:1|0:0,0:0:0:0:
340,232,87397,1,8,0:2:0:0:
440,180,87564,2,0,L|382:122,1,80.9999975280763,2|8,0:0|0:1,0:0:0:0:
440,292,87897,1,10,0:1:0:0:
440,292,88064,1,8,0:2:0:0:
340,232,88231,6,0,L|178:216,1,161.999995056153,10|10,0:1|0:1,0:0:0:0:
176,372,88731,2,0,P|201:342|231:313,1,80.9999975280763,8|0,0:2|0:0,0:0:0:0:
104,284,89064,1,8,0:1:0:0:
104,284,89231,1,8,0:1:0:0:
156,138,89397,2,0,P|166:178|178:216,1,80.9999975280763,10|2,0:2|0:0,0:0:0:0:
264,160,89731,6,0,L|284:0,1,161.999995056153,10|8,0:1|0:2,0:0:0:0:
444,56,90231,2,0,P|405:58|365:74,1,80.9999975280763,2|8,0:0|0:1,0:0:0:0:
510,173,90564,2,0,P|475:152|435:149,1,80.9999975280763,10|8,0:1|0:2,0:0:0:0:
286,263,90897,6,0,P|365:248|446:239,1,161.999995056153,10|8,0:1|0:1,0:0:0:0:
257,101,91397,2,0,P|231:138|225:175,1,80.9999975280763,8|0,0:2|0:0,0:0:0:0:
364,208,91731,1,10,0:1:0:0:
364,208,91897,1,8,0:1:0:0:
298,343,92064,2,0,L|285:262,1,80.9999975280763,10|0,0:2|0:0,0:0:0:0:
122,321,92397,6,0,P|163:324|203:330,1,80.9999975280763,14|2,0:1|0:0,0:0:0:0:
232,160,92731,2,0,P|210:193|184:228,1,80.9999975280763,8|2,0:2|0:0,0:0:0:0:
80,176,93064,1,8,0:1:0:0:
180,80,93231,2,0,P|139:75|99:69,1,80.9999975280763,10|8,0:1|0:2,0:0:0:0:
232,160,93564,6,0,P|311:153|393:146,1,161.999995056153,10|10,0:1|0:1,0:0:0:0:
236,256,94064,2,0,P|195:259|155:263,1,80.9999975280763,8|0,0:2|0:0,0:0:0:0:
316,336,94397,1,8,0:1:0:0:
340,196,94564,1,8,0:1:0:0:
432,272,94731,2,0,L|512:264,1,80.9999975280763,10|2,0:2|0:0,0:0:0:0:
340,196,95064,5,10,0:1:0:0:
472,88,95231,2,0,P|471:127|457:167,1,80.9999975280763,2|8,0:0|0:2,0:0:0:0:
348,16,95564,2,0,P|364:53|367:94,1,80.9999975280763,2|8,0:0|0:1,0:0:0:0:
188,36,95897,2,0,P|230:50|258:74,1,80.9999975280763,10|8,0:1|0:2,0:0:0:0:
8,144,96231,6,0,L|172:132,1,161.999995056153,14|8,0:1|0:1,0:0:0:0:
204,300,96731,2,0,P|176:268|144:236,1,80.9999975280763,8|0,0:2|0:0,0:0:0:0:
260,208,97064,1,10,0:1:0:0:
88,316,97231,5,8,0:2:0:0:
173,141,97397,1,10,0:2:0:0:
212,376,97564,1,8,0:2:0:0:
173,140,97731,6,0,L|164:59,1,80.9999975280763,14|2,0:1|0:0,0:0:0:0:
116,264,98064,1,8,0:2:0:0:
260,208,98231,2,0,P|275:170|276:124,1,80.9999975280763,2|8,0:0|0:1,0:0:0:0:
368,24,98564,2,0,P|369:64|384:101,1,80.9999975280763,10|8,0:1|0:2,0:0:0:0:
512,192,98897,6,0,L|388:204,1,121.499996292114,10|0,0:1|0:0,0:0:0:0:
391,203,99231,1,10,0:1:0:0:
340,371,99397,2,0,P|357:335|384:306,1,80.9999975280763,8|0,0:2|0:0,0:0:0:0:
264,120,99731,2,0,P|284:154|288:194,1,80.9999975280763,8|8,0:1|0:1,0:0:0:0:
220,336,100064,1,10,0:2:0:0:
183,183,100231,1,2,0:0:0:0:
48,320,100397,6,0,P|83:312|128:309,1,80.9999975280763,10|2,0:1|0:0,0:0:0:0:
128,116,100731,1,8,0:2:0:0:
0,180,100897,2,0,P|34:200|73:211,1,80.9999975280763,2|8,0:0|0:1,0:0:0:0:
126,35,101231,2,0,P|119:75|127:115,1,80.9999975280763,10|8,0:1|0:2,0:0:0:0:
374,101,101564,6,0,P|294:88|215:67,1,161.999995056153,10|8,0:1|0:1,0:0:0:0:
200,272,102064,1,8,0:2:0:0:
268,160,102231,1,0,0:0:0:0:
84,179,102397,2,0,P|124:174|164:169,1,80.9999975280763,10|8,0:1|0:1,0:0:0:0:
258,326,102731,2,0,P|231:297|199:271,1,80.9999975280763,10|0,0:2|0:0,0:0:0:0:
304,100,103064,5,14,0:1:0:0:
376,200,103231,2,0,P|366:239|360:284,1,80.9999975280763,2|8,0:0|0:2,0:0:0:0:
456,103,103564,2,0,P|450:63|441:24,1,80.9999975280763,2|8,0:0|0:1,0:0:0:0:
472,268,103897,2,0,P|481:308|492:346,1,80.9999975280763,10|8,0:1|0:2,0:0:0:0:
375,199,104231,6,0,P|298:177|217:168,1,161.999995056153,10|8,0:1|0:1,0:0:0:0:
355,83,104731,2,0,P|395:79|435:75,1,80.9999975280763,8|0,0:2|0:0,0:0:0:0:
258,5,105064,1,8,0:1:0:0:
217,168,105231,1,8,0:1:0:0:
117,77,105397,2,0,L|36:84,1,80.9999975280763,10|0,0:2|0:0,0:0:0:0:
217,168,105731,5,10,0:1:0:0:
134,252,105897,2,0,P|107:222|101:182,1,80.9999975280763,2|8,0:0|0:2,0:0:0:0:
248,272,106231,2,0,L|234:351,1,80.9999975280763,2|8,0:0|0:1,0:0:0:0:
217,168,106564,2,0,L|231:88,1,80.9999975280763,10|8,0:1|0:2,0:0:0:0:
388,240,106897,6,0,P|324:287|247:271,1,161.999995056153,14|8,0:1|0:3,0:0:0:0:
304,196,107397,1,2,0:3:0:0:
408,352,107564,1,6,0:3:0:0:
496,260,107731,2,0,L|492:180,1,80.9999975280763,14|8,0:2|0:3,0:0:0:0:
392,28,108064,1,10,0:2:0:0:
480,76,108231,1,4,0:3:0:0:
480,76,108314,1,4,0:3:0:0:
480,76,108397,6,0,P|429:124|359:120,1,144,14|4,0:1|0:2,0:0:0:0:
244,104,108897,1,10,0:1:0:0:
186,22,109064,2,0,P|255:6|318:38,1,144,10|4,0:2|0:2,0:0:0:0:
112,80,109564,6,0,P|96:47|95:11,1,72,10|0,0:1|0:0,0:0:0:0:
176,144,109897,2,0,P|175:179|163:213,1,72,10|4,0:1|0:2,0:0:0:0:
108,280,110231,2,0,L|36:287,1,72,10|8,0:1|0:2,0:0:0:0:
163,213,110564,1,2,0:0:0:0:
208,304,110731,2,0,L|279:297,1,72,6|2,0:2|0:0,0:0:0:0:
496,344,111064,6,0,P|425:348|367:308,1,144,12|4,0:1|0:2,0:0:0:0:
256,184,111564,1,10,0:1:0:0:
328,376,111731,2,0,L|332:232,1,144,10|4,0:2|0:2,0:0:0:0:
455,204,112231,6,0,P|442:237|439:273,1,72,14|0,0:1|0:0,0:0:0:0:
312,80,112564,2,0,P|328:112|333:147,1,72,10|8,0:1|0:2,0:0:0:0:
456,18,112897,2,0,P|444:51|440:87,1,72,14|0,0:1|0:0,0:0:0:0:
364,240,113231,1,10,0:1:0:0:
324,32,113397,1,12,0:2:0:0:
324,32,113564,1,0,0:0:0:0:
140,136,113731,6,0,L|216:128,1,72,12|2,0:1|0:0,0:0:0:0:
320,292,114064,1,6,0:2:0:0:
196,224,114231,1,10,0:1:0:0:
196,224,114397,1,10,0:2:0:0:
300,72,114564,2,0,L|303:143,1,72,2|4,0:0|0:2,0:0:0:0:
255,275,114898,6,0,P|219:273|184:256,1,72,10|0,0:1|0:0,0:0:0:0:
438,216,115231,2,0,P|474:212|504:194,1,72,10|4,0:1|0:2,0:0:0:0:
344,112,115564,1,10,0:1:0:0:
352,240,115731,2,0,L|358:311,1,72,8|10,0:2|0:3,0:0:0:0:
358,311,115981,1,8,0:3:0:0:
358,311,116064,1,8,0:3:0:0:
456,360,116231,1,2,0:2:0:0:
176,236,116397,6,0,L|86:243,1,90,14|0,0:1|0:0,0:0:0:0:
352,128,116731,2,0,L|441:120,1,90,8|8,0:2|0:1,0:0:0:0:
152,132,117064,1,8,0:2:0:0:
360,252,117231,1,8,0:1:0:0:
252,16,117397,1,8,0:2:0:0:
256,279,117564,6,0,B|279:232|240:149|255:101,1,180,10|8,0:1|0:2,0:0:0:0:
255,102,118064,1,10,0:2:0:0:
255,102,119064,6,0,L|166:86,1,90,14|0,0:1|0:0,0:0:0:0:
10,204,119397,2,0,L|99:190,1,90,8|2,0:2|0:0,0:0:0:0:
255,102,119731,1,10,0:1:0:0:
90,302,119897,1,8,0:1:0:0:
122,58,120064,1,8,0:2:0:0:
257,219,120231,6,0,P|172:240|100:192,1,180,10|10,0:1|0:1,0:0:0:0:
296,96,120731,1,8,0:2:0:0:
216,312,120897,2,0,P|164:241|184:156,1,180,10|10,0:1|0:1,0:0:0:0:
320,284,121397,2,0,P|314:328|305:373,1,90,12|2,0:2|0:0,0:0:0:0:
296,96,121731,6,0,P|287:51|281:7,1,90,14|0,0:1|0:0,0:0:0:0:
424,252,122064,2,0,P|419:300|408:360,1,90,8|2,0:2|0:0,0:0:0:0:
434,111,122397,1,10,0:1:0:0:
320,284,122564,1,8,0:1:0:0:
512,189,122731,1,8,0:2:0:0:
299,187,122897,6,0,P|220:148|130:153,1,180,10|10,0:1|0:1,0:0:0:0:
48,296,123397,1,8,0:2:0:0:
233,337,123564,2,0,P|225:294|199:257,1,90,10|0,0:1|0:0,0:0:0:0:
311,135,123897,1,10,0:3:0:0:
305,161,123981,1,8,0:3:0:0:
299,187,124064,1,4,0:3:0:0:
208,48,124231,1,8,0:3:0:0:
422,179,124397,6,0,L|512:172,1,90,12|2,0:1|0:0,0:0:0:0:
364,92,124731,1,10,0:2:0:0:
396,280,124897,1,2,0:0:0:0:
464,76,125064,1,10,0:1:0:0:
296,160,125231,2,0,P|272:116|270:73,1,90,10|8,0:1|0:2,0:0:0:0:
422,179,125564,1,2,0:0:0:0:
232,284,125731,6,0,P|188:294|143:299,1,90,14|0,0:1|0:0,0:0:0:0:
383,175,126064,2,0,P|338:170|295:159,1,90,10|0,0:2|0:0,0:0:0:0:
428,265,126397,1,10,0:1:0:0:
444,72,126564,1,8,0:1:0:0:
255,271,126731,1,12,0:2:0:0:
255,271,127064,5,12,0:1:0:0:
384,16,127231,1,2,0:0:0:0:
211,287,127397,5,10,0:2:0:0:
416,116,127564,1,10,0:1:0:0:
167,299,127731,5,10,0:2:0:0:
312,120,127897,1,10,0:1:0:0:
123,311,128064,5,8,0:2:0:0:
316,232,128231,1,10,0:1:0:0:
51,371,128397,6,0,P|32:330|37:284,1,90,10|8,0:2|0:1,0:0:0:0:
167,11,128731,2,0,P|181:53|173:97,1,90,10|8,0:2|0:1,0:0:0:0:
123,311,129064,5,10,0:2:0:0:
87,62,129231,1,8,0:1:0:0:
214,347,129397,1,10,0:3:0:0:
224,321,129731,6,0,P|312:306|402:298,1,180,14|8,0:1|0:2,0:0:0:0:
508,208,130231,1,2,0:0:0:0:
300,182,130397,1,10,0:1:0:0:
464,353,130564,1,8,0:1:0:0:
456,124,130731,1,8,0:2:0:0:
248,40,130897,6,0,P|236:125|301:183,1,180,10|10,0:1|0:1,0:0:0:0:
416,56,131397,1,8,0:2:0:0:
328,276,131564,2,0,B|304:210|360:162|328:100,1,180,10|10,0:1|0:1,0:0:0:0:
416,232,132064,2,0,P|459:243|503:241,1,90,12|2,0:2|0:0,0:0:0:0:
247,143,132397,6,0,P|206:127|161:123,1,90,14|0,0:1|0:0,0:0:0:0:
428,112,132731,2,0,P|469:93|503:62,1,90,8|2,0:2|0:0,0:0:0:0:
264,16,133064,1,10,0:1:0:0:
348,212,133231,1,8,0:1:0:0:
376,4,133397,1,8,0:2:0:0:
247,143,133564,6,0,P|240:231|272:315,1,180,10|10,0:1|0:1,0:0:0:0:
444,296,134064,1,4,0:3:0:0:
348,212,134231,1,10,0:3:0:0:
368,372,134397,1,4,0:3:0:0:
333,65,134564,5,10,0:2:0:0:
459,315,134731,1,8,0:2:0:0:
478,115,134897,1,8,0:2:0:0:
271,313,135064,6,0,L|181:305,1,90,12|2,0:1|0:0,0:0:0:0:
0,288,135397,1,10,0:2:0:0:
170,129,135564,1,2,0:0:0:0:
96,368,135731,1,10,0:1:0:0:
48,79,135897,2,0,P|35:121|42:165,1,90,10|8,0:1|0:2,0:0:0:0:
181,305,136231,1,2,0:0:0:0:
316,96,136397,6,0,L|308:4,1,90,14|0,0:1|0:0,0:0:0:0:
172,216,136731,2,0,L|181:305,1,90,10|0,0:2|0:0,0:0:0:0:
368,188,137064,1,10,0:1:0:0:
216,40,137231,1,8,0:1:0:0:
280,284,137397,1,12,0:2:0:0:
280,284,137731,5,12,0:1:0:0:
144,64,137897,1,2,0:0:0:0:
316,276,138064,5,10,0:2:0:0:
96,132,138231,1,10,0:1:0:0:
348,268,138397,5,10,0:2:0:0:
100,216,138563,1,10,0:1:0:0:
380,260,138731,5,8,0:2:0:0:
140,288,138897,1,10,0:1:0:0:
412,252,139064,5,10,0:1:0:0:
208,336,139231,1,8,0:0:0:0:
340,152,139397,1,8,0:2:0:0:
344,368,139564,1,4,0:3:0:0:
216,200,139731,1,10,0:2:0:0:
420,260,139897,1,8,0:3:0:0:
420,260,139981,1,8,0:3:0:0:
419,260,140064,2,0,P|455:203|440:140,1,135,4|0,0:3|0:0,0:0:0:0:
368,72,140397,6,0,L|278:76,1,90,14|8,0:2|0:1,0:0:0:0:
92,160,140731,1,10,0:2:0:0:
240,248,140897,1,10,0:1:0:0:
184,120,141064,2,0,P|174:77|181:33,1,90,10|10,0:2|0:1,0:0:0:0:
240,248,141397,2,0,P|241:293|227:336,1,90,8|10,0:2|0:1,0:0:0:0:
48,260,141731,6,0,L|137:266,1,90,12|8,0:2|0:1,0:0:0:0:
324,312,142064,1,10,0:2:0:0:
216,136,142231,1,10,0:1:0:0:
226,334,142397,1,10,0:2:0:0:
316,184,142564,1,10,0:1:0:0:
406,335,142731,2,0,P|362:334|324:312,1,90,8|10,0:2|0:1,0:0:0:0:
440,176,143064,6,0,P|463:214|469:258,1,90,12|10,0:2|0:1,0:0:0:0:
316,184,143397,1,10,0:2:0:0:
468,72,143564,1,10,0:1:0:0:
384,248,143731,1,10,0:2:0:0:
368,52,143897,1,10,0:1:0:0:
368,52,144064,1,10,0:2:0:0:
500,164,144231,1,10,0:1:0:0:
286,94,144397,6,0,P|278:55|283:15,1,80.9999975280763,14|8,0:2|0:1,0:0:0:0:
384,159,144731,6,0,P|392:203|384:247,1,90,14|8,0:2|0:1,0:0:0:0:
196,129,145064,6,0,P|237:101|286:94,1,99.0000030212403,10|8,0:2|0:1,0:0:0:0:
298,314,145397,6,0,P|220:300|172:237,1,161.999995056153,14|0,0:2|0:0,0:0:0:0:
176,148,145731,6,0,L|179:58,1,90,14|8,0:2|0:1,0:0:0:0:
0,212,146064,2,0,P|44:216|86:201,1,90,8|10,0:2|0:1,0:0:0:0:
301,129,146397,2,0,P|235:118|176:148,1,135,10|2,0:2|0:0,0:0:0:0:
176,147,146731,2,0,L|172:236,1,90,8|10,0:2|0:1,0:0:0:0:
328,308,147064,6,0,P|290:282|257:252,1,90,12|10,0:2|0:1,0:0:0:0:
228,348,147397,1,10,0:2:0:0:
360,216,147564,1,10,0:1:0:0:
440,288,147731,2,0,P|434:332|426:376,1,90,10|10,0:2|0:1,0:0:0:0:
352,124,148064,2,0,P|343:79|337:35,1,90,10|8,0:2|0:1,0:0:0:0:
484,208,148397,6,0,B|408:188|384:232|307:205,1,180,14|8,0:2|0:2,0:0:0:0:
220,72,148897,1,10,0:1:0:0:
148,232,149064,2,0,P|181:204|218:176,1,90,8|8,0:2|0:1,0:0:0:0:
104,36,149397,2,0,P|114:77|123:123,1,90,10|8,0:2|0:1,0:0:0:0:
100,340,149731,6,0,P|41:274|41:186,1,180,14|8,0:2|0:2,0:0:0:0:
220,72,150231,1,8,0:1:0:0:
148,232,150397,1,10,0:2:0:0:
104,36,150564,2,0,P|114:77|123:123,1,90,8|8,0:3|0:2,0:0:0:0:
0,48,150897,1,4,0:3:0:0:
292,156,151064,6,0,L|472:124,1,180,14|10,0:1|0:2,0:0:0:0:
314,278,151564,1,10,0:1:0:0:
504,237,151731,1,10,0:2:0:0:
279,144,151897,1,10,0:1:0:0:
462,101,152064,1,10,0:2:0:0:
314,278,152231,6,0,L|138:244,1,180,14|10,0:1|0:1,0:0:0:0:
7,380,152731,2,0,P|46:358|90:335,1,90,10|2,0:2|0:0,0:0:0:0:
24,228,153064,1,8,0:1:0:0:
24,228,153231,1,10,0:1:0:0:
125,133,153397,2,0,L|139:221,1,90,10|0,0:2|0:0,0:0:0:0:
28,72,153731,6,0,P|115:85|189:37,1,180,14|10,0:1|0:2,0:0:0:0:
456,136,154231,1,10,0:1:0:0:
228,212,154397,1,10,0:2:0:0:
304,32,154564,1,10,0:1:0:0:
372,260,154731,1,10,0:2:0:0:
136,256,154897,6,0,P|127:209|140:164,1,90,14|0,0:1|0:0,0:0:0:0:
307,276,155231,2,0,P|272:303|229:316,1,90,10|8,0:1|0:2,0:0:0:0:
249,115,155564,2,0,P|288:137|316:171,1,90,2|8,0:0|0:1,0:0:0:0:
228,212,155897,1,10,0:1:0:0:
398,29,156064,1,10,0:2:0:0:
398,29,156397,5,14,0:1:0:0:
406,45,156481,1,0,0:0:0:0:
414,61,156564,2,0,L|406:117,1,45,2|2,0:0|0:0,0:0:0:0:
291,277,156731,5,10,0:2:0:0:
283,261,156815,1,0,0:0:0:0:
275,245,156898,2,0,L|283:189,1,45,2|2,0:0|0:0,0:0:0:0:
474,209,157064,5,10,0:1:0:0:
458,217,157148,1,0,0:0:0:0:
442,225,157231,2,0,L|386:217,1,45,10|2,0:1|0:0,0:0:0:0:
226,102,157398,5,10,0:2:0:0:
242,94,157482,1,0,0:0:0:0:
258,86,157565,2,0,L|314:94,1,45,10|2,0:1|0:0,0:0:0:0:
490,259,157731,6,0,L|434:251,1,45,2|0,0:3|0:0,0:0:0:0:
266,102,157897,2,0,L|322:110,1,45,10|2,0:1|0:0,0:0:0:0:
275,245,158064,6,0,L|283:189,1,45,10|0,0:2|0:0,0:0:0:0:
418,51,158230,2,0,L|410:107,1,45,2|0,0:0|0:0,0:0:0:0:
256,256,158397,6,0,B|145:241|145:241|190:220,1,161.999995056153,10|0,0:1|0:0,0:0:0:0:
353,170,158731,1,10,0:2:0:0:
353,170,158814,1,0,0:0:0:0:
353,170,158897,1,2,0:0:0:0:
353,170,158981,1,0,0:0:0:0:
353,170,159064,6,0,B|340:265,1,90,14|2,0:1|0:0,0:0:0:0:
372,50,159397,1,10,0:2:0:0:
512,153,159564,2,0,P|481:186|453:222,1,90,2|8,0:0|0:1,0:0:0:0:
244,202,159897,2,0,P|227:156|208:119,1,90,10|8,0:1|0:2,0:0:0:0:
371,51,160231,6,0,B|380:122|336:154|352:230,1,180,10|10,0:1|0:1,0:0:0:0:
448,380,160731,2,0,P|460:337|452:292,1,90,10|2,0:2|0:0,0:0:0:0:
280,84,161064,1,10,0:3:0:0:
364,328,161231,1,8,0:3:0:0:
424,88,161397,1,6,0:3:0:0:
232,236,161564,1,8,0:3:0:0:
152,20,161731,5,14,0:1:0:0:
384,104,166731,6,0,L|388:20,1,80.9999975280763,8|0,0:3|0:0,0:0:0:0:
400,128,167064,6,0,B|348:144|312:108|257:128,1,144,12|2,0:1|0:0,0:0:0:0:
115,255,167731,2,0,B|167:239|203:275|257:254,1,144,14|0,0:1|0:0,0:0:0:0:
257,127,168231,1,2,0:0:0:0:
115,255,168397,6,0,P|77:197|90:128,1,144,14|2,0:1|0:0,0:0:0:0:
400,255,169064,2,0,P|438:197|425:128,1,144,14|8,0:1|0:0,0:0:0:0:
424,127,169481,1,8,0:3:0:0:
424,127,169564,1,8,0:3:0:0:
167,157,169731,5,8,0:2:0:0:
175,57,169897,1,10,0:1:0:0:
347,177,170064,5,10,0:2:0:0:
251,213,170231,1,10,0:1:0:0:
263,21,170397,5,10,0:2:0:0:
347,77,170564,1,10,0:1:0:0:
156,172,170731,5,8,0:2:0:0:
128,23,170897,1,10,0:1:0:0:
342,154,171064,5,10,0:2:0:0:
288,372,171231,1,10,0:2:0:0:
288,372,172397,6,0,L|308:279,1,94.499997116089,14|0,0:1|0:0,0:0:0:0:
132,44,172731,2,0,L|152:137,1,94.499997116089,8|2,0:2|0:0,0:0:0:0:
184,328,173064,1,10,0:1:0:0:
280,88,173231,1,8,0:1:0:0:
80,256,173397,1,8,0:2:0:0:
344,180,173564,6,0,P|372:91|344:2,1,188.999994232178,10|10,0:1|0:1,0:0:0:0:
232,188,174064,1,8,0:2:0:0:
468,99,174231,2,0,B|280:88,1,188.999994232178,10|10,0:1|0:1,0:0:0:0:
296,284,174731,2,0,L|360:200,1,94.499997116089,12|2,0:2|0:0,0:0:0:0:
112,184,175064,6,0,L|152:272,1,94.499997116089,14|0,0:1|0:0,0:0:0:0:
240,96,175397,2,0,L|247:1,1,94.499997116089,8|2,0:2|0:0,0:0:0:0:
232,188,175731,1,10,0:1:0:0:
376,36,175897,1,8,0:1:0:0:
100,120,176064,1,8,0:2:0:0:
226,283,176231,6,0,B|212:232|252:148|240:96,1,188.999994232178,10|10,0:1|0:1,0:0:0:0:
112,304,176731,1,8,0:2:0:0:
324,248,176897,2,0,L|419:252,1,94.499997116089,10|0,0:1|0:0,0:0:0:0:
168,192,177231,1,10,0:3:0:0:
168,192,177314,1,8,0:3:0:0:
168,192,177397,1,4,0:3:0:0:
324,336,177564,1,8,0:3:0:0:
80,236,177731,6,0,P|71:189|81:144,1,94.499997116089,12|2,0:1|0:0,0:0:0:0:
272,36,178064,1,10,0:2:0:0:
168,192,178231,1,2,0:0:0:0:
152,8,178397,1,10,0:1:0:0:
264,192,178564,2,0,P|254:237|225:274,1,94.499997116089,10|8,0:1|0:2,0:0:0:0:
192,96,178897,1,2,0:0:0:0:
368,180,179064,6,0,L|464:176,1,94.499997116089,14|0,0:1|0:0,0:0:0:0:
225,274,179397,2,0,L|130:278,1,94.499997116089,10|0,0:2|0:0,0:0:0:0:
272,164,179731,1,10,0:1:0:0:
268,368,179897,1,8,0:1:0:0:
196,100,180064,1,12,0:2:0:0:
188,76,180397,5,12,0:1:0:0:
268,368,180564,1,2,0:0:0:0:
180,52,180731,5,10,0:2:0:0:
328,292,180897,1,10,0:1:0:0:
172,24,181064,5,10,0:2:0:0:
204,288,181231,1,10,0:1:0:0:
164,0,181397,5,8,0:2:0:0:
268,220,181564,1,10,0:1:0:0:
61,105,181731,6,0,P|45:61|55:11,1,94.499997116089,10|8,0:2|0:1,0:0:0:0:
204,288,182064,2,0,P|212:339|196:380,1,94.499997116089,10|8,0:2|0:1,0:0:0:0:
144,56,182397,5,10,0:2:0:0:
120,320,182564,1,8,0:1:0:0:
54,17,182731,1,10,0:3:0:0:
71,35,183064,6,0,L|259:14,1,188.999994232178,14|8,0:1|0:2,0:0:0:0:
420,272,183564,1,2,0:0:0:0:
276,168,183731,1,10,0:1:0:0:
448,24,183897,1,8,0:1:0:0:
416,313,184064,1,8,0:2:0:0:
212,256,184231,6,0,P|172:172|204:86,1,188.999994232178,10|10,0:1|0:1,0:0:0:0:
336,264,184731,1,8,0:2:0:0:
90,168,184897,2,0,B|183:140|183:192|276:167,1,188.999994232178,10|10,0:1|0:1,0:0:0:0:
416,313,185397,2,0,L|336:264,1,94.499997116089,12|2,0:2|0:0,0:0:0:0:
432,72,185731,6,0,P|444:118|437:164,1,94.499997116089,14|0,0:1|0:0,0:0:0:0:
244,68,186064,2,0,P|278:36|323:20,1,94.499997116089,8|2,0:2|0:0,0:0:0:0:
228,200,186397,1,10,0:1:0:0:
140,8,186564,1,8,0:1:0:0:
348,144,186731,1,8,0:2:0:0:
180,304,186897,6,0,P|127:227|140:136,1,188.999994232178,10|10,0:1|0:1,0:0:0:0:
244,68,187397,1,4,0:3:0:0:
228,200,187564,1,10,0:3:0:0:
140,8,187731,1,4,0:3:0:0:
328,112,187897,5,10,0:2:0:0:
180,304,188064,1,8,0:2:0:0:
140,8,188231,1,8,0:2:0:0:
196,288,188397,6,0,L|189:382,1,94.499997116089,12|2,0:1|0:0,0:0:0:0:
288,128,188731,1,10,0:2:0:0:
288,360,188897,1,2,0:0:0:0:
132,168,189064,1,10,0:1:0:0:
386,265,189231,2,0,L|486:269,1,94.499997116089,10|8,0:1|0:2,0:0:0:0:
228,200,189564,1,2,0:0:0:0:
468,360,189731,6,0,P|485:314|480:268,1,94.499997116089,14|0,0:1|0:0,0:0:0:0:
291,6,190064,2,0,P|273:49|278:96,1,94.499997116089,10|0,0:2|0:0,0:0:0:0:
398,299,190397,1,10,0:1:0:0:
364,62,190564,1,8,0:1:0:0:
312,332,190731,1,12,0:2:0:0:
312,332,191064,5,12,0:1:0:0:
456,92,191230,1,2,0:0:0:0:
276,320,191397,5,10,0:2:0:0:
501,170,191564,1,10,0:1:0:0:
244,308,191730,5,10,0:2:0:0:
493,258,191896,1,10,0:1:0:0:
208,296,192064,5,8,0:2:0:0:
449,330,192230,1,10,0:1:0:0:
176,284,192397,6,0,L|81:290,1,94.499997116089,10|8,0:2|0:3,0:0:0:0:
68,284,192647,1,8,0:3:0:0:
52,272,192731,2,0,P|43:225|55:180,1,94.499997116089,4|8,0:3|0:3,0:0:0:0:
184,96,193064,6,0,P|189:64|185:32,2,62.9999980773926,10|8|4,0:2|0:3|0:3,0:0:0:0:
76,196,193397,2,0,P|68:231|74:266,2,62.9999980773926,10|4|4,0:3|0:3|0:3,0:0:0:0:
184,96,193731,6,0,B|250:72|308:124|369:96,1,188.999994232178,14|8,0:1|0:2,0:0:0:0:
228,204,194231,1,10,0:1:0:0:
324,4,194397,1,10,0:2:0:0:
344,200,194564,1,8,0:1:0:0:
184,96,194731,1,10,0:2:0:0:
376,312,194897,6,0,P|439:244|439:152,1,188.999994232178,14|8,0:1|0:1,0:0:0:0:
276,288,195397,2,0,L|282:382,1,94.499997116089,8|2,0:2|0:0,0:0:0:0:
344,200,195731,1,8,0:1:0:0:
344,200,195897,1,10,0:1:0:0:
216,104,196064,2,0,L|207:10,1,94.499997116089,10|2,0:2|0:0,0:0:0:0:
0,240,196397,6,0,L|188:225,1,188.999994232178,14|8,0:1|0:2,0:0:0:0:
352,304,196897,1,10,0:1:0:0:
216,104,197064,1,8,0:2:0:0:
228,364,197231,1,10,0:1:0:0:
352,168,197397,1,8,0:2:0:0:
104,320,197564,6,0,P|67:235|96:148,1,188.999994232178,14|10,0:1|0:1,0:0:0:0:
260,8,198064,2,0,L|252:102,1,94.499997116089,10|2,0:2|0:0,0:0:0:0:
188,228,198397,1,8,0:1:0:0:
160,44,198564,1,8,0:1:0:0:
328,156,198731,2,0,L|469:163,1,141.749995674133,10|0,0:2|0:0,0:0:0:0:
496,148,199064,6,0,P|499:100|504:48,1,94.499997116089,14|2,0:1|0:0,0:0:0:0:
368,24,199397,1,10,0:2:0:0:
308,164,199564,2,0,P|305:212|300:264,1,94.499997116089,2|8,0:0|0:1,0:0:0:0:
400,116,199897,5,10,0:1:0:0:
440,248,200064,1,10,0:2:0:0:
284,144,200231,2,0,P|235:141|189:136,1,94.499997116089,10|2,0:1|0:3,0:0:0:0:
80,60,200564,5,10,0:1:0:0:
168,248,200731,1,10,0:2:0:0:
172,112,200897,2,0,P|175:64|180:12,1,94.499997116089,2|8,0:0|0:1,0:0:0:0:
284,144,201231,1,8,0:1:0:0:
168,248,201397,2,0,P|91:240|26:236,1,141.749995674133,10|0,0:2|0:0,0:0:0:0:
8,208,201731,6,0,P|0:161|13:116,1,94.499997116089,14|0,0:1|0:0,0:0:0:0:
164,72,202064,1,10,0:2:0:0:
259,223,202231,2,0,P|264:270|245:313,1,94.499997116089,2|8,0:0|0:1,0:0:0:0:
157,167,202564,2,0,L|164:72,1,94.499997116089,10|8,0:1|0:2,0:0:0:0:
455,143,202897,6,0,L|267:128,1,188.999994232178,10|8,0:1|0:1,0:0:0:0:
176,308,203397,2,0,P|214:279|255:255,1,94.499997116089,10|0,0:2|0:0,0:0:0:0:
157,167,203731,1,10,0:1:0:0:
304,344,203897,1,4,0:3:0:0:
272,100,204064,1,10,0:2:0:0:
176,308,204231,1,8,0:3:0:0:
372,172,204397,6,0,P|371:121|368:77,1,94.499997116089,14|2,0:1|0:0,0:0:0:0:
260,8,204731,1,8,0:2:0:0:
172,134,204897,2,0,P|219:131|267:128,1,94.499997116089,2|8,0:0|0:1,0:0:0:0:
344,284,205231,2,0,P|306:253|256:216,1,94.499997116089,10|8,0:1|0:2,0:0:0:0:
408,16,205564,6,0,L|415:204,1,188.999994232178,14|10,0:1|0:1,0:0:0:0:
288,359,206064,2,0,P|321:325|344:284,1,94.499997116089,8|0,0:2|0:0,0:0:0:0:
244,172,206397,1,8,0:1:0:0:
244,172,206564,1,8,0:1:0:0:
123,267,206731,2,0,P|136:312|159:353,1,94.499997116089,10|2,0:2|0:0,0:0:0:0:
236,264,207064,5,14,0:1:0:0:
112,176,207231,2,0,L|12:184,1,94.499997116089,2|8,0:0|0:2,0:0:0:0:
200,52,207564,2,0,P|212:99|204:148,1,94.499997116089,2|8,0:0|0:1,0:0:0:0:
123,267,207897,2,0,P|108:222|112:176,1,94.499997116089,10|8,0:1|0:2,0:0:0:0:
256,8,208231,6,0,L|249:197,1,188.999994232178,14|8,0:1|0:1,0:0:0:0:
436,172,208731,2,0,P|406:135|365:112,1,94.499997116089,8|0,0:2|0:0,0:0:0:0:
336,224,209064,1,10,0:1:0:0:
336,224,209231,1,8,0:1:0:0:
420,307,209397,2,0,L|514:300,1,94.499997116089,10|0,0:2|0:0,0:0:0:0:
336,224,209731,5,14,0:1:0:0:
232,288,209897,2,0,L|243:381,1,94.499997116089,2|8,0:0|0:2,0:0:0:0:
252,152,210231,2,0,L|244:52,1,94.499997116089,2|8,0:0|0:1,0:0:0:0:
164,208,210564,2,0,P|118:215|71:220,1,94.499997116089,10|8,0:1|0:2,0:0:0:0:
376,324,210897,6,0,P|423:244|412:151,1,188.999994232178,10|10,0:1|0:1,0:0:0:0:
276,8,211397,2,0,L|284:112,1,94.499997116089,8|0,0:2|0:0,0:0:0:0:
292,212,211731,1,8,0:1:0:0:
376,64,211897,1,8,0:1:0:0:
200,176,212064,1,10,0:2:0:0:
392,248,212231,1,2,0:0:0:0:
283,102,212397,5,14,0:1:0:0:
299,306,212564,2,0,L|292:212,1,94.499997116089,2|8,0:0|0:2,0:0:0:0:
436,92,212897,2,0,P|412:133|392:184,1,94.499997116089,2|8,0:0|0:1,0:0:0:0:
180,184,213231,2,0,P|157:140|124:92,1,94.499997116089,10|8,0:1|0:2,0:0:0:0:
277,23,213564,6,0,L|292:212,1,188.999994232178,10|8,0:1|0:1,0:0:0:0:
138,269,214064,2,0,L|180:184,1,94.499997116089,8|0,0:2|0:0,0:0:0:0:
256,284,214397,1,10,0:1:0:0:
76,176,214564,1,8,0:2:0:0:
76,176,214647,1,8,0:2:0:0:
76,176,214731,1,8,0:2:0:0:
96,344,214897,1,8,0:3:0:0:
228,104,215064,5,14,0:1:0:0:
256,192,215147,12,0,220397,0:0:0:0:
