osu file format v14

[General]
AudioFilename: ^^106.mp3
AudioLeadIn: 0
PreviewTime: 54065
Countdown: 0
SampleSet: Soft
StackLeniency: 0.7
Mode: 0
LetterboxInBreaks: 1
WidescreenStoryboard: 1

[Editor]
Bookmarks: 161731,167064
DistanceSpacing: 1
BeatDivisor: 4
GridSize: 32
TimelineZoom: 0.9000009

[Metadata]
Title:Fly Away
TitleUnicode:フライアウェイ
Artist:KINEMA106
ArtistUnicode:キネマ106
Creator:Asagi
Version:Akitoshi's Easy
Source:
Tags:featured artist fa kantai collection kancolle maikaze kalon. tom zany 艦隊これくしょん 艦これ 雪月花 setsugetsuka unitedwesin uws akitoshi -laura- corinn comiket c88 jpop j-pop pop jp japanese female vocalist vocals rock jrock j-rock
BeatmapID:880541
BeatmapSetID:397917

[Difficulty]
HPDrainRate:2.5
CircleSize:3
OverallDifficulty:2.5
ApproachRate:3.2
SliderMultiplier:0.849999999999999
SliderTickRate:1

[Events]
//Background and Video events
0,0,"maikaze.png",0,0
//Break Periods
2,77263,85649
2,161931,165649
//Storyboard Layer 0 (Background)
//Storyboard Layer 1 (Fail)
//Storyboard Layer 2 (Pass)
//Storyboard Layer 3 (Foreground)
//Storyboard Layer 4 (Overlay)
//Storyboard Sound Samples

[TimingPoints]
398,333.333333333333,4,2,1,40,1,0
1064,-100,4,2,2,45,0,0
1731,-100,4,2,3,55,0,0
23064,-100,4,2,1,75,0,0
23397,-100,4,2,4,75,0,0
23481,-100,4,2,2,75,0,0
23731,-100,4,2,4,75,0,0
23815,-100,4,2,2,75,0,0
24064,-100,4,2,4,75,0,0
24148,-100,4,2,2,75,0,0
24731,-100,4,2,8,75,0,0
24815,-100,4,2,2,75,0,0
25064,-100,4,2,8,75,0,0
25148,-100,4,2,2,75,0,0
25397,-100,4,2,8,75,0,0
25481,-100,4,2,2,75,0,0
25731,-100,4,2,3,75,0,0
26064,-100,4,2,4,75,0,0
26148,-100,4,2,2,75,0,0
26397,-100,4,2,4,75,0,0
26481,-100,4,2,2,75,0,0
26731,-100,4,2,4,75,0,0
26815,-100,4,2,2,75,0,0
27397,-100,4,2,8,75,0,0
27481,-100,4,2,2,75,0,0
27731,-100,4,2,8,75,0,0
27815,-100,4,2,2,75,0,0
28064,-100,4,2,8,75,0,0
28148,-100,4,2,2,75,0,0
28731,-100,4,2,4,75,0,0
28815,-100,4,2,2,75,0,0
29064,-100,4,2,4,75,0,0
29148,-100,4,2,2,75,0,0
29397,-100,4,2,4,75,0,0
29481,-100,4,2,2,75,0,0
29731,-100,4,2,4,75,0,0
29815,-100,4,2,2,75,0,0
30064,-100,4,2,4,75,0,0
30148,-100,4,2,2,75,0,0
30397,-100,4,2,4,75,0,0
30481,-100,4,2,2,75,0,0
30731,-100,4,2,4,75,0,0
30815,-100,4,2,2,75,0,0
31064,-100,4,2,3,75,0,0
31397,-100,4,2,4,75,0,0
31481,-100,4,2,2,75,0,0
31731,-100,4,2,4,75,0,0
31815,-100,4,2,2,75,0,0
32064,-100,4,2,4,75,0,0
32148,-100,4,2,2,75,0,0
32397,-100,4,2,4,75,0,0
32481,-100,4,2,2,75,0,0
32731,-100,4,2,4,75,0,0
32815,-100,4,2,2,75,0,0
33064,-100,4,2,4,75,0,0
33148,-100,4,2,2,75,0,0
33397,-100,4,2,4,75,0,0
33481,-100,4,2,2,75,0,0
33564,-100,4,2,3,75,0,0
33730,-100,4,2,1,70,0,0
34064,-100,4,2,6,70,0,0
34147,-100,4,2,2,70,0,0
34397,-100,4,2,6,70,0,0
34480,-100,4,2,2,70,0,0
34731,-100,4,2,6,70,0,0
34814,-100,4,2,2,70,0,0
35064,-100,4,2,6,70,0,0
35147,-100,4,2,2,70,0,0
35397,-100,4,2,6,70,0,0
35480,-100,4,2,2,70,0,0
35731,-100,4,2,6,70,0,0
35814,-100,4,2,2,70,0,0
36064,-100,4,2,6,70,0,0
36147,-100,4,2,2,70,0,0
36397,-100,4,2,6,70,0,0
36480,-100,4,2,2,70,0,0
36731,-100,4,2,6,70,0,0
36814,-100,4,2,2,70,0,0
37064,-100,4,2,6,70,0,0
37147,-100,4,2,2,70,0,0
37397,-100,4,2,6,70,0,0
37480,-100,4,2,2,70,0,0
37731,-100,4,2,6,70,0,0
37814,-100,4,2,2,70,0,0
38064,-100,4,2,6,70,0,0
38147,-100,4,2,2,70,0,0
38397,-100,4,2,6,70,0,0
38480,-100,4,2,2,70,0,0
38731,-100,4,2,6,70,0,0
38814,-100,4,2,2,70,0,0
39397,-100,4,2,6,70,0,0
39480,-100,4,2,2,70,0,0
39731,-100,4,2,6,70,0,0
39814,-100,4,2,2,70,0,0
40064,-100,4,2,6,70,0,0
40147,-100,4,2,2,70,0,0
40397,-100,4,2,6,70,0,0
40480,-100,4,2,2,70,0,0
40731,-100,4,2,6,70,0,0
40814,-100,4,2,2,70,0,0
41064,-100,4,2,6,70,0,0
41147,-100,4,2,2,70,0,0
41397,-100,4,2,6,70,0,0
41480,-100,4,2,2,70,0,0
41731,-100,4,2,6,70,0,0
41814,-100,4,2,2,70,0,0
42064,-100,4,2,6,70,0,0
42147,-100,4,2,2,70,0,0
42397,-100,4,2,6,70,0,0
42480,-100,4,2,2,70,0,0
42731,-100,4,2,6,70,0,0
42814,-100,4,2,2,70,0,0
43064,-100,4,2,6,70,0,0
43147,-100,4,2,2,70,0,0
43397,-100,4,2,6,70,0,0
43480,-100,4,2,2,70,0,0
43731,-100,4,2,6,70,0,0
43814,-100,4,2,2,70,0,0
44064,-100,4,2,6,70,0,0
44147,-100,4,2,2,70,0,0
44397,-100,4,2,3,70,0,0
44731,-100,4,2,4,70,0,0
44814,-100,4,2,2,70,0,0
45064,-100,4,2,4,70,0,0
45147,-100,4,2,2,70,0,0
45398,-100,4,2,4,70,0,0
45481,-100,4,2,2,70,0,0
45731,-100,4,2,4,70,0,0
45814,-100,4,2,2,70,0,0
46064,-100,4,2,4,70,0,0
46147,-100,4,2,2,70,0,0
46398,-100,4,2,4,70,0,0
46481,-100,4,2,2,70,0,0
46731,-100,4,2,4,70,0,0
46814,-100,4,2,2,70,0,0
47064,-100,4,2,4,70,0,0
47147,-100,4,2,2,70,0,0
47398,-100,4,2,4,70,0,0
47481,-100,4,2,2,70,0,0
47731,-100,4,2,4,70,0,0
47814,-100,4,2,2,70,0,0
48064,-100,4,2,4,70,0,0
48147,-100,4,2,2,70,0,0
48398,-100,4,2,4,70,0,0
48481,-100,4,2,2,70,0,0
48731,-100,4,2,4,70,0,0
48814,-100,4,2,2,70,0,0
49064,-100,4,2,4,70,0,0
49147,-100,4,2,2,70,0,0
49398,-100,4,2,4,70,0,0
49481,-100,4,2,2,70,0,0
50064,-100,4,2,4,70,0,0
50147,-100,4,2,2,70,0,0
50398,-100,4,2,4,70,0,0
50481,-100,4,2,2,70,0,0
50731,-100,4,2,4,70,0,0
50814,-100,4,2,2,70,0,0
51064,-100,4,2,4,70,0,0
51147,-100,4,2,2,70,0,0
51398,-100,4,2,4,70,0,0
51481,-100,4,2,2,70,0,0
51731,-100,4,2,4,70,0,0
51814,-100,4,2,2,70,0,0
52064,-100,4,2,4,70,0,0
52147,-100,4,2,2,70,0,0
52398,-100,4,2,4,70,0,0
52481,-100,4,2,2,70,0,0
52731,-100,4,2,4,70,0,0
52814,-100,4,2,2,70,0,0
53064,-100,4,2,4,70,0,0
53147,-100,4,2,2,70,0,0
53398,-100,4,2,4,70,0,0
53481,-100,4,2,2,70,0,0
53564,-100,4,2,5,70,0,0
53731,-100,4,2,2,70,0,0
55064,-100,4,2,1,80,0,1
55397,-100,4,2,4,80,0,1
55481,-100,4,2,2,80,0,1
55731,-100,4,2,4,80,0,1
55815,-100,4,2,2,80,0,1
56064,-100,4,2,4,80,0,1
56148,-100,4,2,2,80,0,1
56731,-100,4,2,4,80,0,1
56815,-100,4,2,2,80,0,1
57397,-100,4,2,5,80,0,1
57731,-100,4,2,2,80,0,1
58064,-100,4,2,4,80,0,1
58148,-100,4,2,2,80,0,1
58397,-100,4,2,4,80,0,1
58481,-100,4,2,2,80,0,1
58731,-100,4,2,4,80,0,1
58815,-100,4,2,2,80,0,1
59397,-100,4,2,4,80,0,1
59481,-100,4,2,2,80,0,1
60231,-100,4,2,3,80,0,1
60731,-100,4,2,4,80,0,1
60815,-100,4,2,2,80,0,1
61064,-100,4,2,4,80,0,1
61148,-100,4,2,2,80,0,1
61397,-100,4,2,4,80,0,1
61481,-100,4,2,2,80,0,1
62064,-100,4,2,4,80,0,1
62148,-100,4,2,2,80,0,1
62397,-100,4,2,4,80,0,1
62481,-100,4,2,2,80,0,1
62731,-100,4,2,5,80,0,1
63064,-100,4,2,3,80,0,1
63231,-100,4,2,3,60,0,1
63397,-100,4,2,4,62,0,1
63481,-100,4,2,2,62,0,1
63731,-100,4,2,4,65,0,1
63815,-100,4,2,2,65,0,1
64064,-100,4,2,4,68,0,1
64148,-100,4,2,2,68,0,1
64397,-100,4,2,4,71,0,1
64481,-100,4,2,2,71,0,1
64731,-100,4,2,4,74,0,1
64815,-100,4,2,2,74,0,1
65064,-100,4,2,4,77,0,1
65148,-100,4,2,2,77,0,1
65397,-100,4,2,3,80,0,1
65731,-100,4,2,1,80,0,1
66064,-100,4,2,4,80,0,1
66148,-100,4,2,2,80,0,1
66397,-100,4,2,4,80,0,1
66481,-100,4,2,2,80,0,1
66731,-100,4,2,4,80,0,1
66815,-100,4,2,2,80,0,1
67397,-100,4,2,4,80,0,1
67481,-100,4,2,2,80,0,1
68064,-100,4,2,5,80,0,1
68397,-100,4,2,2,80,0,1
68731,-100,4,2,4,80,0,1
68815,-100,4,2,2,80,0,1
69064,-100,4,2,4,80,0,1
69148,-100,4,2,2,80,0,1
69397,-100,4,2,4,80,0,1
69481,-100,4,2,2,80,0,1
70231,-100,4,2,3,80,0,1
71397,-100,4,2,4,80,0,1
71481,-100,4,2,2,80,0,1
71731,-100,4,2,4,80,0,1
71815,-100,4,2,2,80,0,1
72064,-100,4,2,4,80,0,1
72148,-100,4,2,2,80,0,1
72731,-100,4,2,4,80,0,1
72815,-100,4,2,2,80,0,1
73064,-100,4,2,4,80,0,1
73148,-100,4,2,2,80,0,1
73397,-100,4,2,4,80,0,1
73481,-100,4,2,2,80,0,1
73731,-100,4,2,3,80,0,1
74064,-100,4,2,4,80,0,1
74148,-100,4,2,2,80,0,1
74397,-100,4,2,4,80,0,1
74481,-100,4,2,2,80,0,1
74731,-100,4,2,4,80,0,1
74815,-100,4,2,2,80,0,1
75064,-100,4,2,4,80,0,1
75148,-100,4,2,2,80,0,1
75564,-100,4,2,3,80,0,1
75731,-100,4,2,2,80,0,1
76064,-100,4,2,3,80,0,1
76397,-100,4,2,1,75,0,0
76730,-100,4,2,4,75,0,0
76814,-100,4,2,2,75,0,0
77064,-100,4,2,4,75,0,0
77148,-100,4,2,2,75,0,0
87064,-100,4,2,1,70,0,0
87397,-100,4,2,6,70,0,0
87480,-100,4,2,2,70,0,0
87730,-100,4,2,6,70,0,0
87813,-100,4,2,2,70,0,0
88064,-100,4,2,6,70,0,0
88147,-100,4,2,2,70,0,0
88397,-100,4,2,6,70,0,0
88480,-100,4,2,2,70,0,0
88730,-100,4,2,6,70,0,0
88813,-100,4,2,2,70,0,0
89064,-100,4,2,6,70,0,0
89147,-100,4,2,2,70,0,0
89397,-100,4,2,6,70,0,0
89480,-100,4,2,2,70,0,0
89730,-100,4,2,6,70,0,0
89813,-100,4,2,2,70,0,0
90064,-100,4,2,6,70,0,0
90147,-100,4,2,2,70,0,0
90397,-100,4,2,6,70,0,0
90480,-100,4,2,2,70,0,0
90730,-100,4,2,6,70,0,0
90813,-100,4,2,2,70,0,0
91064,-100,4,2,6,70,0,0
91147,-100,4,2,2,70,0,0
91397,-100,4,2,6,70,0,0
91480,-100,4,2,2,70,0,0
91730,-100,4,2,6,70,0,0
91813,-100,4,2,2,70,0,0
92064,-100,4,2,6,70,0,0
92147,-100,4,2,2,70,0,0
92730,-100,4,2,6,70,0,0
92813,-100,4,2,2,70,0,0
93064,-100,4,2,6,70,0,0
93147,-100,4,2,2,70,0,0
93397,-100,4,2,6,70,0,0
93480,-100,4,2,2,70,0,0
93730,-100,4,2,6,70,0,0
93813,-100,4,2,2,70,0,0
94064,-100,4,2,6,70,0,0
94147,-100,4,2,2,70,0,0
94397,-100,4,2,6,70,0,0
94480,-100,4,2,2,70,0,0
94730,-100,4,2,6,70,0,0
94813,-100,4,2,2,70,0,0
95064,-100,4,2,6,70,0,0
95147,-100,4,2,2,70,0,0
95397,-100,4,2,6,70,0,0
95480,-100,4,2,2,70,0,0
95730,-100,4,2,6,70,0,0
95813,-100,4,2,2,70,0,0
96064,-100,4,2,6,70,0,0
96147,-100,4,2,2,70,0,0
96397,-100,4,2,6,70,0,0
96480,-100,4,2,2,70,0,0
96730,-100,4,2,6,70,0,0
96813,-100,4,2,2,70,0,0
97064,-100,4,2,6,70,0,0
97147,-100,4,2,2,70,0,0
97397,-100,4,2,6,70,0,0
97480,-100,4,2,2,70,0,0
97731,-100,4,2,3,70,0,0
98065,-100,4,2,4,70,0,0
98148,-100,4,2,2,70,0,0
98398,-100,4,2,4,70,0,0
98481,-100,4,2,2,70,0,0
98732,-100,4,2,4,70,0,0
98815,-100,4,2,2,70,0,0
99065,-100,4,2,4,70,0,0
99148,-100,4,2,2,70,0,0
99398,-100,4,2,4,70,0,0
99481,-100,4,2,2,70,0,0
99732,-100,4,2,4,70,0,0
99815,-100,4,2,2,70,0,0
100065,-100,4,2,4,70,0,0
100148,-100,4,2,2,70,0,0
100398,-100,4,2,4,70,0,0
100481,-100,4,2,2,70,0,0
100732,-100,4,2,4,70,0,0
100815,-100,4,2,2,70,0,0
101065,-100,4,2,4,70,0,0
101148,-100,4,2,2,70,0,0
101398,-100,4,2,4,70,0,0
101481,-100,4,2,2,70,0,0
101732,-100,4,2,4,70,0,0
101815,-100,4,2,2,70,0,0
102065,-100,4,2,4,70,0,0
102148,-100,4,2,2,70,0,0
102398,-100,4,2,4,70,0,0
102481,-100,4,2,2,70,0,0
102732,-100,4,2,4,70,0,0
102815,-100,4,2,2,70,0,0
103398,-100,4,2,4,70,0,0
103481,-100,4,2,2,70,0,0
103732,-100,4,2,4,70,0,0
103815,-100,4,2,2,70,0,0
104065,-100,4,2,4,70,0,0
104148,-100,4,2,2,70,0,0
104398,-100,4,2,4,70,0,0
104481,-100,4,2,2,70,0,0
104732,-100,4,2,4,70,0,0
104815,-100,4,2,2,70,0,0
105065,-100,4,2,4,70,0,0
105148,-100,4,2,2,70,0,0
105398,-100,4,2,4,70,0,0
105481,-100,4,2,2,70,0,0
105732,-100,4,2,4,70,0,0
105815,-100,4,2,2,70,0,0
106065,-100,4,2,4,70,0,0
106148,-100,4,2,2,70,0,0
106398,-100,4,2,4,70,0,0
106481,-100,4,2,2,70,0,0
106732,-100,4,2,4,70,0,0
106815,-100,4,2,2,70,0,0
106898,-100,4,2,5,70,0,0
107064,-100,4,2,2,70,0,0
107397,-100,4,2,5,70,0,0
107481,-100,4,2,2,70,0,0
107731,-100,4,2,3,70,0,0
108397,-100,4,2,1,70,0,0
108731,-100,4,2,7,70,0,0
108814,-100,4,2,2,70,0,0
109397,-100,4,2,7,70,0,0
109480,-100,4,2,2,70,0,0
110064,-100,4,2,7,70,0,0
110147,-100,4,2,2,70,0,0
110731,-100,4,2,7,70,0,0
110814,-100,4,2,2,70,0,0
111064,-100,4,2,1,70,0,0
111397,-100,4,2,7,70,0,0
111480,-100,4,2,2,70,0,0
112064,-100,4,2,7,70,0,0
112147,-100,4,2,2,70,0,0
112897,-100,4,2,3,70,0,0
113397,-100,4,2,5,70,0,0
113731,-100,4,2,1,70,0,0
114064,-100,4,2,7,70,0,0
114147,-100,4,2,2,70,0,0
114731,-100,4,2,7,70,0,0
114814,-100,4,2,2,70,0,0
115397,-100,4,2,7,70,0,0
115480,-100,4,2,2,70,0,0
116064,-100,4,2,3,70,0,0
116397,-100,4,2,1,70,0,0
116731,-100,4,2,4,61,0,0
116814,-100,4,2,2,61,0,0
117064,-100,4,2,4,64,0,0
117147,-100,4,2,2,64,0,0
117397,-100,4,2,4,67,0,0
117480,-100,4,2,2,67,0,0
117731,-100,4,2,2,70,0,0
118147,-100,4,2,2,70,0,0
119064,-100,4,2,1,80,0,1
119397,-100,4,2,4,80,0,1
119481,-100,4,2,2,80,0,1
119731,-100,4,2,4,80,0,1
119815,-100,4,2,2,80,0,1
120064,-100,4,2,4,80,0,1
120148,-100,4,2,2,80,0,1
120731,-100,4,2,4,80,0,1
120815,-100,4,2,2,80,0,1
121397,-100,4,2,5,80,0,1
121731,-100,4,2,2,80,0,1
122064,-100,4,2,4,80,0,1
122148,-100,4,2,2,80,0,1
122397,-100,4,2,4,80,0,1
122481,-100,4,2,2,80,0,1
122731,-100,4,2,4,80,0,1
122815,-100,4,2,2,80,0,1
123397,-100,4,2,4,80,0,1
123481,-100,4,2,2,80,0,1
124231,-100,4,2,3,80,0,1
124731,-100,4,2,4,80,0,1
124815,-100,4,2,2,80,0,1
125064,-100,4,2,4,80,0,1
125148,-100,4,2,2,80,0,1
125397,-100,4,2,4,80,0,1
125481,-100,4,2,2,80,0,1
126064,-100,4,2,4,80,0,1
126148,-100,4,2,2,80,0,1
126397,-100,4,2,4,80,0,1
126481,-100,4,2,2,80,0,1
126731,-100,4,2,5,80,0,1
127064,-100,4,2,3,80,0,1
127231,-100,4,2,3,60,0,1
127397,-100,4,2,4,62,0,1
127481,-100,4,2,2,62,0,1
127731,-100,4,2,4,65,0,1
127815,-100,4,2,2,65,0,1
128064,-100,4,2,4,68,0,1
128148,-100,4,2,2,68,0,1
128397,-100,4,2,4,71,0,1
128481,-100,4,2,2,71,0,1
128731,-100,4,2,4,74,0,1
128815,-100,4,2,2,74,0,1
129064,-100,4,2,4,77,0,1
129148,-100,4,2,2,77,0,1
129397,-100,4,2,3,80,0,1
129731,-100,4,2,1,80,0,1
130064,-100,4,2,4,80,0,1
130148,-100,4,2,2,80,0,1
130397,-100,4,2,4,80,0,1
130481,-100,4,2,2,80,0,1
130731,-100,4,2,4,80,0,1
130815,-100,4,2,2,80,0,1
131397,-100,4,2,4,80,0,1
131481,-100,4,2,2,80,0,1
132064,-100,4,2,5,80,0,1
132397,-100,4,2,2,80,0,1
132731,-100,4,2,4,80,0,1
132815,-100,4,2,2,80,0,1
133064,-100,4,2,4,80,0,1
133148,-100,4,2,2,80,0,1
133397,-100,4,2,4,80,0,1
133481,-100,4,2,2,80,0,1
134231,-100,4,2,3,80,0,1
135397,-100,4,2,4,80,0,1
135481,-100,4,2,2,80,0,1
135731,-100,4,2,4,80,0,1
135815,-100,4,2,2,80,0,1
136064,-100,4,2,4,80,0,1
136148,-100,4,2,2,80,0,1
136731,-100,4,2,4,80,0,1
136815,-100,4,2,2,80,0,1
137064,-100,4,2,4,80,0,1
137148,-100,4,2,2,80,0,1
137397,-100,4,2,4,80,0,1
137481,-100,4,2,2,80,0,1
137731,-100,4,2,3,80,0,1
138064,-100,4,2,4,80,0,1
138148,-100,4,2,2,80,0,1
138397,-100,4,2,4,80,0,1
138481,-100,4,2,2,80,0,1
138731,-100,4,2,4,80,0,1
138815,-100,4,2,2,80,0,1
139064,-100,4,2,4,80,0,1
139148,-100,4,2,2,80,0,1
140231,-100,4,2,3,80,0,1
140397,-100,4,2,3,75,0,1
140731,-100,4,2,4,75,0,1
140814,-100,4,2,2,75,0,1
141064,-100,4,2,4,75,0,1
141147,-100,4,2,2,75,0,1
141397,-100,4,2,4,75,0,1
141480,-100,4,2,2,75,0,1
142064,-100,4,2,4,75,0,1
142147,-100,4,2,2,75,0,1
142397,-100,4,2,4,75,0,1
142480,-100,4,2,2,75,0,1
142731,-100,4,2,4,75,0,1
142814,-100,4,2,2,75,0,1
143064,-100,4,2,3,75,0,1
143397,-100,4,2,4,75,0,1
143480,-100,4,2,2,75,0,1
143731,-100,4,2,4,75,0,1
143814,-100,4,2,2,75,0,1
144064,-100,4,2,4,75,0,1
144147,-100,4,2,2,75,0,1
144731,-100,4,2,3,75,0,1
145064,-100,4,2,4,75,0,1
145147,-100,4,2,2,75,0,1
145397,-100,4,2,3,75,0,1
146064,-100,4,2,4,75,0,1
146147,-100,4,2,2,75,0,1
146397,-100,4,2,4,75,0,1
146480,-100,4,2,2,75,0,1
146731,-100,4,2,4,75,0,1
146814,-100,4,2,2,75,0,1
147397,-100,4,2,4,75,0,1
147480,-100,4,2,2,75,0,1
147731,-100,4,2,4,75,0,1
147814,-100,4,2,2,75,0,1
148064,-100,4,2,4,75,0,1
148147,-100,4,2,2,75,0,1
148397,-100,4,2,3,75,0,1
148731,-100,4,2,4,75,0,1
148814,-100,4,2,2,75,0,1
149064,-100,4,2,4,75,0,1
149147,-100,4,2,2,75,0,1
149397,-100,4,2,4,75,0,1
149480,-100,4,2,2,75,0,1
150064,-100,4,2,4,75,0,1
150147,-100,4,2,2,75,0,1
150397,-100,4,2,4,75,0,1
150480,-100,4,2,2,75,0,1
150731,-100,4,2,4,75,0,1
150814,-100,4,2,2,75,0,1
151064,-100,4,2,1,70,0,0
151397,-100,4,2,4,70,0,0
151481,-100,4,2,2,70,0,0
151731,-100,4,2,4,70,0,0
151815,-100,4,2,2,70,0,0
152064,-100,4,2,4,70,0,0
152148,-100,4,2,2,70,0,0
152731,-100,4,2,8,70,0,0
152815,-100,4,2,2,70,0,0
153064,-100,4,2,8,70,0,0
153148,-100,4,2,2,70,0,0
153397,-100,4,2,8,70,0,0
153481,-100,4,2,2,70,0,0
153731,-100,4,2,1,70,0,0
154064,-100,4,2,4,70,0,0
154148,-100,4,2,2,70,0,0
154398,-100,4,2,4,70,0,0
154482,-100,4,2,2,70,0,0
154731,-100,4,2,4,70,0,0
154815,-100,4,2,2,70,0,0
155398,-100,4,2,8,70,0,0
155482,-100,4,2,2,70,0,0
155731,-100,4,2,8,70,0,0
155815,-100,4,2,2,70,0,0
156064,-100,4,2,8,70,0,0
156148,-100,4,2,2,70,0,0
156397,-100,4,2,2,70,0,0
156731,-100,4,2,4,70,0,0
156815,-100,4,2,2,70,0,0
157064,-100,4,2,4,70,0,0
157148,-100,4,2,2,70,0,0
157397,-100,4,2,4,70,0,0
157481,-100,4,2,2,70,0,0
157731,-100,4,2,4,70,0,0
157815,-100,4,2,2,70,0,0
158064,-100,4,2,4,70,0,0
158148,-100,4,2,2,70,0,0
158397,-100,4,2,4,70,0,0
158481,-100,4,2,2,70,0,0
158731,-100,4,2,4,70,0,0
158815,-100,4,2,2,70,0,0
159064,-100,4,2,3,70,0,0
159397,-100,4,2,4,70,0,0
159481,-100,4,2,2,70,0,0
159731,-100,4,2,4,70,0,0
159815,-100,4,2,2,70,0,0
160064,-100,4,2,4,70,0,0
160148,-100,4,2,2,70,0,0
160397,-100,4,2,4,70,0,0
160481,-100,4,2,2,70,0,0
160731,-100,4,2,4,70,0,0
160815,-100,4,2,2,70,0,0
161564,-100,4,2,3,70,0,0
161730,-100,4,2,1,70,0,0
161814,-100,4,2,1,60,0,0
166731,-100,4,2,3,65,0,0
167064,-100,4,2,2,70,0,0
167731,-100,4,2,3,70,0,0
168397,-100,4,2,2,70,0,0
169064,-100,4,2,3,70,0,0
169730,-100,4,2,4,58,0,0
169814,-100,4,2,2,58,0,0
170064,-100,4,2,4,61,0,0
170147,-100,4,2,2,61,0,0
170397,-100,4,2,4,64,0,0
170480,-100,4,2,2,64,0,0
170731,-100,4,2,4,67,0,0
170814,-100,4,2,2,67,0,0
171064,-100,4,2,2,70,0,0
172397,-100,4,2,1,80,0,1
172730,-100,4,2,4,80,0,1
172814,-100,4,2,2,80,0,1
173064,-100,4,2,4,80,0,1
173148,-100,4,2,2,80,0,1
173397,-100,4,2,4,80,0,1
173481,-100,4,2,2,80,0,1
174064,-100,4,2,4,80,0,1
174148,-100,4,2,2,80,0,1
174730,-100,4,2,5,80,0,1
175064,-100,4,2,2,80,0,1
175397,-100,4,2,4,80,0,1
175481,-100,4,2,2,80,0,1
175730,-100,4,2,4,80,0,1
175814,-100,4,2,2,80,0,1
176064,-100,4,2,4,80,0,1
176148,-100,4,2,2,80,0,1
176730,-100,4,2,4,80,0,1
176814,-100,4,2,2,80,0,1
177564,-100,4,2,3,80,0,1
178064,-100,4,2,4,80,0,1
178148,-100,4,2,2,80,0,1
178397,-100,4,2,4,80,0,1
178481,-100,4,2,2,80,0,1
178730,-100,4,2,4,80,0,1
178814,-100,4,2,2,80,0,1
179397,-100,4,2,4,80,0,1
179481,-100,4,2,2,80,0,1
179730,-100,4,2,4,80,0,1
179814,-100,4,2,2,80,0,1
180064,-100,4,2,5,80,0,1
180397,-100,4,2,3,80,0,1
180564,-100,4,2,3,60,0,1
180730,-100,4,2,4,62,0,1
180814,-100,4,2,2,62,0,1
181064,-100,4,2,4,65,0,1
181148,-100,4,2,2,65,0,1
181397,-100,4,2,4,68,0,1
181481,-100,4,2,2,68,0,1
181730,-100,4,2,4,71,0,1
181814,-100,4,2,2,71,0,1
182064,-100,4,2,4,74,0,1
182148,-100,4,2,2,74,0,1
182397,-100,4,2,4,77,0,1
182481,-100,4,2,2,77,0,1
182730,-100,4,2,3,80,0,1
183064,-100,4,2,1,80,0,1
183397,-100,4,2,4,80,0,1
183481,-100,4,2,2,80,0,1
183730,-100,4,2,4,80,0,1
183814,-100,4,2,2,80,0,1
184064,-100,4,2,4,80,0,1
184148,-100,4,2,2,80,0,1
184730,-100,4,2,4,80,0,1
184814,-100,4,2,2,80,0,1
185397,-100,4,2,5,80,0,1
185730,-100,4,2,2,80,0,1
186064,-100,4,2,4,80,0,1
186148,-100,4,2,2,80,0,1
186397,-100,4,2,4,80,0,1
186481,-100,4,2,2,80,0,1
186730,-100,4,2,4,80,0,1
186814,-100,4,2,2,80,0,1
187564,-100,4,2,3,80,0,1
188730,-100,4,2,4,80,0,1
188814,-100,4,2,2,80,0,1
189064,-100,4,2,4,80,0,1
189148,-100,4,2,2,80,0,1
189397,-100,4,2,4,80,0,1
189481,-100,4,2,2,80,0,1
190064,-100,4,2,4,80,0,1
190148,-100,4,2,2,80,0,1
190397,-100,4,2,4,80,0,1
190481,-100,4,2,2,80,0,1
190730,-100,4,2,4,80,0,1
190814,-100,4,2,2,80,0,1
191064,-100,4,2,3,80,0,1
191397,-100,4,2,4,80,0,1
191481,-100,4,2,2,80,0,1
191730,-100,4,2,4,80,0,1
191814,-100,4,2,2,80,0,1
192064,-100,4,2,4,80,0,1
192148,-100,4,2,2,80,0,1
192397,-100,4,2,4,80,0,1
192481,-100,4,2,2,80,0,1
192897,-100,4,2,3,80,0,1
193064,-100,4,2,2,80,0,1
193397,-100,4,2,3,80,0,1
193731,-100,4,2,1,75,0,0
194064,-100,4,2,4,75,0,0
194148,-100,4,2,2,75,0,0
194398,-100,4,2,4,75,0,0
194482,-100,4,2,2,75,0,0
194731,-100,4,2,4,75,0,0
194815,-100,4,2,2,75,0,0
195398,-100,4,2,8,75,0,0
195482,-100,4,2,2,75,0,0
195731,-100,4,2,8,75,0,0
195815,-100,4,2,2,75,0,0
196064,-100,4,2,8,75,0,0
196148,-100,4,2,2,75,0,0
196398,-100,4,2,3,75,0,0
196731,-100,4,2,4,75,0,0
196815,-100,4,2,2,75,0,0
197064,-100,4,2,4,75,0,0
197148,-100,4,2,2,75,0,0
197398,-100,4,2,4,75,0,0
197482,-100,4,2,2,75,0,0
198064,-100,4,2,8,75,0,0
198148,-100,4,2,2,75,0,0
198398,-100,4,2,8,75,0,0
198482,-100,4,2,2,75,0,0
198731,-100,4,2,8,75,0,0
198815,-100,4,2,2,75,0,0
199398,-100,4,2,4,75,0,0
199482,-100,4,2,2,75,0,0
199731,-100,4,2,4,75,0,0
199815,-100,4,2,2,75,0,0
200064,-100,4,2,4,75,0,0
200148,-100,4,2,2,75,0,0
200398,-100,4,2,4,75,0,0
200482,-100,4,2,2,75,0,0
200731,-100,4,2,4,75,0,0
200815,-100,4,2,2,75,0,0
201064,-100,4,2,4,75,0,0
201148,-100,4,2,2,75,0,0
201398,-100,4,2,4,75,0,0
201482,-100,4,2,2,75,0,0
201731,-100,4,2,3,75,0,0
202064,-100,4,2,4,75,0,0
202148,-100,4,2,2,75,0,0
202398,-100,4,2,4,75,0,0
202482,-100,4,2,2,75,0,0
202731,-100,4,2,4,75,0,0
202815,-100,4,2,2,75,0,0
203064,-100,4,2,4,75,0,0
203148,-100,4,2,2,75,0,0
203398,-100,4,2,4,75,0,0
203482,-100,4,2,2,75,0,0
203731,-100,4,2,4,75,0,0
203815,-100,4,2,2,75,0,0
204064,-100,4,2,4,75,0,0
204147,-100,4,2,2,75,0,0
204397,-100,4,2,1,70,0,0
204731,-100,4,2,4,70,0,0
204814,-100,4,2,2,70,0,0
205064,-100,4,2,4,70,0,0
205147,-100,4,2,2,70,0,0
205397,-100,4,2,4,70,0,0
205480,-100,4,2,2,70,0,0
206064,-100,4,2,4,70,0,0
206147,-100,4,2,2,70,0,0
206397,-100,4,2,4,70,0,0
206480,-100,4,2,2,70,0,0
206731,-100,4,2,4,70,0,0
206814,-100,4,2,2,70,0,0
207064,-100,4,2,3,70,0,0
207397,-100,4,2,4,70,0,0
207480,-100,4,2,2,70,0,0
207731,-100,4,2,4,70,0,0
207814,-100,4,2,2,70,0,0
208064,-100,4,2,4,70,0,0
208147,-100,4,2,2,70,0,0
208731,-100,4,2,4,70,0,0
208814,-100,4,2,2,70,0,0
209064,-100,4,2,4,70,0,0
209147,-100,4,2,2,70,0,0
209731,-100,4,2,1,70,0,0
210064,-100,4,2,4,70,0,0
210147,-100,4,2,2,70,0,0
210397,-100,4,2,4,70,0,0
210480,-100,4,2,2,70,0,0
210731,-100,4,2,4,70,0,0
210814,-100,4,2,2,70,0,0
211064,-100,4,2,4,70,0,0
211147,-100,4,2,2,70,0,0
211397,-100,4,2,4,70,0,0
211480,-100,4,2,2,70,0,0
211731,-100,4,2,4,70,0,0
211814,-100,4,2,2,70,0,0
212064,-100,4,2,4,70,0,0
212147,-100,4,2,2,70,0,0
212397,-100,4,2,3,70,0,0
212731,-100,4,2,4,70,0,0
212814,-100,4,2,2,70,0,0
213064,-100,4,2,4,70,0,0
213147,-100,4,2,2,70,0,0
213397,-100,4,2,4,70,0,0
213480,-100,4,2,2,70,0,0
213731,-100,4,2,4,70,0,0
213814,-100,4,2,2,70,0,0
214064,-100,4,2,4,70,0,0
214147,-100,4,2,2,70,0,0
214397,-100,4,2,4,70,0,0
214480,-100,4,2,2,70,0,0
214731,-100,4,2,4,70,0,0
214814,-100,4,2,2,70,0,0
214897,-100,4,2,3,70,0,0
215064,-100,4,2,1,75,0,0
215397,-100,4,2,1,75,0,0
215731,-100,4,2,1,75,0,0
216064,-100,4,2,1,75,0,0
216397,-100,4,2,1,75,0,0
216731,-100,4,2,1,75,0,0
217064,-100,4,2,1,75,0,0
217397,-100,4,2,1,75,0,0
217731,-100,4,2,1,75,0,0
220397,-100,4,2,1,5,0,0

[Colours]
Combo1 : 94,255,255
Combo2 : 254,160,33
Combo3 : 255,74,74
Combo4 : 254,224,14

[HitObjects]
488,246,23064,6,0,P|497:206|476:161,1,84.9999999999999,14|8,0:1|0:2,0:0:0:0:
403,129,23731,2,0,B|420:51|420:51|375:6,2,127.5,10|14|8,0:2|0:1|0:2,0:0:0:0:
389,212,25064,1,8,0:1:0:0:
307,236,25397,1,10,0:2:0:0:
232,195,25731,6,0,P|190:189|145:204,1,84.9999999999999,14|8,0:1|0:2,0:0:0:0:
78,247,26397,2,0,B|95:292|95:292|86:318|86:318|105:376,2,127.5,8|14|10,0:2|0:1|0:2,0:0:0:0:
13,191,27731,2,0,P|19:142|26:90,1,84.9999999999999,8|10,0:1|0:2,0:0:0:0:
75,39,28397,6,0,B|114:64|114:64|201:44,1,127.5,14|2,0:1|0:0,0:0:0:0:
275,23,29231,1,10,0:1:0:0:
357,44,29564,2,0,P|339:90|338:130,1,84.9999999999999,10|10,0:1|0:1,0:0:0:0:
292,197,30231,2,0,P|322:263|318:331,1,127.5,2|10,0:0|0:2,0:0:0:0:
259,375,31064,6,0,P|214:371|166:367,1,84.9999999999999,14|10,0:1|0:2,0:0:0:0:
122,300,31731,2,0,B|43:318|43:318|3:293,2,127.5,8|10|10,0:1|0:1|0:2,0:0:0:0:
203,275,33064,1,10,0:1:0:0:
246,202,33397,1,10,0:2:0:0:
224,119,33731,6,0,P|281:82|388:111,1,170,14|8,0:1|0:1,0:0:0:0:
457,199,34897,2,0,B|445:248|445:248|453:279|453:279|438:333,1,127.5,10|8,0:1|0:2,0:0:0:0:
360,351,35731,2,0,P|321:330|273:333,1,84.9999999999999,8|10,0:1|0:2,0:0:0:0:
209,376,36397,6,0,P|232:344|192:232,1,170,10|8,0:1|0:1,0:0:0:0:
67,205,37564,2,0,B|47:128|47:128|75:83,1,127.5,10|8,0:1|0:2,0:0:0:0:
133,28,38397,1,10,0:1:0:0:
218,28,38731,1,10,0:2:0:0:
278,88,39064,6,0,B|382:106|382:106|394:82|430:62,1,170,14|8,0:1|0:1,0:0:0:0:
490,175,40231,2,0,B|477:222|477:222|483:246|483:246|467:301,1,127.5,10|8,0:1|0:2,0:0:0:0:
413,362,41064,2,0,P|366:368|318:357,1,84.9999999999999,8|10,0:1|0:2,0:0:0:0:
250,329,41731,6,0,P|261:249|197:171,1,170,10|8,0:1|0:1,0:0:0:0:
86,158,42897,2,0,B|56:195|56:195|75:278,1,127.5,10|8,0:1|0:2,0:0:0:0:
96,355,43731,1,10,0:1:0:0:
178,373,44064,1,10,0:2:0:0:
250,329,44397,6,0,B|292:335|326:346|326:346|377:317,1,127.5,14|2,0:1|0:0,0:0:0:0:
441,277,45231,1,10,0:1:0:0:
485,204,45564,2,0,P|500:135|463:80,1,127.5,10|8,0:1|0:2,0:0:0:0:
392,61,46397,2,0,P|336:70|295:77,1,84.9999999999999,8|10,0:1|0:2,0:0:0:0:
225,95,47064,6,0,B|232:136|250:176|250:176|226:222,1,127.5,10|2,0:1|0:0,0:0:0:0:
153,250,47897,1,10,0:1:0:0:
68,242,48231,2,0,P|45:197|54:118,1,127.5,10|8,0:1|0:2,0:0:0:0:
82,42,49064,1,10,0:1:0:0:
166,33,49397,1,10,0:2:0:0:
225,95,49731,6,0,B|280:84|280:84|301:87|301:87|362:74,1,127.5,14|2,0:1|0:0,0:0:0:0:
431,50,50564,1,10,0:1:0:0:
492,108,50897,2,0,P|467:169|459:234,1,127.5,10|8,0:1|0:2,0:0:0:0:
376,252,51731,2,0,P|395:307|398:341,1,84.9999999999999,8|10,0:1|0:2,0:0:0:0:
323,375,52397,6,0,P|243:344|197:337,1,127.5,10|2,0:1|0:0,0:0:0:0:
117,341,53231,1,10,0:1:0:0:
49,289,53564,2,0,B|68:216|68:216|47:159,1,127.5,14|10,0:1|0:2,0:0:0:0:
17,88,54397,1,10,0:1:0:0:
74,24,54731,1,10,0:3:0:0:
157,39,55064,6,0,B|197:55|197:55|253:46,1,84.9999999999999,14|8,0:1|0:2,0:0:0:0:
323,52,55731,2,0,P|311:113|301:177,1,127.5,10|10,0:1|0:1,0:0:0:0:
282,260,56564,1,10,0:1:0:0:
348,313,56897,2,0,P|404:330|472:299,1,127.5,10|12,0:1|0:2,0:0:0:0:
508,231,57731,6,0,B|491:192|491:192|507:137,1,84.9999999999999,14|8,0:1|0:2,0:0:0:0:
433,102,58397,2,0,P|364:116|315:90,1,127.5,10|10,0:1|0:1,0:0:0:0:
237,58,59231,1,10,0:1:0:0:
161,18,59564,2,0,B|77:35|111:28|33:47,1,127.5,10|4,0:1|0:3,0:0:0:0:
7,125,60397,6,0,P|3:173|26:221,1,84.9999999999999,12|10,0:1|0:2,0:0:0:0:
68,273,61064,2,0,P|116:277|164:254,1,84.9999999999999,10|8,0:1|0:2,0:0:0:0:
214,208,61731,1,14,0:1:0:0:
298,208,62064,1,10,0:2:0:0:
360,265,62397,2,0,B|406:228|406:228|377:108,1,170,10|12,0:1|0:1,0:0:0:0:
356,38,63397,5,10,0:2:0:0:
273,17,63731,2,0,P|228:18|180:42,1,84.9999999999999,10|8,0:2|0:2,0:0:0:0:
142,102,64397,1,10,0:2:0:0:
89,169,64731,2,0,P|44:168|-4:144,2,84.9999999999999,10|10|10,0:2|0:2|0:3,0:0:0:0:
169,197,65731,6,0,B|158:240|158:240|171:292,1,84.9999999999999,14|8,0:1|0:2,0:0:0:0:
188,361,66397,2,0,B|268:345|255:348|324:334,1,127.5,10|10,0:1|0:1,0:0:0:0:
396,316,67231,1,10,0:1:0:0:
457,257,67564,2,0,P|471:191|435:129,1,127.5,10|12,0:1|0:2,0:0:0:0:
384,80,68397,6,0,B|342:92|342:92|302:82,1,84.9999999999999,14|8,0:1|0:2,0:0:0:0:
217,68,69064,2,0,B|210:140|210:117|201:203,1,127.5,10|10,0:1|0:1,0:0:0:0:
189,278,69897,1,10,0:1:0:0:
145,351,70231,2,0,P|81:363|24:323,1,127.5,10|8,0:3|0:2,0:0:0:0:
5,250,71064,6,0,P|21:211|15:158,1,84.9999999999999,12|10,0:1|0:2,0:0:0:0:
86,116,71731,2,0,P|125:132|178:126,1,84.9999999999999,10|8,0:1|0:2,0:0:0:0:
250,115,72397,1,14,0:1:0:0:
307,178,72731,1,10,0:2:0:0:
292,261,73064,2,0,B|351:269|394:282|394:282|420:270|447:231,1,170,10|12,0:1|0:1,0:0:0:0:
471,158,74064,5,10,0:2:0:0:
415,93,74397,2,0,P|366:83|328:90,1,84.9999999999999,10|8,0:2|0:2,0:0:0:0:
250,115,75064,2,0,P|201:125|163:118,1,84.9999999999999,10|4,0:2|0:3,0:0:0:0:
86,90,75731,1,10,0:2:0:0:
25,149,76064,1,10,0:3:0:0:
54,228,76397,6,0,B|150:217|119:275|223:253,1,170,14|10,0:1|0:2,0:0:0:0:
171,128,87064,6,0,P|99:117|32:186,1,170,14|8,0:1|0:1,0:0:0:0:
78,300,88231,2,0,B|130:288|130:288|155:293|155:293|209:280,1,127.5,10|8,0:1|0:2,0:0:0:0:
267,226,89064,2,0,P|305:233|353:244,1,84.9999999999999,8|10,0:1|0:2,0:0:0:0:
434,256,89731,6,0,P|473:188|445:106,1,170,10|8,0:1|0:1,0:0:0:0:
334,42,90897,2,0,B|288:63|288:63|204:51,1,127.5,10|8,0:1|0:2,0:0:0:0:
126,45,91731,1,10,0:1:0:0:
63,102,92064,1,10,0:2:0:0:
102,177,92397,6,0,B|68:271|68:271|79:302|120:326,1,170,14|8,0:1|0:1,0:0:0:0:
239,346,93564,2,0,B|290:337|290:337|313:344|313:344|366:333,1,127.5,10|8,0:1|0:2,0:0:0:0:
445,310,94397,2,0,P|454:265|436:218,1,84.9999999999999,8|10,0:1|0:2,0:0:0:0:
381,168,95064,6,0,P|310:189|226:140,1,170,10|8,0:1|0:1,0:0:0:0:
175,29,96231,2,0,B|102:18|102:18|78:23|54:43,1,127.5,14|8,0:1|0:2,0:0:0:0:
2,109,97064,1,10,0:1:0:0:
2,193,97397,1,10,0:2:0:0:
54,260,97731,6,0,B|130:278|130:278|145:263|179:245,1,127.5,14|2,0:1|0:0,0:0:0:0:
249,218,98564,1,10,0:1:0:0:
328,247,98897,2,0,P|394:269|450:243,1,127.5,10|8,0:1|0:2,0:0:0:0:
499,182,99731,2,0,P|489:135|483:96,1,84.9999999999999,8|10,0:1|0:2,0:0:0:0:
429,34,100397,6,0,B|383:34|352:51|352:51|330:43|306:37,1,127.5,10|2,0:1|0:0,0:0:0:0:
222,21,101231,1,10,0:1:0:0:
175,92,101564,2,0,P|207:146|194:220,1,127.5,10|8,0:1|0:2,0:0:0:0:
150,277,102397,1,10,0:1:0:0:
66,294,102731,1,10,0:2:0:0:
2,237,103064,6,0,B|32:199|32:199|16:109,1,127.5,14|2,0:1|0:0,0:0:0:0:
49,42,103897,1,10,0:1:0:0:
131,20,104231,2,0,P|192:49|257:33,1,127.5,10|8,0:1|0:2,0:0:0:0:
330,15,105064,2,0,P|375:21|417:28,1,84.9999999999999,8|10,0:1|0:2,0:0:0:0:
497,44,105731,6,0,B|481:84|475:111|475:111|492:131|502:173,1,127.5,10|2,0:1|0:0,0:0:0:0:
457,236,106564,1,10,0:1:0:0:
404,302,106897,2,0,P|335:286|275:315,1,127.5,14|2,0:1|0:3,0:0:0:0:
209,347,107731,1,14,0:2:0:0:
124,347,108064,1,10,0:2:0:0:
55,296,108397,6,0,B|88:250|88:250|61:126,1,170,14|10,0:1|0:2,0:0:0:0:
162,57,109564,2,0,P|204:68|247:59,1,84.9999999999999,10|10,0:1|0:1,0:0:0:0:
316,15,110231,2,0,P|291:49|301:142,1,127.5,10|6,0:1|0:2,0:0:0:0:
332,207,111064,6,0,B|435:183|435:183|470:199|485:231,1,170,12|10,0:1|0:2,0:0:0:0:
426,340,112231,2,0,P|382:334|338:328,1,84.9999999999999,14|10,0:1|0:1,0:0:0:0:
257,320,112897,2,0,P|200:357|130:341,1,127.5,14|12,0:1|0:2,0:0:0:0:
74,299,113731,6,0,P|81:256|87:203,1,84.9999999999999,12|6,0:1|0:2,0:0:0:0:
141,150,114397,2,0,P|114:102|130:23,2,127.5,10|10|4,0:2|0:1|0:2,0:0:0:0:
210,199,115731,2,0,P|255:189|296:181,1,84.9999999999999,8|8,0:2|0:3,0:0:0:0:
351,119,116397,6,0,P|396:129|437:137,1,84.9999999999999,14|8,0:1|0:2,0:0:0:0:
487,202,117064,2,0,B|475:229|465:245|465:245|490:280|497:326,2,127.5,8|10|10,0:2|0:1|0:2,0:0:0:0:
294,34,119064,6,0,B|255:51|255:51|203:44,1,84.9999999999999,14|8,0:1|0:2,0:0:0:0:
128,31,119731,2,0,P|94:82|111:155,1,127.5,10|10,0:1|0:1,0:0:0:0:
147,217,120564,1,10,0:1:0:0:
222,178,120897,2,0,B|285:187|276:184|353:196,1,127.5,10|12,0:1|0:2,0:0:0:0:
432,209,121731,6,0,B|447:249|447:249|430:300,1,84.9999999999999,14|8,0:1|0:2,0:0:0:0:
377,352,122397,2,0,P|319:322|253:332,1,127.5,10|10,0:1|0:1,0:0:0:0:
184,369,123231,1,10,0:1:0:0:
101,350,123564,2,0,B|93:295|95:304|82:206,1,127.5,10|4,0:1|0:3,0:0:0:0:
19,168,124397,6,0,P|10:128|20:84,1,84.9999999999999,12|10,0:1|0:2,0:0:0:0:
79,25,125064,2,0,P|119:16|163:26,1,84.9999999999999,10|8,0:1|0:2,0:0:0:0:
242,52,125731,1,14,0:1:0:0:
278,128,126064,1,10,0:2:0:0:
256,210,126397,2,0,B|357:231|357:231|386:220|414:191,1,170,10|12,0:1|0:1,0:0:0:0:
453,119,127397,5,10,0:2:0:0:
407,46,127731,2,0,P|366:30|314:34,1,84.9999999999999,10|8,0:2|0:2,0:0:0:0:
242,52,128397,1,10,0:2:0:0:
162,83,128731,2,0,P|121:67|69:71,2,84.9999999999999,10|10|10,0:2|0:2|0:3,0:0:0:0:
215,148,129731,6,0,B|199:187|199:187|208:228,1,84.9999999999999,14|8,0:1|0:2,0:0:0:0:
223,312,130397,2,0,P|168:339|93:320,1,127.5,10|10,0:1|0:1,0:0:0:0:
32,282,131231,1,10,0:1:0:0:
4,201,131564,2,0,P|10:139|17:70,1,127.5,10|12,0:1|0:2,0:0:0:0:
93,37,132397,6,0,B|134:52|134:52|175:43,1,84.9999999999999,14|8,0:1|0:2,0:0:0:0:
243,92,133064,2,0,P|210:152|224:221,1,127.5,10|10,0:1|0:1,0:0:0:0:
249,287,133897,1,10,0:1:0:0:
319,334,134231,2,0,B|384:326|370:328|450:319,1,127.5,10|8,0:3|0:2,0:0:0:0:
504,257,135064,6,0,P|507:214|510:172,1,84.9999999999999,12|10,0:1|0:2,0:0:0:0:
431,141,135731,2,0,P|427:98|424:56,1,84.9999999999999,10|8,0:1|0:2,0:0:0:0:
348,17,136397,1,14,0:1:0:0:
266,42,136731,1,10,0:2:0:0:
250,125,137064,2,0,B|149:106|149:106|127:134|86:147,1,170,10|12,0:1|0:1,0:0:0:0:
10,155,138064,5,10,0:2:0:0:
1,239,138397,2,0,P|13:280|23:326,1,84.9999999999999,10|8,0:2|0:2,0:0:0:0:
97,360,139064,2,0,P|139:338|184:338,1,84.9999999999999,10|8,0:1|0:2,0:0:0:0:
242,283,139731,2,0,P|284:305|329:305,1,84.9999999999999,10|4,0:2|0:3,0:0:0:0:
400,277,140397,5,14,0:2:0:0:
424,195,140731,2,0,P|465:201|507:208,2,84.9999999999999,10|10|8,0:2|0:2|0:2,0:0:0:0:
339,183,141731,1,12,0:2:0:0:
278,123,142064,2,0,P|294:84|291:40,2,84.9999999999999,10|10|8,0:2|0:2|0:2,0:0:0:0:
196,146,143064,6,0,P|153:134|111:141,1,84.9999999999999,12|10,0:2|0:2,0:0:0:0:
41,184,143731,2,0,P|29:227|36:269,1,84.9999999999999,10|10,0:2|0:2,0:0:0:0:
65,345,144397,2,0,P|107:339|154:333,1,84.9999999999999,14|14,0:2|0:2,0:0:0:0:
232,317,145064,1,10,0:2:0:0:
286,251,145397,1,14,0:2:0:0:
289,165,145731,6,0,B|393:139|393:139|432:155|447:188,1,170,14|10,0:2|0:2,0:0:0:0:
463,259,146731,1,8,0:2:0:0:
423,333,147064,2,0,P|381:324|333:317,1,84.9999999999999,12|10,0:2|0:2,0:0:0:0:
286,251,147731,2,0,P|244:260|196:267,1,84.9999999999999,10|10,0:2|0:2,0:0:0:0:
118,281,148397,6,0,P|59:303|1:280,2,127.5,14|10|10,0:2|0:1|0:2,0:0:0:0:
147,200,149731,2,0,P|152:153|156:110,1,84.9999999999999,14|8,0:2|0:2,0:0:0:0:
170,31,150397,1,10,0:2:0:0:
253,15,150731,1,8,0:2:0:0:
325,58,151064,6,0,P|337:99|328:146,1,84.9999999999999,14|10,0:1|0:2,0:0:0:0:
267,196,151731,2,0,B|184:179|184:179|141:203,2,127.5,10|14|10,0:2|0:1|0:2,0:0:0:0:
309,269,153064,2,0,P|350:262|394:256,1,84.9999999999999,8|10,0:1|0:2,0:0:0:0:
474,231,153731,6,0,P|479:186|464:147,1,84.9999999999999,14|10,0:1|0:2,0:0:0:0:
406,87,154397,2,0,B|361:87|323:104|323:104|302:95|280:80,1,127.5,10|14,0:2|0:1,0:0:0:0:
219,30,155231,1,10,0:1:0:0:
145,71,155564,2,0,P|156:138|164:198,1,127.5,2|10,0:0|0:2,0:0:0:0:
172,281,156397,6,0,P|128:293|79:285,2,84.9999999999999,14|10|10,0:1|0:2|0:1,0:0:0:0:
243,234,157397,1,10,0:2:0:0:
297,168,157731,2,0,P|341:156|390:164,1,84.9999999999999,2|10,0:3|0:2,0:0:0:0:
452,203,158397,2,0,P|464:247|456:296,1,84.9999999999999,10|10,0:1|0:2,0:0:0:0:
405,351,159064,6,0,B|366:331|366:331|281:345,1,127.5,14|2,0:1|0:0,0:0:0:0:
200,362,159897,1,10,0:1:0:0:
124,322,160231,2,0,P|104:267|120:200,1,127.5,10|10,0:1|0:2,0:0:0:0:
167,131,161064,1,10,0:3:0:0:
247,104,161397,1,6,0:3:0:0:
324,138,161731,5,14,0:1:0:0:
174,157,167064,6,0,B|240:145|240:145|268:119|268:119|340:107,1,170,12|14,0:1|0:1,0:0:0:0:
395,265,168397,2,0,B|331:275|331:275|303:301|303:301|237:313,1,170,14|14,0:1|0:1,0:0:0:0:
66,312,169731,6,0,P|56:264|44:218,1,84.9999999999999,8|10,0:2|0:2,0:0:0:0:
6,154,170397,2,0,P|16:106|28:60,1,84.9999999999999,10|8,0:2|0:2,0:0:0:0:
94,21,171064,2,0,L|141:35,1,42.5,10|10,0:2|0:2,0:0:0:0:
256,192,172397,6,0,B|240:232|240:232|252:281,1,84.9999999999999,14|8,0:1|0:2,0:0:0:0:
270,355,173064,2,0,B|356:341|333:344|414:331,1,127.5,10|10,0:1|0:1,0:0:0:0:
479,318,173897,1,10,0:1:0:0:
508,238,174231,2,0,P|477:187|494:113,1,127.5,10|12,0:1|0:2,0:0:0:0:
420,70,175064,6,0,B|380:84|380:84|326:76,1,84.9999999999999,14|8,0:1|0:2,0:0:0:0:
252,72,175731,2,0,B|260:134|257:110|270:208,1,127.5,10|10,0:1|0:1,0:0:0:0:
278,283,176564,1,10,0:1:0:0:
217,342,176897,2,0,P|154:361|86:332,1,127.5,10|4,0:1|0:3,0:0:0:0:
31,287,177731,6,0,P|45:250|46:202,1,84.9999999999999,12|10,0:1|0:2,0:0:0:0:
93,134,178397,2,0,P|130:148|178:149,1,84.9999999999999,10|8,0:1|0:2,0:0:0:0:
258,133,179064,1,14,0:1:0:0:
331,90,179397,1,10,0:2:0:0:
409,122,179731,2,0,B|387:218|387:218|414:248|420:293,1,170,10|12,0:1|0:1,0:0:0:0:
365,348,180731,5,10,0:2:0:0:
282,329,181064,2,0,P|265:292|267:243,1,84.9999999999999,10|8,0:2|0:2,0:0:0:0:
293,167,181731,1,10,0:2:0:0:
331,90,182064,2,0,P|372:98|420:108,2,84.9999999999999,10|10|10,0:2|0:2|0:3,0:0:0:0:
246,76,183064,6,0,B|203:88|203:88|164:75,1,84.9999999999999,14|8,0:1|0:2,0:0:0:0:
81,57,183731,2,0,P|46:108|59:179,1,127.5,10|10,0:1|0:1,0:0:0:0:
111,232,184564,1,10,0:1:0:0:
185,190,184897,2,0,B|250:198|239:198|329:210,1,127.5,10|12,0:1|0:2,0:0:0:0:
393,229,185731,6,0,B|406:271|406:271|391:317,1,84.9999999999999,14|8,0:1|0:2,0:0:0:0:
320,354,186397,2,0,P|251:314|190:327,1,127.5,10|10,0:1|0:1,0:0:0:0:
127,352,187231,1,10,0:1:0:0:
56,305,187564,2,0,B|65:238|64:252|74:171,1,127.5,10|8,0:3|0:2,0:0:0:0:
84,94,188397,6,0,P|126:84|168:92,1,84.9999999999999,12|10,0:1|0:2,0:0:0:0:
245,123,189064,2,0,P|287:133|329:125,1,84.9999999999999,10|8,0:1|0:2,0:0:0:0:
411,110,189731,1,14,0:1:0:0:
467,173,190064,1,10,0:2:0:0:
447,255,190397,2,0,B|385:254|345:241|345:241|310:256|293:297,1,170,10|12,0:1|0:1,0:0:0:0:
265,365,191397,5,10,0:2:0:0:
187,328,191731,2,0,P|178:284|188:242,1,84.9999999999999,10|8,0:2|0:2,0:0:0:0:
249,188,192397,2,0,P|258:144|248:102,1,84.9999999999999,10|4,0:2|0:3,0:0:0:0:
192,41,193064,1,10,0:2:0:0:
110,16,193397,1,10,0:3:0:0:
36,59,193731,6,0,P|41:106|46:149,1,84.9999999999999,14|8,0:1|0:2,0:0:0:0:
98,209,194397,2,0,B|84:253|77:291|77:291|105:339,2,127.5,10|14|8,0:2|0:1|0:2,0:0:0:0:
159,149,195731,2,0,P|200:161|247:153,1,84.9999999999999,8|10,0:1|0:2,0:0:0:0:
313,111,196397,6,0,P|362:118|398:124,1,84.9999999999999,14|8,0:1|0:2,0:0:0:0:
480,140,197064,2,0,B|484:181|499:203|499:203|482:219|466:259,2,127.5,8|14|10,0:2|0:1|0:2,0:0:0:0:
494,56,198397,1,8,0:1:0:0:
418,17,198731,1,10,0:2:0:0:
344,59,199064,6,0,P|272:78|214:55,1,127.5,14|2,0:1|0:0,0:0:0:0:
149,20,199897,1,10,0:1:0:0:
86,77,200231,2,0,P|94:118|102:170,1,84.9999999999999,10|10,0:1|0:1,0:0:0:0:
174,202,200897,2,0,B|160:274|161:266|147:347,1,127.5,2|10,0:0|0:2,0:0:0:0:
227,363,201731,6,0,P|271:369|316:351,1,84.9999999999999,14|10,0:1|0:2,0:0:0:0:
365,293,202397,2,0,B|445:316|445:316|493:290,2,127.5,8|10|10,0:1|0:1|0:2,0:0:0:0:
283,267,203731,1,10,0:1:0:0:
257,186,204064,1,10,0:2:0:0:
279,104,204397,6,0,P|317:95|365:104,1,84.9999999999999,14|8,0:1|0:2,0:0:0:0:
439,137,205064,2,0,B|468:100|468:100|447:14,2,127.5,8|14|8,0:1|0:1|0:2,0:0:0:0:
371,188,206397,2,0,P|380:231|388:275,1,84.9999999999999,8|10,0:1|0:2,0:0:0:0:
323,327,207064,6,0,P|288:312|240:318,1,84.9999999999999,14|8,0:1|0:2,0:0:0:0:
163,349,207731,2,0,B|122:360|90:342|90:342|68:343|30:359,2,127.5,8|14|8,0:1|0:1|0:2,0:0:0:0:
242,317,209064,1,10,0:1:0:0:
261,234,209397,1,10,0:2:0:0:
224,157,209731,6,0,P|188:146|142:154,1,84.9999999999999,14|8,0:1|0:2,0:0:0:0:
59,175,210397,2,0,B|38:130|38:130|56:47,2,127.5,8|10|8,0:1|0:1|0:2,0:0:0:0:
108,244,211731,2,0,P|99:284|92:329,1,84.9999999999999,8|10,0:1|0:2,0:0:0:0:
166,368,212397,6,0,P|203:350|262:356,1,84.9999999999999,14|8,0:1|0:2,0:0:0:0:
312,296,213064,2,0,P|370:322|431:308,2,127.5,8|10|8,0:1|0:1|0:2,0:0:0:0:
252,237,214397,2,0,P|256:191|261:140,1,84.9999999999999,10|8,0:1|0:2,0:0:0:0:
267,67,215064,5,14,0:1:0:0:
256,192,215231,12,0,220397,0:0:0:0:
