osu file format v14

[General]
AudioFilename: audio.mp3
AudioLeadIn: 0
PreviewTime: 61001
Countdown: 0
SampleSet: Soft
StackLeniency: 0.7
Mode: 0
LetterboxInBreaks: 0
WidescreenStoryboard: 1

[Editor]
DistanceSpacing: 0.9
BeatDivisor: 4
GridSize: 32
TimelineZoom: 1.5

[Metadata]
Title:Asu e no Kyoukaisen
TitleUnicode:明日への境界線
Artist:KINEMA106
ArtistUnicode:キネマ106
Creator:-Aqua
Version:Normal
Source:
Tags:艦隊これくしょん -艦これ- Kantai Collection 艦これ KanColle 柊南 ひいな Hiina Tom jun-jun 茶々畑。あたる ataru 阿武隈のオリジナル曲 Abukuma Original Song Japanese Pop Rock J-pop Jpop J-rock Jrock Full Version Kyōkai Kyokai Kinema 106 刻炎 -Eresh
BeatmapID:3319849
BeatmapSetID:1613010

[Difficulty]
HPDrainRate:4
CircleSize:3.4
OverallDifficulty:4
ApproachRate:5.5
SliderMultiplier:1.2
SliderTickRate:1

[Events]
//Background and Video events
0,0,"bg.jpg",0,0
//Break Periods
//Storyboard Layer 0 (Background)
//Storyboard Layer 1 (Fail)
//Storyboard Layer 2 (Pass)
//Storyboard Layer 3 (Foreground)
//Storyboard Layer 4 (Overlay)
//Storyboard Sound Samples

[TimingPoints]
1407,324.324324324325,4,2,1,60,1,0
2379,-100,4,2,1,10,0,0
4001,-100,4,2,1,20,0,0
5298,-100,4,2,1,30,0,0
5461,-100,4,2,1,5,0,0
6109,-100,4,2,1,50,0,0
6596,-100,4,2,1,60,0,0
7731,-100,4,2,1,60,0,0
8542,-100,4,2,1,60,0,0
9028,-100,4,2,1,70,0,1
9109,-100,4,2,1,70,0,0
11055,-100,4,2,1,5,0,0
11298,-100,4,2,1,70,0,0
11379,-100,4,2,1,5,0,0
11461,-100,4,2,1,70,0,0
19569,-100,4,2,1,60,0,0
28488,-100,4,2,1,60,0,0
29379,-100,4,2,1,5,0,0
29461,-100,4,2,1,60,0,0
29866,-100,4,2,1,5,0,0
29947,-100,4,2,1,60,0,0
37569,-100,4,2,1,60,0,0
38055,-100,4,2,1,60,0,0
38866,-100,4,2,1,60,0,0
39515,-100,4,2,1,60,0,0
40325,-100,4,2,1,60,0,0
42758,-100,4,2,1,70,0,0
44866,-100,4,2,1,70,0,0
45515,-100,4,2,1,60,0,0
47947,-100,4,2,1,70,0,0
50542,-100,4,2,1,60,0,0
53785,-100,4,2,1,60,0,0
54434,-100,4,2,1,60,0,0
55082,-100,4,2,1,60,0,0
55731,-100,4,2,1,60,0,0
58325,-100,4,2,1,70,0,0
61082,-100,4,2,1,85,0,1
62947,-100,4,2,1,5,0,1
63190,-100,4,2,1,85,0,1
63271,-100,4,2,1,5,0,1
63515,-100,4,2,1,85,0,1
63758,-100,4,2,1,5,0,1
63839,-100,4,2,1,85,0,1
66109,-100,4,2,1,85,0,1
71379,-100,4,2,1,85,0,0
71461,-100,4,2,1,85,0,1
73325,-100,4,2,1,5,0,1
73568,-100,4,2,1,85,0,1
73649,-100,4,2,1,5,0,1
73893,-100,4,2,1,85,0,1
74136,-100,4,2,1,5,0,1
74217,-100,4,2,1,85,0,1
81758,-100,4,2,1,85,0,0
81839,-100,4,2,1,70,0,1
81920,-100,4,2,1,70,0,0
82407,-100,4,2,1,5,0,0
82488,-100,4,2,1,70,0,0
83704,-100,4,2,1,5,0,0
83947,-100,4,2,1,70,0,0
84028,-100,4,2,1,5,0,0
84109,-100,4,2,1,70,0,0
92217,-100,4,2,1,60,0,0
101136,-100,4,2,1,60,0,0
102028,-100,4,2,1,5,0,0
102109,-100,4,2,1,60,0,0
102677,-100,4,2,1,5,0,0
102758,-100,4,2,1,60,0,0
110217,-100,4,2,1,60,0,0
110704,-100,4,2,1,60,0,0
111515,-100,4,2,1,60,0,0
112001,-100,4,2,1,60,0,0
115461,-100,4,2,1,45,0,0
121731,-100,4,2,1,70,0,0
123190,-100,4,2,1,60,0,0
126434,-100,4,2,1,60,0,0
127082,-100,4,2,1,60,0,0
128379,-100,4,2,1,60,0,0
130974,-100,4,2,1,70,0,0
133082,-100,4,2,1,70,0,0
133731,-100,4,2,1,75,0,0
133974,-100,4,2,1,5,0,0
134055,-100,4,2,1,75,0,0
135596,-100,4,2,1,5,0,0
135839,-100,4,2,1,75,0,0
135920,-100,4,2,1,5,0,0
136163,-100,4,2,1,75,0,0
144109,-100,4,2,1,75,0,0
145974,-100,4,2,1,5,0,0
146217,-100,4,2,1,75,0,0
146298,-100,4,2,1,5,0,0
146542,-100,4,2,1,75,0,0
153677,-100,4,2,1,75,0,0
154488,-100,4,2,1,60,0,0
156920,-100,4,2,1,70,0,0
159028,-100,4,2,1,70,0,0
159677,-100,4,2,1,60,0,0
162109,-100,4,2,1,70,0,0
164704,-100,4,2,1,60,0,0
167947,-100,4,2,1,60,0,0
168596,-100,4,2,1,60,0,0
169244,-100,4,2,1,60,0,0
169893,-100,4,2,1,60,0,0
172487,-100,4,2,1,70,0,0
175244,-100,4,2,1,50,0,0
176379,-100,4,2,1,60,0,0
177109,-100,4,2,1,5,0,0
177352,-100,4,2,1,60,0,0
177434,-100,4,2,1,5,0,0
177677,-100,4,2,1,85,0,1
177920,-100,4,2,1,5,0,1
178001,-100,4,2,1,85,0,1
180271,-100,4,2,1,85,0,1
185542,-100,4,2,1,85,0,0
185623,-100,4,2,1,85,0,1
187488,-100,4,2,1,5,0,1
187731,-100,4,2,1,85,0,1
187812,-100,4,2,1,5,0,1
188056,-100,4,2,1,85,0,1
188299,-100,4,2,1,5,0,1
188380,-100,4,2,1,85,0,1
195839,-100,4,2,1,60,0,0
197136,-100,4,2,1,60,0,0
198352,-100,4,2,1,5,0,0
198434,-100,4,2,1,70,0,1
198515,-100,4,2,1,70,0,0
200461,-100,4,2,1,5,0,0
200704,-100,4,2,1,70,0,0
200785,-100,4,2,1,5,0,0
200866,-100,4,2,1,70,0,0
208974,-100,4,2,1,55,0,0
210271,-100,4,2,1,45,0,0
211569,-100,4,2,1,35,0,0
212866,-100,4,2,1,25,0,0
214163,-100,4,2,1,15,0,0
215461,-100,4,2,1,5,0,0

[Colours]
Combo1 : 211,211,211
Combo2 : 255,255,168
Combo3 : 168,168,255
Combo4 : 255,168,168

[HitObjects]
256,192,2379,12,0,5461,0:0:0:0:
64,288,6109,6,0,P|56:317|48:345,2,60,0|0|0,0:0|0:0|0:0,0:0:0:0:
33,242,6596,2,0,P|84:200|143:219,1,120,2|0,0:0|0:0,0:0:0:0:
168,251,7082,1,2,0:0:0:0:
263,200,7407,1,0,0:0:0:0:
323,289,7731,1,2,0:0:0:0:
508,125,8542,6,0,P|498:96|495:66,1,60,8|8,0:0|3:0,0:0:0:0:
453,32,8866,1,0,1:0:0:0:
453,32,9028,6,0,P|390:51|325:64,1,120,6|0,1:2|1:0,0:0:0:0:
314,111,9515,1,8,0:0:0:0:
217,62,9839,2,0,P|213:32|203:3,2,60,2|2|8,1:2|1:2|0:0,0:0:0:0:
174,95,10325,2,0,B|129:133|129:133|159:210,1,120,2|0,1:2|1:0,0:0:0:0:
206,194,10812,1,8,0:0:0:0:
206,194,10974,1,2,1:2:0:0:
300,246,11298,2,0,P|291:292|289:320,1,60,2|8,1:2|0:0,0:0:0:0:
315,353,11623,6,0,P|269:334|172:334,1,120,6|2,1:2|1:2,0:0:0:0:
168,284,12109,2,0,P|138:287|108:294,1,60,10|2,0:0|0:0,0:0:0:0:
72,334,12434,1,2,1:2:0:0:
72,334,12596,1,2,1:2:0:0:
16,241,12920,2,0,P|-22:196|24:134,1,120,2|2,1:2|1:2,0:0:0:0:
24,97,13407,1,10,0:0:0:0:
24,97,13569,2,0,P|85:86|148:71,1,120,2|2,0:0|1:2,0:0:0:0:
187,102,14055,1,10,0:0:0:0:
187,102,14217,5,6,1:2:0:0:
271,169,14542,2,0,P|262:215|260:243,1,60,0|10,1:0|0:0,0:0:0:0:
224,267,14866,2,0,P|257:315|329:286,1,120,2|0,0:0|1:0,0:0:0:0:
358,279,15352,1,10,0:0:0:0:
358,279,15515,1,6,1:2:0:0:
450,222,15839,2,0,P|441:176|439:148,1,60,0|10,1:0|0:0,0:0:0:0:
482,130,16163,2,0,P|488:73|441:41,1,120,2|0,0:0|1:0,0:0:0:0:
390,23,16650,1,10,0:0:0:0:
390,23,16812,5,6,1:2:0:0:
322,108,17136,1,0,1:0:0:0:
322,108,17298,2,0,P|292:111|262:118,1,60,8|2,0:0|0:0,0:0:0:0:
241,68,17623,2,0,P|211:64|181:57,1,60,0|0,1:0|1:0,0:0:0:0:
142,94,17947,1,8,0:0:0:0:
142,94,18109,2,0,B|88:134|88:134|106:188,1,120,2|2,1:2|1:2,0:0:0:0:
150,213,18596,1,10,0:0:0:0:
150,213,18758,1,2,0:0:0:0:
57,264,19082,1,8,3:0:0:0:
57,264,19244,2,0,P|50:305|41:341,1,60,4|0,3:0|1:0,0:0:0:0:
84,361,19569,6,0,P|153:372|214:388,1,120,6|8,1:2|0:0,0:0:0:0:
244,351,20055,2,0,P|278:328|258:238,1,120,2|2,0:0|0:0,0:0:0:0:
233,222,20542,1,8,0:0:0:0:
233,222,20704,1,2,1:2:0:0:
151,160,21028,1,0,1:0:0:0:
151,160,21190,2,0,P|160:115|160:85,1,60,8|0,0:0|0:0,0:0:0:0:
210,79,21515,2,0,P|201:34|201:4,2,60,0|0|10,1:2|0:0|0:0,0:0:0:0:
257,104,22001,1,2,0:0:0:0:
257,104,22163,6,0,P|315:89|374:80,1,120,2|10,1:2|0:0,0:0:0:0:
399,31,22650,1,2,0:0:0:0:
484,96,22974,2,0,P|475:141|475:171,1,60,2|8,0:0|0:0,0:0:0:0:
423,172,23298,2,0,B|385:217|385:217|411:277,1,120,2|0,1:2|1:0,0:0:0:0:
450,308,23785,2,0,P|495:299|525:299,2,60,10|2|2,0:0|0:0|1:2,0:0:0:0:
433,361,24271,1,2,1:2:0:0:
433,361,24434,1,10,0:0:0:0:
326,380,24758,6,0,P|268:365|209:356,1,120,6|10,1:2|0:2,0:0:0:0:
159,259,25407,2,0,P|218:249|276:234,1,120,2|8,1:2|0:0,0:0:0:0:
323,260,25893,2,0,P|365:220|360:163,1,120,2|0,1:2|1:2,0:0:0:0:
330,118,26379,1,10,0:0:0:0:
275,24,26704,2,0,P|233:17|192:7,1,60,2|0,1:2|1:2,0:0:0:0:
191,63,27028,1,8,0:0:0:0:
191,63,27190,6,0,P|131:72|73:87,1,120,2|2,1:2|1:2,0:0:0:0:
42,131,27677,1,10,0:0:0:0:
42,131,27839,1,2,1:2:0:0:
4,232,28163,2,0,P|10:261|14:291,1,60,2|10,1:2|0:0,0:0:0:0:
57,324,28488,2,0,P|114:333|155:292,1,120,6|2,1:2|1:2,0:0:0:0:
175,242,28974,1,10,0:0:0:0:
175,242,29136,2,2,P|228:253|299:261,1,120,6|6,1:2|1:2,0:0:0:0:
433,352,29947,5,6,1:2:0:0:
433,352,30109,2,0,P|456:325|439:284,1,60,2|8,0:0|0:2,0:0:0:0:
501,277,30433,2,0,P|509:220|467:180,1,120,2|2,0:0|1:2,0:0:0:0:
417,179,30920,1,8,0:2:0:0:
417,179,31082,1,2,1:2:0:0:
352,98,31406,2,0,P|322:106|293:108,1,60,2|8,1:2|0:0,0:0:0:0:
271,158,31731,2,0,B|192:173|240:197|134:205,1,120,2|0,0:0|1:0,0:0:0:0:
134,249,32217,2,0,P|89:240|59:240,1,60,10|2,0:0|0:0,0:0:0:0:
30,209,32541,6,0,P|25:151|74:110,1,120,2|8,1:2|0:0,0:0:0:0:
117,90,33028,1,2,0:0:0:0:
200,22,33352,2,0,P|245:31|275:31,1,60,2|8,0:0|0:0,0:0:0:0:
274,83,33677,2,0,P|350:67|401:67,1,120,2|2,1:2|1:2,0:0:0:0:
441,88,34163,2,0,P|458:134|451:156,1,60,8|2,0:0|0:0,0:0:0:0:
412,174,34488,2,0,P|395:220|402:242,1,60,2|2,1:2|1:2,0:0:0:0:
439,262,34812,1,10,0:2:0:0:
369,344,35136,6,0,P|313:347|260:296,1,120,6|10,1:2|0:2,0:0:0:0:
188,232,35785,2,0,P|132:229|79:280,1,120,2|8,1:2|0:0,0:0:0:0:
49,308,36271,2,0,P|38:248|23:190,1,120,6|0,1:2|1:2,0:0:0:0:
54,146,36757,1,10,0:0:0:0:
121,61,37082,2,0,P|150:67|180:71,1,60,2|0,1:2|1:2,0:0:0:0:
224,41,37406,1,10,0:0:0:0:
224,41,37568,6,0,P|262:83|245:138,1,120,6|0,1:2|1:2,0:0:0:0:
203,172,38055,1,10,0:2:0:0:
127,249,38379,2,0,P|133:278|137:308,1,60,2|2,1:2|1:2,0:0:0:0:
177,352,38704,1,8,0:2:0:0:
177,352,38866,2,0,P|244:337|314:328,1,120,6|2,1:2|1:2,0:0:0:0:
312,281,39352,1,8,0:0:0:0:
312,281,39515,2,0,P|371:289|429:303,1,120,2|2,1:2|1:2,0:0:0:0:
496,219,40163,1,2,0:2:0:0:
496,219,40325,6,0,P|529:171|512:111,1,120,6|8,1:2|0:0,0:0:0:0:
470,83,40812,1,2,0:0:0:0:
470,83,40974,2,0,P|478:54|485:24,2,60,2|0|8,1:2|1:0|0:2,0:0:0:0:
421,99,41461,1,2,0:0:0:0:
421,99,41623,1,2,1:2:0:0:
324,147,41947,2,0,P|295:139|265:132,1,60,8|2,0:0|0:0,0:0:0:0:
234,88,42271,2,0,P|205:96|175:103,1,60,2|0,1:2|1:0,0:0:0:0:
149,151,42596,1,8,0:0:0:0:
149,151,42758,6,0,B|99:192|99:192|121:247,1,120,6|2,1:2|1:2,0:0:0:0:
172,251,43244,1,10,0:0:0:0:
121,346,43569,2,0,P|92:338|62:331,2,60,2|0|10,1:2|1:0|0:0,0:0:0:0:
159,383,44055,2,0,B|233:376|198:355|278:348,1,120,2|2,1:2|1:2,0:0:0:0:
308,307,44542,1,10,0:0:0:0:
210,259,44866,2,0,P|220:204|222:180,1,60,0|0,1:0|1:0,0:0:0:0:
273,189,45190,2,0,P|263:134|261:110,1,60,8|0,0:0|1:0,0:0:0:0:
218,98,45515,6,0,P|258:50|319:66,1,120,6|8,1:2|0:0,0:0:0:0:
367,58,46001,1,2,0:0:0:0:
367,58,46163,2,0,P|375:29|382:-1,2,60,2|0|8,1:2|1:0|0:2,0:0:0:0:
404,104,46650,1,2,0:0:0:0:
404,104,46812,1,2,1:2:0:0:
479,181,47136,2,0,P|471:210|464:240,1,60,8|2,0:2|0:0,0:0:0:0:
420,270,47460,2,0,P|391:262|361:255,1,60,2|0,1:2|1:0,0:0:0:0:
344,209,47785,1,8,0:0:0:0:
344,209,47947,6,0,P|302:162|228:181,1,120,6|0,1:2|1:0,0:0:0:0:
215,207,48433,1,10,0:0:0:0:
133,136,48758,2,0,P|141:107|148:77,2,60,4|8|10,3:0|3:0|0:2,0:0:0:0:
87,165,49244,2,0,B|37:200|37:200|51:258,1,120,2|10,1:2|0:2,0:0:0:0:
97,295,49731,1,10,0:0:0:0:
97,295,49893,2,0,P|126:299|156:305,1,60,10|0,0:0|1:0,0:0:0:0:
183,352,50217,2,0,P|238:342|262:340,1,60,10|0,0:0|1:0,0:0:0:0:
276,299,50542,5,6,1:2:0:0:
221,205,50866,2,0,P|231:150|233:126,1,60,2|10,1:2|0:0,0:0:0:0:
211,95,51190,2,0,P|256:49|309:66,1,120,2|2,0:2|1:2,0:0:0:0:
345,97,51677,1,8,0:0:0:0:
345,97,51839,1,2,1:2:0:0:
412,181,52163,2,0,P|416:210|422:240,1,60,2|8,1:2|0:0,0:0:0:0:
470,265,52488,2,0,P|480:321|436:358,1,120,2|2,0:0|1:2,0:0:0:0:
388,334,52974,1,10,0:0:0:0:
388,334,53136,5,2,1:2:0:0:
295,277,53461,2,0,P|265:285|209:291,1,60,2|8,1:2|0:0,0:0:0:0:
220,341,53785,2,0,P|175:329|92:319,1,120,2|2,1:2|1:2,0:0:0:0:
76,272,54271,1,8,0:0:0:0:
76,272,54434,1,2,1:2:0:0:
8,187,54758,1,2,1:2:0:0:
8,187,54920,2,0,P|21:148|32:107,1,60,8|2,0:0|1:2,0:0:0:0:
75,108,55244,2,0,P|62:69|51:28,2,60,8|4|8,3:0|3:0|3:0,0:0:0:0:
124,130,55731,6,0,P|185:127|228:75,1,120,6|2,1:2|1:2,0:0:0:0:
237,34,56217,1,10,0:0:0:0:
237,34,56379,1,2,0:0:0:0:
343,13,56704,2,0,P|389:25|413:29,1,60,2|10,1:2|0:0,0:0:0:0:
429,73,57028,2,0,B|480:120|480:120|447:189,1,120,2|0,1:2|1:0,0:0:0:0:
408,186,57515,1,8,0:0:0:0:
408,186,57677,2,0,P|363:230|385:284,1,120,2|2,0:0|1:2,0:0:0:0:
429,296,58163,1,8,0:0:0:0:
429,296,58325,5,6,1:2:0:0:
350,370,58650,1,2,1:2:0:0:
350,370,58812,2,0,P|320:376|291:384,1,60,10|2,0:0|1:2,0:0:0:0:
244,358,59136,2,0,P|237:328|229:299,1,60,10|2,0:0|1:2,0:0:0:0:
266,260,59461,1,10,0:0:0:0:
266,260,59623,1,2,1:2:0:0:
188,184,59947,1,8,0:0:0:0:
188,184,60109,1,8,0:0:0:0:
369,85,61082,6,0,P|356:43|352:14,1,60,6|0,1:2|1:0,0:0:0:0:
306,0,61407,2,0,P|264:12|235:16,1,60,8|0,0:0|1:0,0:0:0:0:
238,68,61731,2,0,P|190:57|107:48,1,120,2|8,0:0|0:0,0:0:0:0:
82,10,62217,1,2,1:2:0:0:
0,81,62542,2,0,P|4:123|36:145,1,60,0|8,1:0|0:0,0:0:0:0:
67,145,62866,1,2,1:2:0:0:
0,230,63190,1,2,1:2:0:0:
64,317,63515,6,0,P|127:327|204:356,1,120,6|0,1:2|1:0,0:0:0:0:
221,310,64001,1,10,0:2:0:0:
277,218,64325,2,0,P|305:209|335:205,2,60,2|2|10,0:0|1:2|0:0,0:0:0:0:
236,181,64812,1,2,1:2:0:0:
236,181,64974,2,0,P|210:149|217:113,1,60,2|2,0:2|1:2,0:0:0:0:
229,81,65298,1,10,0:0:0:0:
229,81,65461,1,2,1:2:0:0:
313,13,65785,2,0,P|341:21|371:25,1,60,2|8,1:2|0:0,0:0:0:0:
387,77,66109,6,0,P|444:77|477:125,1,120,6|0,1:2|1:0,0:0:0:0:
507,170,66596,2,0,P|498:198|494:228,1,60,10|2,0:0|0:0,0:0:0:0:
451,261,66920,2,0,P|391:269|335:289,1,120,2|10,1:2|0:0,0:0:0:0:
291,256,67407,1,2,1:2:0:0:
355,170,67731,1,2,1:2:0:0:
355,170,67893,1,10,0:0:0:0:
283,88,68217,2,0,P|253:83|224:75,1,60,0|0,1:0|1:0,0:0:0:0:
188,42,68542,1,10,0:0:0:0:
188,42,68704,6,0,P|132:69|139:142,1,120,6|2,1:2|1:2,0:0:0:0:
74,137,69190,2,0,P|63:191|52:220,1,60,10|2,0:0|0:0,0:0:0:0:
100,233,69515,2,0,P|154:243|183:254,1,60,2|2,1:2|1:2,0:0:0:0:
211,225,69839,1,10,0:0:0:0:
211,225,70001,1,2,1:2:0:0:
308,174,70325,1,2,1:2:0:0:
308,174,70488,2,0,P|312:144|320:115,1,60,10|2,0:0|0:0,0:0:0:0:
292,68,70812,2,0,P|262:63|233:55,2,60,6|8|8,1:2|3:0|3:0,0:0:0:0:
330,30,71298,1,4,3:0:0:0:
330,30,71461,6,0,P|396:25|435:64,1,120,6|8,1:2|0:0,0:0:0:0:
484,88,71947,1,0,1:0:0:0:
484,88,72109,2,0,P|492:148|512:204,1,120,2|8,0:0|0:0,0:0:0:0:
484,250,72596,1,2,1:2:0:0:
437,347,72920,2,0,P|408:358|381:371,1,60,0|8,1:0|0:0,0:0:0:0:
333,347,73244,1,2,1:2:0:0:
369,245,73568,1,2,1:2:0:0:
277,186,73893,6,0,P|232:182|177:243,1,120,6|0,1:2|1:0,0:0:0:0:
156,278,74379,1,10,0:2:0:0:
59,326,74703,2,0,P|68:354|72:384,2,60,2|2|10,0:0|1:2|0:0,0:0:0:0:
16,301,75190,1,2,1:2:0:0:
16,301,75352,2,0,P|25:273|29:243,1,60,2|2,0:2|1:2,0:0:0:0:
76,214,75676,1,10,0:0:0:0:
76,214,75839,1,2,1:2:0:0:
155,140,76163,2,0,P|183:148|213:152,1,60,2|8,1:2|0:0,0:0:0:0:
227,204,76487,6,0,P|291:192|364:182,1,120,6|0,1:2|1:0,0:0:0:0:
388,226,76974,1,10,0:0:0:0:
388,226,77136,1,2,0:0:0:0:
480,170,77461,2,0,P|468:124|464:97,1,60,0|10,1:0|0:0,0:0:0:0:
432,69,77785,2,0,P|398:39|317:51,1,120,2|0,1:2|1:0,0:0:0:0:
294,86,78271,1,10,0:0:0:0:
294,86,78434,1,2,0:0:0:0:
207,149,78758,2,0,P|161:137|134:133,1,60,0|10,1:0|0:0,0:0:0:0:
112,95,79082,6,0,P|56:122|63:195,1,120,6|0,1:2|1:0,0:0:0:0:
63,226,79568,2,0,P|117:237|146:248,1,60,8|0,0:0|0:0,0:0:0:0:
147,286,79893,2,0,P|176:278|205:274,1,60,0|0,1:0|1:0,0:0:0:0:
232,229,80217,1,8,0:0:0:0:
232,229,80379,1,6,1:2:0:0:
287,138,80703,1,0,1:0:0:0:
287,138,80866,2,0,P|317:134|346:126,1,60,8|0,0:0|0:0,0:0:0:0:
394,148,81190,2,0,P|399:178|407:207,1,60,0|8,1:0|1:2,0:0:0:0:
355,224,81515,2,0,P|350:254|342:283,1,60,8|8,1:2|1:2,0:0:0:0:
393,300,81839,6,0,P|412:331|409:363,1,60,6|0,1:2|1:0,0:0:0:0:
366,382,82163,1,8,0:2:0:0:
263,346,82488,2,0,P|233:349|204:359,1,60,2|2,1:2|1:2,0:0:0:0:
162,326,82812,1,8,0:0:0:0:
162,326,82974,2,0,P|118:288|124:231,1,120,2|0,1:2|1:0,0:0:0:0:
163,193,83460,1,8,0:0:0:0:
163,193,83623,1,2,1:2:0:0:
255,137,83947,2,0,P|258:107|265:77,1,60,2|8,1:2|0:0,0:0:0:0:
234,33,84271,6,0,P|180:24|107:1,1,120,6|2,1:2|1:2,0:0:0:0:
71,34,84758,2,0,P|68:64|61:94,1,60,10|2,0:0|0:0,0:0:0:0:
95,141,85082,1,2,1:2:0:0:
95,141,85244,1,2,1:2:0:0:
12,210,85569,2,0,P|-8:263|29:306,1,120,2|2,1:2|1:2,0:0:0:0:
58,357,86055,1,10,0:0:0:0:
58,357,86217,2,0,P|119:368|182:383,1,120,2|2,0:0|1:2,0:0:0:0:
217,346,86704,1,10,0:0:0:0:
217,346,86866,5,6,1:2:0:0:
296,273,87190,2,0,P|299:243|306:213,1,60,0|10,1:0|0:0,0:0:0:0:
257,189,87515,2,0,P|209:156|238:84,1,120,2|0,0:0|1:0,0:0:0:0:
258,66,88001,1,10,0:0:0:0:
258,66,88163,1,6,1:2:0:0:
347,4,88488,2,0,P|376:10|406:14,1,60,0|10,1:0|0:0,0:0:0:0:
442,53,88812,2,0,P|448:110|463:183,1,120,2|0,0:0|1:0,0:0:0:0:
434,220,89298,1,10,0:0:0:0:
434,220,89460,5,6,1:2:0:0:
394,322,89785,1,0,1:0:0:0:
394,322,89947,2,0,P|364:325|334:332,1,60,8|2,0:0|0:0,0:0:0:0:
302,288,90271,2,0,P|272:284|242:277,1,60,0|0,1:0|1:0,0:0:0:0:
202,312,90596,1,8,0:0:0:0:
202,312,90758,2,0,P|161:275|184:205,1,120,2|2,1:2|1:2,0:0:0:0:
210,193,91244,1,10,0:0:0:0:
210,193,91406,1,2,0:0:0:0:
293,123,91731,1,8,3:0:0:0:
293,123,91893,2,0,P|284:92|277:46,1,60,4|0,3:0|1:0,0:0:0:0:
239,29,92217,6,0,P|180:43|121:52,1,120,6|10,1:2|0:0,0:0:0:0:
45,129,92866,2,0,P|42:158|35:187,1,60,0|2,1:2|0:0,0:0:0:0:
76,230,93190,1,8,0:0:0:0:
76,230,93352,1,2,1:2:0:0:
131,328,93676,1,2,1:2:0:0:
131,328,93838,2,0,P|160:330|189:337,1,60,8|2,0:0|0:0,0:0:0:0:
241,319,94163,2,0,P|243:290|250:261,2,60,2|2|10,1:2|0:0|1:2,0:0:0:0:
281,359,94649,1,2,0:0:0:0:
281,359,94812,6,0,P|340:368|393:314,1,120,2|10,1:2|0:0,0:0:0:0:
461,256,95461,1,2,1:2:0:0:
461,256,95622,2,0,P|453:226|451:197,1,60,2|8,0:0|0:0,0:0:0:0:
408,164,95946,2,0,P|346:160|280:144,1,120,2|2,1:2|1:2,0:0:0:0:
249,183,96433,2,0,P|258:228|258:258,2,60,10|2|2,0:0|0:0|1:2,0:0:0:0:
196,166,96919,1,2,1:2:0:0:
196,166,97082,1,10,0:2:0:0:
92,195,97406,6,0,P|46:162|63:94,1,120,6|10,1:2|0:2,0:0:0:0:
115,16,98055,2,0,P|173:31|232:41,1,120,2|8,1:2|0:0,0:0:0:0:
269,80,98542,2,0,P|279:139|294:197,1,120,2|2,1:2|1:2,0:0:0:0:
251,230,99027,1,10,0:0:0:0:
162,292,99352,2,0,P|157:321|151:351,1,60,2|0,1:2|1:2,0:0:0:0:
194,384,99677,1,8,0:0:0:0:
194,384,99839,6,0,P|252:368|311:358,1,120,2|2,1:2|1:2,0:0:0:0:
339,313,100325,1,10,0:0:0:0:
339,313,100487,1,2,1:2:0:0:
445,332,100811,2,0,P|464:311|455:273,1,60,2|10,1:2|0:2,0:0:0:0:
420,245,101136,2,0,P|436:187|446:128,1,120,6|2,1:2|1:2,0:0:0:0:
480,87,101622,1,10,0:0:0:0:
480,87,101784,2,2,P|434:50|377:59,1,120,6|6,1:2|1:2,0:0:0:0:
228,216,102757,6,0,P|237:251|245:294,1,60,0|6,1:0|1:2,0:0:0:0:
282,310,103082,2,0,P|242:351|184:344,1,120,2|2,1:2|1:2,0:0:0:0:
145,314,103568,1,8,0:0:0:0:
145,314,103730,1,2,1:2:0:0:
71,235,104054,2,0,P|79:205|81:176,1,60,2|10,1:2|0:0,0:0:0:0:
56,127,104379,2,0,P|119:143|179:148,1,120,2|2,1:2|1:2,0:0:0:0:
203,192,104865,2,0,P|248:183|278:183,1,60,10|2,0:0|0:0,0:0:0:0:
301,145,105190,6,0,P|343:184|338:242,1,120,2|8,1:2|0:0,0:0:0:0:
300,280,105676,1,2,0:0:0:0:
382,349,106000,2,0,P|411:341|440:339,1,60,2|8,1:2|0:2,0:0:0:0:
485,308,106325,2,0,P|492:249|507:189,1,120,2|2,1:2|1:2,0:0:0:0:
454,175,106812,2,0,P|451:145|444:116,1,60,8|2,0:0|0:0,0:0:0:0:
496,102,107136,2,0,P|513:56|506:34,1,60,2|2,1:2|1:2,0:0:0:0:
465,17,107460,1,10,0:2:0:0:
363,53,107785,6,0,P|308:36|227:25,1,120,6|10,1:2|0:2,0:0:0:0:
223,132,108434,2,0,P|163:141|106:158,1,120,2|8,1:2|0:0,0:0:0:0:
58,134,108919,2,0,P|17:187|44:252,1,120,6|0,1:2|1:2,0:0:0:0:
79,254,109407,1,10,0:0:0:0:
143,340,109730,2,0,P|172:334|202:330,1,60,2|0,1:2|1:2,0:0:0:0:
226,281,110054,1,10,0:0:0:0:
226,281,110217,6,0,P|264:239|247:184,1,120,6|0,1:2|1:2,0:0:0:0:
198,157,110703,1,10,0:2:0:0:
229,53,111027,2,0,P|258:49|288:42,1,60,2|2,1:2|1:2,0:0:0:0:
316,95,111352,1,8,0:2:0:0:
316,95,111514,2,0,P|375:103|433:117,1,120,6|2,1:2|1:2,0:0:0:0:
478,86,112000,1,8,0:0:0:0:
478,86,112163,2,0,P|523:135|493:197,1,120,6|2,1:2|1:2,0:0:0:0:
429,253,112811,1,2,0:0:0:0:
429,253,112974,5,6,1:2:0:0:
429,253,115677,1,2,0:0:0:0:
138,85,118163,5,2,0:0:0:0:
138,85,120704,1,2,0:0:0:0:
0,320,121731,5,2,3:0:0:0:
0,320,121893,2,0,P|45:285|114:303,1,120,6|4,1:2|3:0,0:0:0:0:
129,348,122379,1,10,0:0:0:0:
129,348,122542,2,0,P|174:383|243:365,1,120,10|10,1:2|1:2,0:0:0:0:
303,291,123190,6,0,P|290:254|268:161,1,120,6|2,1:2|1:2,0:0:0:0:
220,175,123677,1,10,0:0:0:0:
220,175,123839,2,0,P|174:130|191:77,1,120,2|2,0:2|1:2,0:0:0:0:
230,48,124326,1,8,0:0:0:0:
230,48,124488,1,2,1:2:0:0:
328,4,124812,2,0,P|357:9|387:14,1,60,2|8,1:2|0:0,0:0:0:0:
427,49,125136,2,0,B|465:98|465:98|436:169,1,120,2|2,0:0|1:2,0:0:0:0:
412,197,125623,1,10,0:0:0:0:
412,197,125785,5,2,1:2:0:0:
497,262,126110,2,0,P|502:295|511:348,1,60,2|8,1:2|0:0,0:0:0:0:
472,363,126434,2,0,P|427:351|344:341,1,120,2|2,1:2|1:2,0:0:0:0:
320,306,126920,1,8,0:0:0:0:
320,306,127083,1,2,1:2:0:0:
252,229,127407,1,2,1:2:0:0:
252,229,127569,2,0,P|265:190|276:149,1,60,8|2,0:0|1:2,0:0:0:0:
318,148,127893,2,0,P|357:161|398:172,2,60,8|4|8,3:0|3:0|3:0,0:0:0:0:
319,93,128380,6,0,P|259:73|198:45,1,120,6|2,1:2|1:2,0:0:0:0:
176,94,128866,1,10,0:0:0:0:
176,94,129028,1,2,0:0:0:0:
127,190,129353,2,0,P|97:196|68:204,1,60,2|10,1:2|0:0,0:0:0:0:
51,255,129677,2,0,P|45:312|88:351,1,120,2|0,1:2|1:0,0:0:0:0:
137,327,130164,1,8,0:0:0:0:
137,327,130326,2,0,P|200:332|263:348,1,120,2|2,0:0|1:2,0:0:0:0:
303,318,130812,1,8,0:0:0:0:
303,318,130974,5,6,1:2:0:0:
237,238,131299,1,2,1:2:0:0:
237,238,131461,2,0,P|244:209|250:179,1,60,10|2,0:0|1:2,0:0:0:0:
303,178,131785,2,0,P|295:149|288:119,1,60,10|2,0:0|1:2,0:0:0:0:
243,100,132110,1,10,0:0:0:0:
243,100,132272,1,6,1:2:0:0:
305,13,132596,1,8,0:0:0:0:
305,13,132758,2,0,P|334:6|363:-1,1,60,8|0,3:0|1:0,0:0:0:0:
410,24,133082,2,0,P|447:39|459:120,1,120,6|10,1:2|0:0,0:0:0:0:
431,155,133569,1,8,0:0:0:0:
431,155,133731,6,0,P|394:170|382:251,1,120,6|8,1:2|0:0,0:0:0:0:
418,277,134217,1,2,1:2:0:0:
418,277,134379,1,2,0:0:0:0:
353,364,134704,2,0,P|323:354|282:345,1,60,8|2,0:0|1:2,0:0:0:0:
280,295,135028,2,0,P|250:305|209:314,1,60,2|0,0:0|1:0,0:0:0:0:
192,356,135352,1,10,0:0:0:0:
192,356,135515,1,2,1:2:0:0:
118,277,135839,1,2,1:2:0:0:
22,326,136163,6,0,B|-14:289|-14:289|7:221,1,120,6|0,1:2|1:0,0:0:0:0:
53,197,136650,2,0,P|45:157|41:129,1,60,8|2,0:0|1:2,0:0:0:0:
2,101,136974,2,0,P|26:62|109:62,1,120,2|8,0:0|0:0,0:0:0:0:
140,92,137461,1,2,1:2:0:0:
140,92,137623,1,2,0:0:0:0:
231,149,137947,1,8,0:0:0:0:
231,149,138109,2,0,P|226:178|220:207,1,60,2|8,1:2|0:0,0:0:0:0:
269,231,138434,2,0,P|273:260|279:289,1,60,2|8,1:2|0:0,0:0:0:0:
249,334,138758,6,0,P|296:322|377:308,1,120,6|0,1:2|1:0,0:0:0:0:
395,264,139244,2,0,P|399:235|405:206,1,60,8|2,0:0|0:0,0:0:0:0:
368,165,139569,1,2,1:2:0:0:
441,86,139893,1,8,0:0:0:0:
441,86,140055,2,0,P|405:40|347:38,1,120,2|0,1:2|1:0,0:0:0:0:
310,0,140542,2,0,P|280:6|250:10,1,60,8|2,0:0|0:0,0:0:0:0:
223,54,140866,1,2,1:2:0:0:
280,145,141190,1,8,0:0:0:0:
280,145,141352,6,0,P|265:201|249:273,1,120,6|0,1:2|1:0,0:0:0:0:
200,280,141839,1,8,0:0:0:0:
101,324,142163,2,0,P|107:354|111:384,2,60,0|0|8,1:0|1:0|0:0,0:0:0:0:
49,306,142650,2,0,P|5:287|13:211,1,120,6|2,1:2|1:2,0:0:0:0:
48,191,143136,1,10,0:0:0:0:
48,191,143298,1,6,1:2:0:0:
118,108,143623,1,0,1:0:0:0:
118,108,143785,2,0,P|157:118|180:121,1,60,8|0,0:0|1:0,0:0:0:0:
200,168,144109,6,0,P|279:147|326:141,1,120,6|8,1:2|0:0,0:0:0:0:
348,97,144596,1,2,1:2:0:0:
348,97,144758,2,0,P|403:83|445:122,1,120,2|8,0:2|0:0,0:0:0:0:
474,168,145244,1,2,0:0:0:0:
474,168,145407,2,0,P|460:216|456:246,1,60,2|0,0:0|1:0,0:0:0:0:
411,252,145731,1,8,0:0:0:0:
411,252,145893,1,2,1:2:0:0:
468,343,146217,1,2,1:2:0:0:
367,383,146542,6,0,P|288:362|241:356,1,120,6|0,1:2|1:0,0:0:0:0:
214,316,147028,2,0,P|229:261|233:238,1,60,8|2,0:0|0:0,0:0:0:0:
276,231,147352,2,0,P|331:246|354:250,2,60,2|0|8,0:0|1:0|0:0,0:0:0:0:
257,180,147839,1,2,1:2:0:0:
199,94,148163,1,2,1:2:0:0:
199,94,148325,2,0,P|160:78|128:85,1,60,10|2,0:0|1:2,0:0:0:0:
94,104,148650,2,0,P|87:133|78:161,1,60,8|2,0:0|1:2,0:0:0:0:
120,202,148974,1,8,0:0:0:0:
120,202,149136,6,0,B|158:251|158:251|126:323,1,120,6|0,1:2|1:0,0:0:0:0:
88,330,149623,1,8,0:2:0:0:
188,384,149947,2,0,P|267:363|314:357,1,120,2|10,1:2|0:2,0:0:0:0:
334,312,150434,1,2,1:2:0:0:
334,312,150596,2,0,P|313:233|307:186,1,120,2|8,0:0|0:0,0:0:0:0:
259,186,151082,1,2,0:0:0:0:
259,186,151244,1,2,1:2:0:0:
153,162,151569,2,0,P|142:121|132:94,1,60,8|6,0:0|1:2,0:0:0:0:
160,56,151893,6,0,P|194:17|264:31,1,120,2|8,0:0|0:0,0:0:0:0:
294,63,152379,1,2,0:0:0:0:
294,63,152542,2,0,P|322:53|351:46,1,60,0|0,1:0|1:0,0:0:0:0:
379,0,152866,2,0,P|407:9|436:16,1,60,8|6,0:0|1:2,0:0:0:0:
464,63,153190,1,2,0:0:0:0:
491,167,153515,1,8,0:0:0:0:
491,167,153677,2,0,P|468:236|451:307,1,120,2|4,0:0|3:0,0:0:0:0:
362,333,154325,1,0,0:0:0:0:
362,333,154488,6,0,P|320:292|258:298,1,120,6|8,1:2|0:0,0:0:0:0:
218,326,154975,1,2,0:0:0:0:
218,326,155137,2,0,P|226:355|233:385,2,60,2|0|8,1:2|1:0|0:2,0:0:0:0:
170,313,155624,1,2,0:0:0:0:
170,313,155786,1,2,1:2:0:0:
202,210,156110,2,0,P|231:202|261:195,1,60,8|2,0:0|0:0,0:0:0:0:
291,151,156434,2,0,P|283:122|276:92,1,60,2|0,1:2|1:0,0:0:0:0:
229,65,156759,1,8,0:0:0:0:
229,65,156921,6,0,P|173:80|104:96,1,120,6|2,1:2|1:2,0:0:0:0:
89,143,157407,1,10,0:0:0:0:
57,246,157732,2,0,P|28:238|-2:231,2,60,2|0|10,1:2|1:0|0:0,0:0:0:0:
99,212,158218,2,0,P|141:252|139:310,1,120,2|2,1:2|1:2,0:0:0:0:
106,354,158705,1,10,0:0:0:0:
210,380,159029,2,0,P|265:370|289:368,1,60,0|0,1:0|1:0,0:0:0:0:
288,319,159353,2,0,P|317:325|347:329,1,60,8|0,0:0|1:0,0:0:0:0:
397,349,159678,6,0,B|419:291|419:291|381:226,1,120,6|8,1:2|0:0,0:0:0:0:
354,207,160164,1,2,0:0:0:0:
354,207,160326,2,0,P|362:178|369:148,2,60,2|0|8,1:2|1:0|0:2,0:0:0:0:
304,222,160813,1,2,0:0:0:0:
304,222,160975,1,2,1:2:0:0:
239,308,161299,2,0,P|210:316|180:323,1,60,8|2,0:2|0:0,0:0:0:0:
152,368,161623,2,0,P|123:360|93:353,1,60,2|0,1:2|1:0,0:0:0:0:
67,311,161948,1,8,0:0:0:0:
67,311,162110,6,0,P|33:263|48:207,1,120,6|0,1:2|1:0,0:0:0:0:
88,172,162596,1,10,0:0:0:0:
154,86,162921,2,0,P|146:57|139:27,2,60,4|8|10,3:0|3:0|0:2,0:0:0:0:
203,106,163407,2,0,P|192:170|179:237,1,120,2|10,1:2|0:0,0:0:0:0:
204,278,163893,1,10,0:0:0:0:
204,278,164056,2,0,P|233:282|263:288,1,60,10|0,0:0|0:0,0:0:0:0:
290,335,164380,2,0,P|345:325|369:323,1,60,10|0,0:0|0:0,0:0:0:0:
383,282,164705,5,6,1:2:0:0:
460,206,165029,2,0,P|450:151|448:127,1,60,2|10,1:2|0:0,0:0:0:0:
481,103,165353,2,0,P|436:57|383:74,1,120,2|2,0:2|1:2,0:0:0:0:
345,97,165840,1,8,0:0:0:0:
345,97,166002,1,2,1:2:0:0:
315,200,166326,2,0,P|286:204|256:210,1,60,2|8,1:2|0:0,0:0:0:0:
217,248,166651,2,0,P|172:211|182:154,1,120,2|2,0:0|1:2,0:0:0:0:
216,114,167137,1,10,0:0:0:0:
216,114,167299,5,2,1:2:0:0:
132,45,167624,2,0,P|102:53|46:59,1,60,2|8,1:2|0:0,0:0:0:0:
49,106,167948,2,0,B|6:151|6:151|34:226,1,120,2|2,1:2|1:2,0:0:0:0:
78,232,168434,1,8,0:0:0:0:
78,232,168597,1,2,1:2:0:0:
154,315,168921,1,2,1:2:0:0:
154,315,169083,2,0,P|193:302|234:291,1,60,8|2,0:0|1:2,0:0:0:0:
230,246,169407,2,0,P|269:259|310:270,2,60,8|4|8,3:0|3:0|3:0,0:0:0:0:
188,210,169894,6,0,P|191:149|256:118,1,120,6|2,1:2|1:2,0:0:0:0:
293,129,170380,1,10,0:0:0:0:
293,129,170542,1,2,0:0:0:0:
348,36,170867,2,0,P|376:44|406:50,1,60,2|10,1:2|0:0,0:0:0:0:
445,87,171191,2,0,B|451:139|466:217,1,120,2|0,1:2|1:0,0:0:0:0:
507,246,171678,1,8,0:0:0:0:
507,246,171839,2,0,P|444:247|393:303,1,120,2|2,0:0|1:2,0:0:0:0:
408,340,172326,1,8,0:0:0:0:
408,340,172488,5,6,1:2:0:0:
310,382,172813,1,2,1:2:0:0:
310,382,172975,2,0,P|281:374|251:368,1,60,10|2,0:0|1:2,0:0:0:0:
225,321,173299,2,0,P|196:328|166:335,1,60,10|2,0:0|1:2,0:0:0:0:
137,382,173624,1,10,0:0:0:0:
137,382,173786,1,6,1:2:0:0:
47,331,174110,1,8,0:0:0:0:
47,331,174272,1,8,0:0:0:0:
336,186,175244,6,0,P|365:193|395:200,2,60,6|2|2,1:2|0:0|0:2,0:0:0:0:
297,223,175731,1,2,0:0:0:0:
297,223,175893,2,0,P|249:178|260:118,1,120,2|0,0:2|0:0,0:0:0:0:
292,91,176379,1,6,1:2:0:0:
215,14,176704,2,0,P|185:20|156:27,1,60,8|0,3:0|1:0,0:0:0:0:
128,73,177028,1,2,1:2:0:0:
44,4,177352,1,2,1:2:0:0:
1,103,177677,6,0,P|18:167|28:219,1,120,6|0,1:2|1:0,0:0:0:0:
74,248,178163,1,10,0:2:0:0:
124,343,178487,2,0,P|94:346|65:356,2,60,2|2|10,0:0|1:2|0:0,0:0:0:0:
157,301,178974,1,2,1:2:0:0:
157,301,179136,2,0,P|185:310|215:314,1,60,2|2,0:2|1:2,0:0:0:0:
249,362,179460,1,10,0:0:0:0:
249,362,179623,1,2,1:2:0:0:
345,314,179947,2,0,P|348:284|357:255,1,60,2|8,1:2|0:0,0:0:0:0:
400,222,180271,6,0,P|367:174|309:173,1,120,6|0,1:2|1:0,0:0:0:0:
274,214,180758,2,0,P|246:205|216:201,1,60,10|2,0:0|0:0,0:0:0:0:
176,164,181082,2,0,P|185:136|189:106,1,60,2|0,1:2|1:0,0:0:0:0:
156,69,181407,1,10,0:0:0:0:
156,69,181569,2,0,P|189:21|247:20,1,120,2|2,1:2|1:2,0:0:0:0:
286,55,182055,1,10,0:0:0:0:
343,146,182379,2,0,P|371:138|401:133,1,60,0|0,1:0|1:0,0:0:0:0:
431,89,182704,1,10,0:0:0:0:
431,89,182866,6,0,P|487:116|480:189,1,120,6|2,1:2|1:2,0:0:0:0:
451,203,183352,2,0,P|440:257|429:286,1,60,10|2,0:0|0:0,0:0:0:0:
489,281,183677,2,0,P|499:335|510:364,1,60,2|2,1:2|1:2,0:0:0:0:
463,378,184001,1,10,0:0:0:0:
463,378,184163,1,2,1:2:0:0:
370,333,184487,1,2,1:2:0:0:
370,333,184650,2,0,P|340:337|311:345,1,60,10|2,0:0|0:0,0:0:0:0:
263,319,184974,2,0,P|258:289|250:260,2,60,6|8|8,1:2|3:0|3:0,0:0:0:0:
223,355,185461,1,4,3:0:0:0:
223,355,185623,6,0,P|162:366|121:319,1,120,6|8,1:2|0:0,0:0:0:0:
82,303,186109,1,0,1:0:0:0:
82,303,186271,2,0,P|91:247|99:166,1,120,2|8,0:0|0:0,0:0:0:0:
137,147,186758,1,2,1:2:0:0:
205,63,187082,2,0,P|235:57|264:49,1,60,0|8,1:0|0:0,0:0:0:0:
303,85,187406,1,2,1:2:0:0:
258,183,187730,1,2,1:2:0:0:
321,270,188055,6,0,P|379:274|421:234,1,120,6|0,1:2|1:0,0:0:0:0:
411,181,188541,1,10,0:2:0:0:
453,81,188865,2,0,P|482:84|511:94,2,60,2|2|10,0:0|1:2|0:0,0:0:0:0:
421,43,189352,1,2,1:2:0:0:
421,43,189514,2,0,P|393:52|363:56,1,60,2|2,0:2|1:2,0:0:0:0:
329,99,189838,1,10,0:0:0:0:
329,99,190001,1,2,1:2:0:0:
241,162,190325,2,0,P|213:154|183:150,1,60,2|8,1:2|0:0,0:0:0:0:
155,103,190649,6,0,P|91:100|55:139,1,120,6|0,1:2|1:0,0:0:0:0:
48,195,191136,1,10,0:0:0:0:
48,195,191298,1,2,0:0:0:0:
97,291,191623,2,0,P|126:296|155:305,1,60,0|10,1:0|0:0,0:0:0:0:
180,352,191947,2,0,P|238:342|318:334,1,120,2|0,1:2|1:0,0:0:0:0:
330,292,192433,1,10,0:0:0:0:
330,292,192596,1,2,0:0:0:0:
251,218,192920,2,0,P|245:188|236:159,1,60,0|10,1:0|0:0,0:0:0:0:
184,147,193244,6,0,P|172:90|213:50,1,120,6|0,1:2|1:0,0:0:0:0:
258,21,193730,2,0,P|286:28|316:33,1,60,8|0,0:0|0:0,0:0:0:0:
335,84,194055,2,0,P|364:76|393:72,1,60,0|0,1:0|1:0,0:0:0:0:
432,34,194379,1,8,0:0:0:0:
432,34,194542,1,6,1:2:0:0:
500,124,194865,1,0,1:0:0:0:
500,124,195028,2,0,P|517:152|512:183,1,60,8|0,0:0|0:0,0:0:0:0:
463,195,195352,2,0,P|458:225|450:254,1,60,8|4,0:0|3:0,0:0:0:0:
487,300,195677,1,0,1:0:0:0:
487,300,195839,5,2,0:0:0:0:
334,353,196325,1,2,0:0:0:0:
334,353,196488,1,2,0:0:0:0:
215,251,196974,1,0,0:0:0:0:
215,251,197136,1,2,0:0:0:0:
27,384,198271,5,0,0:0:0:0:
27,384,198433,2,0,P|-15:341|17:275,1,120,6|0,1:2|1:0,0:0:0:0:
35,248,198920,1,8,0:0:0:0:
116,177,199244,2,0,P|106:148|102:118,2,60,2|2|8,1:2|1:2|0:0,0:0:0:0:
165,197,199730,2,0,P|223:184|283:175,1,120,2|0,1:2|1:0,0:0:0:0:
325,217,200217,1,8,0:0:0:0:
325,217,200379,1,2,1:2:0:0:
420,167,200703,2,0,P|411:121|409:93,1,60,2|8,1:2|0:0,0:0:0:0:
442,64,201028,6,0,P|391:27|325:46,1,120,6|2,1:2|1:2,0:0:0:0:
307,80,201514,2,0,P|277:83|247:90,1,60,10|2,0:0|0:0,0:0:0:0:
203,68,201839,1,2,1:2:0:0:
203,68,202001,1,2,1:2:0:0:
120,137,202325,2,0,P|62:128|15:164,1,120,2|2,1:2|1:2,0:0:0:0:
44,216,202812,1,10,0:0:0:0:
44,216,202974,2,0,P|33:277|18:340,1,120,2|2,0:0|1:2,0:0:0:0:
72,360,203460,1,10,0:0:0:0:
72,360,203622,5,6,1:2:0:0:
173,322,203947,2,0,P|202:325|232:332,1,60,0|10,1:0|0:0,0:0:0:0:
261,287,204271,2,0,P|314:251|366:268,1,120,2|0,0:0|1:0,0:0:0:0:
395,316,204757,1,10,0:0:0:0:
395,316,204920,1,6,1:2:0:0:
487,260,205244,2,0,P|478:214|476:186,1,60,0|10,1:0|0:0,0:0:0:0:
509,157,205569,2,0,P|449:150|390:137,1,120,2|0,0:0|1:0,0:0:0:0:
360,182,206055,1,10,0:0:0:0:
360,182,206217,5,6,1:2:0:0:
300,273,206541,1,0,1:0:0:0:
300,273,206703,2,0,P|270:276|240:283,1,60,8|2,0:0|0:0,0:0:0:0:
198,248,207028,2,0,P|194:218|187:188,1,60,0|0,1:0|1:0,0:0:0:0:
242,177,207352,1,8,0:0:0:0:
242,177,207514,2,0,P|289:136|268:73,1,120,2|2,1:2|1:2,0:0:0:0:
234,67,208001,1,10,0:0:0:0:
234,67,208163,1,2,1:2:0:0:
383,3,208650,5,6,1:2:0:0:
256,192,208731,12,0,215461,0:0:0:0:
