osu file format v14

[General]
AudioFilename: audio.mp3
AudioLeadIn: 0
PreviewTime: 61001
Countdown: 0
SampleSet: Soft
StackLeniency: 0.7
Mode: 0
LetterboxInBreaks: 0
WidescreenStoryboard: 0

[Editor]
DistanceSpacing: 1.1
BeatDivisor: 4
GridSize: 32
TimelineZoom: 1.5

[Metadata]
Title:Asu e no Kyoukaisen
TitleUnicode:明日への境界線
Artist:KINEMA106
ArtistUnicode:キネマ106
Creator:-Aqua
Version:Hard
Source:
Tags:艦隊これくしょん -艦これ- Kantai Collection 艦これ KanColle 柊南 ひいな Hiina Tom jun-jun 茶々畑。あたる ataru 阿武隈のオリジナル曲 Abukuma Original Song Japanese Pop Rock J-pop Jpop J-rock Jrock Full Version Kyōkai Kyokai Kinema 106 刻炎 -Eresh
BeatmapID:3314934
BeatmapSetID:1613010

[Difficulty]
HPDrainRate:5
CircleSize:3.7
OverallDifficulty:6
ApproachRate:8
SliderMultiplier:1.5
SliderTickRate:1

[Events]
//Background and Video events
0,0,"bg.jpg",0,0
//Break Periods
//Storyboard Layer 0 (Background)
//Storyboard Layer 1 (Fail)
//Storyboard Layer 2 (Pass)
//Storyboard Layer 3 (Foreground)
//Storyboard Layer 4 (Overlay)
//Storyboard Sound Samples

[TimingPoints]
1407,324.324324324325,4,2,1,60,1,0
2379,-100,4,2,1,10,0,0
4001,-100,4,2,1,20,0,0
5298,-100,4,2,1,30,0,0
5785,-100,4,2,1,5,0,0
6109,-111.111111111111,4,2,1,50,0,0
6596,-111.111111111111,4,2,1,60,0,0
7731,-133.333333333333,4,2,1,60,0,0
8542,-111.111111111111,4,2,1,60,0,0
9028,-100,4,2,1,70,0,1
9109,-100,4,2,1,70,0,0
11055,-100,4,2,1,5,0,0
11298,-100,4,2,1,70,0,0
11379,-100,4,2,1,5,0,0
11461,-100,4,2,1,70,0,0
19569,-100,4,2,1,60,0,0
28488,-100,4,2,1,60,0,0
29379,-100,4,2,1,5,0,0
29461,-100,4,2,1,60,0,0
29866,-100,4,2,1,5,0,0
29947,-100,4,2,1,60,0,0
37569,-100,4,2,1,60,0,0
38055,-100,4,2,1,60,0,0
38866,-100,4,2,1,60,0,0
39515,-100,4,2,1,60,0,0
40325,-100,4,2,1,60,0,0
42758,-100,4,2,1,70,0,0
44866,-100,4,2,1,70,0,0
45515,-100,4,2,1,60,0,0
47947,-100,4,2,1,70,0,0
50542,-100,4,2,1,60,0,0
53785,-100,4,2,1,60,0,0
54434,-100,4,2,1,60,0,0
55082,-100,4,2,1,60,0,0
55731,-100,4,2,1,60,0,0
58325,-100,4,2,1,70,0,0
61082,-90.9090909090909,4,2,1,85,0,1
62947,-90.9090909090909,4,2,1,5,0,1
63190,-90.9090909090909,4,2,1,85,0,1
63271,-90.9090909090909,4,2,1,5,0,1
63515,-90.9090909090909,4,2,1,85,0,1
63758,-90.9090909090909,4,2,1,5,0,1
63839,-90.9090909090909,4,2,1,85,0,1
66109,-90.9090909090909,4,2,1,85,0,1
71379,-90.9090909090909,4,2,1,85,0,0
71461,-90.9090909090909,4,2,1,85,0,1
73325,-90.9090909090909,4,2,1,5,0,1
73568,-90.9090909090909,4,2,1,85,0,1
73649,-90.9090909090909,4,2,1,5,0,1
73893,-90.9090909090909,4,2,1,85,0,1
74136,-90.9090909090909,4,2,1,5,0,1
74217,-90.9090909090909,4,2,1,85,0,1
81758,-100,4,2,1,85,0,0
81839,-100,4,2,1,70,0,1
81920,-100,4,2,1,70,0,0
82407,-100,4,2,1,5,0,0
82488,-100,4,2,1,70,0,0
83704,-100,4,2,1,5,0,0
83947,-100,4,2,1,70,0,0
84028,-100,4,2,1,5,0,0
84109,-100,4,2,1,70,0,0
92217,-100,4,2,1,60,0,0
101136,-100,4,2,1,60,0,0
102028,-100,4,2,1,5,0,0
102109,-200,4,2,1,60,0,0
102677,-100,4,2,1,5,0,0
102758,-100,4,2,1,60,0,0
110217,-100,4,2,1,60,0,0
110704,-100,4,2,1,60,0,0
111515,-100,4,2,1,60,0,0
112001,-100,4,2,1,60,0,0
115461,-111.111111111111,4,2,1,45,0,0
121731,-100,4,2,1,70,0,0
123190,-100,4,2,1,60,0,0
126434,-100,4,2,1,60,0,0
127082,-100,4,2,1,60,0,0
128379,-100,4,2,1,60,0,0
130974,-100,4,2,1,70,0,0
133082,-100,4,2,1,70,0,0
133731,-90.9090909090909,4,2,1,75,0,0
133974,-90.9090909090909,4,2,1,5,0,0
134055,-90.9090909090909,4,2,1,75,0,0
135596,-90.9090909090909,4,2,1,5,0,0
135839,-90.9090909090909,4,2,1,75,0,0
135920,-90.9090909090909,4,2,1,5,0,0
136163,-90.9090909090909,4,2,1,75,0,0
144109,-90.9090909090909,4,2,1,75,0,0
145974,-90.9090909090909,4,2,1,5,0,0
146217,-90.9090909090909,4,2,1,75,0,0
146298,-90.9090909090909,4,2,1,5,0,0
146542,-90.9090909090909,4,2,1,75,0,0
153677,-90.9090909090909,4,2,1,75,0,0
154488,-100,4,2,1,60,0,0
156920,-100,4,2,1,70,0,0
159028,-100,4,2,1,70,0,0
159677,-100,4,2,1,60,0,0
162109,-100,4,2,1,70,0,0
164704,-100,4,2,1,60,0,0
167947,-100,4,2,1,60,0,0
168596,-100,4,2,1,60,0,0
169244,-100,4,2,1,60,0,0
169893,-100,4,2,1,60,0,0
172487,-100,4,2,1,70,0,0
175244,-117.647058823529,4,2,1,50,0,0
176379,-100,4,2,1,60,0,0
177109,-100,4,2,1,5,0,0
177352,-100,4,2,1,60,0,0
177434,-100,4,2,1,5,0,0
177677,-90.9090909090909,4,2,1,85,0,1
177920,-90.9090909090909,4,2,1,5,0,1
178001,-90.9090909090909,4,2,1,85,0,1
180271,-90.9090909090909,4,2,1,85,0,1
185542,-90.9090909090909,4,2,1,85,0,0
185623,-90.9090909090909,4,2,1,85,0,1
187488,-90.9090909090909,4,2,1,5,0,1
187731,-90.9090909090909,4,2,1,85,0,1
187812,-90.9090909090909,4,2,1,5,0,1
188056,-90.9090909090909,4,2,1,85,0,1
188299,-90.9090909090909,4,2,1,5,0,1
188380,-90.9090909090909,4,2,1,85,0,1
195839,-100,4,2,1,60,0,0
197136,-233.100233100233,4,2,1,40,0,0
198352,-100,4,2,1,5,0,0
198434,-100,4,2,1,70,0,1
198515,-100,4,2,1,70,0,0
200461,-100,4,2,1,5,0,0
200704,-100,4,2,1,70,0,0
200785,-100,4,2,1,5,0,0
200866,-100,4,2,1,70,0,0
208974,-100,4,2,1,55,0,0
210271,-100,4,2,1,45,0,0
211569,-100,4,2,1,35,0,0
212866,-100,4,2,1,25,0,0
214163,-100,4,2,1,15,0,0
215461,-100,4,2,1,5,0,0

[Colours]
Combo1 : 211,211,211
Combo2 : 255,255,168
Combo3 : 168,168,255
Combo4 : 255,168,168

[HitObjects]
256,192,2379,12,0,5785,0:0:0:0:
55,353,6109,5,0,0:0:0:0:
55,353,6271,2,0,P|119:369|145:381,1,67.4999979400635,0|0,0:0|0:0,0:0:0:0:
212,287,6596,6,0,P|268:269|266:196,1,134.999995880127,2|0,0:0|0:0,0:0:0:0:
175,163,7082,2,0,P|119:145|121:72,1,134.999995880127,2|0,0:0|0:0,0:0:0:0:
264,0,7731,6,2,B|403:16|314:88|467:101,1,225.000008583069,0|0,0:0|0:0,0:1:0:0:
512,191,8542,2,0,P|477:196|436:205,1,67.4999979400635,8|8,0:0|3:0,0:0:0:0:
442,210,8785,1,4,3:0:0:0:
439,217,8866,1,0,1:0:0:0:
421,361,9028,6,0,P|352:325|262:322,1,150,6|0,1:2|1:0,0:0:0:0:
183,324,9515,2,0,P|199:275|207:227,1,75,8|0,0:0|1:2,0:0:0:0:
300,200,9839,1,2,1:2:0:0:
300,200,10001,2,0,P|284:151|276:103,1,75,2|8,1:2|0:0,0:0:0:0:
178,49,10325,6,0,P|99:74|22:87,1,150,2|0,1:2|1:0,0:0:0:0:
33,86,10812,1,8,0:0:0:0:
0,208,10974,6,0,P|-6:243|18:270,1,75,2|0,1:2|0:0,0:0:0:0:
97,331,11298,2,0,P|123:292|99:255,1,75,2|8,1:2|0:0,0:0:0:0:
208,183,11623,6,0,P|287:208|364:221,1,150,6|2,1:2|1:2,0:0:0:0:
407,314,12109,2,0,P|454:299|500:291,1,75,10|2,0:0|0:0,0:0:0:0:
512,199,12434,2,0,P|518:163|493:136,1,75,2|2,1:2|1:2,0:0:0:0:
493,136,12758,1,8,0:2:0:0:
401,34,12920,6,0,P|346:82|250:55,1,150,2|2,1:2|1:2,0:0:0:0:
192,145,13407,1,10,0:0:0:0:
255,236,13569,1,2,0:0:0:0:
255,236,13731,2,0,P|292:240|328:248,1,75,0|2,1:2|1:2,0:0:0:0:
328,248,14055,1,10,0:0:0:0:
449,180,14217,6,0,B|511:225|511:225|481:318,1,150,6|0,1:2|1:0,0:0:0:0:
404,369,14704,1,10,0:0:0:0:
404,369,14866,2,0,P|319:352|233:340,1,150,2|0,0:0|1:0,0:0:0:0:
178,278,15352,1,10,0:0:0:0:
63,354,15515,6,0,P|13:335|20:234,1,150,6|0,1:2|1:0,0:0:0:0:
80,169,16001,1,10,0:0:0:0:
80,169,16163,2,0,P|165:186|251:198,1,150,2|0,0:0|1:0,0:0:0:0:
306,260,16649,1,10,0:0:0:0:
430,206,16812,6,0,P|413:121|401:35,1,150,6|0,1:2|1:0,0:0:0:0:
308,2,17298,2,0,P|301:46|292:90,1,75,8|2,0:0|0:0,0:0:0:0:
213,153,17623,2,0,P|176:145|139:140,2,75,0|0|8,1:0|1:0|0:0,0:0:0:0:
302,256,18109,6,0,P|227:267|154:282,1,150,2|2,1:2|1:2,0:0:0:0:
89,361,18596,1,10,0:0:0:0:
0,299,18758,2,0,P|-18:231|42:196,1,150,2|8,0:0|3:0,0:0:0:0:
101,115,19244,2,0,P|152:125|204:133,1,75,4|0,3:0|1:0,0:0:0:0:
274,39,19569,6,0,P|334:74|315:142,1,150,6|8,1:2|0:0,0:0:0:0:
243,204,20055,2,0,P|232:279|217:352,1,150,2|2,0:0|0:0,0:0:0:0:
217,351,20542,1,8,0:0:0:0:
324,302,20704,6,0,B|411:327|355:362|461:388,1,150,2|0,1:2|1:0,0:0:0:0:
511,317,21190,2,0,P|525:272|506:245,1,75,8|0,0:0|0:0,0:0:0:0:
429,216,21515,2,0,P|420:179|409:143,1,75,0|0,1:2|0:0,0:0:0:0:
483,79,21839,1,10,0:0:0:0:
483,79,22001,1,2,0:0:0:0:
399,11,22163,6,0,P|325:26|251:36,1,150,2|10,1:2|0:0,0:0:0:0:
250,143,22650,2,0,P|176:127|102:117,1,150,2|2,0:0|0:0,0:0:0:0:
102,117,23136,1,8,0:0:0:0:
54,30,23298,6,0,B|-8:75|-8:75|22:168,1,150,2|0,1:2|1:0,0:0:0:0:
4,248,23785,2,0,P|39:235|75:225,1,75,10|2,0:0|0:0,0:0:0:0:
107,327,24109,2,0,P|143:337|178:349,1,75,2|2,1:2|1:2,0:0:0:0:
178,349,24434,1,10,0:0:0:0:
325,258,24758,6,0,P|328:187|252:154,1,150,6|10,1:2|0:2,0:0:0:0:
265,152,25244,1,0,0:0:0:0:
183,98,25407,2,0,P|195:62|205:26,1,75,2|0,1:2|1:0,0:0:0:0:
297,8,25731,1,8,0:0:0:0:
358,93,25893,6,0,P|430:110|502:131,1,150,2|0,1:2|1:2,0:0:0:0:
465,234,26379,2,0,P|392:251|320:272,1,150,10|2,0:0|1:2,0:0:0:0:
269,366,26866,1,0,1:2:0:0:
269,366,27028,1,8,0:0:0:0:
162,350,27190,6,0,P|99:315|102:244,1,150,2|2,1:2|1:2,0:0:0:0:
102,244,27677,1,10,0:0:0:0:
14,195,27839,2,0,P|11:123|73:89,1,150,2|2,1:2|1:2,0:0:0:0:
156,18,28325,5,10,0:0:0:0:
156,18,28488,2,0,B|245:47|189:79|280:101,1,150,6|2,1:2|1:2,0:0:0:0:
276,100,28974,1,10,0:0:0:0:
341,195,29136,2,0,P|285:208|255:221,1,75,6|0,1:2|0:0,0:0:0:0:
180,287,29461,2,2,P|280:310|334:333,1,150,6|0,1:1|0:1,0:1:0:0:
416,270,29947,5,6,1:2:0:0:
416,270,30109,2,0,P|441:232|428:181,1,75,2|8,0:0|0:2,0:0:0:0:
512,119,30434,2,0,P|438:104|368:77,1,150,2|2,0:0|1:2,0:0:0:0:
321,177,30920,2,0,P|265:190|235:203,1,75,8|2,0:2|1:2,0:0:0:0:
248,196,31244,1,2,0:0:0:0:
204,108,31407,6,0,P|132:96|93:34,1,150,2|2,1:2|0:0,0:0:0:0:
24,128,31893,2,0,P|11:184|-2:214,1,75,0|0,1:0|1:0,0:0:0:0:
80,263,32217,1,10,0:0:0:0:
80,263,32379,1,2,0:0:0:0:
163,213,32542,5,2,1:2:0:0:
163,213,32704,2,0,P|199:219|234:232,1,75,2|8,0:0|0:0,0:0:0:0:
311,166,33028,2,0,P|367:161|421:244,1,150,2|2,0:0|0:0,0:0:0:0:
421,228,33515,1,8,0:0:0:0:
512,261,33677,6,0,P|438:276|368:303,1,150,2|2,1:2|1:2,0:0:0:0:
295,379,34163,1,8,0:0:0:0:
295,379,34325,1,2,0:0:0:0:
201,332,34488,2,0,P|214:296|220:260,1,75,2|2,1:2|1:2,0:0:0:0:
311,227,34812,2,0,P|298:191|292:155,1,75,10|2,0:2|0:2,0:0:0:0:
207,82,35136,6,0,P|136:79|103:155,1,150,6|10,1:2|0:2,0:0:0:0:
101,141,35622,1,0,0:0:0:0:
26,225,35785,2,0,P|62:235|97:246,1,75,2|2,1:2|1:2,0:0:0:0:
149,345,36109,1,8,0:0:0:0:
250,326,36271,6,0,B|302:281|302:281|279:190,1,150,6|0,1:2|1:2,0:0:0:0:
183,171,36758,2,0,P|209:101|224:27,1,150,10|2,0:0|1:2,0:0:0:0:
327,0,37244,1,0,1:2:0:0:
327,0,37406,1,10,0:0:0:0:
405,79,37569,6,0,P|419:152|446:222,1,150,6|0,1:2|1:2,0:0:0:0:
370,293,38055,2,0,P|294:271|295:196,1,150,10|2,0:2|1:2,0:0:0:0:
209,158,38542,1,2,1:2:0:0:
209,158,38704,1,8,0:2:0:0:
144,230,38866,6,0,P|71:244|1:271,1,150,6|2,1:2|1:2,0:0:0:0:
1,271,39352,1,8,0:0:0:0:
0,168,39515,1,2,1:2:0:0:
0,168,39596,1,2,0:2:0:0:
0,168,39677,2,0,P|27:138|82:143,1,75,2|2,0:2|1:2,0:0:0:0:
111,40,40001,2,0,P|147:46|170:74,1,75,8|2,0:2|0:2,0:0:0:0:
254,148,40325,6,0,P|267:97|290:50,2,75,6|0|8,1:2|1:0|0:0,0:0:0:0:
254,148,40812,1,2,0:0:0:0:
160,198,40974,2,0,P|187:267|204:340,1,150,2|8,1:2|0:2,0:0:0:0:
204,340,41461,1,2,0:0:0:0:
305,361,41623,6,0,P|355:374|402:397,1,75,2|0,1:2|1:0,0:0:0:0:
460,332,41947,1,8,0:0:0:0:
389,258,42109,1,2,0:0:0:0:
479,209,42271,2,0,P|492:159|515:112,1,75,2|0,1:2|1:0,0:0:0:0:
501,137,42596,1,8,0:0:0:0:
431,59,42758,6,0,B|339:71|395:110|266:117,1,150,6|2,1:2|1:2,0:0:0:0:
220,186,43244,2,0,P|219:222|243:250,1,75,10|0,0:0|0:0,0:0:0:0:
338,300,43569,2,0,P|338:336|314:364,1,75,2|0,1:2|1:0,0:0:0:0:
313,364,43893,1,10,0:0:0:0:
220,384,44055,6,0,P|147:364|74:349,1,150,2|2,1:2|1:2,0:0:0:0:
24,273,44542,2,0,P|37:228|40:191,1,75,10|2,0:0|0:0,0:0:0:0:
136,160,44866,2,0,P|140:197|151:232,2,75,0|0|8,1:0|1:0|0:0,0:0:0:0:
136,160,45352,1,0,1:0:0:0:
68,94,45515,6,0,P|30:91|0:71,2,75,6|0|8,1:2|1:0|0:0,0:0:0:0:
136,35,46001,1,2,0:0:0:0:
136,35,46163,2,0,P|209:20|281:0,1,150,2|8,1:2|0:2,0:0:0:0:
347,84,46650,1,2,0:0:0:0:
247,134,46812,6,0,P|239:170|225:204,1,75,2|0,1:2|1:0,0:0:0:0:
298,278,47136,1,8,0:2:0:0:
298,278,47298,1,2,0:0:0:0:
382,333,47461,2,0,P|389:296|403:262,1,75,2|0,1:2|1:0,0:0:0:0:
403,261,47785,1,8,0:0:0:0:
512,180,47947,6,0,P|451:188|403:107,1,150,6|0,1:2|1:0,0:0:0:0:
332,39,48434,2,0,P|295:35|260:24,1,75,10|2,0:0|0:0,0:0:0:0:
203,118,48758,2,0,P|166:122|131:133,1,75,4|8,3:0|3:0,0:0:0:0:
130,133,49082,1,10,0:2:0:0:
56,61,49244,6,0,B|-2:107|-2:107|37:197,1,150,2|10,1:2|0:2,0:0:0:0:
106,227,49731,1,10,0:0:0:0:
46,314,49893,2,0,P|83:318|118:329,1,75,10|0,0:0|1:0,0:0:0:0:
195,255,50217,2,0,P|230:243|267:239,1,75,10|0,0:0|1:0,0:0:0:0:
342,322,50542,6,0,P|369:360|470:352,1,150,6|2,1:2|1:2,0:0:0:0:
464,357,51028,1,10,0:0:0:0:
499,268,51190,1,2,0:2:0:0:
499,268,51352,2,0,P|477:205|468:166,1,75,0|2,1:2|1:2,0:0:0:0:
392,142,51677,1,8,0:0:0:0:
327,223,51839,6,0,B|231:238|296:276|183:281,1,150,2|2,1:2|1:2,0:0:0:0:
119,349,52325,1,8,0:0:0:0:
40,289,52488,2,0,P|53:225|57:189,1,75,2|0,0:0|1:0,0:0:0:0:
149,185,52812,2,0,P|136:121|132:85,1,75,2|10,1:2|0:0,0:0:0:0:
90,29,53136,6,0,P|126:73|232:57,1,150,2|2,1:2|1:2,0:0:0:0:
213,72,53623,1,8,0:0:0:0:
265,169,53785,2,0,P|337:176|388:125,1,150,2|2,1:2|1:2,0:0:0:0:
388,125,54271,1,8,0:0:0:0:
462,22,54434,6,0,P|479:94|498:167,1,150,2|2,1:2|1:2,0:0:0:0:
498,167,54920,1,8,0:0:0:0:
414,241,55082,1,2,1:2:0:0:
476,323,55244,2,0,P|511:314|547:305,5,37.5,8|8|4|4|8|4,3:0|3:0|3:0|3:0|3:0|3:0,0:0:0:0:
456,313,55731,6,0,B|370:334|424:368|315:378,1,150,6|2,1:2|1:2,0:0:0:0:
243,302,56217,1,10,0:0:0:0:
243,302,56379,2,0,P|186:259|217:177,1,150,2|2,0:0|1:2,0:0:0:0:
287,129,56866,1,10,0:0:0:0:
207,49,57028,6,0,P|141:65|54:85,1,150,2|0,1:2|1:0,0:0:0:0:
0,171,57515,1,8,0:0:0:0:
0,171,57677,2,0,P|46:182|107:196,1,75,2|0,0:0|1:0,0:0:0:0:
140,268,58001,1,2,1:2:0:0:
140,268,58163,1,8,0:0:0:0:
86,355,58325,6,0,P|132:321|237:335,1,150,6|2,1:2|1:2,0:0:0:0:
301,248,58812,2,0,P|288:212|278:176,1,75,10|2,0:0|1:2,0:0:0:0:
180,138,59136,2,0,P|192:102|202:66,1,75,10|2,0:0|1:2,0:0:0:0:
202,66,59461,1,10,0:0:0:0:
303,7,59623,6,0,P|373:31|446:51,1,150,2|8,1:2|0:0,0:0:0:0:
495,144,60109,1,8,0:0:0:0:
490,165,61082,6,0,P|450:176|411:190,1,82.5000025177003,6|0,1:2|1:0,0:0:0:0:
380,293,61407,2,0,P|341:279|301:268,1,82.5000025177003,8|0,0:0|1:0,0:0:0:0:
220,194,61731,2,0,P|234:155|245:115,1,82.5000025177003,2|0,0:0|1:0,0:0:0:0:
252,111,61974,1,0,1:0:0:0:
259,108,62055,1,8,0:0:0:0:
378,72,62217,6,0,P|329:83|237:13,1,165.000005035401,2|0,1:2|1:0,0:0:0:0:
235,26,62623,1,0,1:0:0:0:
229,31,62704,1,8,0:0:0:0:
143,112,62866,6,0,P|82:123|50:130,1,82.5000025177003,2|0,1:2|0:0,0:0:0:0:
129,212,63190,2,0,P|190:223|222:230,1,82.5000025177003,2|0,1:2|0:0,0:0:0:0:
326,131,63515,6,0,P|375:120|467:190,1,165.000005035401,6|0,1:2|1:0,0:0:0:0:
512,274,64001,2,0,P|499:313|489:353,1,82.5000025177003,10|0,0:2|1:0,0:0:0:0:
398,384,64325,1,2,0:0:0:0:
398,384,64488,2,0,P|358:371|318:361,1,82.5000025177003,2|10,1:2|0:0,0:0:0:0:
277,276,64812,1,2,1:2:0:0:
146,305,64974,6,0,P|133:344|123:384,1,82.5000025177003,2|2,0:2|1:2,0:0:0:0:
25,384,65298,1,10,0:0:0:0:
25,384,65461,1,2,1:2:0:0:
0,285,65623,2,0,P|12:245|22:205,1,82.5000025177003,8|2,0:0|1:2,0:0:0:0:
109,169,65947,1,8,0:0:0:0:
0,83,66109,6,0,B|109:67|37:35|172:13,1,165.000005035401,6|0,1:2|1:0,0:0:0:0:
183,120,66596,2,0,P|239:135|280:147,1,82.5000025177003,10|2,0:0|0:0,0:0:0:0:
300,46,66920,2,0,P|356:31|397:19,1,82.5000025177003,2|0,1:2|1:0,0:0:0:0:
379,24,67244,1,10,0:0:0:0:
464,89,67407,6,0,B|526:143|526:143|492:230,1,165.000005035401,2|2,1:2|1:2,0:0:0:0:
407,190,67893,2,0,P|327:211|249:238,1,165.000005035401,10|0,0:0|1:0,0:0:0:0:
249,237,68379,1,0,1:0:0:0:
175,176,68542,1,10,0:0:0:0:
68,257,68704,6,0,P|45:301|108:384,1,165.000005035401,6|2,1:2|1:2,0:0:0:0:
191,322,69190,2,0,P|230:333|270:343,1,82.5000025177003,10|2,0:0|0:0,0:0:0:0:
350,273,69515,1,2,1:2:0:0:
350,273,69677,1,2,1:2:0:0:
266,205,69839,1,10,0:0:0:0:
352,142,70001,6,0,P|411:90|390:15,1,165.000005035401,2|2,1:2|1:2,0:0:0:0:
299,58,70488,2,0,P|259:68|219:79,1,82.5000025177003,10|2,0:0|0:0,0:0:0:0:
138,10,70812,1,6,1:2:0:0:
66,77,70974,2,0,P|72:100|79:124,5,41.2500012588501,8|8|8|4|4|4,3:0|3:0|3:0|3:0|3:0|3:0,0:0:0:0:
39,132,71461,6,0,P|33:172|55:205,1,82.5000025177003,6|0,1:2|1:0,0:0:0:0:
147,260,71786,2,0,P|186:246|226:235,1,82.5000025177003,8|0,0:0|1:0,0:0:0:0:
259,141,72110,2,0,P|298:155|338:166,1,82.5000025177003,2|0,0:0|1:0,0:0:0:0:
342,173,72353,1,0,1:0:0:0:
345,180,72434,1,8,0:0:0:0:
459,255,72596,6,0,B|519:316|519:316|461:417,1,165.000005035401,2|0,1:2|1:0,0:0:0:0:
471,380,73002,1,0,1:0:0:0:
464,375,73083,1,8,0:0:0:0:
360,317,73245,6,0,P|319:308|278:301,1,82.5000025177003,2|0,1:2|0:0,0:0:0:0:
215,218,73569,2,0,P|255:211|296:202,1,82.5000025177003,2|0,1:2|0:0,0:0:0:0:
454,124,73893,6,0,B|345:108|417:76|282:54,1,165.000005035401,6|0,1:2|1:0,0:0:0:0:
214,7,74380,2,0,P|185:45|191:86,1,82.5000025177003,10|0,0:2|1:0,0:0:0:0:
262,146,74704,1,2,0:0:0:0:
262,146,74867,2,0,P|249:186|239:226,1,82.5000025177003,2|10,1:2|0:0,0:0:0:0:
160,268,75191,1,2,1:2:0:0:
37,331,75352,6,0,P|11:289|14:249,1,82.5000025177003,2|2,0:2|1:2,0:0:0:0:
75,182,75677,1,10,0:0:0:0:
75,182,75840,1,2,1:2:0:0:
168,186,76001,2,0,P|190:152|193:111,1,82.5000025177003,8|2,0:0|1:2,0:0:0:0:
137,43,76326,1,8,0:0:0:0:
264,0,76488,6,0,P|341:26|421:47,1,165.000005035401,6|0,1:2|1:0,0:0:0:0:
485,129,76974,1,10,0:0:0:0:
485,129,77136,2,0,P|473:167|463:208,1,82.5000025177003,2|0,0:0|1:0,0:0:0:0:
380,247,77461,1,0,1:0:0:0:
474,337,77623,1,10,0:0:0:0:
390,376,77785,6,0,P|316:339|234:336,1,165.000005035401,2|0,1:2|1:0,0:0:0:0:
234,336,78272,1,10,0:0:0:0:
166,264,78434,2,0,P|143:226|157:183,1,82.5000025177003,2|0,0:0|1:0,0:0:0:0:
239,139,78758,1,0,1:0:0:0:
239,139,78839,1,0,1:0:0:0:
239,139,78920,1,10,0:0:0:0:
161,19,79082,6,0,P|84:45|4:66,1,165.000005035401,6|0,1:2|1:0,0:0:0:0:
70,152,79569,2,0,P|110:161|149:173,1,82.5000025177003,8|0,0:0|0:0,0:0:0:0:
81,258,79893,2,0,P|40:267|1:279,2,82.5000025177003,0|0|8,1:0|1:0|0:0,0:0:0:0:
194,335,80380,6,0,P|269:355|321:297,1,165.000005035401,6|0,1:2|1:0,0:0:0:0:
388,211,80867,2,0,P|347:200|308:190,1,82.5000025177003,8|0,0:0|0:0,0:0:0:0:
308,190,81191,1,0,1:0:0:0:
243,72,81352,5,8,1:2:0:0:
243,72,81515,1,8,1:2:0:0:
243,72,81677,1,8,1:2:0:0:
143,100,81839,6,0,P|135:139|122:179,1,75,6|0,1:2|1:0,0:0:0:0:
205,224,82163,2,0,P|213:263|225:303,1,75,8|0,0:2|0:0,0:0:0:0:
165,375,82488,2,0,P|129:364|92:356,2,75,2|2|8,1:2|1:2|0:0,0:0:0:0:
316,295,82974,6,0,B|410:307|361:335|458:345,1,150,2|0,1:2|1:0,0:0:0:0:
454,344,83461,1,8,0:0:0:0:
512,238,83623,6,0,P|501:201|494:165,1,75,2|0,1:2|0:0,0:0:0:0:
410,99,83947,2,0,P|402:135|392:171,1,75,2|8,1:2|0:0,0:0:0:0:
270,239,84271,6,0,P|193:191|213:124,1,150,6|2,1:2|1:2,0:0:0:0:
270,50,84758,2,0,P|233:41|197:29,1,75,10|2,0:0|0:0,0:0:0:0:
126,90,85082,2,0,P|89:98|53:110,1,75,2|2,1:2|1:2,0:0:0:0:
53,110,85407,1,8,0:0:0:0:
0,230,85569,6,0,P|76:247|151:272,1,150,2|2,1:2|1:2,0:0:0:0:
200,360,86056,1,10,0:0:0:0:
299,323,86218,1,2,0:0:0:0:
299,323,86380,2,0,P|306:286|317:251,1,75,0|2,1:2|1:2,0:0:0:0:
261,171,86704,1,10,0:0:0:0:
171,71,86866,6,0,P|219:23|309:39,1,150,6|0,1:2|1:0,0:0:0:0:
375,116,87353,1,10,0:0:0:0:
375,116,87515,2,0,P|447:107|500:157,1,150,2|0,0:0|1:0,0:0:0:0:
440,236,88001,1,10,0:0:0:0:
347,329,88163,6,0,P|277:307|187:287,1,150,6|0,1:2|1:0,0:0:0:0:
104,324,88650,1,10,0:0:0:0:
104,324,88812,2,0,B|76:259|76:259|144:198,1,150,2|0,0:0|1:0,0:0:0:0:
73,129,89298,1,10,0:0:0:0:
187,50,89461,6,0,B|285:80|224:107|329:130,1,150,6|0,1:2|1:0,0:0:0:0:
406,64,89947,2,0,P|412:104|418:137,1,75,8|2,0:0|0:0,0:0:0:0:
512,198,90271,2,0,P|504:234|499:271,1,75,0|0,1:0|1:0,0:0:0:0:
499,271,90596,1,8,0:0:0:0:
406,355,90758,6,0,P|342:307|258:329,1,150,2|2,1:2|1:2,0:0:0:0:
192,372,91245,1,10,0:0:0:0:
111,298,91407,2,0,P|135:230|161:140,1,150,2|8,0:0|3:0,0:0:0:0:
166,150,91812,1,4,3:0:0:0:
175,145,91893,1,4,3:0:0:0:
267,95,92055,1,0,1:0:0:0:
179,0,92217,6,0,P|108:24|36:46,1,150,6|10,1:2|0:0,0:0:0:0:
36,45,92704,1,2,0:0:0:0:
0,140,92866,2,0,P|35:151|71:163,1,75,0|2,1:2|0:0,0:0:0:0:
101,256,93190,1,8,0:0:0:0:
152,353,93353,6,0,P|214:316|217:244,1,150,2|2,1:2|1:2,0:0:0:0:
308,227,93839,2,0,P|297:191|288:154,1,75,8|2,0:0|0:0,0:0:0:0:
197,127,94163,2,0,P|207:91|216:54,1,75,2|2,1:2|0:0,0:0:0:0:
304,9,94488,1,10,1:2:0:0:
304,9,94650,1,2,0:0:0:0:
382,78,94812,6,0,P|392:152|406:225,1,150,2|10,1:2|0:0,0:0:0:0:
496,304,95298,2,0,P|421:314|348:328,1,150,2|2,0:0|0:0,0:0:0:0:
281,264,95785,1,8,0:0:0:0:
181,276,95947,2,0,P|170:205|245:157,1,150,2|2,1:2|1:2,0:0:0:0:
330,168,96434,2,0,P|317:133|307:97,1,75,10|2,0:0|0:0,0:0:0:0:
230,30,96758,2,0,P|194:42|158:52,1,75,2|2,1:2|1:2,0:0:0:0:
158,52,97082,1,10,0:2:0:0:
0,150,97407,6,0,P|71:172|142:196,1,150,6|10,1:2|0:2,0:0:0:0:
177,289,97893,1,0,0:0:0:0:
177,289,98056,2,0,P|213:277|249:267,1,75,2|0,1:2|1:0,0:0:0:0:
285,173,98380,1,8,0:0:0:0:
389,182,98542,6,0,P|454:217|448:305,1,150,2|2,1:2|1:2,0:0:0:0:
395,375,99028,2,0,P|323:354|249:336,1,150,10|2,0:0|1:2,0:0:0:0:
198,260,99515,1,0,1:2:0:0:
198,260,99677,1,8,0:0:0:0:
297,209,99839,6,0,P|276:137|258:63,1,150,2|2,1:2|1:2,0:0:0:0:
258,63,100325,1,10,0:0:0:0:
174,0,100488,2,0,P|156:73|135:145,1,150,2|2,1:2|1:2,0:0:0:0:
33,219,100974,5,10,0:2:0:0:
33,219,101136,2,0,P|106:236|178:257,1,150,6|2,1:2|1:2,0:0:0:0:
234,350,101623,1,10,0:0:0:0:
234,350,101785,2,0,P|269:337|306:330,1,75,6|0,1:2|0:0,0:0:0:0:
365,234,102109,6,2,P|401:296|472:297,1,150,6|0,1:1|1:1,0:1:0:0:
481,289,102839,1,0,1:0:0:0:
482,280,102920,1,6,1:2:0:0:
457,169,103082,6,0,P|384:151|313:127,1,150,2|2,1:2|1:2,0:0:0:0:
222,64,103569,2,0,P|209:120|196:150,1,75,8|2,0:0|1:2,0:0:0:0:
202,136,103893,1,0,0:2:0:0:
277,211,104055,6,0,P|284:247|295:283,1,75,2|10,1:2|0:0,0:0:0:0:
217,350,104379,2,0,P|146:361|100:307,1,150,2|2,1:2|1:2,0:0:0:0:
14,264,104866,1,10,0:0:0:0:
14,264,105028,1,2,0:0:0:0:
55,166,105190,5,2,1:2:0:0:
55,166,105353,2,0,P|91:160|126:147,1,75,2|8,0:0|0:0,0:0:0:0:
158,45,105677,2,0,P|214:40|268:123,1,150,2|2,0:0|1:2,0:0:0:0:
268,107,106163,1,8,0:2:0:0:
370,181,106326,6,0,P|296:195|226:222,1,150,2|2,1:2|1:2,0:0:0:0:
130,184,106812,1,8,0:0:0:0:
130,184,106974,1,2,0:0:0:0:
73,277,107136,2,0,P|109:283|145:296,1,75,2|2,1:2|1:2,0:0:0:0:
215,382,107461,2,0,P|250:369|287:362,1,75,10|2,0:2|0:2,0:0:0:0:
346,273,107785,6,0,P|395:324|463:302,1,150,6|10,1:2|0:2,0:0:0:0:
463,302,108271,1,2,0:0:0:0:
512,226,108434,2,0,P|501:193|490:154,1,75,2|2,1:2|1:2,0:0:0:0:
408,110,108758,1,8,0:0:0:0:
318,59,108920,6,0,P|298:133|274:207,1,150,6|0,1:2|1:2,0:0:0:0:
346,273,109407,2,0,P|311:335|240:332,1,150,10|2,0:0|1:2,0:0:0:0:
154,380,109893,1,0,1:2:0:0:
154,380,110055,1,10,0:0:0:0:
70,324,110217,6,0,B|44:260|44:260|116:180,1,150,6|0,1:2|1:2,0:0:0:0:
0,131,110704,2,0,P|73:115|143:89,1,150,10|2,0:2|1:2,0:0:0:0:
195,7,111190,1,2,1:2:0:0:
195,7,111353,1,8,0:2:0:0:
293,34,111515,6,0,P|308:107|334:177,1,150,6|2,1:2|1:2,0:0:0:0:
334,177,112001,1,8,0:0:0:0:
233,199,112163,2,0,P|217:272|191:342,1,150,6|2,1:2|1:2,0:0:0:0:
286,384,112650,2,0,P|321:373|358:366,1,75,8|2,0:0|0:0,0:0:0:0:
402,282,112974,5,6,1:2:0:0:
404,264,115677,1,2,0:0:0:0:
127,141,118163,5,2,0:0:0:0:
125,123,120704,1,2,0:0:0:0:
125,123,121731,1,2,3:0:0:0:
62,49,121893,6,0,P|-7:96|11:169,1,150,6|4,1:2|3:0,0:0:0:0:
12,159,122298,1,4,3:0:0:0:
23,170,122380,1,10,0:0:0:0:
86,253,122542,2,0,P|79:290|70:325,1,75,10|0,1:2|0:0,0:0:0:0:
170,293,122866,2,0,P|177:256|185:220,1,75,10|0,1:2|0:0,0:0:0:0:
272,316,123191,6,0,B|365:342|319:364|407:382,1,150,6|2,1:2|1:2,0:0:0:0:
486,327,123677,1,10,0:0:0:0:
421,260,123839,1,2,0:2:0:0:
421,260,124001,2,0,P|443:197|452:158,1,75,0|2,1:2|1:2,0:0:0:0:
445,189,124326,1,8,0:0:0:0:
489,94,124488,6,0,P|431:146|355:136,1,150,2|2,1:2|1:2,0:0:0:0:
313,62,124974,1,8,0:0:0:0:
313,62,125137,2,0,P|249:75|213:79,1,75,2|0,0:0|1:0,0:0:0:0:
201,162,125461,2,0,P|137:149|101:145,1,75,2|10,1:2|0:0,0:0:0:0:
68,70,125785,6,0,B|1:116|1:116|26:201,1,150,2|2,1:2|1:2,0:0:0:0:
20,181,126272,1,8,0:0:0:0:
0,288,126434,2,0,P|65:264|153:241,1,150,2|2,1:2|1:2,0:0:0:0:
143,243,126920,1,8,0:0:0:0:
201,162,127082,6,0,B|268:208|268:208|243:293,1,150,2|2,1:2|1:2,0:0:0:0:
248,273,127569,1,8,0:0:0:0:
319,353,127731,1,2,1:2:0:0:
411,312,127893,2,0,P|420:347|429:383,5,37.5,8|8|4|4|8|4,3:0|3:0|3:0|3:0|3:0|3:0,0:0:0:0:
385,296,128379,6,0,B|365:230|365:230|432:184,1,150,6|2,1:2|1:2,0:0:0:0:
486,98,128866,1,10,0:0:0:0:
486,98,129028,2,0,P|481:27|415:0,1,150,2|2,0:0|1:2,0:0:0:0:
351,75,129515,1,10,0:0:0:0:
267,41,129677,6,0,B|169:60|230:94|126:105,1,150,2|0,1:2|1:0,0:0:0:0:
220,184,130164,1,8,0:0:0:0:
220,184,130326,2,0,P|260:190|309:208,1,75,2|0,0:0|1:0,0:0:0:0:
342,283,130650,1,2,1:2:0:0:
342,283,130812,1,8,0:0:0:0:
262,347,130974,6,0,P|194:357|110:387,1,150,6|2,1:2|1:2,0:0:0:0:
29,335,131461,2,0,P|0:308|6:263,1,75,10|2,0:0|1:2,0:0:0:0:
69,212,131785,2,0,P|98:185|92:140,1,75,10|2,0:0|1:2,0:0:0:0:
29,91,132110,1,10,0:0:0:0:
113,24,132272,6,0,P|183:48|256:68,1,150,6|8,1:2|0:0,0:0:0:0:
296,150,132758,2,0,P|327:139|360:130,3,37.5,8|4|0|0,3:0|3:0|1:0|1:0,0:0:0:0:
264,165,133082,6,0,P|253:200|240:236,1,75,6|8,1:2|0:0,0:0:0:0:
243,244,133325,1,8,0:0:0:0:
246,251,133407,1,10,0:0:0:0:
208,379,133569,5,8,0:0:0:0:
208,379,133650,1,8,0:0:0:0:
208,379,133731,2,0,P|273:338|373:340,1,165.000005035401,6|8,1:2|0:0,0:0:0:0:
445,384,134217,1,2,1:2:0:0:
445,384,134379,2,0,P|487:347|472:269,1,123.75000377655,2|2,0:0|1:2,0:0:0:0:
464,271,134704,1,8,0:0:0:0:
381,171,134866,5,2,1:2:0:0:
381,171,135028,2,0,P|339:161|285:146,1,82.5000025177003,2|0,0:0|1:0,0:0:0:0:
228,213,135352,1,10,0:0:0:0:
105,156,135515,6,0,P|118:117|125:76,1,82.5000025177003,2|0,1:2|0:0,0:0:0:0:
203,0,135839,2,0,P|210:37|223:79,1,82.5000025177003,2|0,1:2|0:0,0:0:0:0:
351,126,136163,6,0,P|419:146|414:240,1,165.000005035401,6|0,1:2|1:0,0:0:0:0:
423,229,136650,1,8,0:0:0:0:
512,316,136812,1,2,1:2:0:0:
512,316,136974,2,0,P|451:325|366:355,1,123.75000377655,2|2,0:0|0:0,0:0:0:0:
376,335,137298,1,8,0:0:0:0:
255,293,137461,5,2,1:2:0:0:
255,293,137623,2,0,P|214:342|224:365,2,82.5000025177003,2|0|8,0:0|1:0|0:0,0:0:0:0:
332,224,138109,2,0,P|316:174|306:126,1,82.5000025177003,2|8,1:2|0:0,0:0:0:0:
235,86,138434,1,2,1:2:0:0:
235,86,138596,1,8,0:0:0:0:
126,11,138758,6,0,P|104:99|76:185,1,165.000005035401,6|0,1:2|1:0,0:0:0:0:
81,169,139244,1,8,0:0:0:0:
0,240,139407,1,2,0:0:0:0:
0,240,139569,2,0,P|-8:307|68:332,1,123.75000377655,2|2,1:2|0:0,0:0:0:0:
51,333,139893,1,8,0:0:0:0:
144,257,140055,6,0,B|248:277|189:323|321:330,1,165.000005035401,2|0,1:2|1:0,0:0:0:0:
289,327,140542,1,8,0:0:0:0:
371,275,140704,1,2,0:0:0:0:
480,303,140866,2,0,P|462:244|453:182,1,123.75000377655,2|2,1:2|0:0,0:0:0:0:
433,174,141190,1,8,0:0:0:0:
312,86,141352,6,0,P|299:177|272:266,1,165.000005035401,6|0,1:2|1:0,0:0:0:0:
342,313,141839,2,0,P|285:368|208:352,1,165.000005035401,8|0,0:0|1:0,0:0:0:0:
207,351,142325,1,0,1:0:0:0:
118,384,142488,1,8,0:0:0:0:
38,279,142650,6,0,P|25:188|-2:99,1,165.000005035401,6|2,1:2|1:2,0:0:0:0:
63,29,143136,1,10,0:0:0:0:
171,110,143298,6,0,B|276:128|221:167|342:174,1,165.000005035401,6|0,1:2|1:0,0:0:0:0:
325,180,143704,1,0,1:0:0:0:
329,187,143785,1,8,0:0:0:0:
200,247,143947,5,0,1:0:0:0:
200,247,144028,1,0,1:0:0:0:
200,247,144109,2,0,B|130:295|130:295|163:380|163:380,1,165.000005035401,6|8,1:2|0:0,0:0:0:0:
266,339,144596,1,2,1:2:0:0:
266,339,144758,2,0,B|327:346|396:366,1,123.75000377655,2|2,0:2|0:0,0:0:0:0:
404,349,145082,1,8,0:0:0:0:
492,267,145244,5,2,0:0:0:0:
492,267,145407,2,0,P|514:233|512:192,1,82.5000025177003,2|0,0:0|1:0,0:0:0:0:
505,184,145650,1,0,1:0:0:0:
497,179,145731,1,8,0:0:0:0:
397,81,145893,6,0,B|382:124|374:160,1,82.5000025177003,2|0,1:2|0:0,0:0:0:0:
300,223,146217,2,0,B|290:178|277:143,1,82.5000025177003,2|0,1:2|0:0,0:0:0:0:
158,79,146542,6,0,B|85:106|-8:126,1,165.000005035401,6|0,1:2|1:0,0:0:0:0:
0,125,147028,1,8,0:0:0:0:
95,200,147190,1,2,0:0:0:0:
95,200,147352,2,0,B|146:211|189:227,2,82.5000025177003,2|0|8,0:0|1:0|0:0,0:0:0:0:
0,273,147839,6,0,P|-15:337|90:372,1,165.000005035401,2|2,1:2|1:2,0:0:0:0:
132,325,148326,1,10,0:0:0:0:
132,325,148488,2,0,B|183:314|226:298,1,82.5000025177003,2|8,1:2|0:0,0:0:0:0:
293,366,148812,1,2,1:2:0:0:
293,366,148974,1,8,0:0:0:0:
404,296,149136,6,0,B|429:227|429:227|349:154,1,165.000005035401,6|0,1:2|1:0,0:0:0:0:
451,113,149623,2,0,P|386:127|300:68,1,165.000005035401,8|2,0:2|1:2,0:0:0:0:
217,127,150109,1,0,1:2:0:0:
217,127,150271,2,0,P|210:174|191:243,1,82.5000025177003,10|2,0:2|1:2,0:0:0:0:
310,328,150596,6,0,P|245:314|159:373,1,165.000005035401,2|8,0:0|0:0,0:0:0:0:
119,274,151082,1,2,0:0:0:0:
119,274,151244,1,2,1:2:0:0:
27,308,151407,1,0,1:0:0:0:
27,308,151488,1,2,0:0:0:0:
27,308,151569,2,0,P|-5:255|22:217,1,82.5000025177003,8|6,0:0|1:2,0:0:0:0:
85,126,151893,6,0,P|150:172|230:161,1,165.000005035401,2|8,0:0|0:0,0:0:0:0:
309,83,152379,1,2,0:0:0:0:
309,83,152542,2,0,P|321:46|333:-21,1,82.5000025177003,0|0,1:0|1:0,0:0:0:0:
418,58,152866,2,0,P|426:98|439:137,1,82.5000025177003,8|6,0:0|1:2,0:0:0:0:
512,235,153190,6,0,P|503:336|441:351,1,165.000005035401,2|8,0:0|0:0,0:0:0:0:
454,352,153677,1,2,0:0:0:0:
362,300,153839,2,0,P|335:307|283:314,5,55.0000016784668,4|0|0|0|0|0,3:0|1:0|1:0|1:0|1:0|1:0,0:0:0:0:
275,294,154488,6,0,P|247:265|253:222,1,75,6|0,1:2|1:0,0:0:0:0:
302,155,154812,1,8,0:0:0:0:
302,155,154975,1,2,0:0:0:0:
227,75,155137,2,0,P|158:102|85:119,1,150,2|8,1:2|0:2,0:0:0:0:
40,209,155624,1,2,0:0:0:0:
132,253,155785,6,0,P|166:239|203:230,2,75,2|0|8,1:2|1:0|0:0,0:0:0:0:
132,253,156270,1,2,0:0:0:0:
69,343,156434,2,0,P|119:356|166:379,1,75,2|0,1:2|1:0,0:0:0:0:
140,365,156759,1,8,0:0:0:0:
236,324,156921,6,0,B|328:336|272:375|401:382,1,150,6|2,1:2|1:2,0:0:0:0:
468,333,157407,2,0,P|492:305|491:268,1,75,10|0,0:0|0:0,0:0:0:0:
409,209,157731,2,0,P|422:174|431:137,1,75,2|0,1:2|1:0,0:0:0:0:
512,96,158056,1,10,0:0:0:0:
432,16,158218,6,0,P|359:36|286:51,1,150,2|2,1:2|1:2,0:0:0:0:
209,131,158705,2,0,P|246:135|281:146,1,75,10|2,0:0|0:0,0:0:0:0:
315,235,159029,2,0,P|350:223|387:219,2,75,0|0|8,1:0|1:0|0:0,0:0:0:0:
315,235,159515,1,0,1:0:0:0:
244,311,159677,6,0,P|255:346|259:383,2,75,6|0|8,1:2|1:0|0:0,0:0:0:0:
140,299,160164,1,2,0:0:0:0:
140,299,160326,2,0,P|75:259|85:179,1,150,2|8,1:2|0:2,0:0:0:0:
1,122,160813,1,2,0:0:0:0:
76,42,160975,6,0,P|112:34|146:20,1,75,2|0,1:2|1:0,0:0:0:0:
230,81,161299,1,8,0:2:0:0:
230,81,161461,1,2,0:0:0:0:
188,162,161624,2,0,P|202:196|209:233,1,75,2|0,1:2|1:0,0:0:0:0:
209,233,161948,1,8,0:0:0:0:
140,299,162110,6,0,P|196:275|264:341,1,150,6|0,1:2|1:0,0:0:0:0:
343,369,162597,2,0,P|380:373|415:384,1,75,10|2,0:0|0:0,0:0:0:0:
496,338,162921,2,0,P|500:301|511:266,1,75,4|8,3:0|3:0,0:0:0:0:
511,265,163245,1,10,0:2:0:0:
456,174,163407,6,0,P|399:150|331:216,1,150,2|10,1:2|0:0,0:0:0:0:
284,279,163894,1,10,0:0:0:0:
219,212,164056,2,0,P|183:200|146:196,1,75,10|0,0:0|0:0,0:0:0:0:
116,290,164380,2,0,P|78:293|43:305,1,75,10|0,0:0|0:0,0:0:0:0:
0,207,164704,6,0,B|-24:142|-24:142|50:89,1,150,6|2,1:2|1:2,0:0:0:0:
41,95,165191,1,10,0:0:0:0:
104,11,165353,1,2,0:2:0:0:
104,11,165515,2,0,P|167:33|206:42,1,75,0|2,1:2|1:2,0:0:0:0:
227,113,165840,1,8,0:0:0:0:
195,218,166001,6,0,P|302:180|368:165,1,150,2|2,1:2|1:2,0:0:0:0:
384,83,166488,1,8,0:0:0:0:
475,131,166651,2,0,P|480:168|489:204,1,75,2|0,0:0|1:0,0:0:0:0:
396,243,166975,2,0,P|390:280|381:316,1,75,2|10,1:2|0:0,0:0:0:0:
432,384,167299,6,0,P|396:340|290:356,1,150,2|2,1:2|1:2,0:0:0:0:
309,341,167786,1,8,0:0:0:0:
243,249,167948,2,0,P|191:300|119:293,1,150,2|2,1:2|1:2,0:0:0:0:
119,293,168434,1,8,0:0:0:0:
41,384,168597,6,0,P|24:312|5:239,1,150,2|2,1:2|1:2,0:0:0:0:
5,239,169083,1,8,0:0:0:0:
94,173,169245,1,2,1:2:0:0:
26,80,169407,2,0,P|17:115|8:151,5,37.5,8|8|4|4|8|4,3:0|3:0|3:0|3:0|3:0|3:0,0:0:0:0:
12,37,169893,6,0,P|63:88|135:81,1,150,6|2,1:2|1:2,0:0:0:0:
199,14,170380,1,10,0:0:0:0:
199,14,170542,2,0,P|256:27|354:45,1,150,2|2,0:0|1:2,0:0:0:0:
386,134,171029,1,10,0:0:0:0:
294,180,171191,6,0,B|225:224|225:224|244:299,1,150,2|0,1:2|1:0,0:0:0:0:
315,367,171678,1,8,0:0:0:0:
315,367,171840,2,0,P|351:375|387:384,1,75,2|0,0:0|1:0,0:0:0:0:
469,325,172164,1,2,1:2:0:0:
469,325,172326,1,8,0:0:0:0:
397,240,172488,6,0,P|410:182|428:85,1,150,6|2,1:2|1:2,0:0:0:0:
348,23,172975,2,0,P|312:36|276:46,1,75,10|2,0:0|1:2,0:0:0:0:
242,146,173299,2,0,P|206:134|170:124,1,75,10|2,0:0|1:2,0:0:0:0:
170,124,173624,1,10,0:0:0:0:
107,44,173786,6,0,P|36:94|64:170,1,150,6|8,1:2|0:0,0:0:0:0:
127,220,174272,1,8,0:0:0:0:
149,230,175244,6,0,P|158:261|169:291,3,63.7500012159348,6|2|2|2,1:2|0:0|0:2|0:0,0:0:0:0:
68,314,175893,2,0,P|59:345|48:375,2,63.7500012159348,2|2|0,0:2|0:0|0:0,0:0:0:0:
258,346,176379,6,0,B|353:329|296:297|403:287,1,150,6|8,1:2|3:0,0:0:0:0:
396,280,176785,1,4,3:0:0:0:
401,272,176866,1,0,1:0:0:0:
479,201,177028,6,0,P|464:154|456:103,1,75,2|0,1:2|0:0,0:0:0:0:
381,62,177352,2,0,P|373:98|361:134,1,75,2|0,1:2|0:0,0:0:0:0:
253,230,177677,6,0,P|204:241|112:171,1,165.000005035401,6|0,1:2|1:0,0:0:0:0:
47,94,178163,2,0,P|87:84|126:70,1,82.5000025177003,10|0,0:2|1:0,0:0:0:0:
188,0,178487,1,2,0:0:0:0:
188,0,178650,2,0,P|228:13|268:23,1,82.5000025177003,2|10,1:2|0:0,0:0:0:0:
314,109,178974,1,2,1:2:0:0:
205,162,179136,6,0,P|173:205|182:241,1,82.5000025177003,2|2,0:2|1:2,0:0:0:0:
221,323,179461,1,10,0:0:0:0:
221,323,179624,1,2,1:2:0:0:
321,334,179786,2,0,P|353:291|344:255,1,82.5000025177003,8|2,0:0|1:2,0:0:0:0:
349,265,180109,1,8,0:0:0:0:
510,219,180271,6,0,B|401:203|473:171|338:149,1,165.000005035401,6|0,1:2|1:0,0:0:0:0:
336,58,180758,2,0,P|296:46|256:36,1,82.5000025177003,10|2,0:0|0:0,0:0:0:0:
165,95,181082,2,0,P|176:134|186:174,1,82.5000025177003,2|0,1:2|1:0,0:0:0:0:
186,174,181406,1,10,0:0:0:0:
313,225,181569,6,0,P|286:303|262:389,1,165.000005035401,2|2,1:2|1:2,0:0:0:0:
194,304,182055,2,0,B|91:315|146:349|36:352,1,165.000005035401,10|0,0:0|1:0,0:0:0:0:
39,351,182541,1,0,1:0:0:0:
0,266,182704,1,10,0:0:0:0:
86,156,182866,6,0,P|141:207|256:185,1,165.000005035401,6|2,1:2|1:2,0:0:0:0:
277,114,183352,2,0,P|317:104|356:92,1,82.5000025177003,10|2,0:0|0:0,0:0:0:0:
441,173,183677,1,2,1:2:0:0:
441,173,183839,1,2,1:2:0:0:
388,252,184001,1,10,0:0:0:0:
474,367,184163,6,0,P|389:342|304:321,1,165.000005035401,2|2,1:2|1:2,0:0:0:0:
243,382,184650,2,0,P|203:371|163:361,1,82.5000025177003,10|2,0:0|0:0,0:0:0:0:
129,272,184974,1,6,1:2:0:0:
47,326,185136,2,0,P|53:349|60:373,5,41.2500012588501,8|8|8|4|4|4,3:0|3:0|3:0|3:0|3:0|3:0,0:0:0:0:
16,317,185623,6,0,P|-6:283|0:243,1,82.5000025177003,6|0,1:2|1:0,0:0:0:0:
88,198,185947,2,0,P|110:164|104:124,1,82.5000025177003,8|0,0:0|1:0,0:0:0:0:
33,43,186272,2,0,P|72:32|111:18,1,82.5000025177003,2|0,0:0|1:0,0:0:0:0:
118,23,186515,1,0,1:0:0:0:
124,26,186596,1,8,0:0:0:0:
195,124,186757,6,0,P|257:189|352:161,1,165.000005035401,2|0,1:2|1:0,0:0:0:0:
331,175,187163,1,0,1:0:0:0:
338,170,187245,1,8,0:0:0:0:
404,67,187407,6,0,P|363:60|323:51,1,82.5000025177003,2|0,1:2|0:0,0:0:0:0:
432,162,187731,2,0,P|472:153|512:146,1,82.5000025177003,2|0,1:2|0:0,0:0:0:0:
352,222,188055,6,0,P|334:302|320:383,1,165.000005035401,6|0,1:2|1:0,0:0:0:0:
216,382,188542,2,0,P|187:344|193:303,1,82.5000025177003,10|0,0:2|1:0,0:0:0:0:
249,233,188866,1,2,0:0:0:0:
249,233,189029,2,0,P|236:193|226:153,1,82.5000025177003,2|10,1:2|0:0,0:0:0:0:
297,90,189353,1,2,1:2:0:0:
193,0,189515,6,0,P|154:13|113:22,1,82.5000025177003,2|2,0:2|1:2,0:0:0:0:
60,103,189839,1,10,0:0:0:0:
60,103,190002,1,2,1:2:0:0:
0,183,190163,2,0,P|40:192|79:205,1,82.5000025177003,8|2,0:0|1:2,0:0:0:0:
79,205,190488,1,8,0:0:0:0:
181,142,190650,6,0,P|253:209|213:293,1,165.000005035401,6|0,1:2|1:0,0:0:0:0:
221,372,191136,1,10,0:0:0:0:
221,372,191298,2,0,P|259:360|300:350,1,82.5000025177003,2|0,0:0|1:0,0:0:0:0:
351,261,191623,1,0,1:0:0:0:
441,321,191785,1,10,0:0:0:0:
512,216,191947,6,0,B|536:146|536:146|461:68,1,165.000005035401,2|0,1:2|1:0,0:0:0:0:
472,80,192434,1,10,0:0:0:0:
395,8,192596,2,0,P|362:38|365:83,1,82.5000025177003,2|0,0:0|1:0,0:0:0:0:
279,137,192920,1,0,1:0:0:0:
279,137,193001,1,0,1:0:0:0:
279,137,193082,1,10,0:0:0:0:
170,57,193244,6,0,B|71:73|129:118|12:133,1,165.000005035401,6|0,1:2|1:0,0:0:0:0:
98,216,193731,2,0,P|89:256|77:295,1,82.5000025177003,8|0,0:0|0:0,0:0:0:0:
185,275,194055,2,0,P|194:234|206:195,2,82.5000025177003,0|0|8,1:0|1:0|0:0,0:0:0:0:
278,373,194542,6,0,P|353:339|340:249,1,165.000005035401,6|0,1:2|1:0,0:0:0:0:
439,226,195029,2,0,P|425:193|412:138,1,82.5000025177003,8|0,0:0|0:0,0:0:0:0:
413,147,195353,1,8,0:0:0:0:
328,79,195515,2,0,P|318:119|302:157,1,82.5000025177003,4|0,3:0|1:0,0:0:0:0:
205,200,195839,1,2,0:0:0:0:
414,54,196325,5,2,0:0:0:0:
414,54,196488,1,2,0:0:0:0:
205,200,196974,5,0,0:0:0:0:
205,200,197136,2,2,B|72:169|170:125|8:64,1,225,0|0,0:1|0:1,0:1:0:0:
203,104,198434,6,0,P|279:92|362:65,1,150,6|0,1:2|1:0,0:0:0:0:
428,4,198921,2,0,P|477:20|525:28,1,75,8|0,0:0|1:2,0:0:0:0:
512,120,199245,1,2,1:2:0:0:
512,120,199407,2,0,P|530:171|511:202,1,75,2|8,1:2|0:0,0:0:0:0:
422,271,199731,6,0,P|343:246|266:233,1,150,2|0,1:2|1:0,0:0:0:0:
277,234,200218,1,8,0:0:0:0:
265,122,200379,6,0,P|238:97|202:103,1,75,2|0,1:2|0:0,0:0:0:0:
174,22,200704,2,0,P|139:16|112:40,1,75,2|8,1:2|0:0,0:0:0:0:
19,146,201028,6,0,P|44:225|57:302,1,150,6|2,1:2|1:2,0:0:0:0:
138,363,201515,2,0,P|146:326|158:290,1,75,10|2,0:0|0:0,0:0:0:0:
239,234,201839,2,0,P|275:225|311:213,1,75,2|2,1:2|1:2,0:0:0:0:
376,284,202164,1,8,0:2:0:0:
490,206,202326,6,0,P|499:142|424:89,1,150,2|2,1:2|1:2,0:0:0:0:
358,26,202813,1,10,0:0:0:0:
262,68,202975,1,2,0:0:0:0:
262,68,203137,2,0,P|258:105|250:141,1,75,0|2,1:2|1:2,0:0:0:0:
320,209,203461,1,10,0:0:0:0:
214,287,203623,6,0,P|156:264|39:239,1,150,6|0,1:2|1:0,0:0:0:0:
0,156,204110,1,10,0:0:0:0:
0,156,204271,2,0,P|72:139|142:112,1,150,2|0,0:0|1:0,0:0:0:0:
188,13,204758,1,10,0:0:0:0:
315,51,204920,6,0,P|331:123|358:193,1,150,6|0,1:2|1:0,0:0:0:0:
255,204,205407,1,10,0:0:0:0:
255,204,205569,2,0,P|239:276|212:346,1,150,2|0,0:0|1:0,0:0:0:0:
307,384,206055,1,10,0:0:0:0:
441,332,206217,6,0,P|457:258|484:189,1,150,6|0,1:2|1:0,0:0:0:0:
384,191,206704,2,0,P|363:160|362:123,1,75,8|2,0:0|0:0,0:0:0:0:
431,57,207028,2,0,P|466:69|503:76,2,75,0|0|8,1:0|1:0|0:0,0:0:0:0:
304,0,207515,6,0,P|219:17|138:45,1,150,2|2,1:2|1:2,0:0:0:0:
55,6,208002,1,10,0:0:0:0:
0,96,208163,2,0,P|84:113|165:141,1,150,2|0,1:2|0:0,0:0:0:0:
256,224,208650,5,6,1:2:0:0:
256,192,208731,12,0,215461,0:0:0:0:
