osu file format v14

[General]
AudioFilename: audio.mp3
AudioLeadIn: 0
PreviewTime: 61001
Countdown: 0
SampleSet: Soft
StackLeniency: 0.4
Mode: 0
LetterboxInBreaks: 0
WidescreenStoryboard: 1

[Editor]
DistanceSpacing: 0.1
BeatDivisor: 4
GridSize: 32
TimelineZoom: 1.5

[Metadata]
Title:Asu e no Kyoukaisen
TitleUnicode:明日への境界線
Artist:KINEMA106
ArtistUnicode:キネマ106
Creator:-Aqua
Version:Eresh's Insane
Source:
Tags:艦隊これくしょん -艦これ- Kantai Collection 艦これ KanColle 柊南 ひいな Hiina Tom jun-jun 茶々畑。あたる ataru 阿武隈のオリジナル曲 Abukuma Original Song Japanese Pop Rock J-pop Jpop J-rock Jrock Full Version Kyōkai Kyokai Kinema 106 刻炎 -Eresh
BeatmapID:3321503
BeatmapSetID:1613010

[Difficulty]
HPDrainRate:5
CircleSize:4.2
OverallDifficulty:8
ApproachRate:9
SliderMultiplier:1.5
SliderTickRate:1

[Events]
//Background and Video events
0,0,"bg.jpg",0,0
//Break Periods
2,114271,121293
//Storyboard Layer 0 (Background)
//Storyboard Layer 1 (Fail)
//Storyboard Layer 2 (Pass)
//Storyboard Layer 3 (Foreground)
//Storyboard Layer 4 (Overlay)
//Storyboard Sound Samples

[TimingPoints]
1407,324.324324324325,4,2,1,60,1,0
2379,-100,4,2,1,10,0,0
4001,-100,4,2,1,20,0,0
5298,-100,4,2,1,30,0,0
6028,-100,4,2,1,5,0,0
6109,-117.647058823529,4,2,1,50,0,0
6596,-100,4,2,1,60,0,0
7731,-153.846153846153,4,2,1,60,0,0
8542,-100,4,2,1,60,0,0
9028,-86.9565217391304,4,2,1,70,0,1
11055,-86.9565217391304,4,2,1,5,0,1
11136,-86.9565217391304,4,2,1,70,0,1
11379,-86.9565217391304,4,2,1,5,0,1
11461,-86.9565217391304,4,2,1,70,0,1
13812,-86.9565217391304,4,2,1,5,0,1
13893,-86.9565217391304,4,2,1,70,0,1
19569,-105.263157894737,4,2,1,60,0,0
21434,-105.263157894737,4,2,1,5,0,0
21515,-105.263157894737,4,2,1,60,0,0
24677,-105.263157894737,4,2,1,5,0,0
24758,-105.263157894737,4,2,1,60,0,0
28488,-90.9090909090909,4,2,1,60,0,0
29217,-90.9090909090909,4,2,1,5,0,0
29461,-125,4,2,1,60,0,0
29947,-105.263157894737,4,2,1,60,0,0
35055,-105.263157894737,4,2,1,5,0,0
35136,-105.263157894737,4,2,1,60,0,0
36028,-105.263157894737,4,2,1,5,0,0
36109,-105.263157894737,4,2,1,60,0,0
37569,-90.9090909090909,4,2,1,60,0,0
38055,-105.263157894737,4,2,1,60,0,0
38866,-90.9090909090909,4,2,1,60,0,0
39515,-105.263157894737,4,2,1,60,0,0
40325,-111.111111111111,4,2,1,60,0,0
42758,-90.9090909090909,4,2,1,70,0,0
44866,-125,4,2,1,70,0,0
45434,-125,4,2,1,5,0,0
45515,-111.111111111111,4,2,1,60,0,0
47947,-90.9090909090908,4,2,1,70,0,0
50542,-100,4,2,1,60,0,0
53785,-86.9565217391304,4,2,1,60,0,0
54434,-76.9230769230769,4,2,1,60,0,0
55082,-100,4,2,1,60,0,0
55731,-86.9565217391304,4,2,1,60,0,0
58325,-86.9565217391304,4,2,1,70,0,0
61082,-76.9230769230769,4,2,1,85,0,1
62947,-76.9230769230769,4,2,1,5,0,1
63190,-76.9230769230769,4,2,1,85,0,1
63271,-76.9230769230769,4,2,1,5,0,1
63515,-76.9230769230769,4,2,1,85,0,1
63758,-76.9230769230769,4,2,1,5,0,1
63839,-76.9230769230769,4,2,1,85,0,1
65055,-76.9230769230769,4,2,1,5,0,1
65136,-76.9230769230769,4,2,1,85,0,1
66109,-86.9565217391304,4,2,1,85,0,0
71379,-76.9230769230769,4,2,1,85,0,0
71461,-76.9230769230769,4,2,1,85,0,1
73325,-76.9230769230769,4,2,1,5,0,1
73568,-76.9230769230769,4,2,1,85,0,1
73649,-76.9230769230769,4,2,1,5,0,1
73893,-76.9230769230769,4,2,1,85,0,1
74136,-76.9230769230769,4,2,1,5,0,1
74217,-76.9230769230769,4,2,1,85,0,1
75434,-76.9230769230769,4,2,1,5,0,1
75515,-76.9230769230769,4,2,1,85,0,1
81758,-100,4,2,1,85,0,0
81839,-86.9565217391304,4,2,1,70,0,1
81920,-86.9565217391304,4,2,1,70,0,0
83704,-86.9565217391304,4,2,1,5,0,0
83785,-86.9565217391304,4,2,1,70,0,0
84028,-86.9565217391304,4,2,1,5,0,0
84109,-86.9565217391304,4,2,1,70,0,0
86461,-86.9565217391304,4,2,1,5,0,0
86542,-86.9565217391304,4,2,1,70,0,0
92217,-105.263157894737,4,2,1,60,0,0
94082,-105.263157894737,4,2,1,5,0,0
94163,-105.263157894737,4,2,1,60,0,0
97325,-105.263157894737,4,2,1,5,0,0
97407,-105.263157894737,4,2,1,60,0,0
99596,-105.263157894737,4,2,1,5,0,0
99677,-105.263157894737,4,2,1,60,0,0
101136,-90.9090909090909,4,2,1,60,0,0
101379,-90.9090909090909,4,2,1,5,0,0
101461,-90.9090909090909,4,2,1,60,0,0
102028,-90.9090909090909,4,2,1,5,0,0
102109,-175.438596491228,4,2,1,60,0,0
102677,-175.438596491228,4,2,1,5,0,0
102758,-105.263157894737,4,2,1,60,0,0
107704,-105.263157894737,4,2,1,5,0,0
107785,-105.263157894737,4,2,1,60,0,0
110217,-90.9090909090909,4,2,1,60,0,0
110704,-105.263157894737,4,2,1,60,0,0
111515,-90.9090909090909,4,2,1,60,0,0
112001,-105.263157894737,4,2,1,60,0,0
115461,-200,4,2,1,45,0,0
121731,-90.9090909090909,4,2,1,70,0,0
123190,-100,4,2,1,60,0,0
126434,-86.9565217391304,4,2,1,60,0,0
127082,-76.9230769230769,4,2,1,60,0,0
128379,-86.9565217391304,4,2,1,60,0,0
130974,-86.9565217391304,4,2,1,70,0,0
133082,-76.9230769230769,4,2,1,70,0,0
133731,-80,4,2,1,75,0,1
133974,-80,4,2,1,5,0,1
134055,-80,4,2,1,75,0,1
134785,-80,4,2,1,5,0,1
134866,-80,4,2,1,75,0,1
134947,-80,4,2,1,5,0,1
135028,-80,4,2,1,75,0,1
135596,-80,4,2,1,5,0,1
135839,-80,4,2,1,75,0,1
135920,-80,4,2,1,5,0,1
136001,-80,4,2,1,75,0,1
137379,-80,4,2,1,5,0,1
137461,-80,4,2,1,75,0,1
137542,-80,4,2,1,5,0,1
137623,-80,4,2,1,75,0,1
139974,-80,4,2,1,5,0,1
140055,-80,4,2,1,75,0,1
140136,-80,4,2,1,5,0,1
140217,-80,4,2,1,75,0,1
141028,-80,4,2,1,5,0,1
141109,-80,4,2,1,75,0,1
141271,-80,4,2,1,5,0,1
141352,-80,4,2,1,75,0,1
144109,-74.0740740740741,4,2,1,75,0,1
145163,-74.0740740740741,4,2,1,5,0,1
145244,-74.0740740740741,4,2,1,75,0,1
145325,-74.0740740740741,4,2,1,5,0,1
145406,-74.0740740740741,4,2,1,75,0,1
145974,-74.0740740740741,4,2,1,5,0,1
146217,-74.0740740740741,4,2,1,75,0,1
146298,-74.0740740740741,4,2,1,5,0,1
146542,-74.0740740740741,4,2,1,75,0,1
150352,-74.0740740740741,4,2,1,5,0,1
150433,-74.0740740740741,4,2,1,75,0,1
150515,-74.0740740740741,4,2,1,5,0,1
150596,-74.0740740740741,4,2,1,75,0,1
151650,-74.0740740740741,4,2,1,5,0,1
151731,-74.0740740740741,4,2,1,75,0,1
151812,-74.0740740740741,4,2,1,5,0,1
151893,-74.0740740740741,4,2,1,75,0,1
153677,-83.3333333333333,4,2,1,75,0,1
154488,-111.111111111111,4,2,1,60,0,0
156920,-90.9090909090909,4,2,1,70,0,0
159028,-125,4,2,1,70,0,0
159596,-125,4,2,1,5,0,0
159677,-111.111111111111,4,2,1,60,0,0
162109,-90.9090909090908,4,2,1,70,0,0
164704,-100,4,2,1,60,0,0
167947,-86.9565217391304,4,2,1,60,0,0
168596,-76.9230769230769,4,2,1,60,0,0
169244,-100,4,2,1,60,0,0
169893,-86.9565217391304,4,2,1,60,0,0
172487,-86.9565217391304,4,2,1,70,0,0
175244,-133.333333333333,4,2,1,50,0,0
176379,-100,4,2,1,60,0,0
176623,-100,4,2,1,5,0,0
176704,-100,4,2,1,60,0,0
177109,-100,4,2,1,5,0,0
177352,-100,4,2,1,60,0,0
177434,-100,4,2,1,5,0,0
177677,-76.9230769230769,4,2,1,85,0,1
177920,-76.9230769230769,4,2,1,5,0,1
178001,-76.9230769230769,4,2,1,85,0,1
179217,-76.9230769230769,4,2,1,5,0,1
179298,-76.9230769230769,4,2,1,85,0,1
180271,-86.9565217391304,4,2,1,85,0,0
185542,-76.9230769230769,4,2,1,85,0,0
185623,-76.9230769230769,4,2,1,85,0,1
187488,-76.9230769230769,4,2,1,5,0,1
187731,-76.9230769230769,4,2,1,85,0,1
187812,-76.9230769230769,4,2,1,5,0,1
188056,-76.9230769230769,4,2,1,85,0,1
188299,-76.9230769230769,4,2,1,5,0,1
188380,-76.9230769230769,4,2,1,85,0,1
195839,-100,4,2,1,60,0,0
197136,-215.05376344086,4,2,1,40,0,0
198352,-212.765957446809,4,2,1,5,0,0
198434,-86.9565217391304,4,2,1,70,0,1
200461,-86.9565217391304,4,2,1,5,0,1
200704,-86.9565217391304,4,2,1,70,0,1
200785,-86.9565217391304,4,2,1,5,0,1
200866,-86.9565217391304,4,2,1,70,0,1
203217,-86.9565217391304,4,2,1,5,0,1
203298,-86.9565217391304,4,2,1,70,0,1
208163,-86.9565217391304,4,2,1,70,0,0
208650,-86.9565217391304,4,2,1,70,0,1
208731,-86.9565217391304,4,2,1,70,0,0
208974,-86.9565217391304,4,2,1,55,0,0
210271,-86.9565217391304,4,2,1,45,0,0
211569,-86.9565217391304,4,2,1,35,0,0
212866,-86.9565217391304,4,2,1,25,0,0
214163,-86.9565217391304,4,2,1,15,0,0
215461,-86.9565217391304,4,2,1,5,0,0

[Colours]
Combo1 : 211,211,211
Combo2 : 255,255,168
Combo3 : 168,168,255
Combo4 : 255,168,168

[HitObjects]
256,192,2379,12,0,6028,0:0:0:0:
109,99,6109,5,0,0:0:0:0:
54,38,6271,1,0,0:0:0:0:
127,0,6434,1,0,0:0:0:0:
189,58,6596,2,0,P|206:139|221:211,1,150,2|0,0:0|0:0,0:0:0:0:
299,238,7082,2,0,P|282:319|267:391,1,150,2|0,0:0|0:0,0:0:0:0:
14,316,7731,6,2,P|95:299|167:284,1,146.249993305207,0|0,0:0|0:0,0:1:0:0:
157,286,8542,1,8,0:0:0:0:
219,204,8704,1,8,3:0:0:0:
219,204,8785,1,4,3:0:0:0:
219,204,8866,1,0,1:0:0:0:
268,384,9028,6,0,P|283:311|306:213,1,172.500003290176,6|0,1:2|1:0,0:0:0:0:
437,378,9515,2,0,P|382:366|344:359,1,86.2500016450882,8|0,0:0|1:2,0:0:0:0:
181,373,9839,1,2,1:2:0:0:
256,306,10001,1,2,1:2:0:0:
219,204,10163,1,8,0:0:0:0:
318,118,10325,6,0,P|328:69|342:5,1,86.2500016450882,2|0,1:2|0:0,0:0:0:0:
221,92,10650,1,0,1:0:0:0:
123,47,10812,1,8,0:0:0:0:
61,124,10974,2,0,L|71:180,1,43.1250008225441,2|0,1:2|0:0,0:0:0:0:
105,354,11298,6,0,L|95:298,1,43.1250008225441,2|0,1:2|0:0,0:0:0:0:
83,239,11461,1,8,0:0:0:0:
6,347,11623,6,0,P|63:356|210:397,1,172.500003290176,6|2,1:2|1:2,0:0:0:0:
236,259,12109,1,10,0:0:0:0:
164,219,12271,1,2,0:0:0:0:
252,341,12434,1,2,1:2:0:0:
325,293,12596,1,2,1:2:0:0:
436,364,12758,1,8,0:2:0:0:
396,235,12920,6,0,P|405:178|446:31,1,172.500003290176,2|2,1:2|1:2,0:0:0:0:
327,107,13407,1,10,0:0:0:0:
370,11,13569,2,0,P|290:32|208:46,1,129.375002467632,2|0,0:0|0:0,0:0:0:0:
245,52,13893,1,2,1:2:0:0:
327,107,14055,1,10,0:0:0:0:
190,111,14217,6,0,P|106:88|21:73,1,172.500003290176,6|0,1:2|1:0,0:0:0:0:
128,56,14704,1,10,0:0:0:0:
87,164,14866,2,0,P|116:199|111:266,1,86.2500016450882,2|0,0:0|1:0,0:0:0:0:
72,302,15190,1,0,1:0:0:0:
170,365,15352,1,10,0:0:0:0:
331,342,15515,6,0,P|381:281|372:165,1,172.500003290176,6|0,1:2|1:0,0:0:0:0:
298,238,16001,1,10,0:0:0:0:
410,266,16163,2,0,L|495:249,1,86.2500016450882,2|0,0:0|1:0,0:0:0:0:
298,238,16488,1,0,1:0:0:0:
388,145,16650,1,10,0:0:0:0:
341,8,16812,6,0,P|287:73|287:158,1,172.500003290176,6|0,1:2|1:0,0:0:0:0:
474,171,17298,1,8,0:0:0:0:
388,145,17461,1,2,0:0:0:0:
298,238,17623,1,0,1:0:0:0:
209,171,17785,2,0,L|108:192,1,86.2500016450882,0|8,1:0|0:0,0:0:0:0:
0,283,18109,6,0,P|54:271|144:340,1,172.500003290176,2|2,1:2|1:2,0:0:0:0:
265,354,18596,1,10,0:0:0:0:
213,255,18758,2,0,L|314:234,1,86.2500016450882,2|0,0:0|1:0,0:0:0:0:
511,349,19082,5,8,3:0:0:0:
429,333,19244,1,4,3:0:0:0:
347,317,19407,1,0,1:0:0:0:
406,223,19569,6,0,P|419:179|462:68,1,142.49999619484,6|8,1:2|0:0,0:0:0:0:
326,50,20055,2,0,P|345:99|352:128,1,71.2499980974198,2|0,0:0|1:0,0:0:0:0:
478,18,20379,2,0,P|418:21|398:38,1,71.2499980974198,2|8,0:0|0:0,0:0:0:0:
247,105,20704,6,0,P|181:97|134:28,1,142.49999619484,2|0,1:2|1:0,0:0:0:0:
45,13,21190,2,0,P|112:24|183:42,1,106.87499714613,8|0,0:0|0:0,0:0:0:0:
185,52,21515,1,0,1:2:0:0:
185,52,21677,1,0,1:0:0:0:
103,130,21839,1,10,0:0:0:0:
179,203,22001,1,2,0:0:0:0:
280,176,22163,6,0,P|346:184|393:253,1,142.49999619484,2|10,1:2|0:0,0:0:0:0:
483,288,22650,2,0,P|493:230|499:207,1,71.2499980974198,2|0,0:0|1:0,0:0:0:0:
399,346,22974,2,0,P|364:338|329:333,1,71.2499980974198,2|8,0:0|0:0,0:0:0:0:
119,384,23298,6,0,P|191:371|268:369,1,142.49999619484,2|0,1:2|1:0,0:0:0:0:
276,264,23785,1,10,0:0:0:0:
188,298,23947,1,2,0:0:0:0:
112,245,24109,1,2,1:2:0:0:
41,315,24271,1,2,1:2:0:0:
1,249,24434,2,0,P|11:199|35:122,1,106.87499714613,10|0,0:0|0:0,0:0:0:0:
41,129,24758,6,0,L|37:42,1,71.2499980974198,6|0,1:2|0:0,0:0:0:0:
152,175,25082,2,0,L|148:88,1,71.2499980974198,10|0,0:2|0:0,0:0:0:0:
112,245,25407,1,2,1:2:0:0:
214,222,25569,1,0,1:0:0:0:
310,269,25731,1,8,0:0:0:0:
430,252,25893,6,0,P|457:295|452:391,1,142.49999619484,2|0,1:2|1:2,0:0:0:0:
336,383,26379,2,0,P|370:350|375:322,1,71.2499980974198,10|0,0:0|0:0,0:0:0:0:
365,208,26704,1,2,1:2:0:0:
460,163,26866,1,0,1:2:0:0:
431,88,27028,1,8,0:0:0:0:
367,132,27190,6,0,P|394:89|389:-7,1,142.49999619484,2|2,1:2|1:2,0:0:0:0:
250,41,27677,1,10,0:0:0:0:
287,105,27839,2,0,L|371:116,1,71.2499980974198,2|0,1:2|0:0,0:0:0:0:
226,25,28163,1,2,1:2:0:0:
175,113,28325,1,10,0:0:0:0:
93,89,28488,6,0,L|3:100,1,82.5000025177003,6|0,1:2|0:0,0:0:0:0:
117,224,28812,1,2,1:2:0:0:
193,213,28974,1,10,0:0:0:0:
277,317,29136,6,0,L|327:320,1,41.2500012588501,6|0,1:2|0:0,0:0:0:0:
277,317,29461,6,2,L|295:185,1,120,6|0,1:2|0:0,0:1:0:0:
470,252,29947,2,0,P|398:243|359:297,1,142.49999619484,6|8,1:2|0:2,0:0:0:0:
202,350,30434,2,0,P|194:305|190:260,1,71.2499980974198,2|0,0:0|1:0,0:0:0:0:
344,372,30758,2,0,P|379:372|411:357,1,71.2499980974198,2|8,1:2|0:2,0:0:0:0:
119,384,31082,6,0,P|74:330|5:331,1,142.49999619484,2|2,1:2|1:2,0:0:0:0:
93,235,31569,1,8,0:0:0:0:
59,306,31731,2,0,P|55:270|34:161,1,142.49999619484,2|0,0:0|1:0,0:0:0:0:
141,44,32217,1,10,0:0:0:0:
43,12,32379,1,2,0:0:0:0:
84,97,32542,2,0,P|153:82|224:73,1,142.49999619484,2|8,1:2|0:0,0:0:0:0:
293,121,33028,2,0,P|333:134|371:148,1,71.2499980974198,2|0,0:0|1:0,0:0:0:0:
459,31,33352,2,0,P|447:65|437:99,1,71.2499980974198,2|8,0:0|0:0,0:0:0:0:
512,255,33677,6,0,P|442:240|371:231,1,142.49999619484,2|2,1:2|1:2,0:0:0:0:
276,214,34163,1,8,0:0:0:0:
320,308,34325,1,2,0:0:0:0:
221,284,34488,1,2,1:2:0:0:
173,368,34650,1,2,1:2:0:0:
90,320,34812,2,0,P|97:273|111:206,1,106.87499714613,10|0,0:2|0:0,0:0:0:0:
95,201,35136,6,0,P|45:213|16:220,1,71.2499980974198,6|0,1:2|0:0,0:0:0:0:
220,132,35461,2,0,P|270:120|299:113,1,71.2499980974198,10|0,0:2|0:0,0:0:0:0:
133,124,35785,2,0,P|139:31|165:14,1,106.87499714613,2|0,1:2|0:0,0:0:0:0:
152,30,36109,1,8,0:0:0:0:
220,132,36271,6,0,P|239:203|205:270,1,142.49999619484,6|0,1:2|1:2,0:0:0:0:
301,384,36758,2,0,P|289:336|284:302,1,71.2499980974198,10|2,0:0|0:0,0:0:0:0:
356,224,37082,2,0,P|359:259|365:294,1,71.2499980974198,2|0,1:2|1:2,0:0:0:0:
512,340,37407,1,10,0:0:0:0:
459,252,37569,6,0,P|425:173|450:92,1,165.000005035401,6|0,1:2|1:2,0:0:0:0:
498,26,38055,2,0,P|453:16|411:6,1,71.2499980974198,10|0,0:2|0:0,0:0:0:0:
351,92,38379,1,2,1:2:0:0:
288,34,38542,2,0,P|243:24|201:14,1,71.2499980974198,2|8,1:2|0:2,0:0:0:0:
0,54,38866,6,0,P|87:53|142:-13,1,165.000005035401,6|2,1:2|1:2,0:0:0:0:
97,128,39352,1,8,0:0:0:0:
186,156,39515,2,0,P|175:93|172:69,1,71.2499980974198,2|2,1:2|0:2,0:0:0:0:
53,209,39839,2,0,P|87:217|122:224,1,71.2499980974198,2|8,1:2|0:2,0:0:0:0:
226,338,40163,1,2,0:2:0:0:
303,300,40325,6,0,P|373:300|418:355,1,134.999995880127,6|8,1:2|0:0,0:0:0:0:
481,380,40812,1,2,0:0:0:0:
510,253,40974,2,0,P|457:261|349:269,1,134.999995880127,2|8,1:2|0:2,0:0:0:0:
226,338,41461,1,2,0:0:0:0:
153,288,41623,2,0,P|100:280|-8:272,1,134.999995880127,2|8,1:2|0:0,0:0:0:0:
113,191,42109,1,2,0:0:0:0:
200,223,42271,1,2,1:2:0:0:
199,77,42434,1,0,1:0:0:0:
246,144,42596,1,8,0:0:0:0:
336,120,42758,6,0,L|513:137,1,165.000005035401,6|2,1:2|1:2,0:0:0:0:
433,14,43244,2,0,P|422:69|417:102,1,82.5000025177003,10|0,0:0|0:0,0:0:0:0:
404,201,43569,2,0,P|399:241|396:283,1,82.5000025177003,2|0,1:2|1:0,0:0:0:0:
336,120,43893,1,10,0:0:0:0:
404,201,44055,6,0,L|239:185,1,165.000005035401,2|2,1:2|1:2,0:0:0:0:
280,310,44542,1,10,0:0:0:0:
197,368,44704,6,0,L|32:383,1,165.000005035401,2|0,0:0|1:0,0:0:0:0:
88,217,45190,2,0,P|75:249|62:308,1,90,8|0,0:0|0:0,0:0:0:0:
53,293,45515,6,0,P|22:272|29:165,1,134.999995880127,6|8,1:2|0:0,0:0:0:0:
93,126,46001,1,2,0:0:0:0:
186,195,46163,2,0,P|217:174|210:67,1,134.999995880127,2|8,1:2|0:2,0:0:0:0:
152,32,46650,1,2,0:0:0:0:
290,23,46812,6,0,P|233:33|143:43,1,134.999995880127,2|8,1:2|0:2,0:0:0:0:
21,79,47298,1,2,0:0:0:0:
66,14,47461,1,2,1:2:0:0:
93,126,47623,1,0,1:0:0:0:
168,179,47785,1,8,0:0:0:0:
264,115,47947,6,0,P|298:138|290:255,1,165.000005035401,6|0,1:2|1:0,0:0:0:0:
208,332,48434,2,0,P|214:274|217:235,1,82.5000025177003,10|2,0:0|0:0,0:0:0:0:
301,377,48758,2,0,P|342:380|383:384,1,82.5000025177003,4|8,3:0|3:0,0:0:0:0:
444,299,49082,1,10,0:2:0:0:
481,378,49244,6,0,P|459:301|512:242,1,165.000005035401,2|10,1:2|0:2,0:0:0:0:
453,127,49731,1,10,0:0:0:0:
512,176,49893,2,0,P|493:134|486:91,1,82.5000025177003,10|0,0:0|1:0,0:0:0:0:
373,4,50217,2,0,P|370:45|377:86,1,82.5000025177003,10|0,0:0|1:0,0:0:0:0:
512,0,50542,6,0,P|432:16|368:-3,1,150,6|2,1:2|1:2,0:0:0:0:
219,56,51028,1,10,0:0:0:0:
303,43,51190,2,0,P|262:34|212:50,1,75,2|0,0:2|1:2,0:0:0:0:
141,103,51515,1,2,1:2:0:0:
63,62,51677,1,8,0:0:0:0:
0,124,51839,6,0,P|31:167|33:261,1,150,2|2,1:2|1:2,0:0:0:0:
160,350,52325,1,8,0:0:0:0:
73,342,52488,2,0,L|164:328,1,75,2|0,0:0|1:0,0:0:0:0:
265,374,52812,2,0,L|356:360,1,75,2|10,1:2|0:0,0:0:0:0:
457,384,53136,6,0,P|452:310|489:246,1,150,2|2,1:2|1:2,0:0:0:0:
462,169,53623,1,8,0:0:0:0:
341,202,53785,2,0,P|386:126|380:38,1,172.500003290176,2|2,1:2|1:2,0:0:0:0:
475,59,54271,1,8,0:0:0:0:
310,11,54434,6,0,P|212:25|46:38,1,194.999991073609,2|2,1:2|1:2,0:0:0:0:
38,51,54920,2,0,L|-24:43,1,48.7499977684022,8|0,0:0|0:0,0:0:0:0:
99,115,55082,2,0,L|147:108,1,37.5,2|0,1:2|0:0,0:0:0:0:
25,167,55244,5,8,3:0:0:0:
25,167,55325,1,8,3:0:0:0:
25,167,55407,2,0,L|19:218,1,37.5,4|0,3:0|0:0,0:0:0:0:
93,248,55569,2,0,L|87:299,1,37.5,8|0,3:0|0:0,0:0:0:0:
10,339,55731,6,0,P|102:327|197:319,1,172.500003290176,6|2,1:2|1:2,0:0:0:0:
252,270,56217,1,10,0:0:0:0:
335,328,56379,2,0,P|381:344|420:375,1,86.2500016450882,2|0,0:0|0:0,0:0:0:0:
254,354,56704,1,2,1:2:0:0:
329,249,56866,1,10,0:0:0:0:
269,184,57028,6,0,P|275:129|249:-4,1,172.500003290176,2|0,1:2|1:0,0:0:0:0:
351,74,57515,1,8,0:0:0:0:
241,97,57677,2,0,P|155:84|121:79,1,86.2500016450882,2|0,0:0|1:0,0:0:0:0:
267,180,58001,1,2,1:2:0:0:
267,180,58163,1,8,0:0:0:0:
356,157,58325,6,0,P|398:163|441:169,1,86.2500016450882,6|0,1:2|0:0,0:0:0:0:
481,249,58650,1,2,1:2:0:0:
390,316,58812,5,10,0:0:0:0:
374,238,58974,1,2,1:2:0:0:
281,271,59136,5,10,0:0:0:0:
267,371,59298,1,2,1:2:0:0:
175,308,59461,5,10,0:0:0:0:
164,192,59623,2,0,P|175:98|182:12,1,172.500003290176,2|8,1:2|0:0,0:0:0:0:
256,192,60109,1,8,0:0:0:0:
256,192,61082,6,0,P|246:247|239:316,1,97.4999955368044,6|0,1:2|1:0,0:0:0:0:
312,357,61407,1,8,0:0:0:0:
324,274,61569,1,0,1:0:0:0:
214,363,61731,2,0,P|141:344|64:348,1,146.249993305207,2|0,0:0|1:0,0:0:0:0:
57,359,62055,1,8,0:0:0:0:
124,246,62217,6,0,P|138:200|120:155,1,97.4999955368044,2|0,1:2|0:0,0:0:0:0:
48,205,62542,1,0,1:0:0:0:
48,205,62623,1,0,1:0:0:0:
48,205,62704,1,8,0:0:0:0:
39,280,62866,5,2,1:2:0:0:
211,242,63190,5,2,1:2:0:0:
367,312,63515,6,0,L|348:117,1,194.999991073609,6|0,1:2|1:0,0:0:0:0:
263,63,64001,2,0,P|248:108|266:153,1,97.4999955368044,10|0,0:2|1:0,0:0:0:0:
342,112,64325,1,2,0:0:0:0:
342,112,64488,1,2,1:2:0:0:
210,0,64650,1,10,0:0:0:0:
119,48,64812,6,0,P|98:99|93:204,1,146.249993305207,2|0,1:2|0:0,0:0:0:0:
104,202,65136,5,2,1:2:0:0:
180,234,65298,1,10,0:0:0:0:
142,306,65461,5,2,1:2:0:0:
237,292,65623,1,8,0:0:0:0:
239,178,65785,5,2,1:2:0:0:
331,224,65947,1,8,0:0:0:0:
436,166,66109,6,0,P|476:195|511:322,1,172.500003290176,6|0,1:2|1:0,0:0:0:0:
474,381,66596,1,10,0:0:0:0:
418,316,66758,1,2,0:0:0:0:
336,351,66920,2,0,P|294:350|270:384,1,86.2500016450882,2|0,1:2|1:0,0:0:0:0:
366,251,67244,1,10,0:0:0:0:
319,185,67407,6,0,P|321:118|362:15,1,172.500003290176,2|2,1:2|1:2,0:0:0:0:
512,72,67893,2,0,P|463:86|439:117,1,86.2500016450882,10|0,0:0|0:0,0:0:0:0:
319,185,68217,1,0,1:0:0:0:
357,118,68379,1,0,1:0:0:0:
239,88,68542,1,10,0:0:0:0:
201,159,68704,6,0,P|188:206|156:328,1,172.500003290176,6|2,1:2|1:2,0:0:0:0:
201,384,69190,1,10,0:0:0:0:
80,306,69352,1,2,0:0:0:0:
0,334,69515,1,2,1:2:0:0:
78,220,69677,1,2,1:2:0:0:
0,252,69839,1,10,0:0:0:0:
16,158,70001,6,0,P|56:114|30:-2,1,172.500003290176,2|2,1:2|1:2,0:0:0:0:
92,103,70488,2,0,P|165:86|196:79,1,86.2500016450882,10|2,0:0|0:0,0:0:0:0:
253,13,70812,1,6,1:2:0:0:
285,16,70893,1,8,3:0:0:0:
317,21,70974,1,8,3:0:0:0:
349,26,71055,1,8,3:0:0:0:
380,33,71136,2,0,L|393:98,1,43.1250008225441,8|4,3:0|3:0,0:0:0:0:
465,93,71298,2,0,L|452:157,1,43.1250008225441,4|4,3:0|3:0,0:0:0:0:
383,180,71461,6,0,P|398:260|407:312,1,97.4999955368044,6|0,1:2|1:0,0:0:0:0:
434,379,71785,1,8,0:0:0:0:
484,298,71947,1,0,1:0:0:0:
355,347,72109,2,0,P|283:359|211:373,1,146.249993305207,2|0,0:0|1:0,0:0:0:0:
192,380,72434,1,8,0:0:0:0:
87,320,72596,6,0,P|42:332|27:376,1,97.4999955368044,2|0,1:2|0:0,0:0:0:0:
162,303,72920,1,0,1:0:0:0:
165,288,73001,1,0,1:0:0:0:
169,274,73082,1,8,0:0:0:0:
90,213,73244,1,2,1:2:0:0:
248,320,73569,1,2,1:2:0:0:
347,201,73893,6,0,P|369:63|385:-18,1,194.999991073609,6|0,1:2|1:0,0:0:0:0:
239,94,74379,2,0,P|315:103|347:110,1,97.4999955368044,10|0,0:2|1:0,0:0:0:0:
436,125,74704,1,2,0:0:0:0:
368,40,74866,1,2,1:2:0:0:
260,79,75028,1,10,0:0:0:0:
170,15,75190,6,0,P|112:22|94:115,1,146.249993305207,2|0,1:2|0:0,0:0:0:0:
84,111,75515,5,2,1:2:0:0:
138,170,75677,1,10,0:0:0:0:
114,254,75839,5,2,1:2:0:0:
215,196,76001,1,8,0:0:0:0:
262,296,76163,5,2,1:2:0:0:
294,175,76325,1,8,0:0:0:0:
361,311,76488,6,0,P|296:313|186:393,1,194.999991073609,6|0,1:2|1:0,0:0:0:0:
81,236,76974,1,10,0:0:0:0:
33,322,77136,2,0,P|95:310|140:302,1,97.4999955368044,2|0,0:0|1:0,0:0:0:0:
221,313,77461,1,0,1:0:0:0:
175,205,77623,1,10,0:0:0:0:
222,85,77785,6,0,P|296:146|391:158,1,194.999991073609,2|0,1:2|1:0,0:0:0:0:
502,42,78271,1,10,0:0:0:0:
394,1,78434,2,0,P|406:48|432:89,1,97.4999955368044,2|0,0:0|1:0,0:0:0:0:
486,190,78758,1,0,1:0:0:0:
406,287,78920,1,10,0:0:0:0:
452,374,79082,6,0,P|432:297|402:171,1,194.999991073609,6|0,1:2|1:0,0:0:0:0:
306,277,79569,2,0,P|332:317|344:365,1,97.4999955368044,8|0,0:0|0:0,0:0:0:0:
404,268,79893,1,0,1:0:0:0:
322,198,80055,1,0,1:0:0:0:
306,277,80217,1,8,0:0:0:0:
203,340,80379,6,0,P|128:350|10:380,1,194.999991073609,6|0,1:2|1:0,0:0:0:0:
201,264,80866,2,0,P|125:272|7:300,1,194.999991073609,8|0,0:0|1:0,0:0:0:0:
86,128,81352,1,8,1:2:0:0:
144,190,81515,1,8,1:2:0:0:
56,208,81677,1,8,1:2:0:0:
167,108,81839,6,0,P|236:107|280:21,1,172.500003290176,6|8,1:2|0:2,0:0:0:0:
97,16,82325,1,0,0:0:0:0:
197,28,82488,2,0,P|151:31|95:37,1,86.2500016450882,2|2,1:2|1:2,0:0:0:0:
0,140,82812,1,8,0:0:0:0:
56,208,82974,6,0,P|75:254|95:385,1,172.500003290176,2|0,1:2|1:0,0:0:0:0:
16,338,83461,1,8,0:0:0:0:
117,291,83623,2,0,L|173:296,1,43.1250008225441,2|0,1:2|0:0,0:0:0:0:
350,315,83947,6,0,L|293:309,1,43.1250008225441,2|0,1:2|0:0,0:0:0:0:
234,303,84109,1,8,0:0:0:0:
280,384,84271,6,0,P|357:345|437:315,1,172.500003290176,6|2,1:2|1:2,0:0:0:0:
512,336,84758,1,10,0:0:0:0:
439,241,84920,1,2,0:0:0:0:
482,128,85083,1,2,1:2:0:0:
389,173,85245,1,2,1:2:0:0:
341,105,85407,1,8,0:0:0:0:
276,157,85569,6,0,P|237:79|207:0,1,172.500003290176,2|2,1:2|1:2,0:0:0:0:
300,32,86056,1,10,0:0:0:0:
215,99,86218,2,0,P|142:107|90:165,1,129.375002467632,2|0,0:0|0:0,0:0:0:0:
103,161,86542,1,2,1:2:0:0:
191,242,86704,1,10,0:0:0:0:
45,276,86866,6,0,P|125:307|202:344,1,172.500003290176,6|0,1:2|1:0,0:0:0:0:
369,335,87353,1,10,0:0:0:0:
320,245,87515,2,0,P|302:284|287:324,1,86.2500016450882,2|0,0:0|1:0,0:0:0:0:
449,382,87839,1,0,1:0:0:0:
428,268,88001,1,10,0:0:0:0:
449,168,88164,6,0,P|458:126|486:-8,1,172.500003290176,6|0,1:2|1:0,0:0:0:0:
496,97,88650,1,10,0:0:0:0:
391,45,88812,2,0,L|306:59,1,86.2500016450882,2|0,0:0|1:0,0:0:0:0:
135,107,89136,1,0,1:0:0:0:
243,19,89298,1,10,0:0:0:0:
151,0,89461,6,0,P|160:42|188:176,1,172.500003290176,6|0,1:2|1:0,0:0:0:0:
197,256,89947,1,8,0:0:0:0:
306,222,90110,1,2,0:0:0:0:
358,348,90272,1,0,1:0:0:0:
427,295,90434,2,0,L|513:309,1,86.2500016450882,0|8,1:0|0:0,0:0:0:0:
278,371,90758,6,0,P|242:295|160:278,1,172.500003290176,2|2,1:2|1:2,0:0:0:0:
84,294,91245,1,10,0:0:0:0:
25,181,91407,2,0,P|15:139|1:99,1,86.2500016450882,2|0,0:0|1:0,0:0:0:0:
99,29,91731,1,8,3:0:0:0:
99,29,91812,1,4,3:0:0:0:
99,29,91893,1,4,3:0:0:0:
180,94,92055,1,0,1:0:0:0:
318,56,92217,6,0,P|403:77|434:123,1,142.49999619484,6|10,1:2|0:0,0:0:0:0:
276,160,92704,2,0,P|325:147|351:144,1,71.2499980974198,2|0,0:0|1:2,0:0:0:0:
428,282,93028,2,0,P|415:233|412:207,1,71.2499980974198,2|8,0:0|0:0,0:0:0:0:
481,346,93352,6,0,P|423:321|318:318,1,142.49999619484,2|2,1:2|1:2,0:0:0:0:
179,381,93839,2,0,P|221:375|289:370,1,106.87499714613,8|0,0:0|0:0,0:0:0:0:
296,381,94163,1,2,1:2:0:0:
233,299,94325,1,0,1:0:0:0:
293,207,94488,1,10,0:2:0:0:
327,284,94650,1,2,0:0:0:0:
214,142,94812,6,0,P|219:70|229:0,1,142.49999619484,2|10,1:2|0:0,0:0:0:0:
297,95,95298,2,0,P|311:59|301:23,1,71.2499980974198,2|2,0:0|1:2,0:0:0:0:
148,14,95623,2,0,P|134:50|144:86,1,71.2499980974198,2|8,0:0|0:0,0:0:0:0:
279,223,95947,6,0,P|349:229|420:238,1,142.49999619484,2|2,1:2|1:2,0:0:0:0:
512,130,96434,1,10,0:0:0:0:
434,163,96596,1,2,0:0:0:0:
492,284,96758,1,2,1:2:0:0:
398,263,96920,1,2,1:2:0:0:
306,356,97082,2,0,P|265:368|217:322,1,106.87499714613,10|0,0:2|0:0,0:0:0:0:
159,282,97407,6,0,P|158:247|171:214,1,71.2499980974198,6|0,1:2|0:0,0:0:0:0:
80,194,97731,2,0,P|69:228|67:264,1,71.2499980974198,10|0,0:2|0:0,0:0:0:0:
104,339,98055,1,2,1:2:0:0:
4,307,98217,1,0,1:0:0:0:
80,194,98379,1,8,0:0:0:0:
0,113,98542,6,0,P|36:100|134:38,1,142.49999619484,2|2,1:2|1:2,0:0:0:0:
206,69,99028,2,0,P|214:92|254:156,1,71.2499980974198,10|2,0:0|0:2,0:0:0:0:
381,68,99352,2,0,P|312:62|294:12,1,106.87499714613,2|0,1:2|0:0,0:0:0:0:
303,12,99677,1,8,0:0:0:0:
462,48,99839,6,0,P|479:78|492:112,1,71.2499980974198,2|0,1:2|0:0,0:0:0:0:
409,155,100163,2,0,P|424:187|433:221,1,71.2499980974198,2|10,1:2|0:0,0:0:0:0:
365,324,100488,2,0,P|358:289|346:256,1,71.2499980974198,2|0,1:2|0:2,0:0:0:0:
451,347,100812,1,2,1:2:0:0:
451,347,100974,1,10,0:2:0:0:
289,381,101136,6,0,P|251:354|171:371,1,123.75000377655,6|0,1:2|0:0,0:0:0:0:
167,355,101461,1,2,1:2:0:0:
238,268,101623,1,10,0:0:0:0:
121,229,101785,2,0,P|91:255|80:302,1,82.5000025177003,6|0,1:2|0:0,0:0:0:0:
203,184,102109,2,2,P|201:103|141:73,1,149.624998173523,6|2,1:2|0:0,0:1:0:0:
99,8,102758,5,0,1:0:0:0:
99,8,102839,1,0,1:0:0:0:
99,8,102920,1,6,1:2:0:0:
16,0,103082,2,0,P|10:27|2:75,1,71.2499980974198,2|0,1:2|1:0,0:0:0:0:
117,222,103407,2,0,P|123:195|131:147,1,71.2499980974198,2|8,1:2|0:0,0:0:0:0:
9,233,103731,6,0,P|66:247|132:332,1,142.49999619484,2|2,1:2|1:2,0:0:0:0:
174,374,104217,1,10,0:0:0:0:
277,348,104379,2,0,P|323:359|424:383,1,142.49999619484,2|2,1:2|1:2,0:0:0:0:
494,323,104866,1,10,0:0:0:0:
427,222,105028,1,2,0:0:0:0:
481,139,105190,6,0,P|467:88|460:56,1,71.2499980974198,2|2,1:2|0:0,0:0:0:0:
313,31,105515,1,8,0:0:0:0:
393,26,105677,2,0,P|342:40|310:47,1,71.2499980974198,2|0,0:0|1:0,0:0:0:0:
185,74,106001,2,0,P|134:60|102:53,1,71.2499980974198,2|8,1:2|0:2,0:0:0:0:
234,0,106325,6,0,P|213:62|274:143,1,142.49999619484,2|2,1:2|1:2,0:0:0:0:
316,213,106812,1,8,0:0:0:0:
346,130,106974,1,2,0:0:0:0:
228,231,107136,1,2,1:2:0:0:
261,316,107298,1,2,1:2:0:0:
143,362,107461,2,0,P|107:341|41:361,1,106.87499714613,10|0,0:2|0:0,0:0:0:0:
30,360,107785,6,0,P|0:328|-4:298,1,71.2499980974198,6|2,1:2|0:2,0:0:0:0:
83,219,108109,2,0,P|86:183|95:146,1,71.2499980974198,10|0,0:2|0:0,0:0:0:0:
13,86,108434,2,0,P|10:122|1:159,1,71.2499980974198,2|2,1:2|1:2,0:0:0:0:
79,295,108758,1,8,0:0:0:0:
175,169,108920,6,0,P|224:185|299:135,1,142.49999619484,6|0,1:2|1:2,0:0:0:0:
204,33,109407,2,0,P|214:77|222:102,1,71.2499980974198,10|2,0:0|0:0,0:0:0:0:
256,213,109731,2,0,P|266:247|273:281,1,71.2499980974198,2|0,1:2|1:2,0:0:0:0:
333,355,110055,1,10,0:0:0:0:
352,217,110217,6,0,P|408:198|494:255,1,165.000005035401,6|0,1:2|1:2,0:0:0:0:
437,384,110704,2,0,P|430:350|420:316,1,71.2499980974198,10|0,0:2|0:0,0:0:0:0:
352,217,111028,1,2,1:2:0:0:
492,250,111190,2,0,P|468:229|471:175,1,71.2499980974198,2|8,1:2|0:2,0:0:0:0:
512,60,111515,6,0,P|449:110|371:93,1,165.000005035401,6|2,1:2|1:2,0:0:0:0:
295,62,112001,1,8,0:0:0:0:
352,217,112163,6,0,P|277:188|252:112,1,142.49999619484,6|2,1:2|1:2,0:0:0:0:
360,12,112650,1,8,0:0:0:0:
218,36,112812,1,2,0:0:0:0:
86,0,112974,1,6,1:2:0:0:
111,34,121893,5,6,1:2:0:0:
111,34,122217,2,0,L|99:103,1,41.2500012588501,4|4,3:0|3:0,0:0:0:0:
50,134,122379,2,0,L|62:203,1,41.2500012588501,10|0,0:0|0:0,0:0:0:0:
112,233,122542,5,10,1:2:0:0:
56,349,122866,5,10,1:2:0:0:
179,384,123190,6,0,P|239:347|331:361,1,150,6|2,1:2|1:2,0:0:0:0:
383,316,123677,1,10,0:0:0:0:
436,372,123839,2,0,P|422:337|393:314,1,75,2|0,0:2|1:2,0:0:0:0:
294,246,124163,1,2,1:2:0:0:
216,272,124325,1,8,0:0:0:0:
85,234,124488,6,0,P|48:174|62:82,1,150,2|2,1:2|1:2,0:0:0:0:
143,11,124974,1,8,0:0:0:0:
60,22,125136,2,0,P|11:8|-8:-8,1,75,2|0,0:0|1:0,0:0:0:0:
147,93,125461,1,2,1:2:0:0:
226,63,125623,1,10,0:0:0:0:
282,133,125785,6,0,B|330:118|357:158|344:157|388:192|429:176,1,150,2|2,1:2|1:2,0:0:0:0:
496,138,126271,1,8,0:0:0:0:
357,107,126434,2,0,B|413:124|445:77|429:78|481:37|529:56,1,172.500003290176,2|2,1:2|1:2,0:0:0:0:
413,194,126920,1,8,0:0:0:0:
512,241,127082,2,0,P|439:287|378:383,1,194.999991073609,2|2,1:2|1:2,0:0:0:0:
313,289,127569,6,0,P|310:261|291:233,1,48.7499977684022,8|0,0:0|0:0,0:0:0:0:
379,371,127731,2,0,P|403:372|425:383,1,48.7499977684022,2|0,1:2|0:0,0:0:0:0:
295,376,127893,5,8,3:0:0:0:
295,376,127974,1,8,3:0:0:0:
295,376,128055,2,0,L|242:371,1,48.7499977684022,4|0,3:0|0:0,0:0:0:0:
185,325,128217,2,0,L|132:320,1,48.7499977684022,8|0,3:0|0:0,0:0:0:0:
56,362,128379,6,0,P|23:337|34:208,1,172.500003290176,6|2,1:2|1:2,0:0:0:0:
84,138,128866,1,10,0:0:0:0:
172,172,129028,2,0,P|225:182|263:199,1,86.2500016450882,2|0,0:0|1:0,0:0:0:0:
307,299,129352,1,2,1:2:0:0:
194,252,129515,1,10,0:0:0:0:
254,194,129677,6,0,P|276:118|287:16,1,172.500003290176,2|0,1:2|1:0,0:0:0:0:
377,83,130163,1,8,0:0:0:0:
425,0,130325,2,0,P|465:15|507:22,1,86.2500016450882,2|0,0:0|1:0,0:0:0:0:
377,83,130650,1,2,1:2:0:0:
294,11,130812,1,8,0:0:0:0:
150,88,130974,6,0,P|128:164|117:266,1,172.500003290176,6|2,1:2|1:2,0:0:0:0:
206,203,131461,1,10,0:0:0:0:
105,260,131623,2,0,P|101:320|101:367,1,86.2500016450882,2|0,1:2|0:0,0:0:0:0:
0,301,131947,1,2,1:2:0:0:
87,369,132109,1,10,0:0:0:0:
230,305,132271,6,0,P|300:313|386:374,1,172.500003290176,6|8,1:2|0:0,0:0:0:0:
485,379,132758,2,0,P|485:346|470:325,1,43.1250008225441,8|4,3:0|3:0,0:0:0:0:
413,295,132920,2,0,P|391:272|368:268,1,43.1250008225441,0|0,1:0|1:0,0:0:0:0:
303,235,133082,2,0,P|324:184|314:121,1,97.4999955368044,6|8,1:2|0:0,0:0:0:0:
391,9,133407,1,10,0:0:0:0:
370,39,133488,1,8,0:0:0:0:
339,56,133569,1,8,0:0:0:0:
303,58,133650,1,8,0:0:0:0:
270,42,133731,6,0,L|82:67,1,187.5,6|8,1:2|0:0,0:0:0:0:
163,154,134217,1,2,1:2:0:0:
30,135,134379,2,0,P|41:189|50:232,1,93.75,2|0,0:0|1:0,0:0:0:0:
118,254,134623,2,0,P|129:308|138:351,1,93.75,2|0,1:2|0:0,0:0:0:0:
72,384,134866,2,0,L|18:374,1,46.875,2|0,1:2|0:0,0:0:0:0:
216,347,135028,2,0,P|270:357|310:258,1,140.625,2|0,0:0|0:0,0:0:0:0:
307,289,135352,1,10,0:0:0:0:
257,198,135515,6,0,L|263:144,1,46.875,2|0,1:2|0:0,0:0:0:0:
271,74,135839,2,0,L|277:20,1,46.875,2|0,1:2|0:0,0:0:0:0:
484,12,136163,6,0,P|401:5|366:123,1,187.5,6|0,1:2|1:0,0:0:0:0:
443,118,136650,1,8,0:0:0:0:
362,215,136812,1,2,1:2:0:0:
362,215,136893,1,2,0:0:0:0:
362,215,136974,2,0,L|497:198,1,93.75,2|0,0:0|1:0,0:0:0:0:
512,288,137217,2,0,P|468:277|427:304,1,93.75,2|0,0:0|0:0,0:0:0:0:
383,366,137461,2,0,P|350:371|308:388,1,46.875,2|0,1:2|0:0,0:0:0:0:
241,271,137623,2,0,P|279:295|324:284,1,93.75,2|0,0:0|1:0,0:0:0:0:
231,365,137947,5,8,0:0:0:0:
166,310,138109,1,2,1:2:0:0:
94,366,138271,5,8,0:0:0:0:
101,246,138434,1,2,1:2:0:0:
22,298,138596,1,8,0:0:0:0:
76,161,138758,6,0,P|86:108|11:-5,1,187.5,6|0,1:2|1:0,0:0:0:0:
0,136,139244,2,0,P|41:88|91:84,1,93.75,8|2,0:0|0:0,0:0:0:0:
122,94,139488,1,2,0:0:0:0:
156,131,139569,2,0,L|290:106,1,93.75,2|0,1:2|1:0,0:0:0:0:
284,48,139812,2,0,L|418:23,1,93.75,2|0,0:0|0:0,0:0:0:0:
451,84,140055,2,0,P|457:61|471:42,1,46.875,2|0,1:2|0:0,0:0:0:0:
498,27,140217,5,0,0:0:0:0:
442,89,140379,1,0,1:0:0:0:
491,180,140542,1,8,0:0:0:0:
430,245,140704,1,2,0:0:0:0:
341,124,140866,2,0,P|359:183|327:223,1,93.75,2|0,1:2|1:0,0:0:0:0:
267,258,141109,2,0,P|206:244|188:196,1,93.75,2|0,0:0|0:0,0:0:0:0:
108,301,141352,6,0,P|195:322|294:377,1,187.5,6|0,1:2|1:0,0:0:0:0:
75,384,141839,2,0,P|44:349|0:346,1,93.75,8|0,0:0|0:0,0:0:0:0:
30,187,142163,1,0,1:0:0:0:
99,263,142325,1,0,1:0:0:0:
4,266,142488,1,8,0:0:0:0:
117,173,142650,6,0,P|161:90|183:0,1,187.5,6|2,1:2|1:2,0:0:0:0:
80,84,143136,1,10,0:0:0:0:
199,95,143298,2,0,P|266:61|281:19,1,93.75,6|0,1:2|0:0,0:0:0:0:
373,6,143623,1,0,1:0:0:0:
373,6,143704,1,0,1:0:0:0:
373,6,143785,1,8,0:0:0:0:
499,61,143947,5,0,1:0:0:0:
502,84,144028,1,0,1:0:0:0:
496,106,144109,2,0,P|431:125|280:183,1,202.500000772476,6|8,1:2|0:0,0:0:0:0:
409,229,144596,1,2,1:2:0:0:
278,281,144758,2,0,P|300:325|326:398,1,101.250000386238,2|0,0:2|1:0,0:0:0:0:
455,361,145001,2,0,P|419:342|372:302,1,101.250000386238,2|0,0:0|0:0,0:0:0:0:
304,373,145244,2,0,P|269:374|243:378,1,50.6250001931191,2|0,0:0|0:0,0:0:0:0:
142,302,145407,6,0,P|81:321|53:369,1,101.250000386238,2|0,0:0|1:0,0:0:0:0:
28,366,145650,1,0,1:0:0:0:
28,366,145731,1,8,0:0:0:0:
0,260,145893,5,2,1:2:0:0:
112,163,146217,5,2,1:2:0:0:
248,206,146542,6,0,L|454:168,1,202.500000772476,6|0,1:2|1:0,0:0:0:0:
401,74,147028,1,8,0:0:0:0:
486,103,147190,1,2,0:0:0:0:
321,118,147352,2,0,P|304:70|283:24,1,101.250000386238,2|0,0:0|1:0,0:0:0:0:
243,166,147677,1,8,0:0:0:0:
198,86,147839,6,0,P|130:65|-13:62,1,202.500000772476,2|2,1:2|1:2,0:0:0:0:
110,16,148325,1,10,0:0:0:0:
89,110,148488,1,2,1:2:0:0:
198,86,148650,5,8,0:0:0:0:
228,192,148812,1,2,1:2:0:0:
346,136,148974,1,8,0:0:0:0:
405,210,149136,6,0,P|342:243|317:363,1,202.500000772476,6|0,1:2|1:0,0:0:0:0:
470,354,149623,2,0,P|434:314|384:324,1,101.250000386238,8|0,0:2|0:0,0:0:0:0:
235,384,149947,2,0,P|175:370|122:359,1,101.250000386238,2|0,1:2|1:2,0:0:0:0:
120,291,150190,2,0,P|60:277|7:266,1,101.250000386238,2|0,0:0|0:0,0:0:0:0:
19,350,150434,2,0,P|49:366|61:389,1,50.6250001931191,2|0,1:2|0:0,0:0:0:0:
120,291,150596,6,0,P|99:227|155:96,1,202.500000772476,2|8,0:0|0:0,0:0:0:0:
0,0,151082,1,2,0:0:0:0:
16,86,151244,2,0,P|71:59|92:7,1,101.250000386238,2|0,1:2|1:0,0:0:0:0:
165,29,151488,2,0,P|217:16|267:27,1,101.250000386238,2|0,0:0|0:0,0:0:0:0:
337,67,151731,2,0,P|344:100|347:125,1,50.6250001931191,6|0,1:2|0:0,0:0:0:0:
399,9,151893,6,0,P|375:57|357:211,1,202.500000772476,2|8,0:0|0:0,0:0:0:0:
419,302,152379,1,2,0:0:0:0:
452,224,152542,1,0,1:0:0:0:
329,315,152704,1,0,1:0:0:0:
243,283,152866,1,8,0:0:0:0:
149,352,153028,1,6,1:2:0:0:
74,329,153190,6,0,P|37:283|74:126,1,202.500000772476,2|8,0:0|0:0,0:0:0:0:
114,218,153677,1,2,0:0:0:0:
12,273,153839,2,0,P|-7:308|-9:342,2,59.9999981689454,4|0|0,3:0|1:0|1:0,0:0:0:0:
95,383,154163,2,0,P|80:358|74:329,2,59.9999981689454,0|0|0,1:0|1:0|1:0,0:0:0:0:
162,329,154488,6,0,P|200:343|309:325,1,134.999995880127,6|8,1:2|0:0,0:0:0:0:
298,356,154974,1,2,0:0:0:0:
353,277,155136,2,0,P|391:263|500:281,1,134.999995880127,2|8,1:2|0:2,0:0:0:0:
498,316,155623,1,2,0:0:0:0:
512,194,155785,6,0,P|499:135|517:50,1,134.999995880127,2|8,1:2|0:0,0:0:0:0:
431,2,156271,1,2,0:0:0:0:
479,74,156434,1,2,1:2:0:0:
370,69,156596,1,0,1:0:0:0:
326,147,156758,1,8,0:0:0:0:
253,40,156920,6,0,P|218:67|103:60,1,165.000005035401,6|2,1:2|1:2,0:0:0:0:
16,9,157407,2,0,P|25:59|31:101,1,82.5000025177003,10|0,0:0|0:0,0:0:0:0:
149,105,157731,2,0,P|155:145|162:186,1,82.5000025177003,2|0,1:2|1:0,0:0:0:0:
0,260,158055,1,10,0:0:0:0:
64,319,158217,6,0,P|99:292|214:299,1,165.000005035401,2|2,1:2|1:2,0:0:0:0:
307,332,158704,1,10,0:0:0:0:
238,370,158866,1,2,0:0:0:0:
281,256,159028,2,0,P|341:241|361:235,1,60,0|0,1:0|1:0,0:0:0:0:
496,332,159352,2,0,P|447:301|411:304,1,90,8|0,0:0|0:0,0:0:0:0:
403,313,159677,6,0,L|435:157,1,134.999995880127,6|8,1:2|0:0,0:0:0:0:
428,41,160163,1,2,0:0:0:0:
512,74,160325,2,0,P|432:93|381:117,1,134.999995880127,2|8,1:2|0:2,0:0:0:0:
313,38,160812,1,2,0:0:0:0:
428,41,160974,6,0,P|348:22|297:-2,1,134.999995880127,2|8,1:2|0:2,0:0:0:0:
186,73,161461,1,2,0:0:0:0:
221,4,161623,1,2,1:2:0:0:
111,59,161785,1,0,1:0:0:0:
133,138,161947,1,8,0:0:0:0:
29,205,162109,6,0,P|95:211|202:229,1,165.000005035401,6|0,1:2|1:0,0:0:0:0:
136,364,162596,1,10,0:0:0:0:
209,307,162758,1,2,0:0:0:0:
73,292,162920,2,0,P|61:334|52:380,1,82.5000025177003,4|8,3:0|3:0,0:0:0:0:
153,371,163244,1,10,0:2:0:0:
298,322,163407,6,0,P|364:316|475:378,1,165.000005035401,2|10,1:2|0:0,0:0:0:0:
420,298,163893,1,10,0:0:0:0:
475,225,164055,5,10,0:0:0:0:
367,369,164379,5,10,0:0:0:0:
381,203,164704,6,0,P|374:134|407:63,1,150,6|2,1:2|1:2,0:0:0:0:
347,104,165190,1,10,0:0:0:0:
438,44,165352,2,0,L|529:51,1,75,2|0,0:2|1:2,0:0:0:0:
458,122,165677,1,2,1:2:0:0:
349,12,165839,1,8,0:0:0:0:
207,40,166001,6,0,P|165:107|180:180,1,150,2|2,1:2|1:2,0:0:0:0:
257,258,166487,1,8,0:0:0:0:
183,304,166650,2,0,P|177:341|174:378,1,75,2|0,0:0|1:0,0:0:0:0:
118,240,166974,2,0,P|81:237|44:231,1,75,2|10,1:2|0:0,0:0:0:0:
0,384,167298,6,0,P|31:323|109:321,1,150,2|2,1:2|1:2,0:0:0:0:
174,378,167785,1,8,0:0:0:0:
257,257,167947,6,0,P|292:326|381:328,1,172.500003290176,2|2,1:2|1:2,0:0:0:0:
451,266,168434,1,8,0:0:0:0:
312,154,168596,6,0,P|410:168|576:181,1,194.999991073609,2|2,1:2|1:2,0:0:0:0:
478,52,169082,2,0,L|486:-10,1,48.7499977684022,8|0,0:0|0:0,0:0:0:0:
410,91,169244,2,0,L|362:84,1,37.5,2|0,1:2|0:0,0:0:0:0:
310,24,169406,5,8,3:0:0:0:
310,24,169487,1,8,3:0:0:0:
310,24,169569,2,0,L|259:30,1,37.5,4|0,3:0|0:0,0:0:0:0:
215,84,169731,2,0,L|221:135,1,37.5,8|0,3:0|0:0,0:0:0:0:
171,188,169893,6,0,P|79:176|-16:168,1,172.500003290176,6|2,1:2|1:2,0:0:0:0:
101,273,170379,1,10,0:0:0:0:
44,330,170541,2,0,P|19:294|23:246,1,86.2500016450882,2|0,0:0|1:0,0:0:0:0:
122,355,170866,1,2,1:2:0:0:
200,275,171028,1,10,0:0:0:0:
349,332,171190,6,0,P|413:347|524:390,1,172.500003290176,2|0,1:2|1:0,0:0:0:0:
416,243,171677,1,8,0:0:0:0:
449,336,171839,2,0,P|442:293|436:250,1,86.2500016450882,2|0,0:0|1:0,0:0:0:0:
356,148,172163,1,2,1:2:0:0:
356,148,172325,1,8,0:0:0:0:
276,212,172487,6,0,P|270:170|264:127,1,86.2500016450882,6|0,1:2|0:0,0:0:0:0:
279,24,172812,5,2,1:2:0:0:
210,73,172974,1,10,0:0:0:0:
159,9,173136,5,2,1:2:0:0:
129,120,173298,1,10,0:0:0:0:
51,84,173460,5,2,1:2:0:0:
107,199,173623,1,10,0:0:0:0:
0,246,173785,6,0,P|94:235|180:228,1,172.500003290176,6|8,1:2|0:0,0:0:0:0:
256,192,174271,1,8,0:0:0:0:
256,192,175244,6,0,P|246:151|237:127,1,56.2500021457673,6|2,1:2|0:0,0:0:0:0:
308,74,175569,2,0,P|318:115|327:139,1,56.2500021457673,2|2,0:2|0:0,0:0:0:0:
381,177,175893,1,2,0:2:0:0:
452,135,176055,1,2,0:0:0:0:
507,197,176217,1,0,0:0:0:0:
437,249,176379,2,0,B|427:283|449:315|449:296|474:326|465:363,1,112.5,6|0,1:2|0:0,0:0:0:0:
476,359,176704,1,8,3:0:0:0:
490,359,176785,1,4,3:0:0:0:
505,362,176866,1,0,1:0:0:0:
352,362,177028,5,2,1:2:0:0:
197,283,177352,5,2,1:2:0:0:
67,384,177677,6,0,P|165:361|259:358,1,194.999991073609,6|0,1:2|1:0,0:0:0:0:
304,283,178163,2,0,P|292:236|281:176,1,97.4999955368044,10|0,0:2|1:0,0:0:0:0:
221,261,178487,1,2,0:0:0:0:
221,261,178650,1,2,1:2:0:0:
368,198,178812,1,10,0:0:0:0:
332,92,178974,6,0,P|305:135|200:140,1,146.249993305207,2|0,1:2|0:0,0:0:0:0:
204,125,179298,5,2,1:2:0:0:
161,201,179460,1,10,0:0:0:0:
90,159,179623,5,2,1:2:0:0:
112,273,179785,1,8,0:0:0:0:
248,278,179947,5,2,1:2:0:0:
196,359,180109,1,8,0:0:0:0:
44,314,180271,6,0,P|11:253|2:134,1,172.500003290176,6|0,1:2|1:0,0:0:0:0:
56,86,180758,1,10,0:0:0:0:
56,86,180920,1,2,0:0:0:0:
4,146,181082,1,2,1:2:0:0:
3,14,181244,1,0,1:0:0:0:
140,38,181406,1,10,0:0:0:0:
212,76,181569,6,0,P|259:63|382:33,1,172.500003290176,2|2,1:2|1:2,0:0:0:0:
469,15,182055,2,0,P|451:73|444:102,1,86.2500016450882,10|0,0:0|0:0,0:0:0:0:
362,124,182379,1,0,1:0:0:0:
427,176,182541,1,0,1:0:0:0:
294,279,182704,1,10,0:0:0:0:
374,256,182866,6,0,P|471:264|522:335,1,172.500003290176,6|2,1:2|1:2,0:0:0:0:
440,346,183352,1,10,0:0:0:0:
374,256,183514,1,2,0:0:0:0:
353,338,183677,1,2,1:2:0:0:
257,293,183839,1,2,1:2:0:0:
269,380,184001,1,10,0:0:0:0:
163,326,184163,6,0,P|176:264|201:149,1,172.500003290176,2|2,1:2|1:2,0:0:0:0:
134,95,184650,2,0,P|91:104|49:114,1,86.2500016450882,10|2,0:0|0:0,0:0:0:0:
181,0,184974,1,6,1:2:0:0:
188,31,185055,1,8,3:0:0:0:
211,53,185136,1,8,3:0:0:0:
242,59,185217,1,8,3:0:0:0:
272,47,185298,2,0,L|283:5,1,43.1250008225441,8|4,3:0|3:0,0:0:0:0:
361,3,185461,2,0,L|371:45,1,43.1250008225441,4|0,3:0|0:0,0:0:0:0:
326,111,185623,6,0,P|335:162|348:214,1,97.4999955368044,6|0,1:2|1:0,0:0:0:0:
278,321,185947,1,8,0:0:0:0:
384,279,186109,1,0,1:0:0:0:
493,342,186271,2,0,P|513:294|492:201,1,146.249993305207,2|0,0:0|1:0,0:0:0:0:
480,201,186596,1,8,0:0:0:0:
384,279,186758,6,0,P|329:284|274:295,1,97.4999955368044,2|0,1:2|0:0,0:0:0:0:
206,346,187082,1,0,1:0:0:0:
182,350,187163,1,0,1:0:0:0:
158,355,187244,1,8,0:0:0:0:
302,363,187407,5,2,1:2:0:0:
250,215,187731,1,2,1:2:0:0:
92,209,188055,6,0,P|23:274|8:415,1,194.999991073609,6|0,1:2|1:0,0:0:0:0:
150,384,188542,2,0,P|139:313|129:268,1,97.4999955368044,10|0,0:2|1:0,0:0:0:0:
41,135,188866,1,2,0:0:0:0:
154,168,189028,1,2,1:2:0:0:
184,42,189190,1,10,0:0:0:0:
108,80,189352,6,0,P|196:67|310:57,1,194.999991073609,2|2,1:2|1:2,0:0:0:0:
386,18,189839,1,10,0:0:0:0:
351,127,190001,1,2,1:2:0:0:
436,111,190163,1,8,0:0:0:0:
453,241,190325,1,2,1:2:0:0:
377,206,190488,1,8,0:0:0:0:
331,326,190650,6,0,P|407:286|520:306,1,194.999991073609,6|0,1:2|1:0,0:0:0:0:
401,376,191136,1,10,0:0:0:0:
261,360,191298,2,0,P|213:368|165:378,1,97.4999955368044,2|0,0:0|1:0,0:0:0:0:
91,280,191623,1,0,1:0:0:0:
12,368,191785,1,10,0:0:0:0:
1,223,191947,6,0,P|95:240|181:198,1,194.999991073609,2|0,1:2|1:0,0:0:0:0:
216,63,192433,1,10,0:0:0:0:
104,42,192596,2,0,P|130:94|162:117,1,97.4999955368044,2|0,0:0|1:0,0:0:0:0:
330,98,192920,1,0,1:0:0:0:
286,8,193082,1,10,0:0:0:0:
423,84,193244,6,0,P|403:161|373:287,1,194.999991073609,6|0,1:2|1:0,0:0:0:0:
435,381,193731,2,0,B|465:341|465:341|451:281,1,97.4999955368044,8|0,0:0|0:0,0:0:0:0:
354,353,194055,1,0,1:0:0:0:
266,278,194217,1,0,1:0:0:0:
217,364,194379,1,8,0:0:0:0:
137,289,194541,6,0,P|147:214|177:96,1,194.999991073609,6|0,1:2|1:0,0:0:0:0:
254,6,195028,2,0,P|209:13|140:23,1,97.4999955368044,8|0,0:0|0:0,0:0:0:0:
16,3,195352,5,8,0:0:0:0:
41,110,195515,1,4,3:0:0:0:
66,217,195677,1,0,1:0:0:0:
129,148,195839,5,2,0:0:0:0:
129,148,198434,6,0,P|202:163|300:186,1,172.500003290176,6|0,1:2|1:0,0:0:0:0:
377,126,198921,2,0,P|322:114|282:102,1,86.2500016450882,8|0,0:0|1:2,0:0:0:0:
246,41,199245,1,2,1:2:0:0:
297,185,199407,1,2,1:2:0:0:
229,247,199569,1,8,0:0:0:0:
296,297,199731,6,0,P|306:346|320:410,1,86.2500016450882,2|0,1:2|0:0,0:0:0:0:
383,331,200056,1,0,1:0:0:0:
228,361,200218,1,8,0:0:0:0:
130,317,200380,2,0,L|120:261,1,43.1250008225441,2|0,1:2|0:0,0:0:0:0:
86,87,200704,6,0,L|96:143,1,43.1250008225441,2|0,1:2|0:0,0:0:0:0:
108,202,200867,1,8,0:0:0:0:
20,168,201028,6,0,B|61:140|125:156|101:168|157:191|196:161,1,172.500003290176,6|2,1:2|1:2,0:0:0:0:
241,116,201515,1,10,0:0:0:0:
175,60,201677,1,2,0:0:0:0:
328,134,201840,1,2,1:2:0:0:
276,200,202002,1,2,1:2:0:0:
346,328,202164,1,8,0:2:0:0:
429,316,202326,6,0,P|345:293|260:278,1,172.500003290176,2|2,1:2|1:2,0:0:0:0:
173,318,202813,1,10,0:0:0:0:
251,354,202975,2,0,P|187:366|125:383,1,129.375002467632,2|0,0:0|0:0,0:0:0:0:
112,384,203299,1,2,1:2:0:0:
51,302,203461,1,10,0:0:0:0:
3,373,203623,6,0,P|26:289|41:204,1,172.500003290176,6|0,1:2|1:0,0:0:0:0:
97,81,204110,1,10,0:0:0:0:
2,130,204272,2,0,L|105:107,1,86.2500016450882,2|0,0:0|1:0,0:0:0:0:
184,140,204596,1,0,1:0:0:0:
263,31,204758,1,10,0:0:0:0:
395,90,204921,6,0,P|447:156|447:241,1,172.500003290176,6|0,1:2|1:0,0:0:0:0:
289,178,205407,1,10,0:0:0:0:
373,174,205569,2,0,P|318:185|268:204,1,86.2500016450882,2|0,0:0|1:0,0:0:0:0:
218,273,205894,1,0,1:0:0:0:
299,303,206056,1,10,0:0:0:0:
168,380,206218,6,0,P|114:315|114:230,1,172.500003290176,6|0,1:2|1:0,0:0:0:0:
174,97,206704,1,8,0:0:0:0:
96,117,206867,1,2,0:0:0:0:
211,18,207029,1,0,1:0:0:0:
291,51,207190,2,0,P|346:40|396:21,1,86.2500016450882,0|8,1:0|0:0,0:0:0:0:
512,87,207515,2,0,P|469:94|428:107,1,86.2500016450882,2|0,1:2|0:0,0:0:0:0:
318,264,207839,5,2,1:2:0:0:
345,154,208001,1,10,0:0:0:0:
372,44,208163,1,2,1:2:0:0:
256,192,208650,5,6,1:2:0:0:
256,192,208670,12,0,215461,0:0:0:0:
