osu file format v14

[General]
AudioFilename: audio.mp3
AudioLeadIn: 0
PreviewTime: 61001
Countdown: 0
SampleSet: Soft
StackLeniency: 0.7
Mode: 0
LetterboxInBreaks: 0
WidescreenStoryboard: 1

[Editor]
DistanceSpacing: 0.9
BeatDivisor: 2
GridSize: 32
TimelineZoom: 1.5

[Metadata]
Title:Asu e no Kyoukaisen
TitleUnicode:明日への境界線
Artist:KINEMA106
ArtistUnicode:キネマ106
Creator:-Aqua
Version:Easy
Source:
Tags:艦隊これくしょん -艦これ- Kantai Collection 艦これ KanColle 柊南 ひいな Hiina Tom jun-jun 茶々畑。あたる ataru 阿武隈のオリジナル曲 Abukuma Original Song Japanese Pop Rock J-pop Jpop J-rock Jrock Full Version Kyōkai Kyokai Kinema 106 刻炎 -Eresh
BeatmapID:3320934
BeatmapSetID:1613010

[Difficulty]
HPDrainRate:2
CircleSize:3
OverallDifficulty:2
ApproachRate:3
SliderMultiplier:1
SliderTickRate:1

[Events]
//Background and Video events
0,0,"bg.jpg",0,0
//Break Periods
//Storyboard Layer 0 (Background)
//Storyboard Layer 1 (Fail)
//Storyboard Layer 2 (Pass)
//Storyboard Layer 3 (Foreground)
//Storyboard Layer 4 (Overlay)
//Storyboard Sound Samples

[TimingPoints]
1407,324.324324324325,4,2,1,60,1,0
2379,-100,4,2,1,10,0,0
4001,-100,4,2,1,20,0,0
5298,-100,4,2,1,5,0,0
6109,-100,4,2,1,50,0,0
6596,-100,4,2,1,60,0,0
7731,-100,4,2,1,60,0,0
8542,-100,4,2,1,60,0,0
9028,-100,4,2,1,70,0,1
9109,-100,4,2,1,70,0,0
11055,-100,4,2,1,5,0,0
11298,-100,4,2,1,70,0,0
11379,-100,4,2,1,5,0,0
11461,-100,4,2,1,70,0,0
19569,-100,4,2,1,60,0,0
28488,-100,4,2,1,60,0,0
29379,-100,4,2,1,5,0,0
29461,-100,4,2,1,60,0,0
29866,-100,4,2,1,5,0,0
29947,-100,4,2,1,60,0,0
37569,-100,4,2,1,60,0,0
38055,-100,4,2,1,60,0,0
38866,-100,4,2,1,60,0,0
39515,-100,4,2,1,60,0,0
40325,-100,4,2,1,60,0,0
42758,-100,4,2,1,70,0,0
44866,-100,4,2,1,70,0,0
45515,-100,4,2,1,60,0,0
47947,-100,4,2,1,70,0,0
50542,-100,4,2,1,60,0,0
53785,-100,4,2,1,60,0,0
54434,-100,4,2,1,60,0,0
55082,-100,4,2,1,60,0,0
55731,-100,4,2,1,60,0,0
58325,-100,4,2,1,70,0,0
61082,-100,4,2,1,85,0,1
62947,-100,4,2,1,5,0,1
63190,-100,4,2,1,85,0,1
63271,-100,4,2,1,5,0,1
63515,-100,4,2,1,85,0,1
63758,-100,4,2,1,5,0,1
63839,-100,4,2,1,85,0,1
66109,-100,4,2,1,85,0,1
71379,-100,4,2,1,85,0,0
71461,-100,4,2,1,85,0,1
73325,-100,4,2,1,5,0,1
73568,-100,4,2,1,85,0,1
73649,-100,4,2,1,5,0,1
73893,-100,4,2,1,85,0,1
74136,-100,4,2,1,5,0,1
74217,-100,4,2,1,85,0,1
81758,-100,4,2,1,85,0,0
81839,-100,4,2,1,70,0,1
81920,-100,4,2,1,70,0,0
82407,-100,4,2,1,5,0,0
82488,-100,4,2,1,70,0,0
83704,-100,4,2,1,5,0,0
83947,-100,4,2,1,70,0,0
84028,-100,4,2,1,5,0,0
84109,-100,4,2,1,70,0,0
92217,-100,4,2,1,60,0,0
101136,-100,4,2,1,60,0,0
102028,-100,4,2,1,5,0,0
102109,-100,4,2,1,60,0,0
102677,-100,4,2,1,5,0,0
102758,-100,4,2,1,60,0,0
110217,-100,4,2,1,60,0,0
110704,-100,4,2,1,60,0,0
111515,-100,4,2,1,60,0,0
112001,-100,4,2,1,60,0,0
115461,-100,4,2,1,45,0,0
121731,-100,4,2,1,70,0,0
123190,-100,4,2,1,60,0,0
126434,-100,4,2,1,60,0,0
127082,-100,4,2,1,60,0,0
128379,-100,4,2,1,60,0,0
130974,-100,4,2,1,70,0,0
133082,-100,4,2,1,70,0,0
133731,-100,4,2,1,75,0,0
133974,-100,4,2,1,5,0,0
134055,-100,4,2,1,75,0,0
135596,-100,4,2,1,5,0,0
135839,-100,4,2,1,75,0,0
135920,-100,4,2,1,5,0,0
136163,-100,4,2,1,75,0,0
144109,-100,4,2,1,75,0,0
145974,-100,4,2,1,5,0,0
146217,-100,4,2,1,75,0,0
146298,-100,4,2,1,5,0,0
146542,-100,4,2,1,75,0,0
153677,-100,4,2,1,75,0,0
154488,-100,4,2,1,60,0,0
156920,-100,4,2,1,70,0,0
159028,-100,4,2,1,70,0,0
159677,-100,4,2,1,60,0,0
162109,-100,4,2,1,70,0,0
164704,-100,4,2,1,60,0,0
167947,-100,4,2,1,60,0,0
168596,-100,4,2,1,60,0,0
169244,-100,4,2,1,60,0,0
169893,-100,4,2,1,60,0,0
172487,-100,4,2,1,70,0,0
175244,-100,4,2,1,50,0,0
176379,-100,4,2,1,60,0,0
177109,-100,4,2,1,5,0,0
177352,-100,4,2,1,60,0,0
177434,-100,4,2,1,5,0,0
177677,-100,4,2,1,85,0,1
177920,-100,4,2,1,5,0,1
178001,-100,4,2,1,85,0,1
180271,-100,4,2,1,85,0,1
185542,-100,4,2,1,85,0,0
185623,-100,4,2,1,85,0,1
187488,-100,4,2,1,5,0,1
187731,-100,4,2,1,85,0,1
187812,-100,4,2,1,5,0,1
188056,-100,4,2,1,85,0,1
188299,-100,4,2,1,5,0,1
188380,-100,4,2,1,85,0,1
195839,-100,4,2,1,60,0,0
197136,-100,4,2,1,60,0,0
198352,-100,4,2,1,5,0,0
198434,-100,4,2,1,70,0,1
198515,-100,4,2,1,70,0,0
200461,-100,4,2,1,5,0,0
200704,-100,4,2,1,70,0,0
200785,-100,4,2,1,5,0,0
200866,-100,4,2,1,70,0,0
208974,-100,4,2,1,55,0,0
210271,-100,4,2,1,45,0,0
211569,-100,4,2,1,35,0,0
212866,-100,4,2,1,25,0,0
214163,-100,4,2,1,15,0,0
215461,-100,4,2,1,5,0,0

[Colours]
Combo1 : 211,211,211
Combo2 : 255,255,168
Combo3 : 168,168,255
Combo4 : 255,168,168

[HitObjects]
256,192,2379,12,0,5298,0:0:0:0:
32,352,6596,6,0,P|108:342|219:333,1,150,2|2,0:0|0:0,0:0:0:0:
227,258,7407,1,0,0:0:0:0:
160,197,7731,1,2,0:0:0:0:
322,41,8542,5,8,0:0:0:0:
450,80,9028,2,0,P|518:128|492:195,1,150,6|8,1:2|0:0,0:0:0:0:
451,255,9839,1,2,1:2:0:0:
370,362,10325,2,0,P|316:337|238:331,1,100,2|0,1:2|1:0,0:0:0:0:
216,262,10974,1,2,1:2:0:0:
146,318,11298,1,2,1:2:0:0:
63,280,11623,6,0,P|47:201|11:130,1,150,6|10,1:2|0:0,0:0:0:0:
72,67,12434,1,2,1:2:0:0:
189,132,12920,2,0,P|243:107|321:101,1,100,2|2,1:2|1:2,0:0:0:0:
329,23,13569,2,0,P|383:48|461:54,1,100,2|2,0:0|1:2,0:0:0:0:
455,138,14217,1,6,1:2:0:0:
360,234,14704,6,0,P|315:211|266:201,1,100,10|0,0:0|1:0,0:0:0:0:
174,102,15515,2,0,P|120:85|58:162,1,150,6|10,1:2|0:0,0:0:0:0:
0,212,16325,1,0,1:0:0:0:
72,325,16812,6,0,P|141:290|217:275,1,150,6|8,1:2|0:0,0:0:0:0:
263,201,17623,1,0,1:0:0:0:
357,297,18109,2,0,P|408:261|368:160,1,150,2|10,1:2|0:0,0:0:0:0:
465,119,18920,1,0,1:0:0:0:
397,59,19244,1,4,3:0:0:0:
397,59,19569,6,0,P|347:78|240:100,1,150,6|2,1:2|0:0,0:0:0:0:
205,175,20379,1,2,0:0:0:0:
281,223,20704,2,0,P|304:296|252:350,1,150,2|8,1:2|0:0,0:0:0:0:
179,307,21515,1,0,1:2:0:0:
120,375,21839,1,10,0:0:0:0:
44,326,22163,6,0,P|22:249|-5:163,1,150,2|2,1:2|0:0,0:0:0:0:
63,117,22974,1,2,0:0:0:0:
131,58,23298,2,0,P|204:60|260:108,1,150,2|10,1:2|0:0,0:0:0:0:
207,182,24109,2,0,P|198:236|186:286,1,100,2|10,1:2|0:0,0:0:0:0:
247,347,24758,5,6,1:2:0:0:
325,302,25082,1,10,0:2:0:0:
386,368,25407,1,2,1:2:0:0:
494,282,25893,2,0,P|508:231|435:171,1,150,2|10,1:2|0:0,0:0:0:0:
355,191,26704,1,2,1:2:0:0:
256,98,27190,6,0,P|267:49|275:0,2,100,2|2|2,1:2|1:2|1:2,0:0:0:0:
178,143,28163,1,2,1:2:0:0:
178,143,28488,2,0,P|189:191|197:241,1,100,6|2,1:2|1:2,0:0:0:0:
275,286,29136,1,6,1:2:0:0:
275,286,29461,1,6,1:2:0:0:
176,377,29947,6,0,P|102:360|28:348,1,150,6|2,1:2|0:0,0:0:0:0:
3,261,30758,1,2,1:2:0:0:
84,223,31082,2,0,P|117:192|104:125,1,100,2|2,1:2|1:2,0:0:0:0:
65,64,31731,1,2,0:0:0:0:
191,10,32218,1,10,0:0:0:0:
191,10,32542,6,0,P|262:32|334:52,1,150,2|2,1:2|0:0,0:0:0:0:
355,140,33353,1,2,0:0:0:0:
273,177,33677,2,0,B|215:225|215:225|234:297,1,150,2|8,1:2|0:0,0:0:0:0:
303,354,34488,2,0,P|351:342|401:334,1,100,2|10,1:2|0:2,0:0:0:0:
447,257,35137,5,6,1:2:0:0:
370,209,35461,1,10,0:2:0:0:
421,135,35786,1,2,1:2:0:0:
341,26,36272,2,0,P|262:15|187:-2,1,150,6|10,1:2|0:0,0:0:0:0:
132,65,37083,1,2,1:2:0:0:
27,150,37569,6,0,P|13:199|98:260,1,150,6|10,1:2|0:2,0:0:0:0:
144,201,38379,1,2,1:2:0:0:
232,98,38867,2,0,P|280:109|330:117,1,100,6|2,1:2|1:2,0:0:0:0:
375,194,39515,1,2,1:2:0:0:
458,159,39840,1,2,1:2:0:0:
510,283,40325,6,0,P|510:350|465:382,1,100,6|8,1:2|0:0,0:0:0:0:
413,323,40974,1,2,1:2:0:0:
342,378,41298,1,8,0:2:0:0:
265,330,41623,2,0,P|276:281|284:231,1,100,2|8,1:2|0:0,0:0:0:0:
361,186,42271,1,2,1:2:0:0:
298,66,42758,6,0,P|219:55|144:38,1,150,6|10,1:2|0:0,0:0:0:0:
95,111,43569,1,2,1:2:0:0:
12,218,44055,2,0,P|2:289|81:327,1,150,2|10,1:2|0:0,0:0:0:0:
126,267,44866,1,0,1:0:0:0:
190,329,45190,1,8,0:0:0:0:
264,278,45515,6,0,P|271:228|283:179,1,100,6|8,1:2|0:0,0:0:0:0:
222,113,46164,1,2,1:2:0:0:
222,113,46488,1,8,0:2:0:0:
276,41,46813,2,0,P|316:13|364:20,1,100,2|8,1:2|0:2,0:0:0:0:
436,75,47461,1,2,1:2:0:0:
506,190,47948,6,0,P|489:263|479:337,1,150,6|10,1:2|0:0,0:0:0:0:
393,363,48759,1,4,3:0:0:0:
338,240,49244,2,0,P|297:212|248:214,1,100,2|10,1:2|0:2,0:0:0:0:
191,284,49893,1,10,0:0:0:0:
110,243,50217,1,10,0:0:0:0:
22,292,50542,6,0,P|12:242|0:194,1,100,6|2,1:2|1:2,0:0:0:0:
48,118,51190,2,0,P|97:108|145:96,1,100,2|2,0:2|1:2,0:0:0:0:
212,156,51839,2,0,P|261:166|309:178,2,100,2|2|2,1:2|1:2|0:0,0:0:0:0:
187,242,52812,1,2,1:2:0:0:
238,315,53136,6,0,P|287:324|335:336,1,100,2|2,1:2|1:2,0:0:0:0:
415,378,53785,2,0,P|442:337|440:288,1,100,2|2,1:2|1:2,0:0:0:0:
497,218,54434,2,0,P|423:199|299:163,1,200,2|2,1:2|1:2,0:0:0:0:
221,201,55407,1,4,3:0:0:0:
138,165,55731,6,0,P|128:115|117:67,2,100,6|2|2,1:2|1:2|0:0,0:0:0:0:
95,245,56704,1,2,1:2:0:0:
95,245,57028,2,0,P|78:335|163:370,1,200,2|2,1:2|0:0,0:0:0:0:
227,307,58001,1,2,1:2:0:0:
307,347,58325,6,0,P|369:326|455:303,1,150,6|10,1:2|0:0,0:0:0:0:
504,231,59136,1,10,0:0:0:0:
464,101,59623,2,0,P|391:81|320:58,1,150,2|8,1:2|0:0,0:0:0:0:
227,307,61082,6,0,P|176:320|126:337,1,100,6|8,1:2|0:0,0:0:0:0:
73,266,61731,1,2,0:0:0:0:
5,149,62217,2,0,P|0:101|42:65,1,100,2|0,1:2|1:0,0:0:0:0:
117,32,62866,1,2,1:2:0:0:
180,96,63190,1,2,1:2:0:0:
247,36,63515,6,0,P|311:28|410:10,1,150,6|10,1:2|0:2,0:0:0:0:
461,73,64325,2,0,B|500:111|500:111|491:173,1,100,2|10,0:0|0:0,0:0:0:0:
432,222,64974,1,2,0:2:0:0:
345,198,65298,1,10,0:0:0:0:
282,263,65623,1,8,0:0:0:0:
195,159,66109,6,0,P|131:151|32:133,1,150,6|10,1:2|0:0,0:0:0:0:
4,215,66920,1,2,1:2:0:0:
78,327,67407,2,0,P|152:336|226:349,1,150,2|10,1:2|0:0,0:0:0:0:
303,304,68217,1,0,1:0:0:0:
215,200,68704,6,0,B|193:132|193:132|263:75,1,150,6|10,1:2|0:0,0:0:0:0:
341,126,69515,1,2,1:2:0:0:
461,66,70001,2,0,P|519:105|503:174,1,150,2|10,1:2|0:0,0:0:0:0:
488,263,70812,2,0,P|439:274|391:288,1,100,6|8,1:2|3:0,0:0:0:0:
347,367,71460,6,0,P|299:351|251:338,1,100,6|8,1:2|0:0,0:0:0:0:
198,265,72109,1,2,0:0:0:0:
303,181,72596,2,0,P|337:147|332:98,1,100,2|0,1:2|1:0,0:0:0:0:
261,43,73244,1,2,1:2:0:0:
191,100,73569,1,2,1:2:0:0:
124,39,73893,6,0,B|58:13|58:13|-3:68,1,150,6|10,1:2|0:2,0:0:0:0:
56,136,74704,2,0,B|72:185|86:236,1,100,2|10,0:0|0:0,0:0:0:0:
168,262,75352,1,2,0:2:0:0:
223,190,75677,1,10,0:0:0:0:
301,233,76001,1,8,0:0:0:0:
370,117,76487,6,0,P|441:109|494:174,1,150,6|10,1:2|0:0,0:0:0:0:
496,252,77298,1,0,1:0:0:0:
402,350,77785,2,0,P|328:359|254:372,1,150,2|10,1:2|0:0,0:0:0:0:
186,311,78596,1,0,1:0:0:0:
61,362,79082,6,0,B|12:310|12:310|39:224,1,150,6|8,1:2|0:0,0:0:0:0:
112,187,79893,1,0,1:0:0:0:
39,73,80379,2,0,P|110:83|163:33,1,150,6|8,1:2|0:0,0:0:0:0:
242,76,81190,2,0,P|261:135|276:169,1,100,0|8,1:0|1:2,0:0:0:0:
197,212,81839,6,0,P|178:271|163:305,1,100,6|8,1:2|0:2,0:0:0:0:
229,366,82488,1,2,1:2:0:0:
350,307,82974,2,0,P|398:316|443:339,1,100,2|0,1:2|1:0,0:0:0:0:
503,271,83623,1,2,1:2:0:0:
452,196,83947,1,2,1:2:0:0:
507,124,84272,6,0,P|519:66|443:19,1,150,6|10,1:2|0:0,0:0:0:0:
382,74,85082,1,2,1:2:0:0:
292,175,85569,2,0,P|238:150|160:144,1,100,2|2,1:2|1:2,0:0:0:0:
140,73,86217,2,0,P|91:82|46:105,1,100,2|2,0:0|1:2,0:0:0:0:
3,184,86866,1,6,1:2:0:0:
63,304,87353,6,0,P|111:314|156:336,1,100,10|0,0:0|1:0,0:0:0:0:
277,278,88163,2,0,P|332:232|319:162,1,150,6|10,1:2|0:0,0:0:0:0:
240,117,88974,1,0,1:0:0:0:
319,7,89461,2,0,P|388:42|464:57,1,150,6|8,1:2|0:0,0:0:0:0:
498,137,90272,1,0,1:0:0:0:
394,224,90758,6,0,P|320:239|254:273,1,150,2|10,1:2|0:0,0:0:0:0:
187,212,91569,1,0,1:0:0:0:
102,243,91893,1,4,3:0:0:0:
29,190,92217,6,0,P|24:140|91:104,1,100,6|10,1:2|0:0,0:0:0:0:
143,83,92866,1,0,1:2:0:0:
270,38,93352,2,0,P|343:60|425:77,1,150,2|8,1:2|0:0,0:0:0:0:
455,156,94163,1,2,1:2:0:0:
371,188,94487,1,10,1:2:0:0:
419,264,94811,6,0,P|401:325|379:394,1,100,2|10,1:2|0:0,0:0:0:0:
301,372,95461,1,2,1:2:0:0:
231,256,95947,2,0,P|163:236|87:212,1,150,2|10,1:2|0:0,0:0:0:0:
26,146,96757,2,0,P|27:97|61:62,1,100,2|10,1:2|0:2,0:0:0:0:
149,42,97406,5,6,1:2:0:0:
206,110,97730,1,10,0:2:0:0:
290,77,98055,1,2,1:2:0:0:
364,189,98541,2,0,P|378:240|305:300,1,150,2|10,1:2|0:0,0:0:0:0:
225,319,99352,1,2,1:2:0:0:
123,230,99839,6,0,P|74:219|25:211,2,100,2|2|2,1:2|1:2|1:2,0:0:0:0:
195,176,100811,1,2,1:2:0:0:
248,103,101136,2,0,P|297:95|346:83,1,100,6|2,1:2|1:2,0:0:0:0:
408,156,101784,1,6,1:2:0:0:
408,156,102109,1,6,1:2:0:0:
291,348,102920,6,0,P|365:359|438:376,1,150,6|2,1:2|1:2,0:0:0:0:
493,305,103731,1,2,1:2:0:0:
418,254,104055,2,0,P|429:205|437:155,1,100,2|2,1:2|1:2,0:0:0:0:
507,40,104866,1,10,0:0:0:0:
507,40,105190,2,0,P|436:57|382:9,1,150,2|2,1:2|0:0,0:0:0:0:
311,64,106001,1,2,1:2:0:0:
228,28,106326,6,0,B|170:76|170:76|200:151,1,150,2|8,1:2|0:0,0:0:0:0:
284,169,107136,2,0,P|272:217|264:267,1,100,2|10,1:2|0:2,0:0:0:0:
204,334,107785,1,6,1:2:0:0:
124,292,108109,1,10,0:2:0:0:
63,359,108434,1,2,1:2:0:0:
2,238,108920,6,0,P|18:164|28:90,1,150,6|10,1:2|0:0,0:0:0:0:
106,45,109731,1,2,1:2:0:0:
183,155,110217,2,0,P|223:213|294:205,1,150,6|10,1:2|0:2,0:0:0:0:
366,151,111028,1,2,1:2:0:0:
484,216,111515,2,0,P|472:264|464:314,1,100,6|2,1:2|1:2,0:0:0:0:
380,345,112163,1,6,1:2:0:0:
380,345,112488,1,2,1:2:0:0:
278,256,112974,5,6,1:2:0:0:
278,256,115677,1,2,0:0:0:0:
470,112,118163,5,2,0:0:0:0:
470,112,120704,1,2,0:0:0:0:
150,30,121893,6,0,P|101:42|52:49,1,100,6|4,1:2|3:0,0:0:0:0:
3,125,122542,1,10,1:2:0:0:
70,184,122866,1,10,1:2:0:0:
14,255,123190,6,0,P|11:311|67:343,1,100,6|2,1:2|1:2,0:0:0:0:
125,369,123838,2,0,P|173:356|222:346,1,100,2|2,0:2|1:2,0:0:0:0:
284,279,124488,2,0,P|271:230|261:181,2,100,2|2|2,1:2|1:2|0:0,0:0:0:0:
360,325,125460,1,2,1:2:0:0:
439,282,125785,6,0,P|473:247|460:185,1,100,2|2,1:2|1:2,0:0:0:0:
432,117,126433,2,0,P|381:107|316:88,1,100,2|2,1:2|1:2,0:0:0:0:
283,181,127082,2,0,P|225:114|113:153,1,200,2|2,1:2|1:2,0:0:0:0:
66,206,128055,1,4,3:0:0:0:
66,206,128379,6,0,P|77:254|86:303,2,100,6|2|2,1:2|1:2|0:0,0:0:0:0:
1,142,129352,1,2,1:2:0:0:
51,67,129676,2,0,B|174:61|120:117|243:106,1,200,2|2,1:2|0:0,0:0:0:0:
284,185,130649,1,2,1:2:0:0:
219,247,130974,6,0,P|217:323|294:357,1,150,6|10,1:2|0:0,0:0:0:0:
345,302,131784,1,10,0:0:0:0:
456,377,132271,2,0,P|476:304|499:233,1,150,6|8,1:2|3:0,0:0:0:0:
467,148,133082,2,0,P|401:130|337:109,1,100,6|10,1:2|0:0,0:0:0:0:
324,43,133731,6,0,P|275:37|234:64,1,100,6|8,1:2|0:0,0:0:0:0:
152,99,134379,2,0,P|139:147|124:195,1,100,2|8,0:0|0:0,0:0:0:0:
187,259,135028,1,2,0:0:0:0:
275,360,135515,2,0,P|322:345|371:332,1,100,2|2,1:2|1:2,0:0:0:0:
447,379,136163,6,0,P|500:327|468:236,1,150,6|8,1:2|0:0,0:0:0:0:
408,218,136974,2,0,P|422:170|435:121,1,100,2|8,0:0|0:0,0:0:0:0:
383,48,137623,1,2,0:0:0:0:
259,102,138109,2,0,P|211:87|162:74,1,100,2|2,1:2|1:2,0:0:0:0:
95,14,138758,6,0,B|32:56|32:56|59:135,1,150,6|8,1:2|0:0,0:0:0:0:
2,198,139569,1,2,1:2:0:0:
108,280,140055,2,0,B|197:259|127:221|261:192,1,150,2|8,1:2|0:0,0:0:0:0:
274,122,140866,1,2,1:2:0:0:
402,162,141352,6,0,P|454:196|429:291,1,150,6|8,1:2|0:0,0:0:0:0:
371,325,142163,1,0,1:0:0:0:
245,375,142650,2,0,P|199:354|151:341,1,100,6|2,1:2|1:2,0:0:0:0:
106,263,143298,1,6,1:2:0:0:
188,156,143785,1,8,0:0:0:0:
188,156,144109,6,0,P|236:142|281:122,1,100,6|8,1:2|0:0,0:0:0:0:
325,200,144758,2,0,P|373:214|418:234,1,100,2|8,0:2|0:0,0:0:0:0:
497,190,145407,1,2,0:0:0:0:
478,56,145893,2,0,P|436:23|377:34,1,100,2|2,1:2|1:2,0:0:0:0:
342,101,146542,6,0,P|270:86|212:130,1,150,6|8,1:2|0:0,0:0:0:0:
170,209,147352,1,2,0:0:0:0:
302,255,147839,1,2,1:2:0:0:
302,255,148163,2,0,P|281:300|267:348,1,100,2|2,1:2|1:2,0:0:0:0:
183,382,148812,1,2,1:2:0:0:
139,303,149136,6,0,P|68:270|-4:249,1,150,6|8,1:2|0:2,0:0:0:0:
43,172,149947,1,2,1:2:0:0:
43,172,150271,1,10,0:2:0:0:
83,91,150596,2,0,P|130:74|175:52,1,100,2|8,0:0|0:0,0:0:0:0:
237,116,151244,1,2,1:2:0:0:
315,70,151569,1,8,0:0:0:0:
391,116,151893,6,0,P|461:155|436:228,1,150,2|2,0:0|0:0,0:0:0:0:
468,352,152866,1,8,0:0:0:0:
468,352,153190,2,0,P|403:325|305:306,1,150,2|2,0:0|0:0,0:0:0:0:
244,348,154001,1,4,3:0:0:0:
161,240,154488,6,0,P|160:191|232:161,1,100,6|8,1:2|0:0,0:0:0:0:
271,109,155137,1,2,1:2:0:0:
271,109,155461,1,8,0:2:0:0:
227,30,155786,2,0,P|177:22|128:11,1,100,2|8,1:2|0:0,0:0:0:0:
71,80,156434,1,2,1:2:0:0:
1,196,156921,6,0,P|-7:275|82:309,1,150,6|10,1:2|0:0,0:0:0:0:
106,247,157732,1,2,1:2:0:0:
191,143,158217,2,0,P|266:129|345:101,1,150,2|10,1:2|0:0,0:0:0:0:
391,176,159029,1,0,1:0:0:0:
331,243,159353,1,8,0:0:0:0:
385,314,159678,6,0,P|435:321|484:333,2,100,6|8|2,1:2|0:0|1:2,0:0:0:0:
317,373,160651,1,8,0:2:0:0:
234,336,160974,2,0,P|206:296|213:248,1,100,2|8,1:2|0:2,0:0:0:0:
289,199,161624,1,2,1:2:0:0:
266,65,162109,6,0,P|191:54|118:37,1,150,6|10,1:2|0:0,0:0:0:0:
37,77,162920,1,4,3:0:0:0:
138,165,163407,2,0,P|157:221|107:275,1,100,2|10,1:2|0:0,0:0:0:0:
61,293,164056,1,10,0:0:0:0:
61,293,164380,1,10,0:0:0:0:
118,362,164705,6,0,P|168:372|216:384,1,100,6|2,1:2|1:2,0:0:0:0:
293,339,165352,2,0,P|328:306|327:257,1,100,2|2,0:2|1:2,0:0:0:0:
282,179,166001,2,0,P|331:171|379:156,2,100,2|2|2,1:2|1:2|0:0,0:0:0:0:
217,242,166975,1,2,1:2:0:0:
125,220,167299,6,0,P|89:186|90:138,1,100,2|2,1:2|1:2,0:0:0:0:
102,49,167947,2,0,P|151:40|199:27,1,100,2|2,1:2|1:2,0:0:0:0:
268,86,168597,2,0,P|317:74|478:40,1,200,2|2,1:2|1:2,0:0:0:0:
512,124,169569,1,4,3:0:0:0:
512,124,169894,6,0,P|525:174|493:210,1,100,6|2,1:2|1:2,0:0:0:0:
407,219,170542,2,0,P|419:268|428:317,1,100,2|2,0:0|1:2,0:0:0:0:
364,380,171191,2,0,B|254:373|322:306|172:299,1,200,2|2,1:2|0:0,0:0:0:0:
131,368,172164,1,2,1:2:0:0:
43,347,172488,6,0,P|-8:297|5:226,1,150,6|10,1:2|0:0,0:0:0:0:
72,166,173299,1,10,0:0:0:0:
166,68,173786,2,0,P|237:91|309:110,1,150,6|8,1:2|0:0,0:0:0:0:
383,369,175244,6,0,P|431:367|461:329,2,100,6|2|2,1:2|0:2|0:2,0:0:0:0:
284,276,176379,2,0,P|236:291|188:305,1,100,6|8,1:2|3:0,0:0:0:0:
135,378,177028,1,2,1:2:0:0:
135,378,177352,1,2,1:2:0:0:
51,345,177677,6,0,B|13:287|13:287|64:205,1,150,6|10,1:2|0:2,0:0:0:0:
113,149,178487,2,0,B|160:171|208:178,1,100,2|10,0:0|0:0,0:0:0:0:
247,259,179136,1,2,0:2:0:0:
328,221,179460,1,10,0:0:0:0:
378,295,179785,1,8,0:0:0:0:
489,218,180271,6,0,P|502:145|443:95,1,150,6|10,1:2|0:0,0:0:0:0:
365,68,181082,1,2,1:2:0:0:
277,170,181569,2,0,B|186:181|237:220|131:230,1,150,2|10,1:2|0:0,0:0:0:0:
90,301,182379,1,0,1:0:0:0:
2,198,182866,6,0,P|19:125|34:51,1,150,6|10,1:2|0:0,0:0:0:0:
119,19,183677,1,2,1:2:0:0:
203,123,184163,2,0,P|276:138|349:155,1,150,2|10,1:2|0:0,0:0:0:0:
429,114,184974,2,0,P|469:156|454:211,1,100,6|8,1:2|3:0,0:0:0:0:
433,278,185622,6,0,P|384:291|337:306,1,100,6|8,1:2|0:0,0:0:0:0:
257,264,186271,1,2,0:0:0:0:
177,373,186758,2,0,P|129:357|81:344,1,100,2|0,1:2|1:0,0:0:0:0:
28,271,187406,1,2,1:2:0:0:
91,207,187731,1,2,1:2:0:0:
33,138,188055,6,0,P|81:84|153:92,1,150,6|10,1:2|0:2,0:0:0:0:
212,23,188866,2,0,P|262:40|323:52,1,100,2|10,0:0|0:0,0:0:0:0:
327,137,189514,1,2,0:2:0:0:
251,186,189839,1,10,0:0:0:0:
302,259,190163,1,8,0:0:0:0:
247,382,190650,6,0,P|312:359|391:344,1,150,6|10,1:2|0:0,0:0:0:0:
436,266,191460,1,0,1:0:0:0:
508,151,191947,2,0,P|499:77|428:54,1,150,2|10,1:2|0:0,0:0:0:0:
362,105,192758,1,0,1:0:0:0:
232,67,193244,6,0,B|175:120|175:120|202:187,1,150,6|8,1:2|0:0,0:0:0:0:
286,220,194055,1,0,1:0:0:0:
236,345,194541,2,0,P|183:294|111:304,1,150,6|8,1:2|0:0,0:0:0:0:
39,250,195352,2,0,P|22:176|0:105,1,150,8|2,0:0|0:0,0:0:0:0:
162,26,196488,1,2,0:0:0:0:
297,144,197136,1,2,0:0:0:0:
512,50,198434,6,0,P|489:121|473:194,1,150,6|8,1:2|0:0,0:0:0:0:
402,250,199245,1,2,1:2:0:0:
309,348,199731,2,0,P|264:325|215:315,1,100,2|0,1:2|1:0,0:0:0:0:
181,232,200380,1,2,1:2:0:0:
95,259,200704,1,2,1:2:0:0:
27,199,201029,6,0,P|10:129|61:78,1,150,6|10,1:2|0:0,0:0:0:0:
123,13,201839,1,2,1:2:0:0:
248,62,202326,2,0,P|257:110|280:155,1,100,2|2,1:2|1:2,0:0:0:0:
194,182,202975,2,0,P|184:230|161:275,1,100,2|2,0:0|1:2,0:0:0:0:
215,347,203623,1,6,1:2:0:0:
344,308,204110,6,0,P|392:318|437:340,1,100,10|0,0:0|1:0,0:0:0:0:
511,227,204921,2,0,P|528:173|451:111,1,150,6|10,1:2|0:0,0:0:0:0:
391,65,205731,1,0,1:0:0:0:
311,174,206218,2,0,P|237:189|171:223,1,150,6|8,1:2|0:0,0:0:0:0:
89,185,207029,1,0,1:0:0:0:
7,292,207515,6,0,P|37:351|51:417,1,100,2|2,1:2|1:2,0:0:0:0:
136,382,208163,1,2,1:2:0:0:
223,278,208650,5,6,1:2:0:0:
256,192,208731,12,0,215461,0:0:0:0:
