osu file format v14

[General]
AudioFilename: audio.mp3
AudioLeadIn: 0
PreviewTime: 173886
Countdown: 1
SampleSet: Soft
StackLeniency: 0.3
Mode: 0
LetterboxInBreaks: 0
WidescreenStoryboard: 0

[Editor]
Bookmarks: 9708,26775,43841,60908,69441,86508,103575,120641,137708,154775,175041,183575,200641,223041
DistanceSpacing: 1.4
BeatDivisor: 4
GridSize: 8
TimelineZoom: 1

[Metadata]
Title:Antena Gaaru
TitleUnicode:アンテナガール
Artist:KINEMA106
ArtistUnicode:キネマ106
Creator:[Mad]
Version:Hurry!
Source:艦これ
Tags:kancolle
BeatmapID:1853517
BeatmapSetID:886611

[Difficulty]
HPDrainRate:5
CircleSize:3
OverallDifficulty:9
ApproachRate:9.2
SliderMultiplier:2.5
SliderTickRate:1

[Events]
//Background and Video events
0,0,"bad quality xd.jpg",0,0
//Break Periods
//Storyboard Layer 0 (Background)
//Storyboard Layer 1 (Fail)
//Storyboard Layer 2 (Pass)
//Storyboard Layer 3 (Foreground)
//Storyboard Sound Samples

[TimingPoints]
1175,266.666666666667,4,2,1,50,1,0
1175,-100,4,2,1,50,0,0
8641,-66.6666666666667,4,2,1,50,0,0
9352,-133.333333333333,4,2,1,50,0,0
17175,-100,4,2,1,50,0,0
26775,-66.6666666666667,4,2,1,50,0,0
27841,-50,4,2,1,50,0,0
28908,-100,4,2,1,50,0,0
35308,-66.6666666666667,4,2,1,50,0,0
36375,-50,4,2,1,50,0,0
37441,-100,4,2,1,50,0,0
41175,-133.333333333333,4,2,1,50,0,0
41708,-66.6666666666667,4,2,1,50,0,0
42775,-100,4,2,1,50,0,0
59841,-66.6666666666667,4,2,1,50,0,0

[HitObjects]
301,141,1175,6,0,P|318:212|431:291,1,166.666666666667
454,329,1441,2,0,B|415:306|374:322|374:322|331:340|292:323,1,166.666666666667
228,270,1708,1,0,0:0:0:0:
395,141,1886,1,0,0:0:0:0:
400,174,1975,1,0,0:0:0:0:
262,46,2152,1,0,0:0:0:0:
281,16,2241,6,0,P|342:-4|338:82,1,166.666666666667
193,91,2508,2,0,P|115:69|13:130,1,166.666666666667
119,327,2775,2,0,B|135:284|120:242|120:242|105:198|120:159,1,166.666666666667
299,186,3041,2,0,P|226:246|202:186,1,166.666666666667
382,168,3308,6,0,P|371:267|305:325,1,166.666666666667
256,355,3575,2,0,B|305:337|344:352|344:352|384:369|429:352,1,166.666666666667
484,297,3841,1,0,0:0:0:0:
278,147,4019,1,0,0:0:0:0:
299,186,4108,1,0,0:0:0:0:
412,34,4286,1,0,0:0:0:0:
369,12,4375,2,0,P|267:18|174:113,1,166.666666666667
196,190,4641,6,0,P|126:254|112:218,1,166.666666666667
16,36,4908,2,0,P|95:56|151:117,1,166.666666666667
145,344,5175,5,0,0:0:0:0:
185,368,5263,1,0,0:0:0:0:
271,355,5352,1,0,0:0:0:0:
298,277,5441,6,0,B|281:235|299:200|299:200|319:161|299:109,1,166.666666666667
237,49,5708,2,0,P|306:93|388:92,1,166.666666666667
428,18,5975,1,0,0:0:0:0:
198,128,6152,1,0,0:0:0:0:
223,164,6241,1,0,0:0:0:0:
476,267,6419,1,0,0:0:0:0:
472,222,6508,6,0,P|375:203|429:278,1,166.666666666667
214,327,6775,2,0,B|126:335|97:238|160:213|191:221,1,166.666666666667
305,320,7041,2,0,B|348:396|445:364|429:298|405:278,1,166.666666666667
223,164,7308,2,0,P|184:90|177:8,1,166.666666666667
97,99,7575,6,0,P|74:183|15:262,1,166.666666666667
68,337,7841,2,0,B|112:352|155:336|155:336|194:322|234:339,1,166.666666666667
402,315,8108,2,0,P|402:266|324:315,1,166.666666666667
102,185,8375,2,0,P|165:236|246:235,1,166.666666666667
337,78,8641,6,0,B|357:38|478:74|398:208|278:153,1,250.000009536744
102,185,8908,2,0,B|81:145|-39:181|40:315|160:260,1,250.000009536744
258,51,9175,2,0,P|201:70|146:125,1,125.000004768372
319,338,9352,5,0,0:0:0:0:
345,313,9441,2,0,P|346:261|329:210,1,83.3333333333333
173,341,9619,1,0,0:0:0:0:
211,319,9708,6,0,P|219:248|152:286,1,125.000004768372
91,340,9975,1,0,0:0:0:0:
261,173,10152,1,0,0:0:0:0:
231,162,10241,2,0,P|150:164|90:233,1,125.000004768372
53,255,10508,2,0,B|65:214|53:175|53:175|38:145|53:103,1,125.000004768372
92,61,10775,1,0,0:0:0:0:
234,54,10952,5,0,0:0:0:0:
216,71,11041,1,0,0:0:0:0:
344,80,11219,5,0,0:0:0:0:
370,54,11308,1,0,0:0:0:0:
432,147,11486,5,0,0:0:0:0:
394,186,11575,1,0,0:0:0:0:
220,220,11752,5,0,0:0:0:0:
277,161,11841,6,0,P|313:209|250:282,1,125.000004768372
130,253,12108,2,0,P|68:230|21:239,1,62.5000023841859,0|0,2:0|2:0,2:0:0:0:
200,304,12286,1,0,0:0:0:0:
220,220,12375,2,0,P|139:152|124:147,1,62.5000023841859
92,140,12552,1,0,0:0:0:0:
157,86,12641,2,0,P|261:67|276:69,1,62.5000023841859
427,86,12819,1,0,0:0:0:0:
396,94,12908,6,0,P|344:181|343:239,1,125.000004768372
421,294,13175,2,0,P|361:326|337:279,1,125.000004768372
176,215,13441,2,0,P|234:276|271:242,1,125.000004768372
374,120,13708,2,0,P|286:172|229:174,1,125.000004768372
92,108,13975,6,0,B|106:148|92:187|92:187|80:221|92:259,1,125.000004768372
124,314,14241,1,0,0:0:0:0:
293,295,14419,1,0,0:0:0:0:
278,276,14508,2,0,P|223:289|225:349,1,125.000004768372
348,363,14775,2,0,P|381:297|381:284,1,62.5000023841859
466,213,14952,1,0,0:0:0:0:
442,229,15041,6,0,P|383:217|336:146,1,125.000004768372
246,27,15308,2,0,P|219:80|295:86,1,125.000004768372
141,28,15575,2,0,P|139:110|209:176,1,125.000004768372
37,308,15841,2,0,P|79:248|74:174,1,125.000004768372
163,244,16108,6,0,P|228:298|306:319,1,125.000004768372
381,162,16375,1,0,0:0:0:0:
347,179,16463,2,0,P|313:244|313:257,1,62.5000023841859
432,328,16641,2,0,P|435:253|369:279,1,125.000004768372
252,166,16908,2,0,P|270:133|299:105,1,62.5000023841859
389,31,17086,1,0,0:0:0:0:
354,61,17175,6,0,B|305:75|270:60|270:60|235:46|183:61,1,166.666666666667
60,30,17441,2,0,P|100:117|127:61,1,166.666666666667
134,210,17708,2,0,P|124:279|48:358,1,166.666666666667
205,319,17975,2,0,P|269:344|376:318,1,166.666666666667
434,233,18241,6,0,P|420:188|378:143,1,83.3333333333333
282,218,18419,1,0,0:0:0:0:
318,206,18508,2,0,P|390:138|418:37,1,166.666666666667
479,26,18775,2,0,B|432:35|391:26|391:26|356:14|311:26,1,166.666666666667
163,70,19041,2,0,P|166:155|215:121,1,166.666666666667
244,66,19308,1,0,0:0:0:0:
66,196,19486,5,0,0:0:0:0:
86,216,19575,1,0,0:0:0:0:
226,297,19752,5,0,0:0:0:0:
199,267,19841,1,0,0:0:0:0:
252,99,20019,5,0,0:0:0:0:
207,139,20108,1,0,0:0:0:0:
320,303,20286,5,0,0:0:0:0:
387,242,20375,2,0,P|450:281|430:367,1,166.666666666667
351,384,20641,1,0,0:0:0:0:
347,155,20819,1,0,0:0:0:0:
428,166,20908,2,0,P|469:180|501:211,1,83.3333333333333
306,227,21086,1,0,0:0:0:0:
261,157,21175,2,0,P|275:115|306:83,1,83.3333333333333
353,12,21352,1,0,0:0:0:0:
266,13,21441,6,0,B|226:31|188:21|188:21|144:10|93:23,1,166.666666666667
27,62,21708,1,0,0:0:0:0:
183,189,21886,1,0,0:0:0:0:
181,149,21975,2,0,P|129:103|140:188,1,166.666666666667
261,157,22241,2,0,P|321:175|413:241,1,166.666666666667
512,163,22508,6,0,P|450:149|371:163,1,83.3333333333333
217,311,22686,1,0,0:0:0:0:
246,299,22775,2,0,P|307:285|387:299,1,83.3333333333333
503,383,22952,1,0,0:0:0:0:
471,380,23041,2,0,P|418:308|419:173,1,166.666666666667
430,149,23308,1,0,0:0:0:0:
351,364,23486,1,0,0:0:0:0:
271,378,23575,6,0,P|198:370|131:299,1,166.666666666667
120,201,23841,2,0,P|207:231|226:231,1,83.3333333333333
166,65,24019,1,0,0:0:0:0:
160,94,24108,2,0,P|210:148|245:72,1,166.666666666667
334,66,24375,2,0,P|324:160|262:219,1,166.666666666667
41,141,24641,6,0,B|25:171|40:220|40:220|59:265|39:317,1,166.666666666667
0,372,24908,2,0,P|89:328|190:338,1,166.666666666667
227,277,25175,2,0,P|316:321|417:311,1,166.666666666667
443,262,25441,1,0,0:0:0:0:
291,220,25619,1,0,0:0:0:0:
319,238,25708,6,0,P|384:188|284:169,1,166.666666666667
227,277,25975,2,0,P|154:317|72:321,1,166.666666666667
1,167,26242,5,0,0:0:0:0:
46,136,26330,1,0,0:0:0:0:
101,134,26419,1,0,0:0:0:0:
149,159,26510,5,0,0:0:0:0:
186,177,26598,1,0,0:0:0:0:
227,172,26687,1,0,0:0:0:0:
267,150,26775,6,0,P|356:174|267:198,1,250.000009536744
187,150,27041,2,0,P|98:174|187:198,1,250.000009536744
272,165,27308,6,0,P|347:217|255:210,1,250.000009536744
197,137,27574,2,0,P|105:129|180:182,1,250.000009536744
288,183,27841,6,0,P|358:283|246:232,1,333.333333333333
206,115,28107,2,0,P|94:63|164:164,1,333.333333333333
281,204,28375,6,0,P|312:322|225:235,1,333.333333333333
228,111,28641,2,0,P|140:24|172:142,1,333.333333333333
372,157,28908,6,0,P|425:240|401:343,1,166.666666666667
328,325,29175,2,0,B|289:341|249:325|249:325|210:308|166:325,1,166.666666666667
68,337,29441,2,0,P|87:281|73:228,1,83.3333333333334
58,99,29619,1,0,0:0:0:0:
94,170,29708,2,0,P|150:190|202:176,1,83.3333333333334
335,83,29908,1,0,0:0:0:0:
292,152,29975,6,0,B|220:194|257:309|336:246|331:212,1,166.666666666667
405,127,30241,2,0,B|391:177|403:209|403:209|416:248|393:291,1,166.666666666667
316,328,30508,1,0,0:0:0:0:
119,361,30708,1,0,0:0:0:0:
148,281,30775,2,0,P|203:266|195:352,1,166.666666666667
63,286,31041,6,0,P|61:169|121:99,1,166.666666666667
95,52,31308,2,0,B|86:112|139:133|186:108|176:46,1,166.666666666667
259,57,31575,2,0,P|244:129|149:204,1,166.666666666667
307,183,31841,2,0,P|351:227|410:234,1,83.3333333333334
440,42,32041,1,0,0:0:0:0:
369,89,32108,6,0,P|382:148|463:92,1,166.666666666667
456,248,32375,2,0,P|425:304|327:348,1,166.666666666667
185,298,32641,2,0,P|246:295|277:336,1,83.3333333333334
101,344,32819,1,0,0:0:0:0:
113,254,32908,2,0,P|184:186|227:178,1,83.3333333333334
247,154,33086,1,0,0:0:0:0:
296,229,33175,6,0,P|371:189|326:146,1,166.666666666667
290,72,33441,2,0,B|248:60|208:73|208:73|166:87|125:69,1,166.666666666667
53,28,33708,1,0,0:0:0:0:
27,291,33886,1,0,0:0:0:0:
67,214,33975,2,0,P|150:177|203:175,1,83.3333333333334
246,296,34152,1,0,0:0:0:0:
163,295,34241,6,0,P|172:204|271:132,1,166.666666666667
343,147,34508,2,0,P|349:223|291:193,1,166.666666666667
278,91,34775,2,0,P|195:53|138:60,1,83.3333333333334
25,197,34952,1,0,0:0:0:0:
101,159,35041,2,0,P|115:53|79:-5,1,166.666666666667
260,195,35308,6,0,B|281:247|356:266|356:266|378:191|343:147,1,250.000009536744
219,125,35575,2,0,B|184:80|205:5|205:5|281:24|302:77,1,250.000009536744
281,198,35841,6,0,B|318:240|396:231|396:231|390:154|342:124,1,250.000009536744
219,146,36108,2,0,B|170:116|165:38|165:38|242:30|280:72,1,250.000009536744
309,214,36375,6,0,B|375:249|468:204|468:204|426:109|352:93,1,333.333333333333
209,177,36642,2,0,B|135:161|93:66|93:66|186:21|252:56,1,333.333333333333
334,199,36908,6,0,B|408:209|480:135|480:135|408:60|334:71,1,333.333333333333
228,199,37175,2,0,B|153:209|81:135|81:135|153:60|228:71,1,333.333333333333
301,280,37441,6,0,P|383:285|461:257,1,166.666666666667
403,138,37708,2,0,P|319:142|379:205,1,166.666666666667
484,159,37975,2,0,P|458:71|423:49,1,83.3333333333333
227,70,38152,1,0,0:0:0:0:
307,44,38241,2,0,P|380:-10|389:-50,1,83.3333333333333
152,38,38419,1,0,0:0:0:0:
154,122,38508,6,0,P|180:183|263:132,1,166.666666666667
219,274,38775,2,0,P|164:332|84:324,1,166.666666666667
131,249,39041,1,0,0:0:0:0:
389,258,39219,1,0,0:0:0:0:
386,348,39308,2,0,P|314:306|305:227,1,166.666666666667
421,150,39575,6,0,B|380:169|341:154|341:154|304:139|258:155,1,166.666666666667
117,169,39841,2,0,P|137:85|201:127,1,166.666666666667
376,79,40108,2,0,P|337:63|296:54,1,83.3333333333333
152,261,40286,1,0,0:0:0:0:
234,234,40375,2,0,P|249:195|258:154,1,83.3333333333333
36,58,40552,1,0,0:0:0:0:
15,141,40641,6,0,P|23:181|39:220,5,83.3333333333333
152,261,41175,6,0,P|145:291|133:320,5,62.5000023841859
119,171,41708,6,0,P|189:129|286:166,1,125.000004768372
317,218,41886,2,0,P|313:279|277:329,1,125.000004768372
259,113,42063,6,0,P|222:63|260:15,1,125.000004768372
430,194,42241,2,0,P|380:225|335:189,1,125.000004768372
119,171,42419,6,0,P|99:114|132:64,1,125.000004768372
384,316,42597,2,0,P|333:349|276:329,1,125.000004768372
328,65,42775,6,0,P|420:28|384:121,1,250
304,144,43308,5,0,0:0:0:0:
288,160,43575,5,0,0:0:0:0:
272,176,43841,6,0,P|192:183|186:81,1,187.5
253,2,44108,1,0,0:0:0:0:
253,2,44241,2,0,P|265:30|271:61,1,62.5
55,220,44375,2,0,P|151:190|174:151,1,125
65,81,44641,1,0,0:0:0:0:
27,311,44775,1,0,0:0:0:0:
230,253,44908,6,0,P|190:299|184:361,1,125
394,314,45175,1,0,0:0:0:0:
272,176,45308,1,0,0:0:0:0:
398,96,45441,2,0,P|392:157|311:267,1,187.5
275,335,45708,2,0,P|344:382|393:313,1,187.5
230,253,45975,5,0,0:0:0:0:
230,253,46108,2,0,P|186:257|146:246,1,62.5
13,169,46241,1,0,0:0:0:0:
248,93,46375,1,0,0:0:0:0:
133,43,46508,2,0,P|126:113|146:178,1,125
311,213,46775,1,0,0:0:0:0:
458,13,46908,1,0,0:0:0:0:
483,120,47041,6,0,P|443:192|382:136,1,187.5
372,38,47308,1,0,0:0:0:0:
477,214,47441,1,0,0:0:0:0:
307,291,47575,2,0,B|325:240|307:200|307:200|289:153|307:102,1,187.5
287,18,47841,2,0,P|243:91|108:117,1,187.5
109,214,48108,6,0,P|87:273|182:273,1,187.5
218,199,48375,1,0,0:0:0:0:
218,199,48508,2,0,P|246:219|277:262,1,62.5
436,290,48641,2,0,P|392:232|376:150,1,125
512,73,48908,1,0,0:0:0:0:
293,146,49041,1,0,0:0:0:0:
367,0,49175,2,0,P|411:58|427:140,1,125
197,103,49441,5,0,0:0:0:0:
11,77,49575,1,0,0:0:0:0:
41,295,49708,2,0,P|103:222|105:110,1,187.5
116,49,49975,2,0,P|118:128|188:57,1,187.5
271,47,50241,6,0,B|289:103|274:143|274:143|249:200|273:248,1,187.5
275,311,50508,2,0,P|335:243|383:244,1,125
414,355,50775,1,0,0:0:0:0:
414,355,50908,1,0,0:0:0:0:
512,215,51041,1,0,0:0:0:0:
351,133,51175,1,0,0:0:0:0:
454,9,51308,5,0,0:0:0:0:
441,122,51441,1,0,0:0:0:0:
260,151,51575,1,0,0:0:0:0:
226,49,51708,1,0,0:0:0:0:
366,220,51841,2,0,P|427:253|447:154,2,187.5
170,130,52375,5,0,0:0:0:0:
170,130,52508,2,0,P|184:201|195:219,1,62.5
263,344,52641,2,0,P|187:291|86:293,1,187.5
19,344,52908,2,0,P|38:295|-5:179,1,125
1,138,53175,1,0,0:0:0:0:
196,37,53308,1,0,0:0:0:0:
124,204,53441,6,0,P|105:155|148:39,1,125
281,155,53708,1,0,0:0:0:0:
153,299,53841,1,0,0:0:0:0:
291,250,53975,2,0,P|386:231|483:277,1,187.5
505,358,54241,2,0,P|440:309|416:386,1,187.5
249,365,54508,6,0,P|262:298|324:217,1,125
445,122,54775,1,0,0:0:0:0:
445,122,54908,2,0,P|437:169|422:192,1,62.5
281,155,55041,2,0,P|268:88|206:7,1,125
106,64,55308,1,0,0:0:0:0:
106,64,55441,1,0,0:0:0:0:
0,183,55575,5,0,0:0:0:0:
188,222,55708,1,0,0:0:0:0:
49,266,55841,1,0,0:0:0:0:
187,124,55975,1,0,0:0:0:0:
139,309,56108,2,0,B|181:326|230:308|230:308|279:288|331:311,1,187.5
388,368,56375,2,0,P|360:289|401:199,1,187.5
479,56,56641,6,0,P|420:20|403:112,1,187.5
512,196,56908,1,0,0:0:0:0:
512,196,57041,2,0,P|473:139|446:119,1,62.5
240,150,57175,2,0,P|306:208|333:267,1,125
212,367,57441,1,0,0:0:0:0:
149,188,57575,1,0,0:0:0:0:
74,356,57708,6,0,P|126:321|163:272,1,125
317,89,57975,1,0,0:0:0:0:
139,38,58108,1,0,0:0:0:0:
235,225,58241,2,0,B|252:178|234:134|234:134|217:94|237:29,1,187.5
393,147,58508,2,0,P|410:65|341:0,1,187.5
427,230,58775,6,0,P|362:279|327:206,1,187.5
491,135,59041,1,0,0:0:0:0:
491,135,59175,2,0,P|507:193|508:225,1,62.5
504,299,59308,1,0,0:0:0:0:
393,147,59441,1,0,0:0:0:0:
356,326,59575,1,0,0:0:0:0:
254,173,59708,1,0,0:0:0:0:
221,318,59841,6,0,B|197:356|153:372|153:372|197:256|154:166,1,281.250010728836
26,10,60108,2,0,B|77:-6|124:58|83:131|83:131|121:93|181:89,1,281.250010728836
336,0,60375,2,0,B|390:-6|418:38|401:117|323:99|323:99|372:150|337:218|266:211|254:173,1,375.000014305115
