osu file format v14

[General]
AudioFilename: audio.mp3
AudioLeadIn: 0
PreviewTime: 64739
Countdown: 1
SampleSet: None
StackLeniency: 0.7
Mode: 0
LetterboxInBreaks: 0
WidescreenStoryboard: 1

[Editor]
DistanceSpacing: 0.8
BeatDivisor: 4
GridSize: 8
TimelineZoom: 1

[Metadata]
Title:Tsumoshan
TitleUnicode:Tsumoshan
Artist:KINEMA 106
ArtistUnicode:キネマ106
Creator:Toxi
Version:Normal
Source:
Tags:
BeatmapID:1974157
BeatmapSetID:944911

[Difficulty]
HPDrainRate:6
CircleSize:2.8
OverallDifficulty:7.5
ApproachRate:8.5
SliderMultiplier:1.4
SliderTickRate:1

[Events]
//Background and Video events
0,0,"Konachan.com - 277655 2girls aliasing bikini black_hair blush bow breasts cleavage long_hair matokechi navel pink_hair red_eyes swim_ring swimsuit water wristwear.jpg",0,0
//Break Periods
2,22452,29361
//Storyboard Layer 0 (Background)
//Storyboard Layer 1 (Fail)
//Storyboard Layer 2 (Pass)
//Storyboard Layer 3 (Foreground)
//Storyboard Sound Samples

[TimingPoints]
1496,324.324324324324,4,2,0,20,1,0
9928,-100,4,2,0,45,0,0
11712,-100,4,3,0,65,0,0

[Colours]
Combo1 : 128,128,255
Combo2 : 255,128,192
Combo3 : 18,124,255
Combo4 : 255,128,128

[HitObjects]
168,244,9928,6,0,P|195:142|235:96,1,140
253,213,10414,2,0,B|264:310|264:310|298:256,1,140
331,194,10901,2,0,P|349:149|350:115,1,70
270,128,11225,2,0,P|308:62|380:34,1,140
381,122,11712,6,0,P|392:218|421:277,1,140
454,113,12198,1,0,0:0:0:0:
454,113,12523,2,0,P|481:167|491:209,1,70
446,251,12847,1,0,0:0:0:0:
411,44,13009,2,0,P|351:96|319:169,1,140
278,259,13495,6,0,P|240:235|213:202,1,70
158,109,13820,2,0,P|138:162|136:203,1,70
79,276,14144,2,0,P|47:235|39:199,1,70
44,108,14468,6,0,P|103:46|176:30,1,140
158,109,14955,1,0,0:0:0:0:
158,109,15279,6,0,P|157:166|163:204,1,70
209,296,15604,2,0,P|239:223|240:142,1,140
137,228,16090,1,0,0:0:0:0:
227,86,16252,2,0,P|301:96|362:142,1,140
350,266,16739,1,0,0:0:0:0:
350,266,17063,6,0,P|368:223|405:186,1,70
477,137,17387,1,0,0:0:0:0:
328,132,17550,2,0,B|276:140|235:127|235:127|279:94,1,140
417,101,18036,2,0,P|462:124|490:153,1,70
463,260,18360,2,0,P|431:227|416:198,1,70
417,101,18685,1,0,0:0:0:0:
341,207,18847,2,0,P|333:283|363:346,1,140
417,101,19333,1,0,0:0:0:0:
417,101,19658,6,0,P|422:148|417:187,1,70
317,77,19982,5,0,0:0:0:0:
317,77,20144,1,0,0:0:0:0:
287,199,20306,1,0,0:0:0:0:
287,199,20468,1,0,0:0:0:0:
217,98,20631,1,0,0:0:0:0:
217,98,20793,6,0,P|193:175|207:240,1,140
287,199,21279,1,0,0:0:0:0:
282,285,21441,2,0,P|356:268|393:199,1,140
392,129,21928,2,0,P|436:146|475:180,1,70
452,257,22252,1,0,0:0:0:0:
256,192,30036,12,0,31009,0:0:0:0:
256,192,31171,6,0,P|285:120|345:67,1,140
357,165,31658,1,0,0:0:0:0:
357,165,31820,2,0,P|419:113|446:49,1,140
328,76,32306,1,0,0:0:0:0:
328,76,32631,6,0,P|296:157|298:236,1,140
394,293,33117,2,0,P|381:211|400:141,1,140
452,77,33604,1,0,0:0:0:0:
452,77,33766,6,0,L|456:221,2,140
386,21,34577,2,0,L|346:99,1,70
284,162,34901,2,0,L|246:88,1,70
186,40,35225,6,0,P|127:83|119:166,1,140
28,109,35712,2,0,P|29:200|15:274,1,140
46,343,36198,1,0,0:0:0:0:
94,258,36360,2,0,P|135:211|209:195,1,140
269,332,36847,2,0,P|228:306|200:274,1,70
291,245,37171,2,0,P|340:242|376:252,1,70
361,335,37495,2,0,P|399:336|434:324,1,70
431,230,37820,6,0,P|408:163|350:105,1,140
296,156,38306,2,0,P|268:99|261:20,1,140
341,48,38793,1,0,0:0:0:0:
260,23,38955,2,0,P|217:28|141:84,2,140
332,67,39766,1,0,0:0:0:0:
314,147,39928,6,0,P|323:189|348:218,1,70
338,210,40252,1,0,0:0:0:0:
394,147,40414,2,0,P|430:219|367:327,1,210
234,271,41387,1,0,0:0:0:0:
302,190,41712,2,0,P|230:122|78:186,1,280
79,183,42685,1,0,0:0:0:0:
205,124,43009,6,0,P|257:70|291:61,2,105
246,217,43982,1,0,0:0:0:0:
287,310,44306,6,0,P|235:364|201:373,2,105
324,167,45279,1,0,0:0:0:0:
403,262,45604,6,0,L|485:337,2,105
457,177,46577,1,0,0:0:0:0:
389,102,46901,2,0,L|470:32,2,105
292,190,47712,1,0,0:0:0:0:
292,190,47874,1,0,0:0:0:0:
199,149,48198,6,0,P|145:201|136:235,2,105
292,190,49171,1,0,0:0:0:0:
385,231,49495,6,0,P|439:178|448:145,2,105
242,268,50468,1,0,0:0:0:0:
351,225,50793,6,0,L|426:143,2,105
266,171,51766,1,0,0:0:0:0:
191,239,52090,2,0,L|121:158,2,105
278,336,52901,1,0,0:0:0:0:
278,336,53063,1,0,0:0:0:0:
307,124,53387,6,0,P|255:70|221:61,2,105
266,217,54360,1,0,0:0:0:0:
225,310,54684,6,0,P|277:364|311:373,2,105
188,167,55657,1,0,0:0:0:0:
109,262,55982,6,0,L|27:337,2,105
55,177,56955,1,0,0:0:0:0:
123,102,57279,2,0,L|42:32,2,105
220,190,58090,1,0,0:0:0:0:
220,190,58252,1,0,0:0:0:0:
313,149,58576,6,0,P|367:201|376:235,2,105
220,190,59549,1,0,0:0:0:0:
127,231,59873,6,0,P|73:178|64:145,2,105
270,268,60846,1,0,0:0:0:0:
221,175,61171,2,0,P|329:168|434:300,1,280
270,268,62144,1,0,0:0:0:0:
357,180,62306,2,0,P|392:88|432:53,1,140
462,129,62793,1,0,0:0:0:0:
462,129,62955,1,0,0:0:0:0:
256,192,63117,12,0,64577,0:0:0:0:
296,64,64739,6,0,P|289:106|294:146,1,70
380,101,65063,2,0,P|371:206|331:255,1,140
260,184,65550,1,0,0:0:0:0:
260,184,65874,6,0,P|249:237|248:280,1,70
321,351,66198,2,0,P|202:323|172:322,1,140
76,351,66685,2,0,P|118:347|164:332,1,70
184,258,67009,2,0,P|120:266|99:276,1,70
213,342,67333,1,0,0:0:0:0:
63,281,67658,6,0,P|85:201|126:162,1,140
124,162,68144,1,0,0:0:0:0:
124,162,68468,6,0,P|158:184|191:191,1,70
268,169,68793,2,0,P|250:89|208:39,1,140
124,162,69279,1,0,0:0:0:0:
57,37,69441,2,0,P|18:93|7:170,1,140
6,162,69928,1,0,0:0:0:0:
6,162,70252,6,0,P|16:240|56:309,1,140
123,178,70739,1,0,0:0:0:0:
123,178,71063,2,0,L|121:259,1,70
180,335,71387,2,0,P|198:247|196:184,1,140
241,81,71874,6,0,L|251:162,1,70
300,229,72198,2,0,L|319:153,1,70
367,82,72523,2,0,L|377:163,1,70
386,240,72847,2,0,P|395:303|460:357,2,140
477,235,73658,2,0,P|490:193|487:163,1,70
405,93,73982,5,0,0:0:0:0:
405,93,74306,1,0,0:0:0:0:
405,93,74631,1,0,0:0:0:0:
405,93,74955,1,0,0:0:0:0:
405,93,75441,6,0,P|396:146|384:167,1,70
290,96,75766,1,0,0:0:0:0:
304,194,75928,2,0,P|223:174|180:125,1,140
120,57,76414,1,0,0:0:0:0:
92,155,76577,2,0,P|74:221|92:301,1,140
198,332,77063,6,0,P|193:298|173:259,1,70
82,304,77387,2,0,P|106:342|143:360,1,70
177,265,77712,2,0,P|216:266|265:284,1,70
275,357,78036,6,0,P|346:317|367:250,1,140
423,168,78523,2,0,L|458:312,1,140
505,192,79009,1,0,0:0:0:0:
477,102,79171,6,0,P|400:62|340:68,1,140
343,157,79658,1,0,0:0:0:0:
244,104,79820,2,0,P|231:163|255:244,1,140
251,238,80306,1,0,0:0:0:0:
251,238,80631,6,0,P|210:228|171:212,1,70
151,135,80955,1,0,0:0:0:0:
97,221,81117,2,0,P|125:284|206:327,1,140
151,135,81604,1,0,0:0:0:0:
151,135,81928,6,0,P|141:190|124:227,1,70
78,76,82252,1,0,0:0:0:0:
47,167,82414,2,0,P|42:247|63:311,1,140
136,202,82901,1,0,0:0:0:0:
157,305,83063,5,0,0:0:0:0:
157,305,83225,2,0,P|229:338|297:338,1,140
394,254,83712,2,0,P|291:250|249:261,1,140
387,339,84198,1,0,0:0:0:0:
470,201,84360,2,0,P|476:280|446:336,1,140
394,254,84847,2,0,P|381:203|385:169,1,70
366,88,85171,2,0,P|319:154|312:223,1,140
250,86,85658,1,0,0:0:0:0:
