osu file format v14

[General]
AudioFilename: audio.mp3
AudioLeadIn: 0
PreviewTime: 80715
Countdown: 0
SampleSet: Normal
StackLeniency: 0.7
Mode: 0
LetterboxInBreaks: 0
WidescreenStoryboard: 0

[Editor]
Bookmarks: 22965,40365,42165,51315,51615,71190,77565,114315,116715,130065,140865,143115,159015,160215,199515,201165,204765
DistanceSpacing: 0.8
BeatDivisor: 4
GridSize: 4
TimelineZoom: 1.9

[Metadata]
Title:Additional memory
TitleUnicode:Additional memory
Artist:KIMI
ArtistUnicode:KIMI
Creator:ViperSWC
Version:Kagerou
Source:
Tags:
BeatmapID:2181855
BeatmapSetID:1043632

[Difficulty]
HPDrainRate:6
CircleSize:4
OverallDifficulty:8.5
ApproachRate:9.2
SliderMultiplier:1.4
SliderTickRate:1

[Events]
//Background and Video events
0,0,"flower.png",0,0
//Break Periods
2,119415,127545
//Storyboard Layer 0 (Background)
//Storyboard Layer 1 (Fail)
//Storyboard Layer 2 (Pass)
//Storyboard Layer 3 (Foreground)
//Storyboard Layer 4 (Overlay)
//Storyboard Sound Samples

[TimingPoints]
13965,300,4,1,0,50,1,0
13965,-80,4,1,0,50,0,0
14265,-100,4,1,0,50,0,0
17415,-125,4,1,0,50,0,0
17865,-166.666666666667,4,1,0,50,0,0
18315,-250,4,1,0,50,0,0
18615,-100,4,1,0,50,0,0
22215,-133.333333333333,4,1,0,50,0,0
23565,-80,4,1,0,100,0,0
23865,-66.6666666666667,4,1,0,100,0,0
41265,-133.333333333333,4,1,0,100,0,0
42615,-100,4,1,0,50,0,0
52215,-80,4,1,0,75,0,0
61815,-142.857142857143,4,1,0,25,0,0
71565,-142.857142857143,4,1,0,50,0,0
72765,-125,4,1,0,60,0,0
73965,-111.111111111111,4,1,0,75,0,0
76365,-80,4,1,0,80,0,0
80565,-333.333333333333,4,1,0,100,0,0
81165,-66.6666666666667,4,1,0,100,0,1
100365,-66.6666666666667,4,1,0,75,0,0
109965,-66.6666666666667,4,1,0,100,0,0
110265,-66.6666666666667,4,1,0,100,0,1
119415,-66.6666666666667,4,1,0,100,0,0
128115,-66.6666666666667,4,1,0,50,0,0
129015,-133.333333333333,4,1,0,50,0,0
137565,-200,4,1,0,50,0,0
138765,-200,4,1,0,25,0,0
148365,-133.333333333333,4,1,0,50,0,0
157215,-66.6666666666667,4,1,0,75,0,0
157815,-200,4,1,0,75,0,0
158565,-66.6666666666667,4,1,0,75,0,0
159015,-200,4,1,0,75,0,0
159765,-66.6666666666667,4,1,0,75,0,0
160215,-200,4,1,0,75,0,0
160965,-66.6666666666667,4,1,0,75,0,0
161415,-200,4,1,0,75,0,0
163365,-66.6666666666667,4,1,0,75,0,0
163815,-200,4,1,0,75,0,0
164565,-66.6666666666667,4,1,0,75,0,0
165015,-200,4,1,0,75,0,0
165765,-66.6666666666667,4,1,0,75,0,0
167565,-400,4,1,0,75,0,0
168765,-54.054054054054,4,1,0,100,0,1
187965,-54.054054054054,4,1,0,100,0,0
197865,-54.054054054054,4,1,0,100,0,1
207015,-54.054054054054,4,1,0,100,0,0

[Colours]
Combo1 : 255,55,55
Combo2 : 255,85,85
Combo3 : 219,219,219
Combo4 : 192,192,192

[HitObjects]
256,192,12015,12,0,13815,0:0:0:0:
54,62,13965,6,0,L|157:50,1,87.5
215,44,14265,1,0,0:0:0:0:
193,122,14415,1,0,0:0:0:0:
193,122,14490,1,0,0:0:0:0:
193,122,14565,2,0,L|186:180,1,35
257,205,14715,2,0,L|262:171,1,35
335,73,15015,6,0,P|271:29|200:56,1,140
262,108,15465,1,0,0:0:0:0:
262,108,15765,1,0,0:0:0:0:
408,38,15915,1,0,0:0:0:0:
480,73,16215,6,0,P|427:115|360:102,1,140
408,38,16665,1,0,0:0:0:0:
408,38,16965,1,0,0:0:0:0:
312,166,17115,1,0,0:0:0:0:
484,184,17415,6,0,L|480:73,1,112
408,112,17865,2,0,L|410:154,1,41.9999987182618
416,231,18165,2,0,L|417:272,1,41.9999987182618
275,132,18465,1,0,0:0:0:0:
275,132,18540,1,0,0:0:0:0:
275,132,18615,2,0,L|225:122,2,35
256,192,18915,12,0,21915,0:0:0:0:
40,114,22215,6,0,L|92:107,1,52.5000020027161
209,93,22515,1,0,0:0:0:0:
203,127,22590,1,0,0:0:0:0:
213,160,22665,1,0,0:0:0:0:
251,137,22740,1,0,0:0:0:0:
276,102,22815,1,0,0:0:0:0:
286,60,22890,1,0,0:0:0:0:
279,17,22965,5,0,0:0:0:0:
357,238,23115,1,0,0:0:0:0:
422,127,23565,6,0,P|358:104|305:114,1,87.5
77,180,23865,2,0,L|74:128,1,52.5000020027161
148,99,24015,2,0,L|157:203,1,105.000004005432
238,150,24315,2,0,L|234:203,1,52.5000020027161
309,232,24465,2,0,L|318:127,1,105.000004005432
74,128,24765,5,0,0:0:0:0:
234,203,24915,1,0,0:0:0:0:
60,236,25065,1,0,0:0:0:0:
181,107,25215,1,0,0:0:0:0:
160,283,25365,5,0,0:0:0:0:
57,106,25515,1,0,0:0:0:0:
167,306,25665,5,0,0:0:0:0:
187,83,25815,1,0,0:0:0:0:
334,95,25965,6,0,L|218:86,1,105.000004005432
181,192,26265,2,0,L|130:200,1,52.5000020027161
118,276,26415,2,0,L|252:256,1,105.000004005432
261,328,26715,2,0,L|313:321,1,52.5000020027161
325,245,26865,2,0,L|190:264,1,105.000004005432
414,301,27165,5,0,0:0:0:0:
222,261,27315,1,0,0:0:0:0:
419,197,27465,1,0,0:0:0:0:
227,157,27615,1,0,0:0:0:0:
414,301,27765,5,0,0:0:0:0:
338,120,27915,1,0,0:0:0:0:
314,309,28065,1,0,0:0:0:0:
338,317,28140,1,0,0:0:0:0:
365,318,28215,1,0,0:0:0:0:
390,312,28290,1,0,0:0:0:0:
413,300,28365,6,0,L|419:169,1,105.000004005432
278,141,28665,2,0,L|271:193,1,52.5000020027161
200,172,28815,2,0,L|212:67,1,105.000004005432
58,177,29115,2,0,L|69:229,1,52.5000020027161
141,208,29265,2,0,L|120:95,1,105.000004005432
287,316,29565,5,0,0:0:0:0:
141,208,29715,1,0,0:0:0:0:
227,351,29865,1,0,0:0:0:0:
200,172,30015,1,0,0:0:0:0:
154,342,30165,5,0,0:0:0:0:
273,181,30315,1,0,0:0:0:0:
115,276,30465,5,0,0:0:0:0:
312,247,30615,1,0,0:0:0:0:
292,106,30765,6,0,L|307:221,1,105.000004005432
325,359,31065,5,0,0:0:0:0:
415,128,31215,1,0,0:0:0:0:
464,372,31365,5,0,0:0:0:0:
420,116,31515,1,0,0:0:0:0:
320,371,31665,5,0,0:0:0:0:
425,104,31815,1,0,0:0:0:0:
468,380,31965,6,0,P|494:332|480:261,1,105.000004005432
319,370,32265,6,0,P|304:321|317:271,1,105.000004005432
500,178,32565,5,0,0:0:0:0:
497,204,32640,1,0,0:0:0:0:
495,230,32715,1,0,0:0:0:0:
492,256,32790,1,0,0:0:0:0:
486,280,32865,5,0,0:0:0:0:
441,306,32940,1,0,0:0:0:0:
389,312,33015,1,0,0:0:0:0:
340,296,33090,1,0,0:0:0:0:
301,261,33165,6,0,L|292:138,1,105.000004005432
70,76,33465,2,0,P|105:82|143:71,1,52.5000020027161
145,146,33615,2,0,P|93:153|42:141,1,105.000004005432
169,213,33915,2,0,P|195:210|220:216,1,52.5000020027161
247,150,34065,2,0,P|196:137|144:145,1,105.000004005432
188,284,34365,5,0,0:0:0:0:
157,71,34515,1,0,0:0:0:0:
72,277,34665,1,0,0:0:0:0:
157,71,34815,1,0,0:0:0:0:
188,284,34965,5,0,0:0:0:0:
71,110,35115,1,0,0:0:0:0:
262,197,35265,5,0,0:0:0:0:
71,110,35415,1,0,0:0:0:0:
58,261,35565,6,0,L|69:150,1,105.000004005432
201,148,35865,2,0,P|193:124|177:104,1,52.5000020027161
266,99,36015,2,0,P|279:160|256:237,1,105.000004005432
334,251,36315,2,0,P|342:227|359:207,1,52.5000020027161
272,201,36465,2,0,P|259:262|282:339,1,105.000004005432
398,325,36765,5,0,0:0:0:0:
472,171,36915,1,0,0:0:0:0:
358,210,37065,1,0,0:0:0:0:
512,285,37215,1,0,0:0:0:0:
438,110,37365,5,0,0:0:0:0:
367,287,37515,1,0,0:0:0:0:
512,98,37665,1,0,0:0:0:0:
477,79,37740,1,0,0:0:0:0:
438,82,37815,1,0,0:0:0:0:
407,105,37890,1,0,0:0:0:0:
392,141,37965,6,0,L|386:14,1,105.000004005432
165,126,38265,2,0,L|220:120,1,52.5000020027161
101,180,38415,2,0,P|82:133|95:83,1,105.000004005432
233,216,38715,2,0,L|178:210,1,52.5000020027161
296,270,38865,2,0,P|315:223|303:173,1,105.000004005432
101,180,39165,5,0,0:0:0:0:
220,299,39315,1,0,0:0:0:0:
220,131,39465,5,0,0:0:0:0:
90,265,39615,1,0,0:0:0:0:
284,255,39765,5,0,0:0:0:0:
146,115,39915,1,0,0:0:0:0:
145,316,40065,5,0,0:0:0:0:
292,175,40215,1,0,0:0:0:0:
134,84,40365,6,0,P|77:89|26:123,2,105.000004005432
378,84,40815,6,0,P|435:89|486:123,2,105.000004005432
114,197,41265,6,0,L|107:252,1,52.5000020027161
189,191,41565,5,0,0:0:0:0:
170,185,41640,1,0,0:0:0:0:
150,183,41715,1,0,0:0:0:0:
131,188,41790,1,0,0:0:0:0:
112,198,41865,1,0,0:0:0:0:
149,233,41940,1,0,0:0:0:0:
199,248,42015,1,0,0:0:0:0:
250,238,42090,1,0,0:0:0:0:
291,205,42165,5,0,0:0:0:0:
241,10,42315,1,0,0:0:0:0:
376,6,42615,6,0,P|443:-11|512:0,1,140
343,74,43065,2,0,L|346:143,1,70
397,238,43365,1,0,0:0:0:0:
346,143,43515,1,0,0:0:0:0:
303,289,43665,1,0,0:0:0:0:
466,242,43815,2,0,L|385:237,1,70
261,194,44115,5,0,0:0:0:0:
396,237,44265,2,0,P|383:271|351:302,1,70
293,330,44565,1,0,0:0:0:0:
268,215,44715,1,0,0:0:0:0:
178,355,44865,1,0,0:0:0:0:
312,328,45015,1,0,0:0:0:0:
189,278,45165,6,0,P|150:282|111:312,1,70
87,360,45465,2,0,P|56:376|21:379,1,70
71,224,45765,1,0,0:0:0:0:
124,297,45915,1,0,0:0:0:0:
0,254,46065,1,0,0:0:0:0:
148,214,46215,2,0,B|139:323|139:323|114:281,1,140
165,262,46665,2,0,L|169:192,1,70
58,149,46965,5,0,0:0:0:0:
181,74,47115,1,0,0:0:0:0:
148,214,47265,1,0,0:0:0:0:
56,92,47415,2,0,P|102:60|181:74,1,140
236,132,47865,2,0,L|314:137,1,70
377,180,48165,2,0,L|446:175,1,70
413,31,48465,1,0,0:0:0:0:
365,194,48615,2,0,L|434:189,1,70
512,185,48915,5,0,0:0:0:0:
382,119,49065,1,0,0:0:0:0:
466,114,49215,1,0,0:0:0:0:
391,266,49365,1,0,0:0:0:0:
466,114,49515,1,0,0:0:0:0:
476,261,49665,1,0,0:0:0:0:
382,119,49815,1,0,0:0:0:0:
319,264,49965,2,0,P|287:280|253:279,1,70
195,224,50265,5,0,0:0:0:0:
271,202,50415,1,0,0:0:0:0:
253,279,50565,1,0,0:0:0:0:
213,147,50715,1,0,0:0:0:0:
329,257,50865,1,0,0:0:0:0:
138,170,51015,6,0,L|56:176,1,70
384,201,51315,6,0,L|453:195,1,70
128,183,51615,6,0,L|46:189,1,70
374,214,51915,6,0,L|443:208,1,70
128,183,52215,6,0,B|100:218|108:264|108:264|96:326|35:331,1,175
222,151,52665,2,0,L|321:141,1,87.5
128,183,52965,1,0,0:0:0:0:
203,248,53115,1,0,0:0:0:0:
146,86,53265,1,0,0:0:0:0:
34,214,53415,2,0,L|44:315,1,87.5
226,358,53715,5,0,0:0:0:0:
203,248,53865,1,0,0:0:0:0:
120,323,54015,1,0,0:0:0:0:
309,283,54165,1,0,0:0:0:0:
96,213,54315,1,0,0:0:0:0:
225,357,54465,1,0,0:0:0:0:
180,138,54615,1,0,0:0:0:0:
120,323,54765,2,0,P|168:306|224:313,1,87.5
309,283,55065,2,0,P|352:283|393:267,1,87.5
428,180,55365,5,0,0:0:0:0:
336,193,55515,1,0,0:0:0:0:
450,341,55665,1,0,0:0:0:0:
512,171,55815,2,0,P|469:167|428:180,1,87.5
336,193,56115,2,0,B|308:158|308:158|311:16,1,175
447,97,56565,5,0,0:0:0:0:
395,26,56715,1,0,0:0:0:0:
336,193,56865,1,0,0:0:0:0:
310,18,57015,2,0,P|353:13|394:25,1,87.5
243,73,57315,1,0,0:0:0:0:
447,97,57465,1,0,0:0:0:0:
225,157,57615,2,0,P|227:113|243:73,1,87.5
299,240,57915,2,0,P|260:260|217:267,1,87.5
148,146,58215,2,0,P|149:102|165:59,1,87.5
320,250,58515,2,0,P|240:285|151:292,1,175
32,231,58965,5,0,0:0:0:0:
158,313,59115,1,0,0:0:0:0:
0,384,59265,1,0,0:0:0:0:
153,292,59415,2,0,B|168:239|168:239|157:178|157:178|171:122,1,175
80,240,59865,1,0,0:0:0:0:
239,186,60015,5,0,0:0:0:0:
260,191,60090,1,0,0:0:0:0:
278,203,60165,2,0,L|273:264,1,43.75
381,128,60315,2,0,L|442:123,1,43.75
203,100,60465,2,0,L|142:95,1,43.75
395,258,60615,2,0,L|456:253,1,43.75
299,69,60765,2,0,L|295:25,1,43.75
180,15,60915,5,0,0:0:0:0:
163,38,61215,1,0,0:0:0:0:
156,66,61515,1,0,0:0:0:0:
158,95,61815,2,0,L|265:104,1,97.9999970092774
399,109,62265,5,0,0:0:0:0:
339,149,62565,2,0,P|363:101|376:55,1,97.9999970092774
255,103,63165,2,0,P|249:158|270:213,1,97.9999970092774
381,247,63765,2,0,P|432:241|375:219,1,146.999995513916
275,342,64365,6,0,P|200:328|131:346,1,146.999995513916
214,289,65265,2,0,L|262:302,1,48.9999985046387
165,206,65565,1,0,0:0:0:0:
157,218,65715,1,0,0:0:0:0:
118,193,65865,1,0,0:0:0:0:
69,245,66015,1,0,0:0:0:0:
184,172,66165,2,0,L|188:101,1,48.9999985046387
69,245,66465,2,0,L|71:293,1,48.9999985046387
187,124,66765,6,0,P|114:134|43:117,1,146.999995513916
302,54,67665,6,0,L|254:60,1,48.9999985046387
401,0,67965,1,0,0:0:0:0:
401,0,68115,2,0,L|391:69,1,48.9999985046387
399,148,68415,1,0,0:0:0:0:
399,148,68565,2,0,L|409:217,1,48.9999985046387
512,65,68865,1,0,0:0:0:0:
307,129,69165,6,0,P|384:138|401:215,1,146.999995513916
368,343,70065,2,0,L|374:295,1,48.9999985046387
284,244,70365,1,0,0:0:0:0:
281,237,70515,1,0,0:0:0:0:
288,234,70665,1,0,0:0:0:0:
290,241,70815,1,0,0:0:0:0:
225,285,70965,1,0,0:0:0:0:
147,241,71115,1,0,0:0:0:0:
55,306,71265,1,0,0:0:0:0:
181,384,71415,1,0,0:0:0:0:
153,149,71565,6,0,B|107:142|97:174|48:154,3,97.9999970092774
344,130,72765,6,0,B|394:122|405:157|460:135,3,112
238,46,73965,6,0,P|233:85|238:135,1,62.9999980773926
344,130,74265,2,0,P|349:169|344:219,1,62.9999980773926
210,176,74565,1,0,0:0:0:0:
245,95,74715,1,0,0:0:0:0:
286,121,74865,1,0,0:0:0:0:
247,141,75015,1,0,0:0:0:0:
205,56,75165,2,0,L|132:33,1,62.9999980773926
307,122,75465,2,0,L|246:140,1,62.9999980773926
436,47,75765,2,0,L|498:55,1,62.9999980773926
318,129,76065,5,0,0:0:0:0:
174,142,76365,6,0,L|181:271,1,87.5
155,315,76665,5,0,0:0:0:0:
180,249,76815,1,0,0:0:0:0:
223,309,76965,5,0,0:0:0:0:
106,252,77115,1,0,0:0:0:0:
253,245,77265,5,0,0:0:0:0:
197,374,77415,1,0,0:0:0:0:
210,185,77565,5,0,0:0:0:0:
122,375,77715,1,0,0:0:0:0:
292,303,77865,5,0,0:0:0:0:
132,185,78015,1,0,0:0:0:0:
267,364,78165,5,0,0:0:0:0:
354,158,78315,1,0,0:0:0:0:
155,315,78465,5,0,0:0:0:0:
406,344,78615,1,0,0:0:0:0:
243,134,78765,6,0,L|265:191,1,43.75
296,258,78915,1,0,0:0:0:0:
376,150,79065,1,0,0:0:0:0:
222,138,79215,6,0,L|259:187,1,43.75
315,254,79365,1,0,0:0:0:0:
368,117,79515,1,0,0:0:0:0:
201,147,79665,6,0,L|249:184,1,43.75
333,244,79815,1,0,0:0:0:0:
350,83,79965,1,0,0:0:0:0:
181,163,80115,6,0,L|237:186,1,43.75
348,228,80265,1,0,0:0:0:0:
322,53,80415,1,0,0:0:0:0:
166,171,80565,6,0,L|160:247,1,73.4999977569581
149,320,81165,6,0,P|210:300|235:257,1,105.000004005432
300,91,81465,2,0,P|332:50|382:39,1,105.000004005432
439,261,81765,1,0,0:0:0:0:
379,120,81915,1,0,0:0:0:0:
298,321,82065,1,0,0:0:0:0:
493,150,82215,6,0,L|377:131,1,105.000004005432
184,351,82515,2,0,L|300:332,1,105.000004005432
300,91,82815,1,0,0:0:0:0:
300,91,82890,1,0,0:0:0:0:
300,91,82965,1,0,0:0:0:0:
397,231,83115,1,0,0:0:0:0:
177,268,83265,1,0,0:0:0:0:
389,133,83415,1,0,0:0:0:0:
147,172,83565,6,0,P|149:227|188:276,1,105.000004005432
359,228,83865,2,0,P|386:184|388:132,1,105.000004005432
150,1,84165,1,0,0:0:0:0:
198,87,84315,1,0,0:0:0:0:
147,172,84465,1,0,0:0:0:0:
297,90,84615,6,0,L|428:81,1,105.000004005432
512,73,84915,1,0,0:0:0:0:
298,209,85065,2,0,P|282:159|286:107,1,105.000004005432
512,73,85365,2,0,P|516:125|500:174,1,105.000004005432
298,232,85665,1,0,0:0:0:0:
427,274,85815,1,0,0:0:0:0:
239,152,85965,6,0,P|209:189|202:263,1,105.000004005432
427,274,86265,2,0,P|418:222|386:181,1,105.000004005432
156,338,86565,2,0,P|203:345|270:314,1,105.000004005432
363,182,86865,1,0,0:0:0:0:
111,242,87015,6,0,P|135:201|202:169,1,105.000004005432
363,182,87315,1,0,0:0:0:0:
214,89,87465,1,0,0:0:0:0:
213,272,87615,2,0,L|336:257,1,105.000004005432
358,32,87915,1,0,0:0:0:0:
283,183,88065,1,0,0:0:0:0:
193,49,88215,5,0,0:0:0:0:
193,49,88290,1,0,0:0:0:0:
193,49,88365,2,0,P|130:57|68:89,1,105.000004005432
283,183,88665,2,0,P|331:201|383:207,1,105.000004005432
175,184,88965,1,0,0:0:0:0:
229,277,89115,1,0,0:0:0:0:
337,89,89265,1,0,0:0:0:0:
175,184,89415,6,0,P|132:230|128:306,1,105.000004005432
241,376,89715,1,0,0:0:0:0:
316,199,89865,2,0,L|255:190,2,52.5000020027161
412,240,90165,5,0,0:0:0:0:
427,253,90240,1,0,0:0:0:0:
440,270,90315,1,0,0:0:0:0:
447,290,90390,1,0,0:0:0:0:
449,307,90465,1,0,0:0:0:0:
405,335,90540,1,0,0:0:0:0:
354,332,90615,1,0,0:0:0:0:
314,299,90690,1,0,0:0:0:0:
301,249,90765,6,0,L|288:137,1,105.000004005432
64,45,91065,2,0,L|77:150,1,105.000004005432
318,230,91365,2,0,L|304:117,1,105.000004005432
299,45,91665,1,0,0:0:0:0:
125,233,91815,6,0,L|-2:217,1,105.000004005432
186,109,92115,1,0,0:0:0:0:
320,236,92265,1,0,0:0:0:0:
101,326,92415,2,0,P|69:228|114:136,1,210.000008010865
253,210,92865,2,0,P|312:220|367:197,1,105.000004005432
129,32,93165,6,0,L|112:155,1,105.000004005432
353,206,93465,2,0,L|360:94,1,105.000004005432
154,283,93765,1,0,0:0:0:0:
353,206,93915,1,0,0:0:0:0:
154,129,94065,1,0,0:0:0:0:
353,299,94215,6,0,B|376:231|376:231|348:158|348:158|377:73,1,210.000008010865
265,233,94665,2,0,P|221:242|156:211,1,105.000004005432
367,101,94965,2,0,L|375:227,1,105.000004005432
289,4,95265,1,0,0:0:0:0:
227,157,95415,1,0,0:0:0:0:
472,35,95565,6,0,L|369:16,1,105.000004005432
227,157,95865,2,0,L|115:168,1,105.000004005432
63,45,96165,1,0,0:0:0:0:
227,157,96315,1,0,0:0:0:0:
89,183,96465,1,0,0:0:0:0:
262,64,96615,6,0,B|312:92|312:92|344:265,1,210.000008010865
417,304,97065,2,0,P|436:245|418:185,1,105.000004005432
247,281,97365,2,0,P|288:326|349:341,1,105.000004005432
351,145,97665,2,0,P|290:158|247:203,1,105.000004005432
230,303,97965,6,0,P|189:334|137:343,1,105.000004005432
48,256,98265,2,0,L|41:128,1,105.000004005432
241,312,98565,2,0,P|200:343|148:352,1,105.000004005432
59,265,98865,2,0,L|52:137,1,105.000004005432
125,51,99165,5,0,0:0:0:0:
170,167,99315,1,0,0:0:0:0:
346,74,99465,5,0,0:0:0:0:
180,142,99615,1,0,0:0:0:0:
260,292,99765,5,0,0:0:0:0:
205,152,99915,1,0,0:0:0:0:
150,292,100065,5,0,0:0:0:0:
175,321,100140,1,0,0:0:0:0:
210,339,100215,1,0,0:0:0:0:
249,343,100290,1,0,0:0:0:0:
286,332,100365,2,0,B|303:308|303:308|411:294,1,105.000004005432
461,292,100665,5,0,0:0:0:0:
290,293,100815,2,0,P|279:234|305:182,1,105.000004005432
411,58,101115,5,0,0:0:0:0:
422,223,101265,1,0,0:0:0:0:
295,77,101415,2,0,B|192:65|192:65|76:119,1,210.000008010865
247,280,101865,1,0,0:0:0:0:
204,147,102015,1,0,0:0:0:0:
129,333,102165,1,0,0:0:0:0:
262,290,102315,1,0,0:0:0:0:
81,219,102465,1,0,0:0:0:0:
124,352,102615,1,0,0:0:0:0:
210,121,102765,6,0,P|264:81|336:82,1,105.000004005432
410,209,103065,1,0,0:0:0:0:
311,364,103215,6,0,B|295:292|295:292|305:228|305:228|281:140,1,210.000008010865
162,209,103665,1,0,0:0:0:0:
294,368,103815,6,0,B|278:296|278:296|288:232|288:232|264:144,1,210.000008010865
241,42,104265,1,0,0:0:0:0:
388,199,104415,1,0,0:0:0:0:
269,163,104565,1,0,0:0:0:0:
360,78,104715,1,0,0:0:0:0:
298,284,104865,1,0,0:0:0:0:
475,113,105015,1,0,0:0:0:0:
269,163,105165,6,0,L|255:294,1,105.000004005432
216,384,105465,1,0,0:0:0:0:
169,224,105615,6,0,P|123:194|0:278,1,210.000008010865
95,337,106065,1,0,0:0:0:0:
166,209,106215,6,0,P|120:179|-3:263,1,210.000008010865
291,289,106665,1,0,0:0:0:0:
299,172,106815,1,0,0:0:0:0:
193,224,106965,1,0,0:0:0:0:
397,237,107115,1,0,0:0:0:0:
306,56,107265,1,0,0:0:0:0:
193,224,107415,1,0,0:0:0:0:
405,120,107565,6,0,L|425:-1,1,105.000004005432
154,257,107865,1,0,0:0:0:0:
361,215,108015,6,0,L|406:114,1,105.000004005432
108,288,108315,1,0,0:0:0:0:
260,175,108465,6,0,B|257:173|262:177|291:232,1,52.5000020027161
297,298,108615,6,0,B|352:287|368:237|368:237|354:162|426:124,1,210.000008010865
361,26,109065,1,0,0:0:0:0:
166,126,109215,1,0,0:0:0:0:
292,206,109365,1,0,0:0:0:0:
297,180,109440,1,0,0:0:0:0:
302,154,109515,1,0,0:0:0:0:
307,128,109590,1,0,0:0:0:0:
312,103,109665,5,0,0:0:0:0:
372,269,109815,1,0,0:0:0:0:
232,140,109965,2,0,P|157:155|117:212,1,105.000004005432
232,279,110265,5,0,0:0:0:0:
312,103,110415,1,0,0:0:0:0:
332,296,110565,5,0,0:0:0:0:
317,91,110715,1,0,0:0:0:0:
222,291,110865,5,0,0:0:0:0:
321,78,111015,1,0,0:0:0:0:
336,310,111165,5,0,0:0:0:0:
325,65,111315,1,0,0:0:0:0:
212,304,111465,5,0,0:0:0:0:
329,52,111615,1,0,0:0:0:0:
341,325,111765,5,0,0:0:0:0:
140,141,111915,1,0,0:0:0:0:
139,141,112065,2,0,P|128:191|133:243,1,105.000004005432
430,180,112365,5,0,0:0:0:0:
224,153,112515,1,0,0:0:0:0:
390,249,112665,5,0,0:0:0:0:
264,84,112815,1,0,0:0:0:0:
313,270,112965,5,0,0:0:0:0:
341,63,113115,1,0,0:0:0:0:
244,230,113265,5,0,0:0:0:0:
410,103,113415,1,0,0:0:0:0:
204,76,113565,5,0,0:0:0:0:
428,98,113715,1,0,0:0:0:0:
244,230,113865,5,0,0:0:0:0:
445,92,114015,1,0,0:0:0:0:
204,76,114165,5,0,0:0:0:0:
445,92,114315,1,0,0:0:0:0:
440,126,114390,1,0,0:0:0:0:
425,158,114465,1,0,0:0:0:0:
401,183,114540,1,0,0:0:0:0:
377,157,114615,1,0,0:0:0:0:
362,125,114690,1,0,0:0:0:0:
357,91,114765,5,0,0:0:0:0:
244,198,114915,1,0,0:0:0:0:
288,31,115065,5,0,0:0:0:0:
242,220,115215,1,0,0:0:0:0:
195,48,115365,5,0,0:0:0:0:
241,237,115515,1,0,0:0:0:0:
343,71,115665,5,0,0:0:0:0:
149,155,115815,1,0,0:0:0:0:
365,248,115965,5,0,0:0:0:0:
171,164,116115,1,0,0:0:0:0:
249,361,116265,5,0,0:0:0:0:
285,155,116415,1,0,0:0:0:0:
89,227,116565,5,0,0:0:0:0:
287,265,116715,2,0,L|344:254,1,52.5000020027161
456,179,116865,2,0,L|405:165,1,52.5000020027161
366,60,117015,2,0,L|328:96,1,52.5000020027161
223,204,117165,5,0,0:0:0:0:
223,204,117240,1,0,0:0:0:0:
223,204,117315,1,0,0:0:0:0:
177,56,117465,1,0,0:0:0:0:
366,60,117615,6,0,B|377:108|377:108|362:171,1,105.000004005432
147,162,117915,6,0,B|135:108|135:108|146:60,1,105.000004005432
256,12,118215,5,0,0:0:0:0:
252,256,118515,5,0,0:0:0:0:
368,95,118815,5,0,0:0:0:0:
144,95,118965,1,0,0:0:0:0:
345,106,128115,5,0,0:0:0:0:
345,106,128190,1,0,0:0:0:0:
345,106,128265,1,0,0:0:0:0:
257,129,128415,1,0,0:0:0:0:
321,194,128565,1,0,0:0:0:0:
410,172,128715,1,0,0:0:0:0:
436,84,128865,1,0,0:0:0:0:
289,33,129015,6,0,P|233:41|158:115,1,157.500006008148
161,107,129765,1,0,0:0:0:0:
269,141,130065,5,0,0:0:0:0:
268,140,130215,2,0,P|272:218|231:284,1,157.500006008148
231,284,130965,1,0,0:0:0:0:
159,193,131265,5,0,0:0:0:0:
159,193,131415,2,0,L|-16:186,1,157.500006008148
1,186,132165,1,0,0:0:0:0:
48,311,132465,5,0,0:0:0:0:
48,311,132615,2,0,L|163:305,2,105.000004005432
139,374,133365,2,0,L|148:325,1,35.0000013351441
232,244,133565,2,0,L|239:279,1,35.0000013351441
325,374,133765,2,0,L|331:339,1,35.0000013351441
418,244,133965,6,0,L|440:363,1,105.000004005432
437,347,134565,1,0,0:0:0:0:
487,199,134865,5,0,0:0:0:0:
487,199,135015,2,0,P|420:162|343:206,1,157.500006008148
351,193,135765,1,0,0:0:0:0:
252,96,136065,5,0,0:0:0:0:
252,96,136215,2,0,L|247:170,1,52.5000020027161
241,240,136515,2,0,L|290:237,2,26.2500010013581
168,168,136815,1,0,0:0:0:0:
168,168,136890,1,0,0:0:0:0:
168,168,136965,1,0,0:0:0:0:
141,251,137115,1,0,0:0:0:0:
248,148,137265,1,0,0:0:0:0:
83,142,137415,2,0,L|43:141,1,26.2500010013581
47,157,137565,2,0,L|37:297,1,140
81,364,138765,5,0,0:0:0:0:
100,367,139065,1,0,0:0:0:0:
120,366,139365,1,0,0:0:0:0:
140,363,139665,1,0,0:0:0:0:
159,356,139965,1,0,0:0:0:0:
176,346,140265,1,0,0:0:0:0:
192,334,140565,1,0,0:0:0:0:
205,319,140865,2,0,L|209:271,1,35
286,208,141165,5,0,0:0:0:0:
299,193,141465,1,0,0:0:0:0:
314,180,141765,1,0,0:0:0:0:
332,170,142065,1,0,0:0:0:0:
350,163,142365,1,0,0:0:0:0:
370,160,142665,1,0,0:0:0:0:
390,160,142965,1,0,0:0:0:0:
410,163,143265,2,0,L|417:213,1,35
434,61,143565,5,0,0:0:0:0:
416,71,143865,1,0,0:0:0:0:
398,79,144165,1,0,0:0:0:0:
379,85,144465,1,0,0:0:0:0:
359,89,144765,1,0,0:0:0:0:
340,90,145065,1,0,0:0:0:0:
320,89,145365,1,0,0:0:0:0:
300,85,145665,2,0,L|294:37,1,35
141,88,145965,5,0,0:0:0:0:
123,96,146265,1,0,0:0:0:0:
107,106,146565,1,0,0:0:0:0:
91,120,146865,1,0,0:0:0:0:
78,134,147165,1,0,0:0:0:0:
66,151,147465,1,0,0:0:0:0:
57,168,147765,1,0,0:0:0:0:
178,208,148065,5,0,0:0:0:0:
178,208,148365,6,0,P|143:204|109:226,1,52.5000020027161
84,281,148665,1,0,0:0:0:0:
84,281,148815,2,0,L|99:385,1,105.000004005432
187,372,149265,1,0,0:0:0:0:
187,372,149415,2,0,L|161:213,1,157.500006008148
238,379,150315,2,0,L|186:371,2,52.5000020027161
311,352,150765,6,0,P|340:333|353:308,1,52.5000020027161
392,244,151065,1,0,0:0:0:0:
392,244,151215,2,0,P|350:234|289:258,1,105.000004005432
234,314,151665,1,0,0:0:0:0:
234,314,151815,2,0,P|186:333|85:285,1,157.500006008148
174,236,152715,2,0,L|179:184,2,52.5000020027161
139,85,153165,6,0,P|116:97|99:117,1,52.5000020027161
168,159,153465,1,0,0:0:0:0:
168,159,153615,2,0,L|273:147,1,105.000004005432
349,180,154065,2,0,B|352:183|399:173,1,26.2500010013581
349,180,154215,2,0,L|512:201,1,157.500006008148
317,272,154965,6,0,L|370:270,2,52.5000020027161
226,284,155415,2,0,P|204:322|222:386,1,105.000004005432
260,201,155865,2,0,L|189:194,1,52.5000020027161
163,332,156165,2,0,L|110:337,1,52.5000020027161
49,248,156465,1,0,0:0:0:0:
49,248,156615,2,0,B|105:244|148:277|148:277|128:292|128:292|92:297,1,157.500006008148
165,153,157365,5,0,0:0:0:0:
214,138,157440,1,0,0:0:0:0:
264,153,157515,1,0,0:0:0:0:
296,193,157590,1,0,0:0:0:0:
328,232,157665,1,0,0:0:0:0:
378,247,157740,1,0,0:0:0:0:
427,233,157815,2,0,L|437:135,1,87.5
441,75,158265,6,0,L|391:66,1,35
276,149,158565,5,0,0:0:0:0:
225,158,158640,1,0,0:0:0:0:
181,131,158715,1,0,0:0:0:0:
167,82,158790,1,0,0:0:0:0:
189,36,158865,1,0,0:0:0:0:
236,16,158940,1,0,0:0:0:0:
285,33,159015,2,0,L|297:134,1,87.5
211,99,159465,6,0,L|172:94,1,35
78,248,159765,5,0,0:0:0:0:
123,225,159840,1,0,0:0:0:0:
137,176,159915,1,0,0:0:0:0:
110,133,159990,1,0,0:0:0:0:
81,88,160065,1,0,0:0:0:0:
95,39,160140,1,0,0:0:0:0:
141,17,160215,2,0,L|232:20,1,87.5
186,106,160665,6,0,L|181:155,1,35
339,186,160965,5,0,0:0:0:0:
289,170,161040,1,0,0:0:0:0:
238,178,161115,1,0,0:0:0:0:
195,208,161190,1,0,0:0:0:0:
171,254,161265,1,0,0:0:0:0:
171,306,161340,1,0,0:0:0:0:
194,353,161415,2,0,L|281:349,1,87.5
396,343,161865,6,0,L|437:351,1,35
239,241,162165,5,0,0:0:0:0:
426,231,162315,1,0,0:0:0:0:
281,349,162465,1,0,0:0:0:0:
329,168,162615,2,0,L|341:78,1,87.5
217,149,163065,6,0,L|173:155,1,35
25,123,163365,1,0,0:0:0:0:
77,126,163440,1,0,0:0:0:0:
122,153,163515,1,0,0:0:0:0:
150,197,163590,1,0,0:0:0:0:
155,248,163665,1,0,0:0:0:0:
136,297,163740,1,0,0:0:0:0:
98,332,163815,2,0,L|24:340,1,70
117,203,164265,6,0,L|157:222,1,35
225,346,164565,5,0,0:0:0:0:
272,364,164640,1,0,0:0:0:0:
316,339,164715,1,0,0:0:0:0:
325,289,164790,1,0,0:0:0:0:
333,239,164865,1,0,0:0:0:0:
378,214,164940,1,0,0:0:0:0:
425,232,165015,2,0,L|437:325,1,87.5
275,204,165465,6,0,L|269:238,1,35
292,344,165765,5,0,0:0:0:0:
354,316,165840,1,0,0:0:0:0:
375,251,165915,1,0,0:0:0:0:
346,195,165990,1,0,0:0:0:0:
312,135,166065,1,0,0:0:0:0:
334,70,166140,1,0,0:0:0:0:
396,42,166215,6,0,L|452:49,1,52.5000020027161
247,160,166365,2,0,L|194:165,1,52.5000020027161
424,231,166515,2,0,L|477:236,1,52.5000020027161
289,61,166665,2,0,L|279:7,1,52.5000020027161
306,265,166815,2,0,L|276:346,1,52.5000020027161
481,100,166965,6,0,L|423:60,1,70.0000026702882
396,42,167215,2,0,L|390:112,1,70.0000026702882
388,144,167415,6,0,L|453:115,1,52.5000020027161
489,182,167565,6,0,L|362:238,1,131.25
317,315,168765,6,0,P|288:282|285:182,1,129.499999505997
331,81,169065,2,0,P|386:50|450:56,1,129.499999505997
278,199,169365,2,0,B|216:213|216:213|148:197,1,129.499999505997
51,77,169665,1,0,0:0:0:0:
225,137,169815,6,0,P|226:251|174:290,1,129.499999505997
40,225,170115,2,0,P|17:165|36:104,1,129.499999505997
225,137,170415,2,0,L|492:160,1,258.999999011993
234,75,170865,2,0,B|200:134|200:134|231:201,1,129.499999505997
482,158,171165,6,0,P|481:223|466:286,1,129.499999505997
267,319,171465,2,0,P|252:256|251:192,1,129.499999505997
465,286,171765,2,0,P|408:326|334:312,1,129.499999505997
237,176,172065,1,0,0:0:0:0:
123,321,172215,6,0,P|59:324|9:286,1,129.499999505997
66,129,172515,1,0,0:0:0:0:
237,176,172665,1,0,0:0:0:0:
90,240,172815,1,0,0:0:0:0:
181,61,172965,2,0,L|319:44,1,129.499999505997
389,270,173265,1,0,0:0:0:0:
309,45,173415,1,0,0:0:0:0:
266,279,173565,6,0,P|189:304|131:269,1,129.499999505997
323,171,173865,2,0,P|383:225|381:292,1,129.499999505997
201,176,174165,2,0,P|217:96|277:64,1,129.499999505997
388,269,174465,1,0,0:0:0:0:
184,168,174615,6,0,P|196:84|256:52,1,129.499999505997
388,71,174915,1,0,0:0:0:0:
184,168,175065,1,0,0:0:0:0:
337,260,175215,2,0,P|397:205|395:138,1,129.499999505997
319,34,175515,1,0,0:0:0:0:
239,251,175665,1,0,0:0:0:0:
159,34,175815,1,0,0:0:0:0:
71,301,175965,6,0,P|52:227|71:173,1,129.499999505997
247,301,176265,2,0,P|262:223|243:169,1,129.499999505997
67,178,176565,1,0,0:0:0:0:
247,301,176715,1,0,0:0:0:0:
154,77,176865,1,0,0:0:0:0:
118,312,177015,2,0,L|261:299,1,129.499999505997
433,198,177315,1,0,0:0:0:0:
246,300,177465,1,0,0:0:0:0:
457,332,177615,1,0,0:0:0:0:
304,218,177765,5,0,0:0:0:0:
289,210,177840,1,0,0:0:0:0:
273,206,177915,1,0,0:0:0:0:
257,205,177990,1,0,0:0:0:0:
239,204,178065,1,0,0:0:0:0:
283,157,178140,1,0,0:0:0:0:
343,133,178215,1,0,0:0:0:0:
407,136,178290,1,0,0:0:0:0:
465,164,178365,6,0,L|459:304,1,129.499999505997
239,204,178665,2,0,L|232:74,1,129.499999505997
459,293,178965,2,0,P|402:323|338:324,1,129.499999505997
239,204,179265,1,0,0:0:0:0:
470,146,179415,6,0,L|463:285,1,129.499999505997
237,185,179715,2,0,L|230:55,1,129.499999505997
463,275,180015,1,0,0:0:0:0:
463,275,180090,1,0,0:0:0:0:
463,275,180165,1,0,0:0:0:0:
243,186,180315,1,0,0:0:0:0:
412,82,180465,1,0,0:0:0:0:
318,288,180615,1,0,0:0:0:0:
228,86,180765,6,0,P|168:52|81:65,1,129.499999505997
410,87,181065,2,0,P|476:69|557:104,1,129.499999505997
512,227,181365,2,0,P|448:227|394:195,1,129.499999505997
323,41,181665,1,0,0:0:0:0:
394,195,181815,2,0,B|406:265|406:265|346:280|346:280|297:317|297:317|235:264,1,258.999999011993
146,100,182265,2,0,P|180:151|161:268,1,129.499999505997
117,341,182565,6,0,L|-27:323,1,129.499999505997
184,217,182865,2,0,L|312:200,1,129.499999505997
103,291,183165,2,0,P|75:217|97:149,1,129.499999505997
220,121,183465,2,0,P|246:62|238:0,1,129.499999505997
199,229,183765,2,0,P|262:223|313:183,1,129.499999505997
381,43,184065,1,0,0:0:0:0:
313,183,184215,6,0,P|311:251|383:170,1,258.999999011993
253,306,184665,1,0,0:0:0:0:
488,243,184815,1,0,0:0:0:0:
488,243,184890,1,0,0:0:0:0:
488,243,184965,1,0,0:0:0:0:
256,185,185115,1,0,0:0:0:0:
401,254,185265,1,0,0:0:0:0:
320,31,185415,1,0,0:0:0:0:
147,117,185565,6,0,L|154:246,1,129.499999505997
268,3,185865,2,0,P|205:1|150:33,1,129.499999505997
351,196,186165,2,0,L|343:325,1,129.499999505997
229,82,186466,2,0,P|292:80|347:112,1,129.499999505997
226,317,186765,5,0,0:0:0:0:
158,213,186915,1,0,0:0:0:0:
248,127,187065,1,0,0:0:0:0:
316,231,187215,1,0,0:0:0:0:
145,122,187365,5,0,0:0:0:0:
114,133,187440,1,0,0:0:0:0:
90,153,187515,1,0,0:0:0:0:
74,181,187590,1,0,0:0:0:0:
68,213,187665,1,0,0:0:0:0:
74,245,187740,1,0,0:0:0:0:
91,273,187815,1,0,0:0:0:0:
116,293,187890,1,0,0:0:0:0:
146,303,187965,6,0,P|228:319|298:296,1,129.499999505997
415,204,188265,1,0,0:0:0:0:
249,138,188415,6,0,P|184:144|128:175,1,129.499999505997
272,308,188715,1,0,0:0:0:0:
359,104,188865,1,0,0:0:0:0:
437,296,189015,6,0,B|458:344|458:344|492:135,1,258.999999011993
283,205,189465,1,0,0:0:0:0:
491,140,189615,1,0,0:0:0:0:
491,140,189690,1,0,0:0:0:0:
491,140,189765,1,0,0:0:0:0:
350,46,189915,1,0,0:0:0:0:
415,258,190065,1,0,0:0:0:0:
478,34,190215,1,0,0:0:0:0:
283,205,190365,6,0,P|223:227|162:210,1,129.499999505997
476,202,190665,1,0,0:0:0:0:
281,31,190815,6,0,P|148:33|113:158,1,258.999999011993
298,286,191265,1,0,0:0:0:0:
214,123,191415,6,0,B|230:214|230:214|214:286|214:286|235:385,1,258.999999011993
347,160,191865,1,0,0:0:0:0:
143,213,192015,1,0,0:0:0:0:
143,213,192090,1,0,0:0:0:0:
143,213,192165,1,0,0:0:0:0:
303,306,192315,1,0,0:0:0:0:
214,123,192465,1,0,0:0:0:0:
303,306,192615,1,0,0:0:0:0:
426,109,192765,6,0,P|350:66|295:82,1,129.499999505997
512,175,193065,1,0,0:0:0:0:
373,348,193215,6,0,P|435:239|422:95,1,258.999999011993
512,252,193665,1,0,0:0:0:0:
219,141,193815,6,0,P|316:158|214:244,1,258.999999011993
90,98,194265,1,0,0:0:0:0:
159,291,194415,1,0,0:0:0:0:
159,291,194490,1,0,0:0:0:0:
159,291,194565,1,0,0:0:0:0:
219,141,194715,1,0,0:0:0:0:
15,188,194865,1,0,0:0:0:0:
219,141,195015,1,0,0:0:0:0:
15,188,195165,6,0,L|29:340,1,129.499999505997
112,91,195465,1,0,0:0:0:0:
240,248,195615,6,0,B|308:305|366:261|357:261|427:224|484:274,1,258.999999011993
287,364,196065,1,0,0:0:0:0:
426,148,196215,6,0,B|478:91|478:91|483:274,1,258.999999011993
310,188,196665,1,0,0:0:0:0:
479,92,196815,1,0,0:0:0:0:
247,51,196965,1,0,0:0:0:0:
237,81,197040,1,0,0:0:0:0:
244,113,197115,1,0,0:0:0:0:
264,138,197190,1,0,0:0:0:0:
294,151,197265,6,0,P|344:88|347:-3,1,129.499999505997
181,28,197565,2,0,L|39:40,1,129.499999505997
85,238,197865,5,0,0:0:0:0:
181,28,198015,1,0,0:0:0:0:
287,232,198165,5,0,0:0:0:0:
90,119,198315,1,0,0:0:0:0:
300,69,198465,5,0,0:0:0:0:
352,294,198615,1,0,0:0:0:0:
145,278,198765,5,0,0:0:0:0:
370,147,198915,1,0,0:0:0:0:
191,83,199065,5,0,0:0:0:0:
246,326,199215,1,0,0:0:0:0:
389,160,199365,5,0,0:0:0:0:
166,182,199515,1,0,0:0:0:0:
351,335,199665,2,0,B|372:314|358:302|375:288|380:275|380:275|362:248|370:273|366:204,1,129.499999505997
153,272,199965,5,0,0:0:0:0:
450,234,200115,1,0,0:0:0:0:
334,43,200265,5,0,0:0:0:0:
305,286,200415,1,0,0:0:0:0:
101,82,200565,5,0,0:0:0:0:
428,121,200715,1,0,0:0:0:0:
284,301,200865,5,0,0:0:0:0:
214,53,201015,1,0,0:0:0:0:
161,324,201165,2,0,L|245:291,1,64.7499997529984
242,331,201315,2,0,L|302:354,1,64.7499997529984
290,310,201465,2,0,L|350:286,1,64.7499997529984
395,339,201615,2,0,L|455:362,1,64.7499997529984
457,183,201765,1,0,0:0:0:0:
214,225,201915,1,0,0:0:0:0:
201,235,201990,1,0,0:0:0:0:
189,245,202065,1,0,0:0:0:0:
176,237,202140,1,0,0:0:0:0:
164,248,202215,1,0,0:0:0:0:
92,76,202365,5,0,0:0:0:0:
276,248,202515,1,0,0:0:0:0:
420,84,202665,5,0,0:0:0:0:
346,312,202815,1,0,0:0:0:0:
232,133,202965,5,0,0:0:0:0:
490,142,203115,1,0,0:0:0:0:
330,28,203265,5,0,0:0:0:0:
316,310,203415,1,0,0:0:0:0:
121,259,203565,5,0,0:0:0:0:
386,171,203715,1,0,0:0:0:0:
118,146,203865,5,0,0:0:0:0:
391,259,204015,1,0,0:0:0:0:
208,79,204165,6,0,L|282:59,1,64.7499997529984
332,148,204315,2,0,L|267:154,1,64.7499997529984
140,29,204465,1,0,0:0:0:0:
372,46,204615,2,0,L|362:129,1,64.7499997529984
341,266,204765,6,0,P|276:268|234:212,1,129.499999505997
239,206,204990,1,0,0:0:0:0:
248,209,205065,1,0,0:0:0:0:
385,129,205215,6,0,B|461:120|461:120|486:106|519:109,1,129.499999505997
217,38,205515,6,0,L|195:122,1,64.7499997529984
143,211,205665,2,0,L|126:148,1,64.7499997529984
65,27,205815,1,0,0:0:0:0:
95,40,206115,1,0,0:0:0:0:
82,50,206415,5,0,0:0:0:0:
367,24,206565,1,0,0:0:0:0:
