osu file format v14

[General]
AudioFilename: audio.mp3
AudioLeadIn: 0
PreviewTime: 127577
Countdown: 0
SampleSet: Soft
StackLeniency: 0.7
Mode: 3
LetterboxInBreaks: 0
SpecialStyle: 0
WidescreenStoryboard: 0

[Editor]
Bookmarks: 176404
DistanceSpacing: 0.8
BeatDivisor: 4
GridSize: 4
TimelineZoom: 0.9999999

[Metadata]
Title:Love Rain (Cut Ver.)
TitleUnicode:사랑비 (Cut Ver.)
Artist:KIM TAE WOO
ArtistUnicode:김태우
Creator:JIHAKO
Version:Rainbow
Source:
Tags:Korean pop kpop k-pop Kakao Entertainment 카카오엔터테인먼트 Polaris Entertainment 폴라리스엔터테인먼트 T-VIRUS Mnet Asian Music Award for Best Ballad R&B Performance 2009 Mama
BeatmapID:3576261
BeatmapSetID:1748367

[Difficulty]
HPDrainRate:8
CircleSize:4
OverallDifficulty:8
ApproachRate:5
SliderMultiplier:1.4
SliderTickRate:1

[Events]
//Background and Video events
0,0,"rainnnn.png",0,0
//Break Periods
//Storyboard Layer 0 (Background)
//Storyboard Layer 1 (Fail)
//Storyboard Layer 2 (Pass)
//Storyboard Layer 3 (Foreground)
//Storyboard Layer 4 (Overlay)
//Storyboard Sound Samples

[TimingPoints]
273,521.739130434783,4,2,1,38,1,0
56620,-74.0740740740741,4,2,1,38,0,0
56750,-153.846153846153,4,2,1,38,0,0
56881,-74.0740740740741,4,2,1,38,0,0
57011,-153.846153846153,4,2,1,38,0,0
57142,-74.0740740740741,4,2,1,38,0,0
57272,-153.846153846153,4,2,1,38,0,0
57403,-74.0740740740741,4,2,1,38,0,0
57533,-153.846153846153,4,2,1,38,0,0
57663,-74.0740740740741,4,2,1,38,0,0
57793,-153.846153846153,4,2,1,38,0,0
57924,-100,4,2,1,38,0,0
58186,-166.666666666667,4,2,1,38,0,0
58316,-250.000000000001,4,2,1,38,0,0
58446,-111.111111111111,4,2,1,38,0,0
58577,-62.5,4,2,1,38,0,0
58707,-100,4,2,1,38,0,0
91773,-50,4,2,1,38,0,0
92099,-200,4,2,1,38,0,0
93664,-66.6666666666667,4,2,1,38,0,0
93925,-200,4,2,1,38,0,0
94186,-100,4,2,1,38,0,0
125490,-74.0740740740741,4,2,1,38,0,0
125620,-153.846153846153,4,2,1,38,0,0
125751,-100,4,2,1,38,0,0
126012,-74.0740740740741,4,2,1,38,0,0
126142,-153.846153846153,4,2,1,38,0,0
126273,-100,4,2,1,38,0,0
126533,-74.0740740740741,4,2,1,38,0,0
126663,-153.846153846153,4,2,1,38,0,0
126794,-100,4,2,1,38,0,0
127055,-74.0740740740741,4,2,1,38,0,0
127185,-153.846153846153,4,2,1,38,0,0
127316,-100,4,2,1,38,0,0
177403,-153.846153846153,4,2,1,38,0,0
179751,-125,4,2,1,38,0,0
181838,-133.333333333333,4,2,1,38,0,0
182099,-125,4,2,1,38,0,0
182359,-117.647058823529,4,2,1,38,0,0
182620,-111.111111111111,4,2,1,38,0,0
182881,-105.263157894737,4,2,1,38,0,0
183142,-80,4,2,1,38,0,0
183207,-133.333333333333,4,2,1,38,0,0
183273,-79.9999999999999,4,2,1,38,0,0
183338,-133.333333333334,4,2,1,38,0,0
183403,-80,4,2,1,38,0,0
183468,-133.333333333334,4,2,1,38,0,0
183533,-80,4,2,1,38,0,0
183599,-133.333333333333,4,2,1,38,0,0
183664,-100,4,2,1,38,0,0
183925,-166.666666666667,4,2,1,38,0,0
184055,-250.000000000001,4,2,1,38,0,0
184186,-111.111111111111,4,2,1,38,0,0
184316,-62.5,4,2,1,38,0,0
184446,-100,4,2,1,38,0,1
216794,-66.6666666666667,4,2,1,38,0,1
217055,-200,4,2,1,38,0,1
217316,-100,4,2,1,38,0,0

[HitObjects]
448,192,273,128,0,533:0:0:0:0:
192,192,533,128,0,794:0:0:0:0:
320,192,794,128,0,1055:0:0:0:0:
448,192,1055,128,0,1316:0:0:0:0:
64,192,1316,1,0,0:0:0:0:
320,192,1577,128,0,1838:0:0:0:0:
192,192,1838,128,0,2099:0:0:0:0:
64,192,2099,128,0,2359:0:0:0:0:
448,192,2359,1,0,0:0:0:0:
192,192,2620,128,0,2881:0:0:0:0:
320,192,2881,128,0,3142:0:0:0:0:
448,192,3142,128,0,3403:0:0:0:0:
64,192,3403,1,0,0:0:0:0:
320,192,3664,128,0,3925:0:0:0:0:
192,192,3925,128,0,4186:0:0:0:0:
64,192,4186,128,0,4446:0:0:0:0:
448,192,4446,1,0,0:0:0:0:
192,192,4707,128,0,4968:0:0:0:0:
320,192,4968,128,0,5229:0:0:0:0:
448,192,5229,128,0,5490:0:0:0:0:
64,192,5490,1,0,0:0:0:0:
320,192,5751,128,0,6012:0:0:0:0:
192,192,6012,128,0,6273:0:0:0:0:
64,192,6273,128,0,6533:0:0:0:0:
448,192,6533,1,0,0:0:0:0:
192,192,6794,128,0,7055:0:0:0:0:
320,192,7055,128,0,7316:0:0:0:0:
448,192,7316,128,0,7577:0:0:0:0:
192,192,7577,1,0,0:0:0:0:
320,192,7664,1,0,0:0:0:0:
448,192,7751,1,0,0:0:0:0:
64,192,7838,1,0,0:0:0:0:
192,192,7925,1,0,0:0:0:0:
320,192,8012,1,0,0:0:0:0:
448,192,8099,1,0,0:0:0:0:
64,192,8164,1,0,0:0:0:0:
192,192,8229,1,0,0:0:0:0:
320,192,8294,1,0,0:0:0:0:
448,192,8359,1,0,0:0:0:0:
64,192,8425,1,0,0:0:0:0:
192,192,8490,1,0,0:0:0:0:
320,192,8555,1,0,0:0:0:0:
448,192,8620,128,0,9664:0:0:0:0:
320,192,8881,1,0,0:0:0:0:
64,192,9142,1,0,0:0:0:0:
192,192,9403,1,0,0:0:0:0:
320,192,9664,128,0,10707:0:0:0:0:
192,192,9925,1,0,0:0:0:0:
64,192,10186,1,0,0:0:0:0:
448,192,10446,1,0,0:0:0:0:
192,192,10707,128,0,11751:0:0:0:0:
64,192,10968,1,0,0:0:0:0:
448,192,11229,1,0,0:0:0:0:
320,192,11490,1,0,0:0:0:0:
64,192,11751,128,0,12794:0:0:0:0:
320,192,12012,1,0,0:0:0:0:
448,192,12273,1,0,0:0:0:0:
192,192,12533,1,0,0:0:0:0:
448,192,12794,128,0,13838:0:0:0:0:
320,192,13055,1,0,0:0:0:0:
192,192,13316,1,0,0:0:0:0:
64,192,13577,1,0,0:0:0:0:
320,192,13838,128,0,14881:0:0:0:0:
64,192,14099,1,0,0:0:0:0:
192,192,14359,1,0,0:0:0:0:
448,192,14620,1,0,0:0:0:0:
192,192,14881,128,0,15925:0:0:0:0:
64,192,15142,1,0,0:0:0:0:
320,192,15403,1,0,0:0:0:0:
448,192,15664,1,0,0:0:0:0:
64,192,15925,128,0,16968:0:0:0:0:
448,192,16186,1,0,0:0:0:0:
320,192,16446,1,0,0:0:0:0:
192,192,16707,1,0,0:0:0:0:
448,192,16968,128,0,18012:0:0:0:0:
320,192,17229,1,0,0:0:0:0:
64,192,17490,1,0,0:0:0:0:
192,192,17751,1,0,0:0:0:0:
320,192,18012,128,0,19055:0:0:0:0:
192,192,18273,1,0,0:0:0:0:
64,192,18533,1,0,0:0:0:0:
448,192,18794,1,0,0:0:0:0:
192,192,19055,128,0,20099:0:0:0:0:
64,192,19316,1,0,0:0:0:0:
448,192,19577,1,0,0:0:0:0:
320,192,19838,1,0,0:0:0:0:
64,192,20099,128,0,21142:0:0:0:0:
320,192,20359,1,0,0:0:0:0:
448,192,20620,1,0,0:0:0:0:
320,192,20881,1,0,0:0:0:0:
192,192,21142,128,0,21403:0:0:0:0:
320,192,21403,128,0,21664:0:0:0:0:
448,192,21664,128,0,21925:0:0:0:0:
192,192,21925,128,0,22446:0:0:0:0:
448,192,22186,1,0,0:0:0:0:
320,192,22446,128,0,22707:0:0:0:0:
448,192,22707,128,0,22968:0:0:0:0:
192,192,22968,128,0,23490:0:0:0:0:
448,192,23229,1,0,0:0:0:0:
320,192,23490,128,0,23751:0:0:0:0:
448,192,23751,128,0,24012:0:0:0:0:
192,192,24012,128,0,24533:0:0:0:0:
320,192,24533,128,0,24794:0:0:0:0:
192,192,24794,128,0,25055:0:0:0:0:
64,192,24794,128,0,25316:0:0:0:0:
320,192,25055,1,0,0:0:0:0:
192,192,25186,1,0,0:0:0:0:
448,192,25316,128,0,25838:0:0:0:0:
192,192,25577,1,0,0:0:0:0:
320,192,25838,1,0,0:0:0:0:
64,192,25838,1,0,0:0:0:0:
448,192,26099,1,0,0:0:0:0:
320,192,26359,128,0,26881:0:0:0:0:
192,192,26620,1,0,0:0:0:0:
448,192,26881,1,0,0:0:0:0:
64,192,26881,1,0,0:0:0:0:
320,192,27142,1,0,0:0:0:0:
192,192,27403,128,0,27925:0:0:0:0:
320,192,27664,1,0,0:0:0:0:
64,192,27925,1,0,0:0:0:0:
448,192,27925,1,0,0:0:0:0:
192,192,28186,1,0,0:0:0:0:
64,192,28446,128,0,28968:0:0:0:0:
448,192,28707,1,0,0:0:0:0:
320,192,28968,1,0,0:0:0:0:
192,192,28968,1,0,0:0:0:0:
448,192,29229,1,0,0:0:0:0:
448,192,29490,128,0,30012:0:0:0:0:
64,192,29751,1,0,0:0:0:0:
320,192,30012,1,0,0:0:0:0:
192,192,30012,1,0,0:0:0:0:
448,192,30273,1,0,0:0:0:0:
320,192,30533,128,0,31055:0:0:0:0:
64,192,30794,1,0,0:0:0:0:
448,192,31055,1,0,0:0:0:0:
192,192,31055,1,0,0:0:0:0:
320,192,31316,1,0,0:0:0:0:
192,192,31577,128,0,32099:0:0:0:0:
448,192,31838,1,0,0:0:0:0:
64,192,32099,1,0,0:0:0:0:
320,192,32099,1,0,0:0:0:0:
192,192,32359,1,0,0:0:0:0:
64,192,32620,128,0,33142:0:0:0:0:
448,192,32881,1,0,0:0:0:0:
192,192,33142,128,0,33403:0:0:0:0:
320,192,33142,128,0,33664:0:0:0:0:
64,192,33403,1,0,0:0:0:0:
448,192,33664,128,0,34186:0:0:0:0:
192,192,33925,1,0,0:0:0:0:
320,192,34186,1,0,0:0:0:0:
64,192,34186,1,0,0:0:0:0:
448,192,34446,1,0,0:0:0:0:
320,192,34707,128,0,35229:0:0:0:0:
192,192,34968,1,0,0:0:0:0:
448,192,35229,1,0,0:0:0:0:
64,192,35229,1,0,0:0:0:0:
320,192,35490,1,0,0:0:0:0:
192,192,35751,128,0,36273:0:0:0:0:
320,192,36012,1,0,0:0:0:0:
64,192,36273,1,0,0:0:0:0:
320,192,36273,1,0,0:0:0:0:
320,192,36533,1,0,0:0:0:0:
320,192,36794,128,0,37316:0:0:0:0:
192,192,37055,1,0,0:0:0:0:
448,192,37316,1,0,0:0:0:0:
64,192,37316,1,0,0:0:0:0:
320,192,37577,1,0,0:0:0:0:
192,192,37838,128,0,38099:0:0:0:0:
320,192,38099,128,0,38359:0:0:0:0:
448,192,38359,128,0,38620:0:0:0:0:
64,192,38359,1,0,0:0:0:0:
192,192,38620,128,0,39142:0:0:0:0:
320,192,39142,128,0,39403:0:0:0:0:
448,192,39403,128,0,39664:0:0:0:0:
64,192,39403,1,0,0:0:0:0:
192,192,39664,128,0,40186:0:0:0:0:
320,192,40186,128,0,40446:0:0:0:0:
448,192,40446,128,0,40707:0:0:0:0:
64,192,40446,1,0,0:0:0:0:
192,192,40707,128,0,41490:0:0:0:0:
320,192,40968,1,0,0:0:0:0:
320,192,41229,1,0,0:0:0:0:
448,192,41490,1,0,0:0:0:0:
64,192,41490,1,0,0:0:0:0:
320,192,41751,1,0,0:0:0:0:
192,192,41881,1,0,0:0:0:0:
448,192,42012,128,0,43055:0:0:0:0:
64,192,42012,1,0,0:0:0:0:
192,192,42273,1,0,0:0:0:0:
320,192,42533,1,0,0:0:0:0:
64,192,42533,1,0,0:0:0:0:
192,192,42794,1,0,0:0:0:0:
320,192,43055,128,0,44099:0:0:0:0:
64,192,43055,1,0,0:0:0:0:
64,192,43316,1,0,0:0:0:0:
448,192,43577,1,0,0:0:0:0:
64,192,43577,1,0,0:0:0:0:
64,192,43838,1,0,0:0:0:0:
448,192,44099,1,0,0:0:0:0:
192,192,44099,128,0,45142:0:0:0:0:
320,192,44359,1,0,0:0:0:0:
320,192,44620,1,0,0:0:0:0:
64,192,44620,1,0,0:0:0:0:
448,192,44881,1,0,0:0:0:0:
320,192,45142,1,0,0:0:0:0:
64,192,45142,128,0,46186:0:0:0:0:
320,192,45403,1,0,0:0:0:0:
448,192,45664,1,0,0:0:0:0:
320,192,45664,1,0,0:0:0:0:
320,192,45925,1,0,0:0:0:0:
192,192,46186,1,0,0:0:0:0:
448,192,46186,128,0,47229:0:0:0:0:
64,192,46446,1,0,0:0:0:0:
320,192,46707,1,0,0:0:0:0:
192,192,46707,1,0,0:0:0:0:
64,192,46968,1,0,0:0:0:0:
192,192,47229,1,0,0:0:0:0:
320,192,47229,128,0,48273:0:0:0:0:
192,192,47490,1,0,0:0:0:0:
64,192,47751,1,0,0:0:0:0:
192,192,47751,1,0,0:0:0:0:
192,192,48012,1,0,0:0:0:0:
64,192,48273,128,0,49316:0:0:0:0:
448,192,48273,1,0,0:0:0:0:
320,192,48533,1,0,0:0:0:0:
192,192,48794,1,0,0:0:0:0:
320,192,48794,1,0,0:0:0:0:
448,192,49055,1,0,0:0:0:0:
192,192,49316,128,0,49838:0:0:0:0:
320,192,49316,1,0,0:0:0:0:
320,192,49577,1,0,0:0:0:0:
320,192,49838,1,0,0:0:0:0:
64,192,49838,1,0,0:0:0:0:
448,192,50099,128,0,50620:0:0:0:0:
64,192,50359,1,0,0:0:0:0:
192,192,50359,1,0,0:0:0:0:
320,192,50620,128,0,51664:0:0:0:0:
448,192,50881,1,0,0:0:0:0:
64,192,50881,1,0,0:0:0:0:
192,192,51142,1,0,0:0:0:0:
448,192,51403,1,0,0:0:0:0:
64,192,51403,1,0,0:0:0:0:
192,192,51664,1,0,0:0:0:0:
320,192,51925,1,0,0:0:0:0:
64,192,51925,1,0,0:0:0:0:
448,192,52186,1,0,0:0:0:0:
192,192,52446,1,0,0:0:0:0:
320,192,52446,1,0,0:0:0:0:
192,192,52707,1,0,0:0:0:0:
448,192,52968,1,0,0:0:0:0:
192,192,52968,1,0,0:0:0:0:
192,192,53229,1,0,0:0:0:0:
64,192,53490,1,0,0:0:0:0:
320,192,53490,1,0,0:0:0:0:
320,192,53751,1,0,0:0:0:0:
320,192,54012,1,0,0:0:0:0:
192,192,54012,1,0,0:0:0:0:
320,192,54273,1,0,0:0:0:0:
64,192,54533,1,0,0:0:0:0:
192,192,54533,128,0,54794:0:0:0:0:
320,192,54794,128,0,55055:0:0:0:0:
448,192,55055,128,0,55316:0:0:0:0:
64,192,55055,1,0,0:0:0:0:
192,192,55316,128,0,55838:0:0:0:0:
448,192,55577,1,0,0:0:0:0:
64,192,55577,1,0,0:0:0:0:
320,192,55838,128,0,56099:0:0:0:0:
64,192,56099,1,0,0:0:0:0:
448,192,56099,128,0,56359:0:0:0:0:
192,192,56359,128,0,56620:0:0:0:0:
448,192,56620,1,0,0:0:0:0:
64,192,56620,1,0,0:0:0:0:
192,192,56881,1,0,0:0:0:0:
320,192,56881,1,0,0:0:0:0:
192,192,57142,1,0,0:0:0:0:
448,192,57142,1,0,0:0:0:0:
320,192,57403,1,0,0:0:0:0:
64,192,57403,1,0,0:0:0:0:
320,192,57664,1,0,0:0:0:0:
192,192,57664,1,0,0:0:0:0:
64,192,57925,1,0,0:0:0:0:
448,192,57925,1,0,0:0:0:0:
320,192,58055,1,0,0:0:0:0:
192,192,58186,1,0,0:0:0:0:
448,192,58186,1,0,0:0:0:0:
448,192,58707,1,0,0:0:0:0:
320,192,58707,1,0,0:0:0:0:
64,192,58707,1,0,0:0:0:0:
192,192,58968,1,0,0:0:0:0:
320,192,59229,1,0,0:0:0:0:
448,192,59229,1,0,0:0:0:0:
192,192,59490,1,0,0:0:0:0:
448,192,59751,1,0,0:0:0:0:
64,192,59751,1,0,0:0:0:0:
448,192,60012,1,0,0:0:0:0:
448,192,60273,1,0,0:0:0:0:
64,192,60273,1,0,0:0:0:0:
448,192,60533,1,0,0:0:0:0:
192,192,60794,1,0,0:0:0:0:
64,192,60794,1,0,0:0:0:0:
448,192,61055,1,0,0:0:0:0:
320,192,61186,1,0,0:0:0:0:
192,192,61316,1,0,0:0:0:0:
64,192,61316,1,0,0:0:0:0:
320,192,61577,1,0,0:0:0:0:
448,192,61838,1,0,0:0:0:0:
64,192,61838,1,0,0:0:0:0:
64,192,62099,1,0,0:0:0:0:
192,192,62229,1,0,0:0:0:0:
320,192,62359,1,0,0:0:0:0:
448,192,62359,1,0,0:0:0:0:
192,192,62620,1,0,0:0:0:0:
448,192,62881,1,0,0:0:0:0:
64,192,62881,1,0,0:0:0:0:
320,192,63142,1,0,0:0:0:0:
192,192,63273,1,0,0:0:0:0:
448,192,63403,1,0,0:0:0:0:
64,192,63403,1,0,0:0:0:0:
448,192,63664,128,0,64186:0:0:0:0:
64,192,63925,1,0,0:0:0:0:
192,192,63925,1,0,0:0:0:0:
320,192,64186,128,0,64707:0:0:0:0:
448,192,64446,1,0,0:0:0:0:
64,192,64446,1,0,0:0:0:0:
192,192,64707,128,0,65229:0:0:0:0:
64,192,64968,1,0,0:0:0:0:
320,192,64968,1,0,0:0:0:0:
448,192,65229,1,0,0:0:0:0:
320,192,65359,1,0,0:0:0:0:
64,192,65490,1,0,0:0:0:0:
192,192,65490,1,0,0:0:0:0:
448,192,65620,1,0,0:0:0:0:
192,192,65751,1,0,0:0:0:0:
320,192,65881,1,0,0:0:0:0:
448,192,66012,1,0,0:0:0:0:
64,192,66012,1,0,0:0:0:0:
192,192,66142,1,0,0:0:0:0:
320,192,66273,1,0,0:0:0:0:
192,192,66403,1,0,0:0:0:0:
448,192,66533,1,0,0:0:0:0:
64,192,66533,1,0,0:0:0:0:
320,192,66794,128,0,67055:0:0:0:0:
192,192,67055,1,0,0:0:0:0:
448,192,67055,1,0,0:0:0:0:
320,192,67316,1,0,0:0:0:0:
64,192,67446,1,0,0:0:0:0:
448,192,67577,1,0,0:0:0:0:
192,192,67577,1,0,0:0:0:0:
192,192,67838,128,0,68359:0:0:0:0:
448,192,68099,1,0,0:0:0:0:
64,192,68099,1,0,0:0:0:0:
320,192,68359,128,0,68881:0:0:0:0:
64,192,68620,1,0,0:0:0:0:
192,192,68620,1,0,0:0:0:0:
448,192,68881,128,0,69403:0:0:0:0:
64,192,69142,1,0,0:0:0:0:
320,192,69142,1,0,0:0:0:0:
192,192,69403,1,0,0:0:0:0:
320,192,69533,1,0,0:0:0:0:
448,192,69664,1,0,0:0:0:0:
64,192,69664,1,0,0:0:0:0:
320,192,69925,1,0,0:0:0:0:
192,192,70186,1,0,0:0:0:0:
448,192,70186,1,0,0:0:0:0:
448,192,70446,1,0,0:0:0:0:
192,192,70707,1,0,0:0:0:0:
448,192,70707,1,0,0:0:0:0:
448,192,70968,1,0,0:0:0:0:
192,192,71229,128,0,71490:0:0:0:0:
64,192,71229,1,0,0:0:0:0:
448,192,71490,1,0,0:0:0:0:
320,192,71620,1,0,0:0:0:0:
64,192,71751,1,0,0:0:0:0:
192,192,71751,1,0,0:0:0:0:
64,192,72012,1,0,0:0:0:0:
192,192,72273,1,0,0:0:0:0:
448,192,72273,1,0,0:0:0:0:
192,192,72533,1,0,0:0:0:0:
192,192,72794,1,0,0:0:0:0:
448,192,72794,1,0,0:0:0:0:
192,192,73055,1,0,0:0:0:0:
448,192,73316,1,0,0:0:0:0:
320,192,73316,1,0,0:0:0:0:
192,192,73577,1,0,0:0:0:0:
448,192,73707,1,0,0:0:0:0:
64,192,73838,1,0,0:0:0:0:
320,192,73838,1,0,0:0:0:0:
192,192,73968,1,0,0:0:0:0:
320,192,74099,128,0,74359:0:0:0:0:
64,192,74359,1,0,0:0:0:0:
448,192,74359,1,0,0:0:0:0:
192,192,74620,1,0,0:0:0:0:
320,192,74751,1,0,0:0:0:0:
192,192,74881,1,0,0:0:0:0:
448,192,74881,1,0,0:0:0:0:
64,192,75012,1,0,0:0:0:0:
320,192,75142,128,0,75403:0:0:0:0:
448,192,75403,1,0,0:0:0:0:
64,192,75403,1,0,0:0:0:0:
192,192,75403,1,0,0:0:0:0:
320,192,75664,1,0,0:0:0:0:
192,192,75925,1,0,0:0:0:0:
64,192,75925,1,0,0:0:0:0:
320,192,76186,1,0,0:0:0:0:
64,192,76446,1,0,0:0:0:0:
448,192,76446,1,0,0:0:0:0:
64,192,76707,1,0,0:0:0:0:
64,192,76968,1,0,0:0:0:0:
448,192,76968,1,0,0:0:0:0:
64,192,77229,1,0,0:0:0:0:
320,192,77490,1,0,0:0:0:0:
448,192,77490,1,0,0:0:0:0:
64,192,77751,1,0,0:0:0:0:
192,192,77881,1,0,0:0:0:0:
320,192,78012,1,0,0:0:0:0:
448,192,78012,1,0,0:0:0:0:
192,192,78273,1,0,0:0:0:0:
64,192,78533,1,0,0:0:0:0:
448,192,78533,1,0,0:0:0:0:
448,192,78794,1,0,0:0:0:0:
320,192,78925,1,0,0:0:0:0:
64,192,79055,1,0,0:0:0:0:
192,192,79055,1,0,0:0:0:0:
320,192,79316,1,0,0:0:0:0:
448,192,79577,1,0,0:0:0:0:
64,192,79577,1,0,0:0:0:0:
192,192,79838,1,0,0:0:0:0:
320,192,79968,1,0,0:0:0:0:
448,192,80099,1,0,0:0:0:0:
64,192,80099,1,0,0:0:0:0:
64,192,80359,128,0,80881:0:0:0:0:
448,192,80620,1,0,0:0:0:0:
320,192,80620,1,0,0:0:0:0:
192,192,80881,128,0,81403:0:0:0:0:
448,192,81142,1,0,0:0:0:0:
64,192,81142,1,0,0:0:0:0:
320,192,81403,128,0,81925:0:0:0:0:
64,192,81664,1,0,0:0:0:0:
192,192,81664,1,0,0:0:0:0:
448,192,81925,1,0,0:0:0:0:
192,192,82055,1,0,0:0:0:0:
320,192,82186,1,0,0:0:0:0:
64,192,82186,1,0,0:0:0:0:
192,192,82446,1,0,0:0:0:0:
448,192,82707,1,0,0:0:0:0:
320,192,82707,1,0,0:0:0:0:
64,192,82968,1,0,0:0:0:0:
320,192,83229,1,0,0:0:0:0:
192,192,83229,1,0,0:0:0:0:
320,192,83490,1,0,0:0:0:0:
192,192,83751,128,0,84012:0:0:0:0:
64,192,83751,1,0,0:0:0:0:
448,192,84012,1,0,0:0:0:0:
320,192,84142,1,0,0:0:0:0:
64,192,84273,1,0,0:0:0:0:
192,192,84273,1,0,0:0:0:0:
64,192,84533,128,0,84794:0:0:0:0:
320,192,84794,1,0,0:0:0:0:
448,192,84794,1,0,0:0:0:0:
192,192,85055,1,0,0:0:0:0:
320,192,85316,1,0,0:0:0:0:
64,192,85316,1,0,0:0:0:0:
320,192,85577,1,0,0:0:0:0:
448,192,85838,128,0,86099:0:0:0:0:
64,192,85838,1,0,0:0:0:0:
192,192,86099,1,0,0:0:0:0:
320,192,86229,1,0,0:0:0:0:
448,192,86359,1,0,0:0:0:0:
64,192,86359,1,0,0:0:0:0:
64,192,86620,128,0,86881:0:0:0:0:
448,192,86881,1,0,0:0:0:0:
320,192,86881,1,0,0:0:0:0:
192,192,87142,1,0,0:0:0:0:
320,192,87403,1,0,0:0:0:0:
64,192,87403,1,0,0:0:0:0:
448,192,87664,128,0,87925:0:0:0:0:
192,192,87925,1,0,0:0:0:0:
320,192,87925,1,0,0:0:0:0:
64,192,88055,1,0,0:0:0:0:
320,192,88186,1,0,0:0:0:0:
192,192,88316,1,0,0:0:0:0:
448,192,88446,1,0,0:0:0:0:
320,192,88446,1,0,0:0:0:0:
64,192,88577,1,0,0:0:0:0:
320,192,88707,1,0,0:0:0:0:
192,192,88838,1,0,0:0:0:0:
64,192,88968,1,0,0:0:0:0:
448,192,88968,1,0,0:0:0:0:
320,192,89229,1,0,0:0:0:0:
64,192,89229,1,0,0:0:0:0:
448,192,89490,1,0,0:0:0:0:
192,192,89490,1,0,0:0:0:0:
448,192,89751,1,0,0:0:0:0:
64,192,89751,1,0,0:0:0:0:
320,192,90012,1,0,0:0:0:0:
64,192,90012,1,0,0:0:0:0:
192,192,90142,1,0,0:0:0:0:
320,192,90273,1,0,0:0:0:0:
64,192,90403,1,0,0:0:0:0:
320,192,90533,1,0,0:0:0:0:
448,192,90533,1,0,0:0:0:0:
192,192,90664,1,0,0:0:0:0:
320,192,90794,1,0,0:0:0:0:
192,192,90925,1,0,0:0:0:0:
64,192,91055,1,0,0:0:0:0:
448,192,91055,1,0,0:0:0:0:
64,192,91316,1,0,0:0:0:0:
448,192,91316,1,0,0:0:0:0:
64,192,91577,1,0,0:0:0:0:
448,192,91577,1,0,0:0:0:0:
320,192,93664,128,0,94186:0:0:0:0:
448,192,94186,1,0,0:0:0:0:
192,192,94186,1,0,0:0:0:0:
64,192,94186,1,0,0:0:0:0:
192,192,94446,1,0,0:0:0:0:
448,192,94707,1,0,0:0:0:0:
192,192,94707,1,0,0:0:0:0:
192,192,94968,1,0,0:0:0:0:
320,192,95229,1,0,0:0:0:0:
64,192,95229,1,0,0:0:0:0:
320,192,95490,1,0,0:0:0:0:
192,192,95751,1,0,0:0:0:0:
320,192,95751,1,0,0:0:0:0:
320,192,96012,128,0,96273:0:0:0:0:
64,192,96273,1,0,0:0:0:0:
192,192,96273,1,0,0:0:0:0:
320,192,96533,1,0,0:0:0:0:
192,192,96794,1,0,0:0:0:0:
448,192,96794,1,0,0:0:0:0:
192,192,97055,1,0,0:0:0:0:
320,192,97316,1,0,0:0:0:0:
64,192,97316,1,0,0:0:0:0:
320,192,97577,1,0,0:0:0:0:
448,192,97838,1,0,0:0:0:0:
192,192,97838,1,0,0:0:0:0:
448,192,98099,128,0,98359:0:0:0:0:
64,192,98359,1,0,0:0:0:0:
192,192,98359,1,0,0:0:0:0:
320,192,98620,1,0,0:0:0:0:
448,192,98881,1,0,0:0:0:0:
64,192,98881,1,0,0:0:0:0:
448,192,99142,1,0,0:0:0:0:
192,192,99403,1,0,0:0:0:0:
320,192,99403,1,0,0:0:0:0:
192,192,99664,1,0,0:0:0:0:
448,192,99925,1,0,0:0:0:0:
64,192,99925,1,0,0:0:0:0:
64,192,100186,128,0,100446:0:0:0:0:
320,192,100446,1,0,0:0:0:0:
448,192,100446,1,0,0:0:0:0:
192,192,100707,1,0,0:0:0:0:
320,192,100968,1,0,0:0:0:0:
64,192,100968,1,0,0:0:0:0:
320,192,101229,1,0,0:0:0:0:
448,192,101490,1,0,0:0:0:0:
192,192,101490,1,0,0:0:0:0:
192,192,101751,1,0,0:0:0:0:
320,192,102012,128,0,102273:0:0:0:0:
64,192,102012,128,0,102533:0:0:0:0:
192,192,102273,1,0,0:0:0:0:
320,192,102533,1,0,0:0:0:0:
448,192,102533,1,0,0:0:0:0:
192,192,102794,1,0,0:0:0:0:
64,192,103055,1,0,0:0:0:0:
448,192,103055,1,0,0:0:0:0:
320,192,103316,1,0,0:0:0:0:
192,192,103577,1,0,0:0:0:0:
448,192,103577,1,0,0:0:0:0:
320,192,103838,1,0,0:0:0:0:
64,192,104099,1,0,0:0:0:0:
192,192,104099,1,0,0:0:0:0:
448,192,104359,1,0,0:0:0:0:
320,192,104620,1,0,0:0:0:0:
192,192,104620,1,0,0:0:0:0:
192,192,104881,1,0,0:0:0:0:
448,192,105142,1,0,0:0:0:0:
192,192,105142,1,0,0:0:0:0:
192,192,105403,1,0,0:0:0:0:
64,192,105664,1,0,0:0:0:0:
320,192,105664,1,0,0:0:0:0:
320,192,105925,1,0,0:0:0:0:
320,192,106186,1,0,0:0:0:0:
192,192,106186,1,0,0:0:0:0:
320,192,106446,1,0,0:0:0:0:
448,192,106707,1,0,0:0:0:0:
192,192,106707,1,0,0:0:0:0:
320,192,106968,1,0,0:0:0:0:
64,192,107229,1,0,0:0:0:0:
448,192,107229,1,0,0:0:0:0:
192,192,107490,128,0,107751:0:0:0:0:
64,192,107751,1,0,0:0:0:0:
320,192,107751,1,0,0:0:0:0:
192,192,108012,1,0,0:0:0:0:
448,192,108273,1,0,0:0:0:0:
320,192,108273,1,0,0:0:0:0:
64,192,108533,128,0,108794:0:0:0:0:
448,192,108794,1,0,0:0:0:0:
320,192,108794,128,0,108925:0:0:0:0:
192,192,108925,128,0,109055:0:0:0:0:
64,192,109055,128,0,109186:0:0:0:0:
320,192,109186,128,0,109316:0:0:0:0:
192,192,109316,1,0,0:0:0:0:
448,192,109316,1,0,0:0:0:0:
64,192,109403,1,0,0:0:0:0:
320,192,109490,1,0,0:0:0:0:
192,192,109577,1,0,0:0:0:0:
448,192,109664,1,0,0:0:0:0:
320,192,109751,1,0,0:0:0:0:
192,192,109838,1,0,0:0:0:0:
64,192,109925,1,0,0:0:0:0:
320,192,110012,1,0,0:0:0:0:
448,192,110099,1,0,0:0:0:0:
192,192,110186,1,0,0:0:0:0:
320,192,110273,1,0,0:0:0:0:
64,192,110359,1,0,0:0:0:0:
448,192,110359,1,0,0:0:0:0:
192,192,110446,1,0,0:0:0:0:
320,192,110533,1,0,0:0:0:0:
64,192,110620,1,0,0:0:0:0:
192,192,110707,1,0,0:0:0:0:
320,192,110794,1,0,0:0:0:0:
448,192,110881,128,0,111925:0:0:0:0:
64,192,110881,1,0,0:0:0:0:
192,192,111142,1,0,0:0:0:0:
320,192,111403,1,0,0:0:0:0:
64,192,111403,1,0,0:0:0:0:
192,192,111664,1,0,0:0:0:0:
320,192,111925,128,0,112968:0:0:0:0:
64,192,111925,1,0,0:0:0:0:
64,192,112186,1,0,0:0:0:0:
448,192,112446,1,0,0:0:0:0:
64,192,112446,1,0,0:0:0:0:
64,192,112707,1,0,0:0:0:0:
448,192,112968,1,0,0:0:0:0:
192,192,112968,128,0,114012:0:0:0:0:
320,192,113229,1,0,0:0:0:0:
64,192,113490,1,0,0:0:0:0:
320,192,113490,1,0,0:0:0:0:
448,192,113751,1,0,0:0:0:0:
320,192,114012,1,0,0:0:0:0:
64,192,114012,128,0,115055:0:0:0:0:
320,192,114273,1,0,0:0:0:0:
448,192,114533,1,0,0:0:0:0:
320,192,114533,1,0,0:0:0:0:
320,192,114794,1,0,0:0:0:0:
192,192,115055,1,0,0:0:0:0:
448,192,115055,128,0,116099:0:0:0:0:
64,192,115316,1,0,0:0:0:0:
192,192,115577,1,0,0:0:0:0:
320,192,115577,1,0,0:0:0:0:
64,192,115838,1,0,0:0:0:0:
192,192,116099,1,0,0:0:0:0:
320,192,116099,128,0,117142:0:0:0:0:
192,192,116359,1,0,0:0:0:0:
64,192,116620,1,0,0:0:0:0:
192,192,116620,1,0,0:0:0:0:
192,192,116881,1,0,0:0:0:0:
64,192,117142,128,0,118186:0:0:0:0:
448,192,117142,1,0,0:0:0:0:
320,192,117403,1,0,0:0:0:0:
192,192,117664,1,0,0:0:0:0:
320,192,117664,1,0,0:0:0:0:
448,192,117925,1,0,0:0:0:0:
192,192,118186,128,0,118707:0:0:0:0:
320,192,118186,1,0,0:0:0:0:
320,192,118446,1,0,0:0:0:0:
64,192,118707,1,0,0:0:0:0:
320,192,118707,1,0,0:0:0:0:
448,192,118968,128,0,119490:0:0:0:0:
192,192,119229,1,0,0:0:0:0:
64,192,119229,1,0,0:0:0:0:
320,192,119490,128,0,120533:0:0:0:0:
448,192,119751,1,0,0:0:0:0:
64,192,119751,1,0,0:0:0:0:
192,192,120012,1,0,0:0:0:0:
448,192,120273,1,0,0:0:0:0:
64,192,120273,1,0,0:0:0:0:
192,192,120533,1,0,0:0:0:0:
320,192,120794,1,0,0:0:0:0:
448,192,120794,1,0,0:0:0:0:
64,192,121055,1,0,0:0:0:0:
320,192,121316,1,0,0:0:0:0:
192,192,121316,1,0,0:0:0:0:
192,192,121577,1,0,0:0:0:0:
192,192,121838,1,0,0:0:0:0:
448,192,121838,1,0,0:0:0:0:
192,192,122099,1,0,0:0:0:0:
64,192,122359,1,0,0:0:0:0:
320,192,122359,1,0,0:0:0:0:
320,192,122620,1,0,0:0:0:0:
192,192,122881,1,0,0:0:0:0:
320,192,122881,1,0,0:0:0:0:
320,192,123142,1,0,0:0:0:0:
64,192,123403,1,0,0:0:0:0:
192,192,123403,128,0,123664:0:0:0:0:
320,192,123664,128,0,123925:0:0:0:0:
64,192,123925,1,0,0:0:0:0:
448,192,123925,128,0,124186:0:0:0:0:
192,192,124186,128,0,124707:0:0:0:0:
448,192,124446,1,0,0:0:0:0:
64,192,124446,1,0,0:0:0:0:
320,192,124707,128,0,124968:0:0:0:0:
64,192,124968,1,0,0:0:0:0:
448,192,124968,128,0,125229:0:0:0:0:
192,192,125229,128,0,125490:0:0:0:0:
448,192,125490,1,0,0:0:0:0:
64,192,125490,1,0,0:0:0:0:
320,192,125751,1,0,0:0:0:0:
64,192,125881,1,0,0:0:0:0:
448,192,126012,1,0,0:0:0:0:
320,192,126012,1,0,0:0:0:0:
192,192,126273,1,0,0:0:0:0:
448,192,126403,1,0,0:0:0:0:
64,192,126533,1,0,0:0:0:0:
192,192,126533,1,0,0:0:0:0:
320,192,126794,1,0,0:0:0:0:
192,192,126925,1,0,0:0:0:0:
320,192,127055,1,0,0:0:0:0:
448,192,127055,1,0,0:0:0:0:
192,192,127316,1,0,0:0:0:0:
320,192,127446,1,0,0:0:0:0:
448,192,127577,1,0,0:0:0:0:
192,192,127577,1,0,0:0:0:0:
64,192,127577,1,0,0:0:0:0:
320,192,127838,1,0,0:0:0:0:
192,192,128099,1,0,0:0:0:0:
448,192,128099,1,0,0:0:0:0:
320,192,128359,1,0,0:0:0:0:
64,192,128620,1,0,0:0:0:0:
448,192,128620,1,0,0:0:0:0:
64,192,128881,1,0,0:0:0:0:
64,192,129142,1,0,0:0:0:0:
448,192,129142,1,0,0:0:0:0:
64,192,129403,1,0,0:0:0:0:
320,192,129664,1,0,0:0:0:0:
448,192,129664,1,0,0:0:0:0:
64,192,129925,1,0,0:0:0:0:
192,192,130055,1,0,0:0:0:0:
320,192,130186,1,0,0:0:0:0:
448,192,130186,1,0,0:0:0:0:
192,192,130446,1,0,0:0:0:0:
64,192,130707,1,0,0:0:0:0:
448,192,130707,1,0,0:0:0:0:
448,192,130968,1,0,0:0:0:0:
320,192,131099,1,0,0:0:0:0:
64,192,131229,1,0,0:0:0:0:
192,192,131229,1,0,0:0:0:0:
320,192,131490,1,0,0:0:0:0:
192,192,131751,1,0,0:0:0:0:
448,192,131751,1,0,0:0:0:0:
320,192,132012,1,0,0:0:0:0:
64,192,132142,1,0,0:0:0:0:
192,192,132273,1,0,0:0:0:0:
448,192,132273,1,0,0:0:0:0:
192,192,132533,128,0,133055:0:0:0:0:
448,192,132794,1,0,0:0:0:0:
64,192,132794,1,0,0:0:0:0:
320,192,133055,128,0,133577:0:0:0:0:
64,192,133316,1,0,0:0:0:0:
192,192,133316,1,0,0:0:0:0:
448,192,133577,128,0,134099:0:0:0:0:
192,192,133838,1,0,0:0:0:0:
320,192,133838,1,0,0:0:0:0:
64,192,134099,1,0,0:0:0:0:
192,192,134229,1,0,0:0:0:0:
320,192,134359,1,0,0:0:0:0:
448,192,134359,1,0,0:0:0:0:
64,192,134490,1,0,0:0:0:0:
320,192,134620,1,0,0:0:0:0:
192,192,134751,1,0,0:0:0:0:
64,192,134881,1,0,0:0:0:0:
448,192,134881,1,0,0:0:0:0:
320,192,135012,1,0,0:0:0:0:
192,192,135142,1,0,0:0:0:0:
320,192,135273,1,0,0:0:0:0:
64,192,135403,1,0,0:0:0:0:
448,192,135403,1,0,0:0:0:0:
192,192,135664,128,0,135925:0:0:0:0:
320,192,135925,1,0,0:0:0:0:
448,192,135925,1,0,0:0:0:0:
64,192,136186,1,0,0:0:0:0:
192,192,136316,1,0,0:0:0:0:
320,192,136446,1,0,0:0:0:0:
448,192,136446,1,0,0:0:0:0:
448,192,136707,128,0,137229:0:0:0:0:
64,192,136968,1,0,0:0:0:0:
192,192,136968,1,0,0:0:0:0:
320,192,137229,128,0,137751:0:0:0:0:
448,192,137490,1,0,0:0:0:0:
64,192,137490,1,0,0:0:0:0:
192,192,137751,128,0,138273:0:0:0:0:
64,192,138012,1,0,0:0:0:0:
320,192,138012,1,0,0:0:0:0:
448,192,138273,1,0,0:0:0:0:
320,192,138403,1,0,0:0:0:0:
192,192,138533,1,0,0:0:0:0:
64,192,138533,1,0,0:0:0:0:
320,192,138794,1,0,0:0:0:0:
448,192,139055,1,0,0:0:0:0:
192,192,139055,1,0,0:0:0:0:
448,192,139316,1,0,0:0:0:0:
448,192,139577,1,0,0:0:0:0:
192,192,139577,1,0,0:0:0:0:
448,192,139838,1,0,0:0:0:0:
192,192,140099,128,0,140359:0:0:0:0:
64,192,140099,1,0,0:0:0:0:
448,192,140359,1,0,0:0:0:0:
320,192,140490,1,0,0:0:0:0:
64,192,140620,1,0,0:0:0:0:
192,192,140620,1,0,0:0:0:0:
64,192,140881,1,0,0:0:0:0:
320,192,141142,1,0,0:0:0:0:
192,192,141142,1,0,0:0:0:0:
192,192,141403,1,0,0:0:0:0:
320,192,141664,1,0,0:0:0:0:
192,192,141664,1,0,0:0:0:0:
192,192,141925,1,0,0:0:0:0:
64,192,142186,1,0,0:0:0:0:
448,192,142186,1,0,0:0:0:0:
320,192,142446,1,0,0:0:0:0:
64,192,142577,1,0,0:0:0:0:
448,192,142707,1,0,0:0:0:0:
320,192,142707,1,0,0:0:0:0:
192,192,142838,1,0,0:0:0:0:
320,192,142968,128,0,143229:0:0:0:0:
448,192,143229,1,0,0:0:0:0:
64,192,143229,1,0,0:0:0:0:
192,192,143490,1,0,0:0:0:0:
320,192,143620,1,0,0:0:0:0:
64,192,143751,1,0,0:0:0:0:
192,192,143751,1,0,0:0:0:0:
448,192,143881,1,0,0:0:0:0:
192,192,144012,128,0,144273:0:0:0:0:
320,192,144273,1,0,0:0:0:0:
64,192,144273,1,0,0:0:0:0:
448,192,144273,1,0,0:0:0:0:
192,192,144533,1,0,0:0:0:0:
320,192,144794,1,0,0:0:0:0:
64,192,144794,1,0,0:0:0:0:
192,192,145055,1,0,0:0:0:0:
64,192,145316,1,0,0:0:0:0:
448,192,145316,1,0,0:0:0:0:
448,192,145577,1,0,0:0:0:0:
64,192,145838,1,0,0:0:0:0:
448,192,145838,1,0,0:0:0:0:
448,192,146099,1,0,0:0:0:0:
192,192,146359,1,0,0:0:0:0:
64,192,146359,1,0,0:0:0:0:
448,192,146620,1,0,0:0:0:0:
320,192,146751,1,0,0:0:0:0:
192,192,146881,1,0,0:0:0:0:
64,192,146881,1,0,0:0:0:0:
320,192,147142,1,0,0:0:0:0:
448,192,147403,1,0,0:0:0:0:
64,192,147403,1,0,0:0:0:0:
64,192,147664,1,0,0:0:0:0:
192,192,147794,1,0,0:0:0:0:
320,192,147925,1,0,0:0:0:0:
448,192,147925,1,0,0:0:0:0:
192,192,148186,1,0,0:0:0:0:
320,192,148446,1,0,0:0:0:0:
64,192,148446,1,0,0:0:0:0:
192,192,148707,1,0,0:0:0:0:
448,192,148838,1,0,0:0:0:0:
320,192,148968,1,0,0:0:0:0:
64,192,148968,1,0,0:0:0:0:
320,192,149229,128,0,149751:0:0:0:0:
448,192,149490,1,0,0:0:0:0:
64,192,149490,1,0,0:0:0:0:
192,192,149751,128,0,150273:0:0:0:0:
448,192,150012,1,0,0:0:0:0:
320,192,150012,1,0,0:0:0:0:
64,192,150273,128,0,150794:0:0:0:0:
448,192,150533,1,0,0:0:0:0:
192,192,150533,1,0,0:0:0:0:
320,192,150794,1,0,0:0:0:0:
192,192,150925,1,0,0:0:0:0:
448,192,151055,1,0,0:0:0:0:
64,192,151055,1,0,0:0:0:0:
320,192,151316,1,0,0:0:0:0:
64,192,151577,1,0,0:0:0:0:
192,192,151577,1,0,0:0:0:0:
448,192,151838,1,0,0:0:0:0:
192,192,152099,1,0,0:0:0:0:
320,192,152099,1,0,0:0:0:0:
192,192,152359,1,0,0:0:0:0:
320,192,152620,128,0,152881:0:0:0:0:
448,192,152620,1,0,0:0:0:0:
64,192,152881,1,0,0:0:0:0:
192,192,153012,1,0,0:0:0:0:
448,192,153142,1,0,0:0:0:0:
320,192,153142,1,0,0:0:0:0:
448,192,153403,128,0,153664:0:0:0:0:
192,192,153664,1,0,0:0:0:0:
64,192,153664,1,0,0:0:0:0:
320,192,153925,1,0,0:0:0:0:
448,192,154186,1,0,0:0:0:0:
192,192,154186,1,0,0:0:0:0:
192,192,154446,1,0,0:0:0:0:
64,192,154707,128,0,154968:0:0:0:0:
448,192,154707,1,0,0:0:0:0:
320,192,154968,1,0,0:0:0:0:
192,192,155099,1,0,0:0:0:0:
448,192,155229,1,0,0:0:0:0:
64,192,155229,1,0,0:0:0:0:
448,192,155490,128,0,155751:0:0:0:0:
64,192,155751,1,0,0:0:0:0:
320,192,155751,1,0,0:0:0:0:
192,192,156012,1,0,0:0:0:0:
448,192,156273,1,0,0:0:0:0:
320,192,156273,1,0,0:0:0:0:
64,192,156533,128,0,156794:0:0:0:0:
448,192,156794,1,0,0:0:0:0:
192,192,156794,1,0,0:0:0:0:
320,192,156925,1,0,0:0:0:0:
192,192,157055,1,0,0:0:0:0:
448,192,157186,1,0,0:0:0:0:
64,192,157316,1,0,0:0:0:0:
192,192,157316,1,0,0:0:0:0:
320,192,157446,1,0,0:0:0:0:
192,192,157577,1,0,0:0:0:0:
448,192,157707,1,0,0:0:0:0:
320,192,157838,1,0,0:0:0:0:
64,192,157838,1,0,0:0:0:0:
192,192,158099,1,0,0:0:0:0:
320,192,158099,1,0,0:0:0:0:
64,192,158359,1,0,0:0:0:0:
448,192,158359,1,0,0:0:0:0:
64,192,158620,1,0,0:0:0:0:
320,192,158620,1,0,0:0:0:0:
448,192,158881,1,0,0:0:0:0:
192,192,158881,1,0,0:0:0:0:
320,192,159012,1,0,0:0:0:0:
192,192,159142,1,0,0:0:0:0:
448,192,159273,1,0,0:0:0:0:
64,192,159403,1,0,0:0:0:0:
192,192,159403,1,0,0:0:0:0:
320,192,159533,1,0,0:0:0:0:
192,192,159664,1,0,0:0:0:0:
320,192,159794,1,0,0:0:0:0:
448,192,159925,1,0,0:0:0:0:
64,192,159925,1,0,0:0:0:0:
64,192,160186,1,0,0:0:0:0:
448,192,160186,1,0,0:0:0:0:
64,192,160446,128,0,160707:0:0:0:0:
448,192,160446,128,0,160968:0:0:0:0:
64,192,160968,1,0,0:0:0:0:
320,192,160968,1,0,0:0:0:0:
192,192,160968,1,0,0:0:0:0:
448,192,161229,1,0,0:0:0:0:
64,192,161490,1,0,0:0:0:0:
192,192,161490,1,0,0:0:0:0:
192,192,161751,1,0,0:0:0:0:
448,192,162012,1,0,0:0:0:0:
320,192,162012,1,0,0:0:0:0:
192,192,162273,1,0,0:0:0:0:
64,192,162533,128,0,162794:0:0:0:0:
320,192,162533,128,0,163055:0:0:0:0:
192,192,162794,1,0,0:0:0:0:
448,192,163055,1,0,0:0:0:0:
64,192,163055,1,0,0:0:0:0:
320,192,163316,1,0,0:0:0:0:
192,192,163446,1,0,0:0:0:0:
64,192,163577,1,0,0:0:0:0:
448,192,163577,1,0,0:0:0:0:
448,192,163838,1,0,0:0:0:0:
64,192,164099,1,0,0:0:0:0:
192,192,164099,1,0,0:0:0:0:
320,192,164359,1,0,0:0:0:0:
448,192,164620,128,0,164881:0:0:0:0:
192,192,164620,128,0,165142:0:0:0:0:
320,192,164881,1,0,0:0:0:0:
448,192,165142,1,0,0:0:0:0:
64,192,165142,1,0,0:0:0:0:
192,192,165403,1,0,0:0:0:0:
320,192,165533,1,0,0:0:0:0:
64,192,165664,1,0,0:0:0:0:
448,192,165664,1,0,0:0:0:0:
64,192,165925,1,0,0:0:0:0:
320,192,166186,1,0,0:0:0:0:
448,192,166186,1,0,0:0:0:0:
320,192,166446,1,0,0:0:0:0:
64,192,166707,1,0,0:0:0:0:
320,192,166707,1,0,0:0:0:0:
192,192,166968,1,0,0:0:0:0:
448,192,167229,1,0,0:0:0:0:
64,192,167229,1,0,0:0:0:0:
320,192,167490,1,0,0:0:0:0:
64,192,167751,1,0,0:0:0:0:
192,192,167751,1,0,0:0:0:0:
448,192,168012,1,0,0:0:0:0:
320,192,168273,1,0,0:0:0:0:
192,192,168273,1,0,0:0:0:0:
192,192,168533,1,0,0:0:0:0:
320,192,168794,128,0,169055:0:0:0:0:
64,192,168794,128,0,169316:0:0:0:0:
192,192,169055,1,0,0:0:0:0:
448,192,169316,1,0,0:0:0:0:
320,192,169316,1,0,0:0:0:0:
192,192,169577,1,0,0:0:0:0:
448,192,169838,1,0,0:0:0:0:
64,192,169838,1,0,0:0:0:0:
448,192,170099,1,0,0:0:0:0:
192,192,170359,1,0,0:0:0:0:
64,192,170359,1,0,0:0:0:0:
320,192,170620,1,0,0:0:0:0:
192,192,170881,128,0,171142:0:0:0:0:
448,192,170881,128,0,171403:0:0:0:0:
320,192,171142,1,0,0:0:0:0:
192,192,171403,1,0,0:0:0:0:
64,192,171403,1,0,0:0:0:0:
448,192,171664,1,0,0:0:0:0:
320,192,171794,1,0,0:0:0:0:
192,192,171925,1,0,0:0:0:0:
64,192,171925,1,0,0:0:0:0:
192,192,172186,1,0,0:0:0:0:
320,192,172446,1,0,0:0:0:0:
448,192,172446,1,0,0:0:0:0:
192,192,172707,1,0,0:0:0:0:
64,192,172968,128,0,173229:0:0:0:0:
320,192,172968,128,0,173490:0:0:0:0:
192,192,173229,1,0,0:0:0:0:
448,192,173490,1,0,0:0:0:0:
64,192,173490,1,0,0:0:0:0:
320,192,173751,1,0,0:0:0:0:
192,192,173881,1,0,0:0:0:0:
448,192,174012,1,0,0:0:0:0:
64,192,174012,1,0,0:0:0:0:
192,192,174273,1,0,0:0:0:0:
320,192,174273,1,0,0:0:0:0:
320,192,174533,1,0,0:0:0:0:
64,192,174533,1,0,0:0:0:0:
320,192,174794,1,0,0:0:0:0:
64,192,174794,1,0,0:0:0:0:
192,192,175055,1,0,0:0:0:0:
448,192,175055,1,0,0:0:0:0:
192,192,175316,1,0,0:0:0:0:
448,192,175316,1,0,0:0:0:0:
320,192,175577,1,0,0:0:0:0:
192,192,175577,1,0,0:0:0:0:
192,192,175838,1,0,0:0:0:0:
320,192,175838,1,0,0:0:0:0:
64,192,175968,1,0,0:0:0:0:
320,192,176099,1,0,0:0:0:0:
448,192,176099,1,0,0:0:0:0:
320,192,176359,1,0,0:0:0:0:
448,192,176359,1,0,0:0:0:0:
192,192,176620,1,0,0:0:0:0:
448,192,176620,1,0,0:0:0:0:
192,192,176881,1,0,0:0:0:0:
448,192,176881,1,0,0:0:0:0:
64,192,177142,1,0,0:0:0:0:
448,192,177142,1,0,0:0:0:0:
64,192,177403,128,0,180142:0:0:0:0:
448,192,177403,128,0,180142:0:0:0:0:
192,192,179751,128,0,181446:0:0:0:0:
64,192,180273,128,0,181186:0:0:0:0:
448,192,180273,128,0,181186:0:0:0:0:
320,192,180794,128,0,181707:0:0:0:0:
64,192,181316,128,0,181707:0:0:0:0:
448,192,181316,128,0,181707:0:0:0:0:
192,192,181577,128,0,181707:0:0:0:0:
448,192,181838,1,0,0:0:0:0:
64,192,181838,1,0,0:0:0:0:
320,192,182099,1,0,0:0:0:0:
192,192,182099,1,0,0:0:0:0:
320,192,182359,1,0,0:0:0:0:
192,192,182359,1,0,0:0:0:0:
192,192,182620,1,0,0:0:0:0:
320,192,182620,1,0,0:0:0:0:
320,192,182881,1,0,0:0:0:0:
192,192,182881,1,0,0:0:0:0:
192,192,183142,1,0,0:0:0:0:
448,192,183142,1,0,0:0:0:0:
64,192,183273,1,0,0:0:0:0:
320,192,183403,1,0,0:0:0:0:
448,192,183403,1,0,0:0:0:0:
192,192,183533,1,0,0:0:0:0:
320,192,183664,1,0,0:0:0:0:
448,192,183664,1,0,0:0:0:0:
64,192,183925,1,0,0:0:0:0:
192,192,183925,1,0,0:0:0:0:
448,192,184446,128,0,184968:0:0:0:0:
320,192,184446,128,0,184707:0:0:0:0:
64,192,184446,1,0,0:0:0:0:
192,192,184707,1,0,0:0:0:0:
64,192,184968,128,0,185359:0:0:0:0:
320,192,184968,1,0,0:0:0:0:
320,192,185229,1,0,0:0:0:0:
64,192,185490,128,0,185751:0:0:0:0:
320,192,185490,1,0,0:0:0:0:
320,192,185751,128,0,186012:0:0:0:0:
192,192,186012,128,0,186273:0:0:0:0:
64,192,186012,1,0,0:0:0:0:
448,192,186273,1,0,0:0:0:0:
320,192,186403,1,0,0:0:0:0:
64,192,186533,1,0,0:0:0:0:
192,192,186533,1,0,0:0:0:0:
192,192,186794,128,0,187055:0:0:0:0:
448,192,187055,1,0,0:0:0:0:
64,192,187055,1,0,0:0:0:0:
448,192,187316,128,0,187577:0:0:0:0:
192,192,187446,1,0,0:0:0:0:
64,192,187577,128,0,187838:0:0:0:0:
320,192,187577,1,0,0:0:0:0:
192,192,187838,128,0,188099:0:0:0:0:
320,192,188099,128,0,188359:0:0:0:0:
448,192,188099,1,0,0:0:0:0:
64,192,188359,1,0,0:0:0:0:
192,192,188490,1,0,0:0:0:0:
448,192,188620,1,0,0:0:0:0:
320,192,188620,1,0,0:0:0:0:
448,192,188881,128,0,189403:0:0:0:0:
64,192,189142,1,0,0:0:0:0:
192,192,189142,1,0,0:0:0:0:
320,192,189403,128,0,189925:0:0:0:0:
448,192,189664,1,0,0:0:0:0:
64,192,189664,1,0,0:0:0:0:
192,192,189925,128,0,190446:0:0:0:0:
320,192,190186,1,0,0:0:0:0:
64,192,190186,1,0,0:0:0:0:
448,192,190446,1,0,0:0:0:0:
320,192,190577,1,0,0:0:0:0:
192,192,190707,1,0,0:0:0:0:
64,192,190707,128,0,190838:0:0:0:0:
448,192,190838,128,0,190968:0:0:0:0:
192,192,190968,128,0,191099:0:0:0:0:
320,192,191099,128,0,191229:0:0:0:0:
64,192,191229,128,0,191359:0:0:0:0:
448,192,191229,1,0,0:0:0:0:
192,192,191359,128,0,191490:0:0:0:0:
320,192,191490,1,0,0:0:0:0:
192,192,191620,1,0,0:0:0:0:
320,192,191751,1,0,0:0:0:0:
448,192,191751,128,0,191881:0:0:0:0:
192,192,192012,128,0,192273:0:0:0:0:
320,192,192273,128,0,192533:0:0:0:0:
448,192,192273,1,0,0:0:0:0:
64,192,192533,1,0,0:0:0:0:
192,192,192664,1,0,0:0:0:0:
320,192,192794,1,0,0:0:0:0:
448,192,192794,1,0,0:0:0:0:
448,192,193055,128,0,193577:0:0:0:0:
64,192,193316,1,0,0:0:0:0:
192,192,193316,1,0,0:0:0:0:
320,192,193577,128,0,194099:0:0:0:0:
64,192,193838,1,0,0:0:0:0:
448,192,193838,1,0,0:0:0:0:
192,192,194099,128,0,194620:0:0:0:0:
64,192,194359,1,0,0:0:0:0:
320,192,194359,1,0,0:0:0:0:
448,192,194620,1,0,0:0:0:0:
320,192,194751,1,0,0:0:0:0:
192,192,194881,1,0,0:0:0:0:
64,192,194881,1,0,0:0:0:0:
320,192,195142,128,0,195403:0:0:0:0:
192,192,195403,128,0,195794:0:0:0:0:
448,192,195403,1,0,0:0:0:0:
448,192,195664,1,0,0:0:0:0:
192,192,195925,128,0,196186:0:0:0:0:
448,192,195925,1,0,0:0:0:0:
448,192,196186,128,0,196446:0:0:0:0:
64,192,196446,128,0,196707:0:0:0:0:
320,192,196446,1,0,0:0:0:0:
192,192,196707,1,0,0:0:0:0:
448,192,196838,1,0,0:0:0:0:
320,192,196968,128,0,197229:0:0:0:0:
64,192,196968,1,0,0:0:0:0:
64,192,197229,128,0,197490:0:0:0:0:
448,192,197490,128,0,197881:0:0:0:0:
192,192,197490,1,0,0:0:0:0:
192,192,197751,1,0,0:0:0:0:
448,192,198012,128,0,198273:0:0:0:0:
192,192,198012,1,0,0:0:0:0:
192,192,198273,128,0,198533:0:0:0:0:
64,192,198533,1,0,0:0:0:0:
448,192,198533,1,0,0:0:0:0:
320,192,198533,1,0,0:0:0:0:
192,192,198794,128,0,198925:0:0:0:0:
448,192,198925,128,0,199055:0:0:0:0:
64,192,199055,1,0,0:0:0:0:
192,192,199055,128,0,199186:0:0:0:0:
320,192,199186,128,0,199316:0:0:0:0:
192,192,199316,128,0,199577:0:0:0:0:
64,192,199577,1,0,0:0:0:0:
448,192,199577,128,0,199838:0:0:0:0:
320,192,199838,128,0,199968:0:0:0:0:
192,192,199968,128,0,200099:0:0:0:0:
320,192,200099,128,0,200229:0:0:0:0:
448,192,200099,1,0,0:0:0:0:
64,192,200229,128,0,200359:0:0:0:0:
320,192,200359,128,0,200620:0:0:0:0:
64,192,200620,128,0,200881:0:0:0:0:
192,192,200620,128,0,200881:0:0:0:0:
448,192,200620,1,0,0:0:0:0:
320,192,200881,1,0,0:0:0:0:
64,192,201142,128,0,201403:0:0:0:0:
192,192,201142,128,0,201403:0:0:0:0:
320,192,201403,1,0,0:0:0:0:
448,192,201664,128,0,202055:0:0:0:0:
192,192,201664,1,0,0:0:0:0:
192,192,201925,1,0,0:0:0:0:
448,192,202186,128,0,202446:0:0:0:0:
192,192,202186,1,0,0:0:0:0:
192,192,202446,128,0,202707:0:0:0:0:
320,192,202707,1,0,0:0:0:0:
448,192,202707,1,0,0:0:0:0:
64,192,202968,1,0,0:0:0:0:
192,192,203099,1,0,0:0:0:0:
448,192,203229,1,0,0:0:0:0:
320,192,203229,1,0,0:0:0:0:
320,192,203490,128,0,203751:0:0:0:0:
448,192,203751,128,0,204012:0:0:0:0:
192,192,203751,1,0,0:0:0:0:
192,192,204012,1,0,0:0:0:0:
320,192,204142,1,0,0:0:0:0:
64,192,204273,128,0,204533:0:0:0:0:
448,192,204273,1,0,0:0:0:0:
320,192,204533,128,0,204794:0:0:0:0:
192,192,204794,128,0,205055:0:0:0:0:
64,192,204794,1,0,0:0:0:0:
448,192,205055,1,0,0:0:0:0:
320,192,205186,1,0,0:0:0:0:
64,192,205316,1,0,0:0:0:0:
192,192,205316,1,0,0:0:0:0:
192,192,205577,128,0,206099:0:0:0:0:
64,192,205838,1,0,0:0:0:0:
448,192,205838,1,0,0:0:0:0:
320,192,206099,128,0,206620:0:0:0:0:
64,192,206359,1,0,0:0:0:0:
192,192,206359,1,0,0:0:0:0:
448,192,206620,128,0,207142:0:0:0:0:
64,192,206881,1,0,0:0:0:0:
320,192,206881,1,0,0:0:0:0:
192,192,207142,1,0,0:0:0:0:
320,192,207273,1,0,0:0:0:0:
64,192,207403,1,0,0:0:0:0:
448,192,207403,1,0,0:0:0:0:
192,192,207664,128,0,207925:0:0:0:0:
448,192,207925,1,0,0:0:0:0:
320,192,207925,1,0,0:0:0:0:
64,192,208186,128,0,208446:0:0:0:0:
192,192,208446,128,0,208707:0:0:0:0:
320,192,208446,1,0,0:0:0:0:
320,192,208707,128,0,208968:0:0:0:0:
64,192,208968,128,0,209229:0:0:0:0:
448,192,208968,1,0,0:0:0:0:
320,192,209229,1,0,0:0:0:0:
192,192,209359,1,0,0:0:0:0:
64,192,209490,1,0,0:0:0:0:
448,192,209490,1,0,0:0:0:0:
448,192,209751,128,0,210012:0:0:0:0:
192,192,210012,1,0,0:0:0:0:
64,192,210012,1,0,0:0:0:0:
320,192,210273,1,0,0:0:0:0:
192,192,210533,128,0,210794:0:0:0:0:
448,192,210533,1,0,0:0:0:0:
448,192,210794,128,0,211055:0:0:0:0:
320,192,211055,128,0,211316:0:0:0:0:
64,192,211055,1,0,0:0:0:0:
192,192,211316,1,0,0:0:0:0:
448,192,211446,1,0,0:0:0:0:
320,192,211577,1,0,0:0:0:0:
64,192,211577,1,0,0:0:0:0:
64,192,211838,128,0,212099:0:0:0:0:
320,192,212099,1,0,0:0:0:0:
448,192,212099,1,0,0:0:0:0:
192,192,212359,128,0,212620:0:0:0:0:
64,192,212620,1,0,0:0:0:0:
320,192,212620,1,0,0:0:0:0:
448,192,212881,128,0,213142:0:0:0:0:
192,192,213142,128,0,213273:0:0:0:0:
320,192,213142,1,0,0:0:0:0:
64,192,213273,128,0,213403:0:0:0:0:
320,192,213403,128,0,213533:0:0:0:0:
192,192,213533,128,0,213664:0:0:0:0:
448,192,213664,128,0,213794:0:0:0:0:
64,192,213664,1,0,0:0:0:0:
320,192,213794,128,0,213925:0:0:0:0:
192,192,213925,128,0,214055:0:0:0:0:
320,192,214055,1,0,0:0:0:0:
64,192,214186,1,0,0:0:0:0:
448,192,214186,1,0,0:0:0:0:
192,192,214446,1,0,0:0:0:0:
448,192,214446,1,0,0:0:0:0:
64,192,214707,1,0,0:0:0:0:
320,192,214707,1,0,0:0:0:0:
64,192,214968,1,0,0:0:0:0:
448,192,214968,1,0,0:0:0:0:
320,192,215229,128,0,215359:0:0:0:0:
192,192,215229,1,0,0:0:0:0:
448,192,215359,128,0,215490:0:0:0:0:
192,192,215490,128,0,215620:0:0:0:0:
320,192,215620,128,0,215751:0:0:0:0:
64,192,215751,128,0,215881:0:0:0:0:
448,192,215751,1,0,0:0:0:0:
192,192,215881,128,0,216012:0:0:0:0:
320,192,216012,128,0,216142:0:0:0:0:
192,192,216142,1,0,0:0:0:0:
448,192,216273,1,0,0:0:0:0:
64,192,216273,1,0,0:0:0:0:
448,192,216533,1,0,0:0:0:0:
64,192,216533,1,0,0:0:0:0:
64,192,216794,128,0,217316:0:0:0:0:
448,192,216794,128,0,217316:0:0:0:0:
192,192,217316,1,0,0:0:0:0:
320,192,217316,1,0,0:0:0:0:
