osu file format v14

[General]
AudioFilename: audio.mp3
AudioLeadIn: 0
PreviewTime: 82590
Countdown: 0
SampleSet: Soft
StackLeniency: 0.7
Mode: 3
LetterboxInBreaks: 0
CountdownOffset: 3
SpecialStyle: 0
WidescreenStoryboard: 1

[Editor]
DistanceSpacing: 1.4
BeatDivisor: 4
GridSize: 4
TimelineZoom: 1.9

[Metadata]
Title:Terminated Protocol
TitleUnicode:Terminated Protocol
Artist:KIEN
ArtistUnicode:KIEN
Creator:Hell-D
Version:Lv.7 NM
Source:EZ2Arcade
Tags:ez2ac evolve night traveler electronic acoustic guitar square pixels
BeatmapID:1207048
BeatmapSetID:569412

[Difficulty]
HPDrainRate:8
CircleSize:4
OverallDifficulty:8
ApproachRate:5
SliderMultiplier:1.4
SliderTickRate:1

[Events]
//Background and Video events
0,0,"TerminatedProtocol1.png",0,0
//Break Periods
//Storyboard Layer 0 (Background)
//Storyboard Layer 1 (Fail)
//Storyboard Layer 2 (Pass)
//Storyboard Layer 3 (Foreground)
//Storyboard Sound Samples

[TimingPoints]
10,322.58064516129,4,2,1,100,1,0
10,-100,4,2,1,25,0,0
19364,-100,4,2,1,30,0,0
30977,-100,4,2,1,35,0,0
36139,-100,4,2,1,40,0,0
38719,-100,4,2,1,45,0,0
40009,-100,4,2,1,50,0,0
41300,-100,4,2,1,40,0,0
60655,-100,4,2,1,60,0,0
62106,-100,4,2,1,40,0,0
80009,-100,4,2,1,50,0,0
82590,-100,4,2,1,55,0,0
100655,-100,4,2,1,60,0,0
103397,-100,4,2,1,40,0,0
123235,-100,4,2,1,50,0,0
143235,-100,4,2,1,60,0,0
144526,-100,4,2,1,40,0,0
146784,-100,4,2,1,30,0,0

[HitObjects]
64,192,10,5,0,0:0:0:0:
192,192,332,1,0,0:0:0:0:
384,192,493,1,0,0:0:0:0:
298,192,816,1,0,0:0:0:0:
128,192,1139,1,0,0:0:0:0:
192,192,1461,1,0,0:0:0:0:
64,192,1784,1,0,0:0:0:0:
192,192,2268,1,0,0:0:0:0:
64,192,2590,1,0,0:0:0:0:
192,192,2913,1,0,0:0:0:0:
384,192,3074,1,0,0:0:0:0:
320,192,3397,1,0,0:0:0:0:
192,192,3719,1,0,0:0:0:0:
42,192,5171,1,0,0:0:0:0:
192,192,5493,1,0,0:0:0:0:
384,192,5655,1,0,0:0:0:0:
320,192,5977,1,0,0:0:0:0:
192,192,6300,1,0,0:0:0:0:
64,192,6622,1,0,0:0:0:0:
320,192,6945,1,0,0:0:0:0:
192,192,7429,1,0,0:0:0:0:
42,192,7751,1,0,0:0:0:0:
192,192,8074,1,0,0:0:0:0:
384,192,8235,1,0,0:0:0:0:
298,192,8558,1,0,0:0:0:0:
192,192,8880,1,0,0:0:0:0:
42,192,10332,1,0,0:0:0:0:
192,192,10655,1,0,0:0:0:0:
384,192,10816,1,0,0:0:0:0:
320,192,11139,1,0,0:0:0:0:
192,192,11461,1,0,0:0:0:0:
42,192,11784,1,0,0:0:0:0:
128,192,12106,1,0,0:0:0:0:
320,192,12590,1,0,0:0:0:0:
42,192,12913,1,0,0:0:0:0:
192,192,13235,1,0,0:0:0:0:
448,192,13397,1,0,0:0:0:0:
320,192,13719,1,0,0:0:0:0:
192,192,14042,1,0,0:0:0:0:
42,192,15493,1,0,0:0:0:0:
192,192,15816,1,0,0:0:0:0:
384,192,15977,1,0,0:0:0:0:
320,192,16300,1,0,0:0:0:0:
192,192,16622,1,0,0:0:0:0:
192,192,16945,1,0,0:0:0:0:
64,192,17268,1,0,0:0:0:0:
192,192,17751,1,0,0:0:0:0:
64,192,18074,1,0,0:0:0:0:
192,192,18397,1,0,0:0:0:0:
320,192,18558,1,0,0:0:0:0:
192,192,18880,1,0,0:0:0:0:
64,192,19203,1,0,0:0:0:0:
448,192,19364,1,0,0:0:0:0:
192,192,19848,1,0,0:0:0:0:
320,192,20171,1,0,0:0:0:0:
64,192,20655,1,0,0:0:0:0:
64,192,21139,1,0,0:0:0:0:
448,192,21300,1,0,0:0:0:0:
192,192,21461,1,0,0:0:0:0:
64,192,21784,1,0,0:0:0:0:
448,192,22106,1,0,0:0:0:0:
64,192,22429,1,0,0:0:0:0:
448,192,22590,1,0,0:0:0:0:
192,192,22751,1,0,0:0:0:0:
320,192,23074,1,0,0:0:0:0:
64,192,23235,1,0,0:0:0:0:
192,192,23719,1,0,0:0:0:0:
448,192,23880,1,0,0:0:0:0:
320,192,24042,1,0,0:0:0:0:
64,192,24364,1,0,0:0:0:0:
448,192,24687,1,0,0:0:0:0:
64,192,25009,1,0,0:0:0:0:
448,192,25171,1,0,0:0:0:0:
192,192,25332,1,0,0:0:0:0:
320,192,25655,1,0,0:0:0:0:
64,192,25816,1,0,0:0:0:0:
64,192,26300,1,0,0:0:0:0:
448,192,26461,1,0,0:0:0:0:
192,192,26622,1,0,0:0:0:0:
64,192,26945,1,0,0:0:0:0:
448,192,27268,1,0,0:0:0:0:
64,192,27590,1,0,0:0:0:0:
448,192,27751,1,0,0:0:0:0:
192,192,27913,1,0,0:0:0:0:
320,192,28235,1,0,0:0:0:0:
64,192,28397,1,0,0:0:0:0:
192,192,28880,1,0,0:0:0:0:
448,192,29042,1,0,0:0:0:0:
320,192,29203,1,0,0:0:0:0:
64,192,29526,1,0,0:0:0:0:
448,192,29848,5,0,0:0:0:0:
64,192,30171,1,0,0:0:0:0:
448,192,30332,1,0,0:0:0:0:
192,192,30493,1,0,0:0:0:0:
320,192,30816,1,0,0:0:0:0:
42,192,30977,1,0,0:0:0:0:
42,192,31300,1,0,0:0:0:0:
42,192,31622,1,0,0:0:0:0:
320,192,31622,1,0,0:0:0:0:
448,192,31784,1,0,0:0:0:0:
42,192,31945,1,0,0:0:0:0:
384,192,32268,1,0,0:0:0:0:
192,192,32429,1,0,0:0:0:0:
384,192,32590,1,0,0:0:0:0:
384,192,32913,1,0,0:0:0:0:
192,192,32913,1,0,0:0:0:0:
64,192,33074,1,0,0:0:0:0:
448,192,33235,1,0,0:0:0:0:
42,192,33558,1,0,0:0:0:0:
42,192,33880,1,0,0:0:0:0:
64,192,34203,1,0,0:0:0:0:
320,192,34203,1,0,0:0:0:0:
448,192,34364,1,0,0:0:0:0:
64,192,34526,1,0,0:0:0:0:
448,192,34848,1,0,0:0:0:0:
192,192,35009,1,0,0:0:0:0:
448,192,35171,1,0,0:0:0:0:
448,192,35493,1,0,0:0:0:0:
192,192,35493,1,0,0:0:0:0:
64,192,35655,1,0,0:0:0:0:
448,192,35816,1,0,0:0:0:0:
320,192,35977,1,0,0:0:0:0:
42,192,36139,1,0,0:0:0:0:
320,192,36300,1,0,0:0:0:0:
64,192,36461,1,0,0:0:0:0:
320,192,36622,1,0,0:0:0:0:
448,192,36784,1,0,0:0:0:0:
192,192,36784,1,0,0:0:0:0:
320,192,36945,1,0,0:0:0:0:
64,192,37106,1,0,0:0:0:0:
320,192,37268,1,0,0:0:0:0:
192,192,37429,1,0,0:0:0:0:
448,192,37590,1,0,0:0:0:0:
64,192,37590,1,0,0:0:0:0:
192,192,37751,1,0,0:0:0:0:
320,192,37913,1,0,0:0:0:0:
448,192,38074,1,0,0:0:0:0:
192,192,38074,1,0,0:0:0:0:
320,192,38235,1,0,0:0:0:0:
64,192,38397,1,0,0:0:0:0:
320,192,38558,1,0,0:0:0:0:
64,192,38719,128,0,40009:0:0:0:0:
192,192,38719,1,0,0:0:0:0:
320,192,39042,1,0,0:0:0:0:
448,192,39203,1,0,0:0:0:0:
320,192,39526,1,0,0:0:0:0:
192,192,39848,1,0,0:0:0:0:
448,192,40009,1,0,0:0:0:0:
320,192,40009,1,0,0:0:0:0:
320,192,40655,1,0,0:0:0:0:
448,192,40655,1,0,0:0:0:0:
192,192,40897,1,0,0:0:0:0:
320,192,40897,1,0,0:0:0:0:
192,192,41139,1,0,0:0:0:0:
64,192,41139,1,0,0:0:0:0:
448,192,41300,1,0,0:0:0:0:
320,192,41461,1,0,0:0:0:0:
192,192,41622,1,0,0:0:0:0:
64,192,41622,1,0,0:0:0:0:
448,192,41784,1,0,0:0:0:0:
320,192,42106,1,0,0:0:0:0:
64,192,42268,1,0,0:0:0:0:
448,192,42268,1,0,0:0:0:0:
320,192,42429,1,0,0:0:0:0:
192,192,42751,1,0,0:0:0:0:
448,192,42913,1,0,0:0:0:0:
64,192,42913,1,0,0:0:0:0:
192,192,43074,1,0,0:0:0:0:
64,192,43397,1,0,0:0:0:0:
320,192,43558,1,0,0:0:0:0:
448,192,43558,1,0,0:0:0:0:
192,192,43719,1,0,0:0:0:0:
64,192,43880,1,0,0:0:0:0:
320,192,44042,1,0,0:0:0:0:
192,192,44203,1,0,0:0:0:0:
64,192,44203,1,0,0:0:0:0:
448,192,44364,1,0,0:0:0:0:
320,192,44687,1,0,0:0:0:0:
64,192,44848,1,0,0:0:0:0:
448,192,44848,1,0,0:0:0:0:
320,192,45009,1,0,0:0:0:0:
192,192,45332,1,0,0:0:0:0:
448,192,45493,1,0,0:0:0:0:
64,192,45493,1,0,0:0:0:0:
192,192,45655,1,0,0:0:0:0:
64,192,45977,1,0,0:0:0:0:
320,192,46139,1,0,0:0:0:0:
448,192,46139,1,0,0:0:0:0:
192,192,46300,1,0,0:0:0:0:
64,192,46461,1,0,0:0:0:0:
320,192,46622,1,0,0:0:0:0:
192,192,46784,1,0,0:0:0:0:
64,192,46784,1,0,0:0:0:0:
448,192,46945,1,0,0:0:0:0:
320,192,47268,1,0,0:0:0:0:
64,192,47429,1,0,0:0:0:0:
448,192,47429,1,0,0:0:0:0:
320,192,47590,1,0,0:0:0:0:
192,192,47913,1,0,0:0:0:0:
448,192,48074,1,0,0:0:0:0:
64,192,48074,1,0,0:0:0:0:
192,192,48235,1,0,0:0:0:0:
448,192,48558,1,0,0:0:0:0:
64,192,48719,1,0,0:0:0:0:
192,192,48719,1,0,0:0:0:0:
320,192,48880,1,0,0:0:0:0:
64,192,49042,1,0,0:0:0:0:
448,192,49203,1,0,0:0:0:0:
192,192,49364,1,0,0:0:0:0:
64,192,49364,1,0,0:0:0:0:
320,192,49526,1,0,0:0:0:0:
192,192,49848,1,0,0:0:0:0:
320,192,50009,1,0,0:0:0:0:
448,192,50009,1,0,0:0:0:0:
64,192,50171,1,0,0:0:0:0:
448,192,50493,1,0,0:0:0:0:
64,192,50655,1,0,0:0:0:0:
192,192,50655,1,0,0:0:0:0:
320,192,50816,1,0,0:0:0:0:
448,192,51139,1,0,0:0:0:0:
192,192,51300,1,0,0:0:0:0:
64,192,51300,1,0,0:0:0:0:
320,192,51461,1,0,0:0:0:0:
64,192,51622,1,0,0:0:0:0:
320,192,51784,1,0,0:0:0:0:
192,192,51945,1,0,0:0:0:0:
64,192,51945,1,0,0:0:0:0:
448,192,52106,1,0,0:0:0:0:
320,192,52429,1,0,0:0:0:0:
448,192,52590,1,0,0:0:0:0:
64,192,52590,1,0,0:0:0:0:
192,192,52751,1,0,0:0:0:0:
64,192,53074,1,0,0:0:0:0:
448,192,53235,1,0,0:0:0:0:
320,192,53235,1,0,0:0:0:0:
192,192,53397,1,0,0:0:0:0:
64,192,53719,1,0,0:0:0:0:
320,192,53880,1,0,0:0:0:0:
448,192,53880,1,0,0:0:0:0:
192,192,54042,1,0,0:0:0:0:
64,192,54203,1,0,0:0:0:0:
448,192,54364,1,0,0:0:0:0:
192,192,54526,1,0,0:0:0:0:
64,192,54526,1,0,0:0:0:0:
320,192,54687,1,0,0:0:0:0:
192,192,55009,1,0,0:0:0:0:
448,192,55171,1,0,0:0:0:0:
320,192,55171,1,0,0:0:0:0:
64,192,55332,1,0,0:0:0:0:
192,192,55655,1,0,0:0:0:0:
64,192,55816,1,0,0:0:0:0:
448,192,55816,1,0,0:0:0:0:
320,192,55977,1,0,0:0:0:0:
192,192,56300,1,0,0:0:0:0:
448,192,56461,1,0,0:0:0:0:
64,192,56461,1,0,0:0:0:0:
320,192,56622,1,0,0:0:0:0:
64,192,56784,1,0,0:0:0:0:
320,192,56945,1,0,0:0:0:0:
192,192,57106,1,0,0:0:0:0:
64,192,57106,1,0,0:0:0:0:
448,192,57268,1,0,0:0:0:0:
320,192,57590,1,0,0:0:0:0:
64,192,57751,1,0,0:0:0:0:
448,192,57751,1,0,0:0:0:0:
320,192,57913,1,0,0:0:0:0:
192,192,58235,1,0,0:0:0:0:
448,192,58397,1,0,0:0:0:0:
64,192,58397,1,0,0:0:0:0:
192,192,58558,1,0,0:0:0:0:
64,192,58880,1,0,0:0:0:0:
320,192,59042,1,0,0:0:0:0:
448,192,59042,1,0,0:0:0:0:
192,192,59203,1,0,0:0:0:0:
64,192,59364,1,0,0:0:0:0:
320,192,59526,5,0,0:0:0:0:
192,192,59687,5,0,0:0:0:0:
64,192,59687,1,0,0:0:0:0:
448,192,59848,1,0,0:0:0:0:
320,192,60171,1,0,0:0:0:0:
448,192,60332,1,0,0:0:0:0:
64,192,60332,1,0,0:0:0:0:
192,192,60493,1,0,0:0:0:0:
64,192,60655,128,0,61300:0:0:0:0:
448,192,60816,1,0,0:0:0:0:
448,192,60977,1,0,0:0:0:0:
448,192,61300,1,0,0:0:0:0:
320,192,61300,1,0,0:0:0:0:
192,192,61542,1,0,0:0:0:0:
64,192,61542,1,0,0:0:0:0:
320,192,61784,1,0,0:0:0:0:
192,192,61784,1,0,0:0:0:0:
320,192,62106,1,0,0:0:0:0:
192,192,62106,1,0,0:0:0:0:
320,192,62268,1,0,0:0:0:0:
192,192,62268,1,0,0:0:0:0:
320,192,62590,1,0,0:0:0:0:
192,192,62590,1,0,0:0:0:0:
192,192,62832,1,0,0:0:0:0:
64,192,62832,1,0,0:0:0:0:
320,192,63074,1,0,0:0:0:0:
192,192,63074,1,0,0:0:0:0:
298,192,63397,1,0,0:0:0:0:
192,192,63397,1,0,0:0:0:0:
320,192,63558,1,0,0:0:0:0:
192,192,63558,1,0,0:0:0:0:
320,192,63880,1,0,0:0:0:0:
192,192,63880,1,0,0:0:0:0:
384,192,64122,1,0,0:0:0:0:
320,192,64122,1,0,0:0:0:0:
320,192,64364,1,0,0:0:0:0:
192,192,64364,1,0,0:0:0:0:
320,192,64687,1,0,0:0:0:0:
192,192,64687,1,0,0:0:0:0:
320,192,64848,1,0,0:0:0:0:
192,192,64848,1,0,0:0:0:0:
320,192,65171,1,0,0:0:0:0:
192,192,65171,1,0,0:0:0:0:
192,192,65413,1,0,0:0:0:0:
64,192,65413,1,0,0:0:0:0:
320,192,65655,1,0,0:0:0:0:
192,192,65655,1,0,0:0:0:0:
298,192,65977,1,0,0:0:0:0:
192,192,65977,1,0,0:0:0:0:
320,192,66139,1,0,0:0:0:0:
192,192,66139,1,0,0:0:0:0:
448,192,66461,1,0,0:0:0:0:
320,192,66461,1,0,0:0:0:0:
320,192,66703,1,0,0:0:0:0:
192,192,66703,1,0,0:0:0:0:
192,192,66945,1,0,0:0:0:0:
64,192,66945,1,0,0:0:0:0:
192,192,67268,1,0,0:0:0:0:
320,192,67268,1,0,0:0:0:0:
192,192,67429,1,0,0:0:0:0:
320,192,67429,1,0,0:0:0:0:
192,192,67751,1,0,0:0:0:0:
320,192,67751,1,0,0:0:0:0:
42,192,67993,1,0,0:0:0:0:
192,192,67993,1,0,0:0:0:0:
192,192,68235,1,0,0:0:0:0:
320,192,68235,1,0,0:0:0:0:
192,192,68558,1,0,0:0:0:0:
320,192,68558,1,0,0:0:0:0:
192,192,68719,1,0,0:0:0:0:
320,192,68719,1,0,0:0:0:0:
192,192,69042,1,0,0:0:0:0:
320,192,69042,1,0,0:0:0:0:
320,192,69284,1,0,0:0:0:0:
448,192,69284,1,0,0:0:0:0:
192,192,69526,1,0,0:0:0:0:
320,192,69526,1,0,0:0:0:0:
128,192,69848,1,0,0:0:0:0:
320,192,69848,1,0,0:0:0:0:
192,192,70009,1,0,0:0:0:0:
320,192,70009,1,0,0:0:0:0:
128,192,70332,1,0,0:0:0:0:
320,192,70332,1,0,0:0:0:0:
42,192,70574,1,0,0:0:0:0:
192,192,70574,1,0,0:0:0:0:
192,192,70816,1,0,0:0:0:0:
320,192,70816,1,0,0:0:0:0:
384,192,71139,1,0,0:0:0:0:
320,192,71139,1,0,0:0:0:0:
448,192,71300,1,0,0:0:0:0:
320,192,71300,1,0,0:0:0:0:
384,192,71622,1,0,0:0:0:0:
320,192,71622,1,0,0:0:0:0:
298,192,71864,1,0,0:0:0:0:
192,192,71864,1,0,0:0:0:0:
192,192,72106,1,0,0:0:0:0:
64,192,72106,1,0,0:0:0:0:
192,192,72429,1,0,0:0:0:0:
320,192,72429,1,0,0:0:0:0:
192,192,72590,1,0,0:0:0:0:
320,192,72590,1,0,0:0:0:0:
192,192,72913,1,0,0:0:0:0:
320,192,72913,1,0,0:0:0:0:
64,192,73155,1,0,0:0:0:0:
192,192,73155,1,0,0:0:0:0:
192,192,73397,1,0,0:0:0:0:
320,192,73397,1,0,0:0:0:0:
320,192,73719,1,0,0:0:0:0:
192,192,73719,1,0,0:0:0:0:
320,192,73880,1,0,0:0:0:0:
192,192,73880,1,0,0:0:0:0:
320,192,74203,1,0,0:0:0:0:
192,192,74203,1,0,0:0:0:0:
448,192,74445,1,0,0:0:0:0:
320,192,74445,1,0,0:0:0:0:
320,192,74687,1,0,0:0:0:0:
192,192,74687,1,0,0:0:0:0:
192,192,75009,1,0,0:0:0:0:
320,192,75009,1,0,0:0:0:0:
192,192,75171,1,0,0:0:0:0:
320,192,75171,1,0,0:0:0:0:
192,192,75493,1,0,0:0:0:0:
320,192,75493,1,0,0:0:0:0:
64,192,75735,1,0,0:0:0:0:
192,192,75735,1,0,0:0:0:0:
192,192,75977,1,0,0:0:0:0:
320,192,75977,1,0,0:0:0:0:
192,192,76300,1,0,0:0:0:0:
320,192,76300,1,0,0:0:0:0:
192,192,76461,1,0,0:0:0:0:
320,192,76461,1,0,0:0:0:0:
448,192,76784,1,0,0:0:0:0:
320,192,76784,1,0,0:0:0:0:
298,192,77026,1,0,0:0:0:0:
192,192,77026,1,0,0:0:0:0:
192,192,77268,1,0,0:0:0:0:
64,192,77268,1,0,0:0:0:0:
128,192,77590,1,0,0:0:0:0:
320,192,77590,1,0,0:0:0:0:
192,192,77751,1,0,0:0:0:0:
320,192,77751,1,0,0:0:0:0:
192,192,78074,1,0,0:0:0:0:
320,192,78074,1,0,0:0:0:0:
42,192,78316,1,0,0:0:0:0:
192,192,78316,1,0,0:0:0:0:
192,192,78558,1,0,0:0:0:0:
320,192,78558,1,0,0:0:0:0:
128,192,78880,1,0,0:0:0:0:
320,192,78880,1,0,0:0:0:0:
192,192,79042,1,0,0:0:0:0:
320,192,79042,1,0,0:0:0:0:
192,192,79364,1,0,0:0:0:0:
320,192,79364,1,0,0:0:0:0:
192,192,79606,1,0,0:0:0:0:
320,192,79606,1,0,0:0:0:0:
320,192,79848,1,0,0:0:0:0:
448,192,79848,1,0,0:0:0:0:
320,192,80171,1,0,0:0:0:0:
448,192,80171,1,0,0:0:0:0:
448,192,80332,1,0,0:0:0:0:
320,192,80332,1,0,0:0:0:0:
320,192,80655,1,0,0:0:0:0:
448,192,80655,1,0,0:0:0:0:
64,192,80897,1,0,0:0:0:0:
192,192,80897,1,0,0:0:0:0:
192,192,81139,1,0,0:0:0:0:
320,192,81139,1,0,0:0:0:0:
192,192,81461,1,0,0:0:0:0:
320,192,81461,1,0,0:0:0:0:
192,192,81622,1,0,0:0:0:0:
320,192,81622,1,0,0:0:0:0:
448,192,81945,1,0,0:0:0:0:
320,192,81945,1,0,0:0:0:0:
320,192,82187,1,0,0:0:0:0:
192,192,82187,1,0,0:0:0:0:
64,192,82429,1,0,0:0:0:0:
192,192,82429,1,0,0:0:0:0:
448,192,82590,128,0,83074:0:0:0:0:
320,192,82590,1,0,0:0:0:0:
64,192,82751,1,0,0:0:0:0:
192,192,82913,1,0,0:0:0:0:
320,192,83074,128,0,83558:0:0:0:0:
64,192,83235,1,0,0:0:0:0:
448,192,83397,1,0,0:0:0:0:
192,192,83558,128,0,84042:0:0:0:0:
448,192,83719,1,0,0:0:0:0:
64,192,83880,1,0,0:0:0:0:
320,192,84042,128,0,84526:0:0:0:0:
64,192,84203,1,0,0:0:0:0:
448,192,84364,1,0,0:0:0:0:
192,192,84526,1,0,0:0:0:0:
320,192,84687,1,0,0:0:0:0:
448,192,84848,1,0,0:0:0:0:
64,192,84848,1,0,0:0:0:0:
320,192,85009,1,0,0:0:0:0:
64,192,85171,128,0,85655:0:0:0:0:
320,192,85332,1,0,0:0:0:0:
448,192,85493,1,0,0:0:0:0:
192,192,85655,128,0,86139:0:0:0:0:
448,192,85816,1,0,0:0:0:0:
64,192,85977,1,0,0:0:0:0:
320,192,86139,128,0,86622:0:0:0:0:
448,192,86300,1,0,0:0:0:0:
192,192,86461,1,0,0:0:0:0:
64,192,86622,128,0,87106:0:0:0:0:
448,192,86784,1,0,0:0:0:0:
320,192,86945,1,0,0:0:0:0:
448,192,87106,1,0,0:0:0:0:
192,192,87268,1,0,0:0:0:0:
320,192,87348,1,0,0:0:0:0:
64,192,87429,1,0,0:0:0:0:
192,192,87590,1,0,0:0:0:0:
448,192,87751,128,0,88235:0:0:0:0:
192,192,87913,1,0,0:0:0:0:
64,192,88074,1,0,0:0:0:0:
320,192,88235,128,0,88719:0:0:0:0:
64,192,88397,1,0,0:0:0:0:
448,192,88558,1,0,0:0:0:0:
192,192,88719,128,0,89203:0:0:0:0:
448,192,88880,1,0,0:0:0:0:
64,192,89042,1,0,0:0:0:0:
320,192,89203,128,0,90332:0:0:0:0:
64,192,89364,1,0,0:0:0:0:
448,192,89526,1,0,0:0:0:0:
192,192,89687,1,0,0:0:0:0:
448,192,89848,1,0,0:0:0:0:
64,192,90009,1,0,0:0:0:0:
192,192,90171,1,0,0:0:0:0:
448,192,90332,128,0,90816:0:0:0:0:
192,192,90493,1,0,0:0:0:0:
64,192,90655,1,0,0:0:0:0:
320,192,90816,128,0,91300:0:0:0:0:
64,192,90977,1,0,0:0:0:0:
448,192,91139,1,0,0:0:0:0:
192,192,91300,128,0,91622:0:0:0:0:
448,192,91461,1,0,0:0:0:0:
64,192,91622,1,0,0:0:0:0:
448,192,91784,1,0,0:0:0:0:
320,192,91784,1,0,0:0:0:0:
64,192,91945,1,0,0:0:0:0:
320,192,92106,1,0,0:0:0:0:
192,192,92106,1,0,0:0:0:0:
448,192,92268,1,0,0:0:0:0:
192,192,92429,1,0,0:0:0:0:
64,192,92429,1,0,0:0:0:0:
448,192,92590,1,0,0:0:0:0:
192,192,92751,1,0,0:0:0:0:
320,192,92751,1,0,0:0:0:0:
448,192,92913,128,0,93397:0:0:0:0:
192,192,93074,1,0,0:0:0:0:
64,192,93235,1,0,0:0:0:0:
320,192,93397,128,0,93880:0:0:0:0:
192,192,93558,1,0,0:0:0:0:
64,192,93719,1,0,0:0:0:0:
192,192,93880,128,0,94364:0:0:0:0:
448,192,94042,1,0,0:0:0:0:
64,192,94203,1,0,0:0:0:0:
320,192,94364,128,0,94848:0:0:0:0:
64,192,94526,1,0,0:0:0:0:
448,192,94687,1,0,0:0:0:0:
192,192,94848,1,0,0:0:0:0:
320,192,95009,1,0,0:0:0:0:
64,192,95171,1,0,0:0:0:0:
448,192,95171,1,0,0:0:0:0:
192,192,95332,1,0,0:0:0:0:
448,192,95493,128,0,95977:0:0:0:0:
192,192,95655,1,0,0:0:0:0:
64,192,95816,1,0,0:0:0:0:
320,192,95977,128,0,96461:0:0:0:0:
64,192,96139,1,0,0:0:0:0:
448,192,96300,1,0,0:0:0:0:
192,192,96461,128,0,96945:0:0:0:0:
448,192,96622,1,0,0:0:0:0:
64,192,96784,1,0,0:0:0:0:
320,192,96945,128,0,97429:0:0:0:0:
64,192,97106,1,0,0:0:0:0:
448,192,97268,1,0,0:0:0:0:
192,192,97429,1,0,0:0:0:0:
448,192,97590,1,0,0:0:0:0:
320,192,97751,1,0,0:0:0:0:
64,192,97751,1,0,0:0:0:0:
448,192,97913,1,0,0:0:0:0:
192,192,98074,128,0,98558:0:0:0:0:
448,192,98235,1,0,0:0:0:0:
64,192,98397,1,0,0:0:0:0:
320,192,98558,128,0,99042:0:0:0:0:
64,192,98719,1,0,0:0:0:0:
448,192,98880,1,0,0:0:0:0:
192,192,99042,128,0,99526:0:0:0:0:
448,192,99203,1,0,0:0:0:0:
320,192,99364,1,0,0:0:0:0:
448,192,99526,128,0,100009:0:0:0:0:
64,192,99687,1,0,0:0:0:0:
192,192,99848,1,0,0:0:0:0:
320,192,100009,1,0,0:0:0:0:
192,192,100171,1,0,0:0:0:0:
448,192,100332,1,0,0:0:0:0:
64,192,100332,1,0,0:0:0:0:
320,192,100493,1,0,0:0:0:0:
64,192,100655,128,0,101945:0:0:0:0:
192,192,100655,1,0,0:0:0:0:
320,192,100816,1,0,0:0:0:0:
448,192,100977,1,0,0:0:0:0:
320,192,101139,1,0,0:0:0:0:
192,192,101300,1,0,0:0:0:0:
320,192,101461,1,0,0:0:0:0:
448,192,101622,1,0,0:0:0:0:
320,192,101784,1,0,0:0:0:0:
448,192,101945,1,0,0:0:0:0:
320,192,102026,1,0,0:0:0:0:
192,192,102106,1,0,0:0:0:0:
64,192,102187,1,0,0:0:0:0:
448,192,102268,1,0,0:0:0:0:
320,192,102348,1,0,0:0:0:0:
192,192,102429,1,0,0:0:0:0:
64,192,102509,1,0,0:0:0:0:
448,192,102590,1,0,0:0:0:0:
320,192,102671,1,0,0:0:0:0:
192,192,102751,1,0,0:0:0:0:
64,192,102832,1,0,0:0:0:0:
448,192,102913,128,0,103235:0:0:0:0:
320,192,102913,128,0,103235:0:0:0:0:
320,192,103397,1,0,0:0:0:0:
192,192,103397,1,0,0:0:0:0:
320,192,103558,1,0,0:0:0:0:
192,192,103558,1,0,0:0:0:0:
320,192,103880,1,0,0:0:0:0:
192,192,103880,1,0,0:0:0:0:
192,192,104122,1,0,0:0:0:0:
64,192,104122,1,0,0:0:0:0:
320,192,104364,1,0,0:0:0:0:
192,192,104364,1,0,0:0:0:0:
298,192,104687,1,0,0:0:0:0:
192,192,104687,1,0,0:0:0:0:
320,192,104848,1,0,0:0:0:0:
192,192,104848,1,0,0:0:0:0:
320,192,105171,1,0,0:0:0:0:
192,192,105171,1,0,0:0:0:0:
384,192,105413,1,0,0:0:0:0:
320,192,105413,1,0,0:0:0:0:
320,192,105655,1,0,0:0:0:0:
192,192,105655,1,0,0:0:0:0:
320,192,105977,1,0,0:0:0:0:
192,192,105977,1,0,0:0:0:0:
320,192,106139,1,0,0:0:0:0:
192,192,106139,1,0,0:0:0:0:
320,192,106461,1,0,0:0:0:0:
192,192,106461,1,0,0:0:0:0:
192,192,106703,1,0,0:0:0:0:
64,192,106703,1,0,0:0:0:0:
320,192,106945,1,0,0:0:0:0:
192,192,106945,1,0,0:0:0:0:
298,192,107268,1,0,0:0:0:0:
192,192,107268,1,0,0:0:0:0:
320,192,107429,1,0,0:0:0:0:
192,192,107429,1,0,0:0:0:0:
448,192,107751,1,0,0:0:0:0:
320,192,107751,1,0,0:0:0:0:
320,192,107993,1,0,0:0:0:0:
192,192,107993,1,0,0:0:0:0:
192,192,108235,1,0,0:0:0:0:
64,192,108235,1,0,0:0:0:0:
192,192,108558,1,0,0:0:0:0:
320,192,108558,1,0,0:0:0:0:
192,192,108719,1,0,0:0:0:0:
320,192,108719,1,0,0:0:0:0:
192,192,109042,1,0,0:0:0:0:
320,192,109042,1,0,0:0:0:0:
42,192,109284,1,0,0:0:0:0:
192,192,109284,1,0,0:0:0:0:
192,192,109526,1,0,0:0:0:0:
320,192,109526,1,0,0:0:0:0:
192,192,109848,1,0,0:0:0:0:
320,192,109848,1,0,0:0:0:0:
192,192,110009,1,0,0:0:0:0:
320,192,110009,1,0,0:0:0:0:
192,192,110332,1,0,0:0:0:0:
320,192,110332,1,0,0:0:0:0:
320,192,110574,1,0,0:0:0:0:
448,192,110574,1,0,0:0:0:0:
192,192,110816,1,0,0:0:0:0:
320,192,110816,1,0,0:0:0:0:
128,192,111139,1,0,0:0:0:0:
320,192,111139,1,0,0:0:0:0:
192,192,111300,1,0,0:0:0:0:
320,192,111300,1,0,0:0:0:0:
128,192,111622,1,0,0:0:0:0:
320,192,111622,1,0,0:0:0:0:
42,192,111864,1,0,0:0:0:0:
192,192,111864,1,0,0:0:0:0:
192,192,112106,1,0,0:0:0:0:
320,192,112106,1,0,0:0:0:0:
384,192,112429,1,0,0:0:0:0:
320,192,112429,1,0,0:0:0:0:
448,192,112590,1,0,0:0:0:0:
320,192,112590,1,0,0:0:0:0:
384,192,112913,1,0,0:0:0:0:
320,192,112913,1,0,0:0:0:0:
298,192,113155,1,0,0:0:0:0:
192,192,113155,1,0,0:0:0:0:
192,192,113397,1,0,0:0:0:0:
64,192,113397,1,0,0:0:0:0:
192,192,113719,1,0,0:0:0:0:
320,192,113719,1,0,0:0:0:0:
192,192,113880,1,0,0:0:0:0:
320,192,113880,1,0,0:0:0:0:
192,192,114203,1,0,0:0:0:0:
320,192,114203,1,0,0:0:0:0:
64,192,114445,1,0,0:0:0:0:
192,192,114445,1,0,0:0:0:0:
192,192,114687,1,0,0:0:0:0:
320,192,114687,1,0,0:0:0:0:
320,192,115009,1,0,0:0:0:0:
192,192,115009,1,0,0:0:0:0:
320,192,115171,1,0,0:0:0:0:
192,192,115171,1,0,0:0:0:0:
320,192,115493,1,0,0:0:0:0:
192,192,115493,1,0,0:0:0:0:
448,192,115735,1,0,0:0:0:0:
320,192,115735,1,0,0:0:0:0:
320,192,115977,1,0,0:0:0:0:
192,192,115977,1,0,0:0:0:0:
192,192,116300,1,0,0:0:0:0:
320,192,116300,1,0,0:0:0:0:
192,192,116461,1,0,0:0:0:0:
320,192,116461,1,0,0:0:0:0:
192,192,116784,1,0,0:0:0:0:
320,192,116784,1,0,0:0:0:0:
64,192,117026,1,0,0:0:0:0:
192,192,117026,1,0,0:0:0:0:
192,192,117268,1,0,0:0:0:0:
320,192,117268,1,0,0:0:0:0:
192,192,117590,1,0,0:0:0:0:
320,192,117590,1,0,0:0:0:0:
192,192,117751,1,0,0:0:0:0:
320,192,117751,1,0,0:0:0:0:
448,192,118074,1,0,0:0:0:0:
320,192,118074,1,0,0:0:0:0:
298,192,118316,1,0,0:0:0:0:
192,192,118316,1,0,0:0:0:0:
192,192,118558,1,0,0:0:0:0:
64,192,118558,1,0,0:0:0:0:
128,192,118880,1,0,0:0:0:0:
320,192,118880,1,0,0:0:0:0:
192,192,119042,1,0,0:0:0:0:
320,192,119042,1,0,0:0:0:0:
192,192,119364,1,0,0:0:0:0:
320,192,119364,1,0,0:0:0:0:
42,192,119606,1,0,0:0:0:0:
192,192,119606,1,0,0:0:0:0:
192,192,119848,1,0,0:0:0:0:
320,192,119848,1,0,0:0:0:0:
128,192,120171,1,0,0:0:0:0:
320,192,120171,1,0,0:0:0:0:
192,192,120332,1,0,0:0:0:0:
320,192,120332,1,0,0:0:0:0:
192,192,120655,1,0,0:0:0:0:
320,192,120655,1,0,0:0:0:0:
192,192,120897,1,0,0:0:0:0:
320,192,120897,1,0,0:0:0:0:
320,192,121139,1,0,0:0:0:0:
448,192,121139,1,0,0:0:0:0:
320,192,121461,1,0,0:0:0:0:
448,192,121461,1,0,0:0:0:0:
448,192,121622,1,0,0:0:0:0:
320,192,121622,1,0,0:0:0:0:
320,192,121945,1,0,0:0:0:0:
448,192,121945,1,0,0:0:0:0:
64,192,122187,1,0,0:0:0:0:
192,192,122187,1,0,0:0:0:0:
192,192,122429,1,0,0:0:0:0:
320,192,122429,1,0,0:0:0:0:
192,192,122751,1,0,0:0:0:0:
320,192,122751,1,0,0:0:0:0:
192,192,122913,1,0,0:0:0:0:
320,192,122913,1,0,0:0:0:0:
448,192,123235,1,0,0:0:0:0:
320,192,123235,1,0,0:0:0:0:
320,192,123477,1,0,0:0:0:0:
192,192,123477,1,0,0:0:0:0:
64,192,123719,1,0,0:0:0:0:
192,192,123719,1,0,0:0:0:0:
320,192,123880,1,0,0:0:0:0:
192,192,124042,1,0,0:0:0:0:
448,192,124042,1,0,0:0:0:0:
64,192,124203,1,0,0:0:0:0:
192,192,124284,1,0,0:0:0:0:
320,192,124364,1,0,0:0:0:0:
64,192,124526,1,0,0:0:0:0:
192,192,124526,1,0,0:0:0:0:
448,192,124687,1,0,0:0:0:0:
320,192,124768,1,0,0:0:0:0:
192,192,124848,1,0,0:0:0:0:
320,192,125009,1,0,0:0:0:0:
448,192,125009,1,0,0:0:0:0:
192,192,125171,1,0,0:0:0:0:
64,192,125332,1,0,0:0:0:0:
320,192,125332,1,0,0:0:0:0:
448,192,125493,1,0,0:0:0:0:
320,192,125574,1,0,0:0:0:0:
192,192,125655,1,0,0:0:0:0:
448,192,125816,1,0,0:0:0:0:
320,192,125816,1,0,0:0:0:0:
64,192,125977,1,0,0:0:0:0:
192,192,126058,1,0,0:0:0:0:
320,192,126139,1,0,0:0:0:0:
64,192,126300,1,0,0:0:0:0:
192,192,126300,1,0,0:0:0:0:
320,192,126461,1,0,0:0:0:0:
192,192,126622,1,0,0:0:0:0:
448,192,126622,1,0,0:0:0:0:
64,192,126784,1,0,0:0:0:0:
192,192,126864,1,0,0:0:0:0:
320,192,126945,1,0,0:0:0:0:
64,192,127106,1,0,0:0:0:0:
192,192,127106,1,0,0:0:0:0:
448,192,127268,1,0,0:0:0:0:
320,192,127348,1,0,0:0:0:0:
192,192,127429,1,0,0:0:0:0:
320,192,127590,1,0,0:0:0:0:
448,192,127590,1,0,0:0:0:0:
192,192,127751,1,0,0:0:0:0:
64,192,127913,1,0,0:0:0:0:
320,192,127913,1,0,0:0:0:0:
448,192,128074,1,0,0:0:0:0:
320,192,128155,1,0,0:0:0:0:
192,192,128235,1,0,0:0:0:0:
448,192,128397,1,0,0:0:0:0:
320,192,128397,1,0,0:0:0:0:
64,192,128558,1,0,0:0:0:0:
192,192,128639,1,0,0:0:0:0:
320,192,128719,1,0,0:0:0:0:
64,192,128880,1,0,0:0:0:0:
192,192,128880,1,0,0:0:0:0:
320,192,129042,1,0,0:0:0:0:
192,192,129203,1,0,0:0:0:0:
448,192,129203,1,0,0:0:0:0:
64,192,129364,1,0,0:0:0:0:
320,192,129445,1,0,0:0:0:0:
192,192,129526,1,0,0:0:0:0:
64,192,129687,1,0,0:0:0:0:
320,192,129687,1,0,0:0:0:0:
448,192,129848,1,0,0:0:0:0:
192,192,129929,1,0,0:0:0:0:
320,192,130009,1,0,0:0:0:0:
448,192,130171,1,0,0:0:0:0:
64,192,130171,1,0,0:0:0:0:
192,192,130332,1,0,0:0:0:0:
64,192,130493,1,0,0:0:0:0:
320,192,130493,1,0,0:0:0:0:
448,192,130655,1,0,0:0:0:0:
192,192,130735,1,0,0:0:0:0:
320,192,130816,1,0,0:0:0:0:
192,192,130977,1,0,0:0:0:0:
448,192,130977,1,0,0:0:0:0:
64,192,131139,1,0,0:0:0:0:
320,192,131219,1,0,0:0:0:0:
192,192,131300,1,0,0:0:0:0:
64,192,131461,1,0,0:0:0:0:
448,192,131461,1,0,0:0:0:0:
320,192,131622,1,0,0:0:0:0:
192,192,131784,1,0,0:0:0:0:
448,192,131784,1,0,0:0:0:0:
64,192,131945,1,0,0:0:0:0:
320,192,132026,1,0,0:0:0:0:
192,192,132106,1,0,0:0:0:0:
64,192,132268,1,0,0:0:0:0:
320,192,132268,1,0,0:0:0:0:
448,192,132429,1,0,0:0:0:0:
192,192,132509,1,0,0:0:0:0:
320,192,132590,1,0,0:0:0:0:
448,192,132751,1,0,0:0:0:0:
64,192,132751,1,0,0:0:0:0:
192,192,132913,1,0,0:0:0:0:
64,192,133074,1,0,0:0:0:0:
320,192,133074,1,0,0:0:0:0:
448,192,133235,1,0,0:0:0:0:
192,192,133316,1,0,0:0:0:0:
320,192,133397,1,0,0:0:0:0:
192,192,133558,1,0,0:0:0:0:
448,192,133558,1,0,0:0:0:0:
64,192,133719,1,0,0:0:0:0:
320,192,133800,1,0,0:0:0:0:
192,192,133880,1,0,0:0:0:0:
64,192,134042,1,0,0:0:0:0:
448,192,134042,1,0,0:0:0:0:
320,192,134203,1,0,0:0:0:0:
448,192,134364,1,0,0:0:0:0:
192,192,134364,1,0,0:0:0:0:
64,192,134526,1,0,0:0:0:0:
192,192,134606,1,0,0:0:0:0:
448,192,134687,1,0,0:0:0:0:
64,192,134848,1,0,0:0:0:0:
320,192,134848,1,0,0:0:0:0:
448,192,135009,1,0,0:0:0:0:
192,192,135090,1,0,0:0:0:0:
64,192,135171,1,0,0:0:0:0:
320,192,135332,1,0,0:0:0:0:
448,192,135332,1,0,0:0:0:0:
192,192,135493,1,0,0:0:0:0:
64,192,135655,1,0,0:0:0:0:
320,192,135655,1,0,0:0:0:0:
448,192,135816,1,0,0:0:0:0:
320,192,135897,1,0,0:0:0:0:
64,192,135977,1,0,0:0:0:0:
192,192,136139,1,0,0:0:0:0:
448,192,136139,1,0,0:0:0:0:
64,192,136300,1,0,0:0:0:0:
320,192,136380,1,0,0:0:0:0:
448,192,136461,1,0,0:0:0:0:
64,192,136622,1,0,0:0:0:0:
192,192,136622,1,0,0:0:0:0:
320,192,136784,1,0,0:0:0:0:
448,192,136945,1,0,0:0:0:0:
192,192,136945,1,0,0:0:0:0:
64,192,137106,1,0,0:0:0:0:
192,192,137187,1,0,0:0:0:0:
448,192,137268,1,0,0:0:0:0:
64,192,137429,1,0,0:0:0:0:
320,192,137429,1,0,0:0:0:0:
448,192,137590,1,0,0:0:0:0:
192,192,137671,1,0,0:0:0:0:
64,192,137751,1,0,0:0:0:0:
320,192,137913,1,0,0:0:0:0:
448,192,137913,1,0,0:0:0:0:
192,192,138074,1,0,0:0:0:0:
64,192,138235,1,0,0:0:0:0:
320,192,138235,1,0,0:0:0:0:
448,192,138397,1,0,0:0:0:0:
320,192,138477,1,0,0:0:0:0:
64,192,138558,1,0,0:0:0:0:
192,192,138719,1,0,0:0:0:0:
448,192,138719,1,0,0:0:0:0:
64,192,138880,1,0,0:0:0:0:
320,192,138961,1,0,0:0:0:0:
448,192,139042,1,0,0:0:0:0:
64,192,139203,1,0,0:0:0:0:
192,192,139203,1,0,0:0:0:0:
320,192,139364,1,0,0:0:0:0:
448,192,139526,1,0,0:0:0:0:
192,192,139526,1,0,0:0:0:0:
64,192,139687,1,0,0:0:0:0:
320,192,139768,1,0,0:0:0:0:
448,192,139848,1,0,0:0:0:0:
320,192,140009,1,0,0:0:0:0:
192,192,140009,1,0,0:0:0:0:
64,192,140171,1,0,0:0:0:0:
192,192,140251,1,0,0:0:0:0:
320,192,140332,1,0,0:0:0:0:
64,192,140493,1,0,0:0:0:0:
192,192,140493,1,0,0:0:0:0:
320,192,140655,1,0,0:0:0:0:
192,192,140816,1,0,0:0:0:0:
448,192,140816,1,0,0:0:0:0:
64,192,140977,1,0,0:0:0:0:
320,192,141058,1,0,0:0:0:0:
448,192,141139,1,0,0:0:0:0:
320,192,141300,1,0,0:0:0:0:
192,192,141300,1,0,0:0:0:0:
64,192,141461,1,0,0:0:0:0:
192,192,141542,1,0,0:0:0:0:
320,192,141622,1,0,0:0:0:0:
192,192,141784,1,0,0:0:0:0:
64,192,141784,1,0,0:0:0:0:
320,192,141945,1,0,0:0:0:0:
448,192,142106,1,0,0:0:0:0:
192,192,142106,1,0,0:0:0:0:
64,192,142268,1,0,0:0:0:0:
320,192,142348,1,0,0:0:0:0:
448,192,142429,1,0,0:0:0:0:
192,192,142590,1,0,0:0:0:0:
320,192,142590,1,0,0:0:0:0:
64,192,142751,5,0,0:0:0:0:
192,192,142832,1,0,0:0:0:0:
320,192,142913,1,0,0:0:0:0:
64,192,143074,1,0,0:0:0:0:
192,192,143074,1,0,0:0:0:0:
320,192,143235,1,0,0:0:0:0:
192,192,143397,1,0,0:0:0:0:
64,192,143397,1,0,0:0:0:0:
448,192,143558,1,0,0:0:0:0:
320,192,143639,1,0,0:0:0:0:
192,192,143719,1,0,0:0:0:0:
448,192,143880,5,0,0:0:0:0:
320,192,143880,1,0,0:0:0:0:
64,192,144122,1,0,0:0:0:0:
192,192,144122,1,0,0:0:0:0:
192,192,144364,1,0,0:0:0:0:
320,192,144364,1,0,0:0:0:0:
64,192,144526,1,0,0:0:0:0:
192,192,144848,1,0,0:0:0:0:
384,192,145009,1,0,0:0:0:0:
298,192,145332,1,0,0:0:0:0:
128,192,145655,1,0,0:0:0:0:
128,192,145977,1,0,0:0:0:0:
42,192,146300,1,0,0:0:0:0:
128,192,146784,1,0,0:0:0:0:
42,192,147106,1,0,0:0:0:0:
128,192,147429,1,0,0:0:0:0:
384,192,147590,1,0,0:0:0:0:
320,192,147913,1,0,0:0:0:0:
192,192,148235,1,0,0:0:0:0:
