osu file format v14

[General]
AudioFilename: audio.mp3
AudioLeadIn: 0
PreviewTime: 65501
Countdown: 0
SampleSet: Drum
StackLeniency: 0.2
Mode: 0
LetterboxInBreaks: 0
WidescreenStoryboard: 1

[Editor]
Bookmarks: 17932,27154,31313,40174,43429,52652,63105,67305,84666,118294,137285,162778
DistanceSpacing: 1.5
BeatDivisor: 8
GridSize: 32
TimelineZoom: 2.500001

[Metadata]
Title:Feel The Love
TitleUnicode:Feel The Love
Artist:KIDS SEE GHOSTS
ArtistUnicode:KIDS SEE GHOSTS
Creator:Smokeman
Version:normal
Source:
Tags:Kanye West Kid Cudi pusha T pushaT brah gun hip hop rap em0nky english
BeatmapID:2442121
BeatmapSetID:973844

[Difficulty]
HPDrainRate:3
CircleSize:2.8
OverallDifficulty:3.5
ApproachRate:5
SliderMultiplier:1.3
SliderTickRate:1

[Events]
//Background and Video events
0,0,"BG.jpg",0,0
//Break Periods
//Storyboard Layer 0 (Background)
//Storyboard Layer 1 (Fail)
//Storyboard Layer 2 (Pass)
//Storyboard Layer 3 (Foreground)
//Storyboard Layer 4 (Overlay)
//Storyboard Sound Samples

[TimingPoints]
53,542.49547920434,4,3,1,30,1,0
53,-125,4,3,1,30,0,0
595,-125,4,3,1,22,0,0
1680,-125,4,3,1,30,0,0
2765,-125,4,3,1,22,0,0
3307,-125,4,3,1,30,0,0
3669,-125,4,3,1,22,0,0
3850,-125,4,3,1,30,0,0
4212,-125,4,3,1,22,0,0
4935,-125,4,3,1,22,0,0
6020,-125,4,3,1,30,0,0
7105,-125,4,3,1,22,0,0
7647,-125,4,3,1,30,0,0
9275,-100,4,3,1,30,0,0
10902,-125,4,3,1,30,0,0
11445,-125,4,3,1,22,0,0
11987,-125,4,3,1,30,0,0
13615,-100,4,3,1,30,0,0
15242,-125,4,3,1,30,0,0
15785,-125,4,3,1,22,0,0
16327,-125,4,3,1,30,0,0
17955,-100,4,3,1,30,0,0
19582,-125,4,3,1,30,0,0
20125,-125,4,3,1,22,0,0
20667,-125,4,3,1,30,0,0
22837,-100,4,3,1,30,0,0
23922,-125,4,3,1,30,0,0
24465,-125,4,3,1,22,0,0
25007,-125,4,3,1,30,0,0
27177,-111.111111111111,4,3,1,30,0,0
40147,593.471810089021,4,3,1,30,1,0
40147,-111.111111111111,4,3,1,30,0,0
40740,542.49547920434,4,3,1,30,1,0
40740,-111.111111111111,4,3,1,30,0,0
51770,-54.3478260869565,4,3,1,30,0,0
52132,-111.111111111111,4,3,1,30,0,0
52675,579.150579150579,4,3,1,30,1,0
53061,662.251655629139,4,3,1,30,1,0
53502,655.021834061135,4,3,1,30,1,0
53938,655.021834061135,4,3,1,30,1,0
54302,542.49547920434,4,3,1,30,1,0
54844,579.150579150579,4,3,1,30,1,0
55230,641.025641025641,4,3,1,30,1,0
55657,614.754098360656,4,3,1,30,1,0
56066,542.49547920434,4,3,1,30,1,0
56472,542.49547920434,4,3,1,30,1,0
57376,647.948164146868,4,3,1,30,1,0
57807,647.948164146868,4,3,1,30,1,0
58642,514.579759862779,4,3,1,30,1,0
58985,542.49547920434,4,3,1,30,1,0
59165,552.486187845304,4,3,1,30,1,0
59165,-95.2380952380952,4,3,1,30,0,0
59533,717.703349282297,4,3,1,30,1,0
59772,596.421471172962,4,3,1,30,1,0
60168,793.650793650794,4,3,1,30,1,0
60432,793.650793650794,4,3,1,30,1,0
60812,542.49547920434,4,3,1,30,1,0
67118,-95.2380952380952,4,3,1,53,0,0
67321,-50.0000000000002,4,3,1,63,0,1
67411,-50.0000000000002,4,3,1,33,0,1
68406,521.28583840139,4,3,1,63,1,1
68406,-50.0000000000002,4,3,1,63,0,1
68579,508.044030482642,4,3,1,63,1,1
68748,521.28583840139,4,3,1,63,1,1
68748,-50,4,3,1,63,0,1
68921,569.53013763645,4,3,1,63,1,1
69491,542.49547920434,4,3,1,63,1,1
69491,-62.5,4,3,1,63,0,1
69762,-50.0000000000002,4,3,1,33,0,1
69830,-50.0000000000002,4,3,1,63,0,1
72565,528.169014084507,4,3,1,63,1,1
72565,-50,4,3,1,63,0,1
73445,505.902192242833,4,3,1,63,1,1
73613,581.9592628516,4,3,1,63,1,1
73831,542.49547920434,4,3,1,63,1,1
73831,-50.0000000000002,4,3,1,63,0,1
74011,-50.0000000000002,4,3,1,33,0,1
75097,-50.0000000000002,4,3,1,63,0,1
76542,523.560209424084,4,3,1,63,1,1
76542,-50,4,3,1,63,0,1
76891,542.49547920434,4,3,1,63,1,1
77071,-50,4,3,1,63,0,1
77614,523.560209424084,4,3,1,63,1,1
77614,-50,4,3,1,63,0,1
77941,614.754098360656,4,3,1,63,1,1
78171,542.49547920434,4,3,1,63,1,1
78171,-50.0000000000002,4,3,1,63,0,1
78351,-50.0000000000002,4,3,1,33,0,1
79255,505.902192242833,4,3,1,63,1,1
79255,-50.0000000000002,4,3,1,63,0,1
79423,473.9336492891,4,3,1,63,1,1
79580,505.902192242833,4,3,1,63,1,1
79580,-50,4,3,1,63,0,1
80340,532.859680284192,4,3,1,63,1,1
80517,-50,4,3,1,63,0,1
80872,523.560209424084,4,3,1,63,1,1
80872,-50,4,3,1,63,0,1
81221,552.486187845304,4,3,1,63,1,1
81405,542.49547920434,4,3,1,63,1,0
81405,-50.0000000000002,4,3,1,63,0,0
82309,608.519269776876,4,3,1,63,1,0
82309,-50,4,3,1,63,0,0
82511,542.49547920434,4,3,1,63,1,0
83234,-71.4285714285714,4,3,1,63,0,0
84138,-100,4,3,1,53,0,0
84682,542.49547920434,4,3,1,63,1,1
84682,-76.9230769230769,4,3,1,63,0,1
97226,-76.9230769230769,4,3,1,43,0,1
97294,-76.9230769230769,4,3,1,53,0,1
97362,-76.9230769230769,4,3,1,43,0,1
97429,-76.9230769230769,4,3,1,53,0,1
97497,-76.9230769230769,4,3,1,43,0,1
97565,-76.9230769230769,4,3,1,53,0,1
97633,-76.9230769230769,4,3,1,43,0,1
97701,-76.9230769230769,4,3,1,63,0,1
98787,568.181818181818,4,3,1,63,1,1
99165,477.707006369427,4,3,1,63,1,1
99483,584.795321637427,4,3,1,63,1,1
99872,542.49547920434,4,3,1,43,1,0
99872,-100,4,3,1,43,0,0
102041,-100,4,2,1,43,0,0
104211,-95.2380952380952,4,2,1,33,0,0
105267,596.421471172962,4,2,1,33,1,0
105267,-100,4,2,1,33,0,0
105863,519.031141868512,4,2,1,33,1,0
105863,-111.111111111111,4,2,1,33,0,0
106382,596.421471172962,4,2,1,33,1,0
106382,-133.333333333333,4,2,1,33,0,0
106978,479.616306954436,4,2,1,33,1,0
106978,-151.515151515152,4,2,1,33,0,0
107457,542.49547920434,4,2,1,33,1,0
107467,-95.2380952380952,4,2,1,33,0,0
108541,542.49547920434,4,2,1,33,1,0
108541,-95.2380952380952,4,2,1,33,0,0
110168,608.519269776876,4,2,1,33,1,0
110168,-71.4285714285714,4,2,1,33,0,0
110472,477.707006369427,4,2,1,33,1,0
110710,542.49547920434,4,2,1,33,1,0
110710,-95.2380952380952,4,2,1,33,0,0
113964,655.021834061136,4,2,1,33,1,0
113964,-74.0740740740741,4,2,1,33,0,0
114291,542.49547920434,4,2,1,33,1,0
114562,587.659157688541,4,2,1,33,1,0
114562,-83.3333333333333,4,2,1,33,0,0
115051,596.421471172962,4,2,1,33,1,0
115051,-105.263157894737,4,2,1,33,0,0
115647,487.408610885459,4,2,1,33,1,0
115647,-151.515151515152,4,2,1,33,0,0
116134,542.49547920434,4,2,1,33,1,0
116134,-95.2380952380952,4,2,1,33,0,0
117218,-95.2380952380952,4,2,1,33,0,0
119388,-125,4,3,1,30,0,0
119931,-100,4,3,1,43,0,0
121558,-125,4,3,1,43,0,0
122101,-125,4,3,1,23,0,0
122643,-125,4,3,1,43,0,0
124271,-100,4,3,1,43,0,0
125898,-125,4,3,1,43,0,0
128611,-100,4,3,1,43,0,0
130238,-125,4,3,1,43,0,0
131323,-125,4,3,1,43,0,0
131775,-125,4,3,1,5,0,0
131866,-125,4,3,1,43,0,0
132408,-125,4,3,1,43,0,0
133493,-100,4,3,1,43,0,0
134578,-153.846153846154,4,3,1,43,0,0
136206,-33.3333333333333,4,3,1,43,0,0
136748,-100,4,3,1,53,0,0
137291,-47.6190476190476,4,3,1,53,0,0
137832,-55.5555555555556,4,3,1,53,0,0
138737,-66.6666666666667,4,3,1,53,0,0
140003,-38.4615384615385,4,3,1,63,0,0
140094,-38.4615384615385,4,3,1,5,0,0
140184,-38.4615384615385,4,3,1,63,0,0
140275,-38.4615384615385,4,3,1,5,0,0
140365,-38.4615384615385,4,3,1,63,0,0
140456,-38.4615384615385,4,3,1,5,0,0
140546,-38.4615384615385,4,3,1,63,0,0
140636,-100,4,3,1,5,0,0
140908,-100,4,3,1,53,0,0
141088,-100,4,3,1,53,0,0
141630,-47.6190476190476,4,3,1,53,0,0
142172,-55.5555555555556,4,3,1,53,0,0
143077,-66.6666666666667,4,3,1,53,0,0
144343,-38.4615384615385,4,3,1,63,0,0
144434,-38.4615384615385,4,3,1,5,0,0
144524,-38.4615384615385,4,3,1,63,0,0
144615,-38.4615384615385,4,3,1,5,0,0
144705,-38.4615384615385,4,3,1,63,0,0
144796,-38.4615384615385,4,3,1,5,0,0
144886,-38.4615384615385,4,3,1,63,0,0
144976,-100,4,3,1,5,0,0
145248,-100,4,3,1,53,0,0
145428,-100,4,3,1,53,0,0
145970,-47.6190476190476,4,3,1,53,0,0
146512,-55.5555555555556,4,3,1,53,0,0
147417,-66.6666666666667,4,3,1,53,0,0
148683,-38.4615384615385,4,3,1,63,0,0
148774,-38.4615384615385,4,3,1,5,0,0
148864,-38.4615384615385,4,3,1,63,0,0
148955,-38.4615384615385,4,3,1,5,0,0
149045,-38.4615384615385,4,3,1,63,0,0
149135,-38.4615384615385,4,3,1,5,0,0
149226,-38.4615384615385,4,3,1,63,0,0
149316,-38.4615384615385,4,3,1,5,0,0
149588,-100,4,3,1,53,0,0
149768,-100,4,3,1,53,0,0
150310,-47.6190476190476,4,3,1,53,0,0
150852,-55.5555555555556,4,3,1,53,0,0
151757,-66.6666666666667,4,3,1,53,0,0
153023,-38.4615384615385,4,3,1,63,0,0
153114,-38.4615384615385,4,3,1,5,0,0
153204,-38.4615384615385,4,3,1,63,0,0
153295,-38.4615384615385,4,3,1,5,0,0
153385,-38.4615384615385,4,3,1,63,0,0
153476,-38.4615384615385,4,3,1,5,0,0
153566,-38.4615384615385,4,3,1,63,0,0
153656,-100,4,3,1,5,0,0
153928,-100,4,3,1,53,0,0
154108,-100,4,3,1,53,0,0
154651,-47.6190476190476,4,3,1,53,0,0
155192,-55.5555555555556,4,3,1,53,0,0
156278,-100,4,3,1,53,0,0
156821,-47.6190476190476,4,3,1,53,0,0
157363,-38.4615384615385,4,3,1,63,0,0
157454,-38.4615384615385,4,3,1,5,0,0
157544,-38.4615384615385,4,3,1,63,0,0
157635,-38.4615384615385,4,3,1,5,0,0
157725,-38.4615384615385,4,3,1,63,0,0
157816,-38.4615384615385,4,3,1,5,0,0
157906,-38.4615384615385,4,3,1,63,0,0
157996,-100,4,3,1,5,0,0
158268,-100,4,3,1,53,0,0
158448,-50,4,3,1,63,0,1
161161,-35.0877192982456,4,3,1,43,0,0
161251,-35.0877192982456,4,3,1,33,0,0
162155,-35.0877192982456,4,3,1,13,0,0
162245,-35.0877192982456,4,3,1,23,0,0
162381,-35.0877192982456,4,3,1,8,0,0
162472,-35.0877192982456,4,3,1,23,0,0
162788,-35.0877192982456,4,3,1,13,0,0

[Colours]
Combo1 : 98,145,255
Combo2 : 255,98,160
Combo3 : 255,192,98
Combo4 : 208,98,255

[HitObjects]
46,277,53,6,0,P|113:297|160:324,1,104,2|0,0:2|0:0,0:0:0:0:
1,160,1680,1,2,0:2:0:0:
46,277,2222,2,0,P|113:297|160:324,1,104,2|0,0:2|0:0,0:0:0:0:
263,294,3307,6,0,L|279:204,1,69.3333333333333,0|0,0:0|0:0,0:0:0:0:
282,191,3850,1,0,0:0:0:0:
361,370,4392,6,0,P|423:338|476:326,1,104,2|0,0:2|0:0,0:0:0:0:
261,256,6020,1,2,0:2:0:0:
361,370,6562,2,0,P|423:338|476:326,1,104,2|0,0:2|0:0,0:0:0:0:
499,218,7647,5,0,0:0:0:0:
380,198,8190,1,0,0:0:0:0:
261,178,8732,1,2,0:2:0:0:
253,192,9275,6,0,L|218:118,2,43.3333333333333,2|0|0,0:2|0:0|0:0,0:0:0:0:
228,235,9817,2,0,P|158:243|94:262,1,130,2|2,0:2|0:2,0:0:0:0:
1,326,10902,2,0,P|-9:275|26:234,1,104,2|0,0:2|0:0,0:0:0:0:
94,344,11987,5,0,0:0:0:0:
213,324,12530,1,0,0:0:0:0:
332,304,13072,1,2,0:2:0:0:
328,320,13615,6,0,L|387:352,2,43.3333333333333,2|0|0,0:2|0:0|0:0,0:0:0:0:
352,320,14157,2,0,P|416:294|483:259,1,130,2|2,0:2|0:2,0:0:0:0:
508,152,15242,2,0,P|460:152|431:201,1,104,2|0,0:2|0:0,0:0:0:0:
413,70,16327,5,0,0:0:0:0:
343,170,16869,1,0,0:0:0:0:
266,262,17412,1,2,0:2:0:0:
271,251,17955,2,0,L|338:243,2,43.3333333333333,2|0|0,0:2|0:0|0:0,0:0:0:0:
226,273,18497,2,0,P|157:283|81:297,1,130,2|2,0:2|0:2,0:0:0:0:
81,169,19582,2,0,P|48:214|13:256,1,104,2|0,0:2|0:0,0:0:0:0:
51,365,20667,5,0,0:0:0:0:
151,300,21210,1,0,0:0:0:0:
260,245,21752,1,2,0:2:0:0:
239,142,22837,2,0,P|268:231|296:285,1,130,2|2,0:2|0:2,0:0:0:0:
371,345,23922,2,0,P|403:305|460:269,1,104,2|0,0:2|0:0,0:0:0:0:
500,168,25007,5,2,0:2:0:0:
381,148,25550,1,2,0:2:0:0:
262,128,26092,1,2,0:2:0:0:
48,291,27177,5,2,0:2:0:0:
122,341,27539,1,0,0:0:0:0:
208,317,27901,1,0,0:0:0:0:
272,378,28262,1,2,0:2:0:0:
488,188,29347,5,0,0:2:0:0:
406,287,29890,1,0,0:0:0:0:
347,350,30251,1,0,0:0:0:0:
343,364,30432,1,2,0:2:0:0:
144,260,31336,5,2,0:2:0:0:
148,274,31517,1,2,0:2:0:0:
35,347,32060,1,2,0:0:0:0:
89,224,32602,2,0,L|109:296,1,38.9999988098145,2|0,0:0|0:0,0:0:0:0:
48,330,33145,1,2,0:0:0:0:
12,168,33687,5,0,0:0:0:0:
131,148,34230,1,0,0:0:0:0:
250,128,34772,1,2,0:2:0:0:
453,303,35857,6,0,L|470:238,2,38.9999988098145,2|0|0,0:2|0:0|0:0,0:0:0:0:
411,321,36400,2,0,L|389:257,2,38.9999988098145,2|0|0,0:2|0:0|0:0,0:0:0:0:
381,355,36942,1,2,0:2:0:0:
248,329,37485,1,2,0:2:0:0:
130,278,38027,6,0,L|99:253,1,38.9999988098145,0|2,0:0|0:2,0:0:0:0:
58,330,38570,1,0,0:0:0:0:
0,271,38931,2,0,L|9:331,1,38.9999988098145,0|2,0:0|0:2,0:0:0:0:
48,291,40147,6,0,L|62:254,2,38.9999988098145,2|0|0,0:2|0:0|0:0,0:0:0:0:
82,320,40740,2,0,L|134:282,2,38.9999988098145,2|0|0,0:2|0:0|0:0,0:0:0:0:
183,334,41282,2,0,L|200:281,2,38.9999988098145,2|0|0,0:2|0:0|0:0,0:0:0:0:
278,275,41825,2,0,L|263:221,1,38.9999988098145,2|0,0:2|0:0,0:0:0:0:
275,227,42186,1,0,0:0:0:0:
320,181,42367,1,2,0:2:0:0:
371,107,42729,2,0,L|324:60,1,38.9999988098145,0|0,0:0|0:0,0:0:0:0:
0,192,43452,5,2,0:2:0:0:
43,201,43633,2,0,L|107:182,7,38.9999988098145,2|2|2|2|2|2|2|2,0:2|0:2|0:2|0:2|0:2|0:2|0:2|0:2,0:0:0:0:
156,219,45080,5,2,0:2:0:0:
200,346,45622,1,2,0:2:0:0:
240,326,45803,6,0,P|264:339|281:353,7,38.9999988098145,2|2|2|2|2|2|2|2,0:2|0:2|0:2|0:2|0:2|0:2|0:2|0:2,0:0:0:0:
348,314,47250,1,2,0:2:0:0:
387,185,47792,1,2,0:2:0:0:
424,209,47973,6,0,P|457:175|465:162,7,38.9999988098145,2|2|2|2|2|2|2|2,0:2|0:2|0:2|0:2|0:2|0:2|0:2|0:2,0:0:0:0:
475,104,49420,1,2,0:2:0:0:
378,10,49962,1,2,0:2:0:0:
344,40,50143,6,0,L|354:111,7,38.9999988098145,2|2|2|2|2|2|2|2,0:2|0:2|0:2|0:2|0:2|0:2|0:2|0:2,0:0:0:0:
336,158,51590,1,2,0:2:0:0:
512,192,52132,1,2,0:2:0:0:
440,152,52675,5,2,0:2:0:0:
363,241,53061,1,2,0:0:0:0:
251,203,53502,1,2,0:2:0:0:
173,308,53938,1,2,0:2:0:0:
440,152,54845,5,2,0:2:0:0:
330,109,55230,1,2,0:0:0:0:
363,241,55657,1,2,0:2:0:0:
311,347,56066,1,0,0:0:0:0:
440,152,57015,5,2,0:2:0:0:
363,241,57376,1,2,0:2:0:0:
300,109,57807,1,2,0:0:0:0:
251,203,58238,1,2,0:3:0:0:
139,85,58985,5,0,0:0:0:0:
156,169,59165,2,0,B|140:220|180:217|162:265,1,90.9999972229005,2|2,0:2|0:2,0:0:0:0:
144,318,59772,1,0,0:0:0:0:
204,293,59970,1,2,0:0:0:0:
269,287,60168,1,0,0:0:0:0:
324,321,60432,1,2,0:2:0:0:
440,152,61354,5,2,0:2:0:0:
363,241,61761,1,2,0:0:0:0:
234,171,62167,1,2,0:0:0:0:
183,325,62620,1,0,0:0:0:0:
72,152,63524,5,2,0:2:0:0:
181,74,63931,1,2,0:0:0:0:
234,178,64338,1,2,0:0:0:0:
358,215,64789,1,2,0:2:0:0:
499,351,65694,5,2,0:2:0:0:
394,297,66101,1,2,0:0:0:0:
278,319,66508,5,2,0:0:0:0:
179,382,66915,1,0,0:0:0:0:
14,253,67321,5,4,0:0:0:0:
127,101,68406,2,0,L|106:243,1,86.6666666666667,4|4,0:0|0:0,0:0:0:0:
116,290,68748,2,0,L|128:204,1,86.6666666666667,4|12,0:0|0:0,0:0:0:0:
366,373,69490,5,0,0:0:0:0:
458,196,69852,1,0,0:0:0:0:
465,237,70033,2,0,L|343:141,1,86.6666666666667,4|0,0:0|0:0,0:0:0:0:
203,233,70575,2,0,L|237:105,1,86.6666666666667,4|0,0:0|0:0,0:0:0:0:
67,69,71480,5,8,0:0:0:0:
99,60,71660,2,0,L|29:156,1,86.6666666666667,4|0,0:0|0:0,0:0:0:0:
224,223,72203,2,0,L|88:298,1,86.6666666666667,4|0,0:0|0:0,0:0:0:0:
285,371,72565,5,8,0:0:0:0:
320,368,72741,2,0,L|370:289,1,86.6666666666667,4|4,0:0|0:0,0:0:0:0:
414,203,73093,2,0,L|396:316,2,86.6666666666667,4|12|4,0:0|0:0|0:0,0:0:0:0:
430,105,73613,1,0,0:0:0:0:
432,4,73831,2,0,L|564:56,1,86.6666666666667,4|0,0:0|0:0,0:0:0:0:
37,117,75096,6,0,L|-15:48,2,86.6666666666667,4|8|4,0:0|0:0|0:0,0:0:0:0:
218,360,76542,6,0,L|111:391,2,86.6666666666667,4|4|8,0:0|0:0|0:0,0:0:0:0:
302,305,77071,2,0,B|349:252|349:252|369:201,2,86.6666666666667,4|4|4,0:0|0:0|0:0,0:0:0:0:
211,263,77614,2,0,B|191:192|191:192|192:161,1,86.6666666666667,12|0,0:0|0:0,0:0:0:0:
261,107,77941,1,8,0:0:0:0:
215,18,78171,2,0,L|321:107,1,86.6666666666667,4|0,0:0|0:0,0:0:0:0:
512,332,79255,6,0,B|451:364|451:364|427:370,1,86.6666666666667,4|4,0:0|0:0,0:0:0:0:
344,321,79580,2,0,L|304:210,1,86.6666666666667,4|12,0:0|0:0,0:0:0:0:
71,324,80517,6,0,B|10:356|10:356|-7:361,1,86.6666666666667,0|8,0:0|0:0,0:0:0:0:
152,314,80872,2,0,L|235:293,1,86.6666666666667,12|8,0:0|0:0,0:0:0:0:
344,288,81221,1,12,0:0:0:0:
376,261,81405,1,12,0:0:0:0:
391,125,81676,6,0,B|496:132|496:132|527:116,1,130,8|8,0:0|0:0,0:0:0:0:
329,186,82309,2,0,B|311:173|311:173|245:168,1,86.6666666666667,8|12,0:0|0:0,0:0:0:0:
47,150,82873,1,0,0:0:0:0:
83,144,83234,2,0,B|17:139,2,60.666664815267,12|12|12,0:0|0:0|0:0,0:0:0:0:
233,156,84138,5,12,0:0:0:0:
427,168,84682,6,0,B|458:192|470:257|471:287,1,112.666661509196,4|0,0:0|0:0,0:0:0:0:
414,303,85224,2,0,B|432:305|454:317|463:328,2,56.3333307545981,10|8|8,0:0|0:0|0:0,0:0:0:0:
339,344,85766,1,4,0:0:0:0:
145,362,86309,1,10,0:0:0:0:
56,320,86580,2,0,L|6:265,1,56.3333307545981
5,308,86851,6,0,B|23:276|26:220|14:192,1,112.666661509196,4|4,0:0|0:0,0:0:0:0:
109,108,87575,2,0,L|89:169,1,56.3333307545981,4|4,0:0|0:0,0:0:0:0:
173,229,87936,6,0,P|194:197|213:179,1,56.3333307545981,12|12,0:0|0:0,0:0:0:0:
248,111,88298,2,0,P|252:83|262:57,1,56.3333307545981,12|12,0:0|0:0,0:0:0:0:
450,108,89021,6,0,B|419:132|407:197|406:227,1,112.666661509196,4|0,0:0|0:0,0:0:0:0:
446,261,89564,2,0,B|464:263|490:263|511:244,2,56.3333307545981,10|8|8,0:0|0:0|0:0,0:0:0:0:
371,289,90106,1,4,0:0:0:0:
157,239,90649,1,10,0:0:0:0:
40,328,91010,1,0,0:0:0:0:
66,353,91191,6,0,B|94:339|152:333|201:333,1,112.666661509196,4|8,0:0|0:0,0:0:0:0:
247,351,91734,1,10,0:0:0:0:
147,154,92276,6,0,P|116:131|92:120,1,56.3333307545981,12|12,0:0|0:0,0:0:0:0:
53,56,92638,2,0,P|25:46|-2:44,1,56.3333307545981,12|12,0:0|0:0,0:0:0:0:
72,281,93361,6,0,B|111:284|164:245|185:223,1,112.666661509196,4|0,0:0|0:0,0:0:0:0:
245,232,93904,2,0,P|264:199|292:176,1,56.3333307545981,10|0,0:0|0:0,0:0:0:0:
408,120,94446,6,0,P|448:81|459:64,2,56.3333307545981,4|8|8,0:0|0:0|0:0,0:0:0:0:
325,114,94989,1,10,0:0:0:0:
193,49,95350,5,0,0:0:0:0:
151,120,95531,2,0,P|201:143|228:148,2,56.3333307545981,4|8|8,0:0|0:0|0:0,0:0:0:0:
73,156,96074,1,10,0:0:0:0:
197,337,96616,6,0,P|177:357|163:381,1,56.3333307545981,12|12,0:0|0:0,0:0:0:0:
97,304,96978,2,0,P|119:286|144:274,1,56.3333307545981,12|8,0:0|0:0,0:0:0:0:
362,247,97701,6,0,B|393:271|405:336|406:366,1,112.666661509196,4|0,0:0|0:0,0:0:0:0:
485,330,98243,1,10,0:0:0:0:
350,241,98787,5,4,0:0:0:0:
232,229,99165,2,0,L|145:217,1,86.6666666666667,8|8,0:0|0:0,0:0:0:0:
45,201,99872,1,4,0:0:0:0:
41,353,102041,6,0,B|21:333|185:274|261:325|321:289|371:259|405:237|359:209,1,390,4|0,0:0|0:0,0:0:0:0:
213,207,104211,6,0,B|208:190|312:213|334:265|376:267|412:268|436:268|422:239,1,227.499993057251,2|0,0:0|0:0,0:0:0:0:
493,186,105267,2,0,B|505:176|418:156|386:173,1,86.6666666666667,2|0,0:0|0:0,0:0:0:0:
378,129,105863,2,0,B|371:122|318:119|274:145,1,77.999997619629,2|0,0:0|0:0,0:0:0:0:
271,119,106382,2,0,B|263:115|242:149|249:187,1,65.0000024795533,2|0,0:0|0:0,0:0:0:0:
210,192,106978,2,0,B|208:202|225:222|256:226,1,57.1999998254394,2|0,0:0|0:0,0:0:0:0:
265,253,107457,1,0,0:0:0:0:
393,379,108541,5,2,0:0:0:0:
84,323,109625,2,0,L|72:263,1,45.4999986114502,2|2,0:0|0:0,0:0:0:0:
63,371,110168,2,0,P|73:344|78:272,1,90.9999972229005
136,216,110710,6,0,B|170:220|209:180|224:151|217:148|208:142|183:141|212:95|297:56|279:80|273:88|259:111|273:147|303:153|361:114|347:101|328:105|355:21|416:-1|389:58|424:75|441:57|458:16,1,409.499987503052,4|0,0:0|0:0,0:0:0:0:
512,183,112879,2,0,B|388:161|473:213|395:248|397:157|324:192|403:245|350:240|313:209|294:246,1,227.499993057251,2|0,0:0|0:0,0:0:0:0:
251,300,113964,2,0,B|264:292|216:265|169:259|160:274,1,87.7500003347397,2|0,0:0|0:0,0:0:0:0:
123,328,114562,2,0,B|83:330|50:361|75:361,1,77.999997619629,2|0,0:0|0:0,0:0:0:0:
24,285,115051,2,0,L|4:259,1,30.8749991755486,2|0,0:0|0:0,0:0:0:0:
16,156,116135,1,0,0:0:0:0:
244,371,117218,5,2,0:0:0:0:
385,298,118303,2,0,L|373:238,2,45.4999986114502,2|0|0,0:0|0:0|0:0,0:0:0:0:
408,356,118846,2,0,P|398:329|393:257,1,90.9999972229005
431,191,119388,1,4,0:0:0:0:
507,62,119931,6,0,L|452:32,2,43.3333333333333,2|0|0,0:2|0:0|0:0,0:0:0:0:
471,97,120473,2,0,P|401:105|337:124,1,130,2|2,0:2|0:2,0:0:0:0:
245,189,121558,2,0,P|210:150|156:153,1,104,2|0,0:2|0:0,0:0:0:0:
67,225,122643,5,2,0:2:0:0:
164,269,123186,1,2,0:2:0:0:
177,354,123728,1,2,0:2:0:0:
348,328,124271,6,0,L|407:360,2,43.3333333333333,2|0|0,0:2|0:0|0:0,0:0:0:0:
392,305,124813,2,0,P|324:290|252:267,1,130,2|2,0:2|0:2,0:0:0:0:
165,207,125898,1,2,0:2:0:0:
0,113,126983,2,0,P|80:97|99:91,1,69.3333333333333,2|0,0:2|0:0,0:0:0:0:
175,47,127888,2,0,L|202:84,1,34.6666666666667,0|2,0:0|0:2,0:0:0:0:
348,99,128611,6,0,L|361:30,2,43.3333333333333
393,119,129154,2,0,P|378:187|365:263,1,130,2|2,0:2|0:2,0:0:0:0:
448,328,130058,1,0,0:0:0:0:
444,291,130238,2,0,P|411:336|376:378,1,104
262,353,131323,5,2,0:2:0:0:
145,324,131866,1,2,0:2:0:0:
56,360,132408,2,0,L|-20:338,1,69.3333333333333,2|0,0:2|0:0,0:0:0:0:
16,142,133493,2,0,P|45:231|73:285,1,130,2|2,0:2|0:2,0:0:0:0:
156,283,134578,6,0,L|426:335,1,253.499988395691
469,239,136748,5,10,0:2:0:0:
167,328,137291,2,0,P|73:300|15:225,1,181.999994445801,10|0,0:3|0:0,0:0:0:0:
57,156,137833,1,10,0:2:0:0:
193,81,138195,1,2,0:0:0:0:
156,66,138376,1,10,0:0:0:0:
188,193,138737,6,0,L|214:147,2,32.5000012397767,0|0|4,0:0|0:0|0:0,0:0:0:0:
333,226,139280,2,0,L|320:175,2,32.5000012397767,0|0|4,0:0|0:0|0:0,0:0:0:0:
455,158,140003,2,0,L|350:58,3,112.666661509196,12|12|12|12,0:0|0:0|0:0|0:0,0:0:0:0:
428,12,141088,5,4,0:2:0:0:
377,341,141631,2,0,P|428:265|447:177,1,181.999994445801,10|0,0:3|0:0,0:0:0:0:
358,196,142173,1,10,0:2:0:0:
224,278,142535,1,2,0:0:0:0:
187,264,142716,1,10,0:0:0:0:
8,312,143077,6,0,L|18:364,2,32.5000012397767,0|0|4,0:0|0:0|0:0,0:0:0:0:
34,164,143620,2,0,L|44:216,2,32.5000012397767,0|0|4,0:0|0:0|0:0,0:0:0:0:
60,17,144343,2,0,L|84:142,3,112.666661509196,12|12|12|12,0:0|0:0|0:0|0:0,0:0:0:0:
169,58,145428,5,4,0:2:0:0:
83,335,145971,2,0,B|140:297|230:279|266:323,1,181.999994445801,10|0,0:3|0:0,0:0:0:0:
340,343,146513,1,10,0:2:0:0:
462,245,146875,1,2,0:0:0:0:
423,237,147056,1,10,0:0:0:0:
441,112,147417,6,0,L|395:130,2,32.5000012397767,0|0|4,0:0|0:0|0:0,0:0:0:0:
306,43,147960,2,0,L|320:90,2,32.5000012397767,0|0|4,0:0|0:0|0:0,0:0:0:0:
190,134,148683,2,0,L|78:118,3,112.666661509196,12|12|12|12,0:0|0:0|0:0|0:0,0:0:0:0:
10,195,149768,5,4,0:2:0:0:
267,63,150311,2,0,B|149:238,1,181.999994445801,10|0,0:3|0:0,0:0:0:0:
241,262,150853,1,10,0:2:0:0:
108,339,151215,1,2,0:0:0:0:
145,348,151396,1,10,0:0:0:0:
287,384,151757,6,0,L|324:373,2,32.5,0|0|4,0:0|0:0|0:0,0:0:0:0:
432,310,152300,2,0,L|464:312,2,32.5,0|0|4,0:0|0:0|0:0,0:0:0:0:
376,193,153023,2,0,L|353:72,3,112.666661509196,12|12|12|12,0:0|0:0|0:0|0:0,0:0:0:0:
447,53,154108,5,4,0:2:0:0:
352,326,154651,2,0,L|200:170,1,181.999994445801,10|0,0:3|0:0,0:0:0:0:
154,251,155193,1,10,0:2:0:0:
46,128,155555,1,2,0:0:0:0:
80,146,155736,1,10,0:0:0:0:
92,51,156278,5,10,0:2:0:0:
132,332,156821,2,0,L|284:176,1,181.999994445801,10|0,0:3|0:0,0:0:0:0:
362,180,157363,2,0,L|408:47,3,112.666661509196,12|12|12|12,0:0|0:0|0:0|0:0,0:0:0:0:
256,0,158448,6,0,P|241:43|233:105,1,86.6666666666667,12|12,0:0|0:0,0:0:0:0:
144,128,158810,1,12,0:0:0:0:
79,203,158990,2,0,P|101:250|153:309,2,86.6666666666667,12|4|4,0:0|0:0|0:0,0:0:0:0:
33,301,159533,1,12,0:0:0:0:
256,384,160075,2,0,P|295:344|328:288,1,86.6666666666667,8|12,0:0|0:0,0:0:0:0:
404,280,160437,1,12,0:0:0:0:
466,202,160618,2,0,B|446:78|271:6|286:159,1,260,12|2,0:0|0:2,0:0:0:0:
