osu file format v14

[General]
AudioFilename: audio.mp3
AudioLeadIn: 0
PreviewTime: 65501
Countdown: 0
SampleSet: Drum
StackLeniency: 0.2
Mode: 0
LetterboxInBreaks: 0
WidescreenStoryboard: 1

[Editor]
Bookmarks: 17932,27154,31313,40174,43429,52652,67305,84666,118294,162778
DistanceSpacing: 1.5
BeatDivisor: 6
GridSize: 32
TimelineZoom: 2.500001

[Metadata]
Title:Feel The Love
TitleUnicode:Feel The Love
Artist:KIDS SEE GHOSTS
ArtistUnicode:KIDS SEE GHOSTS
Creator:Smokeman
Version:living nightmares
Source:
Tags:Kanye West Kid Cudi pusha T pushaT brah gun hip hop rap em0nky english
BeatmapID:2038619
BeatmapSetID:973844

[Difficulty]
HPDrainRate:6.3
CircleSize:3.2
OverallDifficulty:8.7
ApproachRate:8.3
SliderMultiplier:2.6
SliderTickRate:1

[Events]
//Background and Video events
0,0,"BG.jpg",0,0
//Break Periods
//Storyboard Layer 0 (Background)
//Storyboard Layer 1 (Fail)
//Storyboard Layer 2 (Pass)
//Storyboard Layer 3 (Foreground)
//Storyboard Layer 4 (Overlay)
//Storyboard Sound Samples

[TimingPoints]
53,542.49547920434,4,3,1,30,1,0
53,-333.333333333333,4,3,1,30,0,0
595,-333.333333333333,4,3,1,22,0,0
1680,-333.333333333333,4,3,1,30,0,0
2765,-333.333333333333,4,3,1,22,0,0
3307,-333.333333333333,4,3,1,30,0,0
3669,-333.333333333333,4,3,1,22,0,0
3850,-333.333333333333,4,3,1,30,0,0
4212,-333.333333333333,4,3,1,22,0,0
4392,-333.333333333333,4,3,1,30,0,0
4935,-333.333333333333,4,3,1,22,0,0
6020,-333.333333333333,4,3,1,30,0,0
7105,-333.333333333333,4,3,1,22,0,0
7647,-333.333333333333,4,3,1,30,0,0
8009,-333.333333333333,4,3,1,22,0,0
8190,-333.333333333333,4,3,1,30,0,0
8552,-333.333333333333,4,3,1,22,0,0
8732,-333.333333333333,4,3,1,30,0,0
9275,-100,4,3,1,30,0,0
10902,-333.333333333333,4,3,1,30,0,0
11445,-333.333333333333,4,3,1,22,0,0
11987,-333.333333333333,4,3,1,30,0,0
12349,-333.333333333333,4,3,1,22,0,0
12530,-333.333333333333,4,3,1,30,0,0
12892,-333.333333333333,4,3,1,22,0,0
13072,-333.333333333333,4,3,1,30,0,0
13615,-100,4,3,1,30,0,0
15242,-333.333333333333,4,3,1,30,0,0
15785,-333.333333333333,4,3,1,22,0,0
16327,-333.333333333333,4,3,1,30,0,0
16689,-333.333333333333,4,3,1,22,0,0
16870,-333.333333333333,4,3,1,30,0,0
17232,-333.333333333333,4,3,1,22,0,0
17412,-333.333333333333,4,3,1,30,0,0
17955,-100,4,3,1,30,0,0
19582,-333.333333333333,4,3,1,30,0,0
20125,-333.333333333333,4,3,1,22,0,0
20667,-333.333333333333,4,3,1,30,0,0
21029,-333.333333333333,4,3,1,22,0,0
21210,-333.333333333333,4,3,1,30,0,0
21571,-333.333333333333,4,3,1,22,0,0
21752,-333.333333333333,4,3,1,30,0,0
22837,-100,4,3,1,30,0,0
23922,-333.333333333333,4,3,1,30,0,0
24465,-333.333333333333,4,3,1,22,0,0
25007,-333.333333333333,4,3,1,30,0,0
25369,-333.333333333333,4,3,1,22,0,0
25550,-333.333333333333,4,3,1,30,0,0
25911,-333.333333333333,4,3,1,22,0,0
26092,-333.333333333333,4,3,1,30,0,0
27177,-285.714285714286,4,3,1,30,0,0
40147,593.471810089021,4,3,1,30,1,0
40147,-285.714285714286,4,3,1,30,0,0
40740,542.49547920434,4,3,1,30,1,0
40740,-285.714285714286,4,3,1,30,0,0
43271,-285.714285714286,4,3,1,22,0,0
43452,-285.714285714286,4,3,1,30,0,0
51770,-54.3478260869565,4,3,1,30,0,0
52132,-285.714285714286,4,3,1,30,0,0
52675,579.150579150579,4,3,1,30,1,0
52675,-86.9565217391304,4,3,1,30,0,0
53061,662.251655629139,4,3,1,30,1,0
53061,-86.9565217391304,4,3,1,30,0,0
53502,655.021834061135,4,3,1,30,1,0
53502,-86.9565217391304,4,3,1,30,0,0
53938,655.021834061135,4,3,1,30,1,0
54302,542.49547920434,4,3,1,30,1,0
54844,579.150579150579,4,3,1,30,1,0
54844,-86.9565217391304,4,3,1,30,0,0
55230,641.025641025641,4,3,1,30,1,0
55230,-86.9565217391304,4,3,1,30,0,0
55657,614.754098360656,4,3,1,30,1,0
55657,-86.9565217391304,4,3,1,30,0,0
56066,542.49547920434,4,3,1,30,1,0
56472,542.49547920434,4,3,1,30,1,0
57014,-86.9565217391304,4,3,1,30,0,0
57376,647.948164146868,4,3,1,30,1,0
57376,-86.9565217391304,4,3,1,30,0,0
57807,647.948164146868,4,3,1,30,1,0
58238,-86.9565217391304,4,3,1,30,0,0
58642,514.579759862779,4,3,1,30,1,0
58985,542.49547920434,4,3,1,30,1,0
59165,552.486187845304,4,3,1,30,1,0
59165,-86.9565217391304,4,3,1,30,0,0
59533,717.703349282297,4,3,1,30,1,0
59772,596.421471172962,4,3,1,30,1,0
60168,793.650793650794,4,3,1,30,1,0
60432,793.650793650794,4,3,1,30,1,0
60812,542.49547920434,4,3,1,30,1,0
61354,-86.9565217391304,4,3,1,30,0,0
67119,-86.9565217391304,4,3,1,53,0,0
67321,-16.6666666666667,4,3,1,63,0,1
67411,-16.6666666666667,4,3,1,33,0,1
68406,521.28583840139,4,3,1,63,1,1
68579,508.044030482642,4,3,1,63,1,1
68748,521.28583840139,4,3,1,63,1,1
68921,569.53013763645,4,3,1,63,1,1
69491,542.49547920434,4,3,1,63,1,1
69491,-25,4,3,1,63,0,1
69762,-16.6666666666667,4,3,1,33,0,1
69830,-16.6666666666667,4,3,1,63,0,1
72565,528.169014084507,4,3,1,63,1,1
73445,505.902192242833,4,3,1,63,1,1
73613,581.9592628516,4,3,1,63,1,1
73831,542.49547920434,4,3,1,63,1,1
73831,-16.6666666666667,4,3,1,63,0,1
73921,-16.6666666666667,4,3,1,33,0,1
75097,-16.6666666666667,4,3,1,63,0,1
76542,523.560209424084,4,3,1,63,1,1
76891,542.49547920434,4,3,1,63,1,1
77614,523.560209424084,4,3,1,63,1,1
77941,614.754098360656,4,3,1,63,1,1
78171,542.49547920434,4,3,1,63,1,1
79255,505.902192242833,4,3,1,63,1,1
79423,473.9336492891,4,3,1,63,1,1
79580,505.902192242833,4,3,1,63,1,1
80340,532.859680284192,4,3,1,63,1,1
80872,523.560209424084,4,3,1,63,1,1
81221,552.486187845304,4,3,1,63,1,1
81405,542.49547920434,4,3,1,63,1,0
82309,608.519269776876,4,3,1,63,1,0
82511,542.49547920434,4,3,1,63,1,0
83234,-33.3333333333333,4,3,1,63,0,0
84138,-100,4,3,1,53,0,0
84682,542.49547920434,4,3,1,63,1,1
84682,-50,4,3,1,63,0,1
97227,-50,4,3,1,43,0,1
97295,-50,4,3,1,53,0,1
97362,-50,4,3,1,43,0,1
97430,-50,4,3,1,53,0,1
97498,-50,4,3,1,43,0,1
97566,-50,4,3,1,53,0,1
97634,-50,4,3,1,43,0,1
97701,-50,4,3,1,63,0,1
98787,568.181818181818,4,3,1,63,1,1
99165,477.707006369427,4,3,1,63,1,1
99483,584.795321637427,4,3,1,63,1,1
99872,542.49547920434,4,3,1,43,1,0
99872,-100,4,3,1,43,0,0
102042,-95.2380952380952,4,2,1,33,0,0
105267,596.421471172962,4,2,1,33,1,0
105267,-100,4,2,1,33,0,0
105863,519.031141868512,4,2,1,33,1,0
105863,-111.111111111111,4,2,1,33,0,0
106382,596.421471172962,4,2,1,33,1,0
106382,-133.333333333333,4,2,1,33,0,0
106978,479.616306954436,4,2,1,33,1,0
106978,-151.515151515152,4,2,1,33,0,0
107457,542.49547920434,4,2,1,33,1,0
108541,542.49547920434,4,2,1,33,1,0
108541,-95.2380952380952,4,2,1,33,0,0
110168,608.519269776876,4,2,1,33,1,0
110472,477.707006369427,4,2,1,33,1,0
110710,542.49547920434,4,2,1,33,1,0
110710,-95.2380952380952,4,2,1,33,0,0
113964,655.021834061136,4,2,1,33,1,0
113964,-100,4,2,1,33,0,0
114291,542.49547920434,4,2,1,33,1,0
114562,587.659157688541,4,2,1,33,1,0
114562,-111.111111111111,4,2,1,33,0,0
115051,596.421471172962,4,2,1,33,1,0
115051,-133.333333333333,4,2,1,33,0,0
115647,487.408610885459,4,2,1,33,1,0
115647,-151.515151515152,4,2,1,33,0,0
116134,542.49547920434,4,2,1,33,1,0
116134,-95.2380952380952,4,2,1,33,0,0
117218,-95.2380952380952,4,2,1,33,0,0
119388,-333.333333333333,4,3,1,43,0,0
119931,-100,4,3,1,43,0,0
121558,-333.333333333333,4,3,1,43,0,0
122101,-333.333333333333,4,3,1,23,0,0
122643,-333.333333333333,4,3,1,43,0,0
123005,-333.333333333333,4,3,1,23,0,0
123186,-333.333333333333,4,3,1,43,0,0
123548,-333.333333333333,4,3,1,23,0,0
123728,-333.333333333333,4,3,1,43,0,0
124271,-100,4,3,1,43,0,0
125898,-333.333333333333,4,3,1,43,0,0
126441,-333.333333333333,4,3,1,23,0,0
126983,-333.333333333333,4,3,1,43,0,0
128611,-100,4,3,1,43,0,0
130238,-333.333333333333,4,3,1,43,0,0
130781,-333.333333333333,4,3,1,23,0,0
131323,-333.333333333333,4,3,1,43,0,0
131775,-333.333333333333,4,3,1,5,0,0
131866,-333.333333333333,4,3,1,43,0,0
132228,-333.333333333333,4,3,1,23,0,0
132408,-333.333333333333,4,3,1,43,0,0
133493,-100,4,3,1,43,0,0
134578,-666.666666666667,4,3,1,43,0,0
135663,-666.666666666667,4,3,1,13,0,0
136205,-33.3333333333333,4,3,1,43,0,0
136747,-100,4,3,1,53,0,0
137290,-35.7142857142857,4,3,1,53,0,0
137832,-50,4,3,1,53,0,0
140003,-200,4,3,1,63,0,0
140094,-200,4,3,1,5,0,0
140184,-200,4,3,1,63,0,0
140275,-200,4,3,1,5,0,0
140365,-200,4,3,1,63,0,0
140456,-200,4,3,1,5,0,0
140546,-200,4,3,1,63,0,0
140636,-100,4,3,1,5,0,0
140908,-100,4,3,1,53,0,0
141088,-100,4,3,1,53,0,0
141631,-35.7142857142857,4,3,1,53,0,0
142173,-50,4,3,1,53,0,0
144343,-200,4,3,1,63,0,0
144434,-200,4,3,1,5,0,0
144524,-200,4,3,1,63,0,0
144615,-200,4,3,1,5,0,0
144705,-200,4,3,1,63,0,0
144796,-200,4,3,1,5,0,0
144886,-200,4,3,1,63,0,0
144976,-100,4,3,1,5,0,0
145248,-100,4,3,1,53,0,0
145428,-100,4,3,1,53,0,0
145971,-35.7142857142857,4,3,1,53,0,0
146513,-50,4,3,1,53,0,0
148683,-200,4,3,1,63,0,0
148774,-200,4,3,1,5,0,0
148864,-200,4,3,1,63,0,0
148955,-200,4,3,1,5,0,0
149045,-200,4,3,1,63,0,0
149135,-200,4,3,1,5,0,0
149226,-200,4,3,1,63,0,0
149316,-200,4,3,1,5,0,0
149588,-100,4,3,1,53,0,0
149768,-100,4,3,1,53,0,0
150311,-35.7142857142857,4,3,1,53,0,0
150853,-50,4,3,1,53,0,0
153023,-200,4,3,1,63,0,0
153114,-200,4,3,1,5,0,0
153204,-200,4,3,1,63,0,0
153295,-200,4,3,1,5,0,0
153385,-200,4,3,1,63,0,0
153476,-200,4,3,1,5,0,0
153566,-200,4,3,1,63,0,0
153656,-100,4,3,1,5,0,0
153928,-100,4,3,1,53,0,0
154108,-100,4,3,1,53,0,0
154651,-35.7142857142857,4,3,1,53,0,0
155192,-50,4,3,1,53,0,0
156278,-100,4,3,1,53,0,0
156821,-35.7142857142857,4,3,1,53,0,0
157363,-200,4,3,1,63,0,0
157454,-200,4,3,1,5,0,0
157544,-200,4,3,1,63,0,0
157635,-200,4,3,1,5,0,0
157725,-200,4,3,1,63,0,0
157816,-200,4,3,1,5,0,0
157906,-200,4,3,1,63,0,0
157996,-100,4,3,1,5,0,0
158268,-100,4,3,1,53,0,0
158448,-33.3333333333333,4,3,1,63,0,1
160619,-100,4,3,1,63,0,1
161161,-35.0877192982456,4,3,1,43,0,0
161251,-35.0877192982456,4,3,1,33,0,0
162155,-35.0877192982456,4,3,1,13,0,0
162246,-35.0877192982456,4,3,1,33,0,0
162381,-35.0877192982456,4,3,1,8,0,0
162472,-35.0877192982456,4,3,1,23,0,0
162788,-35.0877192982456,4,3,1,13,0,0

[Colours]
Combo1 : 98,145,255
Combo2 : 255,98,160
Combo3 : 255,192,98
Combo4 : 208,98,255

[HitObjects]
31,173,53,6,0,L|119:190,1,77.999997619629,2|0,0:2|0:0,0:0:0:0:
31,173,1680,1,2,0:2:0:0:
163,138,2222,2,0,L|113:197,1,77.999997619629,2|0,0:2|0:0,0:0:0:0:
196,229,3307,2,0,L|208:296,1,51.999998413086,0|0,0:0|0:0,0:0:0:0:
268,206,3850,2,0,L|201:218,1,51.999998413086,0|0,0:0|0:0,0:0:0:0:
31,173,4392,6,0,L|119:190,1,77.999997619629,2|0,0:2|0:0,0:0:0:0:
163,138,6020,1,2,0:2:0:0:
275,164,6562,2,0,L|224:223,1,77.999997619629,2|0,0:2|0:0,0:0:0:0:
318,258,7647,2,0,L|330:325,1,51.999998413086,0|0,0:0|0:0,0:0:0:0:
378,242,8190,2,0,L|311:254,1,51.999998413086,0|0,0:0|0:0,0:0:0:0:
31,173,8732,1,2,0:2:0:0:
414,72,9275,6,0,P|399:147|458:204,2,86.6666666666667,2|0|0,0:2|0:0|0:0,0:0:0:0:
350,266,9817,2,0,P|408:203|427:120,1,173.333333333333,2|0,0:2|0:0,0:0:0:0:
468,372,10360,2,0,P|412:306|386:224,1,173.333333333333,2|0,0:2|0:0,0:0:0:0:
27,335,10902,6,0,L|115:316,1,77.999997619629,2|0,0:2|0:0,0:0:0:0:
221,291,11987,2,0,L|233:358,1,51.999998413086,0|0,0:0|0:0,0:0:0:0:
289,199,12530,2,0,L|222:211,1,51.999998413086,0|0,0:0|0:0,0:0:0:0:
31,173,13072,1,2,0:2:0:0:
378,55,13615,6,0,P|363:130|422:187,2,86.6666666666667,2|0|0,0:2|0:0|0:0,0:0:0:0:
485,205,14157,2,0,P|381:173|331:112,1,173.333333333333,2|0,0:2|0:0,0:0:0:0:
402,316,14700,2,0,P|393:231|344:160,1,173.333333333333,2|0,0:2|0:0,0:0:0:0:
0,247,15242,6,0,L|88:266,1,77.999997619629,2|0,0:2|0:0,0:0:0:0:
196,373,16327,2,0,L|187:322,1,51.999998413086,0|0,0:0|0:0,0:0:0:0:
189,202,16870,2,0,L|148:256,1,51.999998413086,0|0,0:0|0:0,0:0:0:0:
31,173,17412,1,2,0:2:0:0:
342,38,17955,6,0,P|327:113|386:170,2,86.6666666666667,2|0|0,0:2|0:0|0:0,0:0:0:0:
434,242,18497,2,0,P|375:179|356:96,1,173.333333333333,2|0,0:2|0:0,0:0:0:0:
364,316,19040,2,0,P|278:306|202:266,1,173.333333333333,2|0,0:2|0:0,0:0:0:0:
0,148,19582,6,0,L|88:129,1,77.999997619629,2|0,0:2|0:0,0:0:0:0:
190,236,20667,2,0,L|202:303,1,51.999998413086,0|0,0:0|0:0,0:0:0:0:
54,328,21210,2,0,L|66:261,1,51.999998413086,0|0,0:0|0:0,0:0:0:0:
31,173,21752,1,2,0:2:0:0:
351,174,22837,6,0,P|410:112|429:29,1,173.333333333333,2|0,0:2|0:0,0:0:0:0:
179,219,23380,2,0,P|245:255|355:267,1,173.333333333333,2|0,0:2|0:0,0:0:0:0:
27,335,23922,6,0,L|115:316,1,77.999997619629,2|0,0:2|0:0,0:0:0:0:
179,219,25007,2,0,L|191:286,1,51.999998413086,2|0,0:2|0:0,0:0:0:0:
163,212,25550,2,0,L|96:224,1,51.999998413086,2|0,0:2|0:0,0:0:0:0:
208,145,26092,1,2,0:2:0:0:
461,286,27177,6,0,L|465:333,1,30.3333324076335,2|0,0:2|0:0,0:0:0:0:
432,296,27539,2,0,L|463:334,1,30.3333324076335,0|0,0:0|0:0,0:0:0:0:
403,306,27901,2,0,L|451:321,1,30.3333324076335,0|0,0:0|0:0,0:0:0:0:
297,323,28262,2,0,L|202:300,1,90.9999972229005,2|0,0:2|0:0,0:0:0:0:
50,285,29528,2,0,L|37:339,1,30.3333324076335,2|0,0:2|0:0,0:0:0:0:
24,279,29890,2,0,L|45:330,1,30.3333324076335,0|0,0:0|0:0,0:0:0:0:
65,361,30251,1,0,0:0:0:0:
221,323,30432,2,0,L|315:300,1,90.9999972229005,2|0,0:2|0:0,0:0:0:0:
433,269,31336,5,2,0:2:0:0:
512,218,31517,2,0,L|507:261,1,30.3333324076335,2|0,0:2|0:0,0:0:0:0:
379,202,31879,1,0,0:0:0:0:
491,108,32060,2,0,L|500:155,1,30.3333324076335,2|0,0:0|0:0,0:0:0:0:
390,310,32421,1,0,0:0:0:0:
289,268,32602,2,0,L|287:298,1,30.3333324076335,2|0,0:2|0:0,0:0:0:0:
397,332,32964,1,0,0:0:0:0:
225,370,33145,1,2,0:0:0:0:
50,210,33868,6,0,L|46:257,1,30.3333324076335,2|0,0:2|0:0,0:0:0:0:
79,220,34230,2,0,L|48:258,1,30.3333324076335,0|0,0:0|0:0,0:0:0:0:
108,230,34592,2,0,L|60:245,1,30.3333324076335,0|2,0:0|0:2,0:0:0:0:
365,218,35857,6,0,L|376:264,1,30.3333324076335,2|0,0:2|0:0,0:0:0:0:
401,324,36219,1,0,0:0:0:0:
489,227,36400,2,0,L|480:256,1,30.3333324076335,2|0,0:2|0:0,0:0:0:0:
512,153,36761,1,0,0:0:0:0:
436,361,36942,2,0,L|387:350,1,30.3333324076335,2|0,0:2|0:0,0:0:0:0:
304,325,37304,1,0,0:0:0:0:
357,188,37485,2,0,L|368:234,1,30.3333324076335,2|0,0:2|0:0,0:0:0:0:
54,124,38208,6,0,L|66:169,1,30.3333324076335,2|0,0:2|0:0,0:0:0:0:
27,138,38570,2,0,L|64:170,1,30.3333324076335,0|0,0:0|0:0,0:0:0:0:
0,153,38932,2,0,L|49:159,1,30.3333324076335,0|2,0:0|0:2,0:0:0:0:
461,116,40147,6,0,L|418:136,2,30.3333324076335,2|0|0,0:2|0:0|0:0,0:0:0:0:
468,221,40740,2,0,L|430:205,1,30.3333324076335,2|0,0:2|0:0,0:0:0:0:
418,291,41101,1,0,0:0:0:0:
332,310,41282,2,0,L|346:337,1,30.3333324076335,2|0,0:2|0:0,0:0:0:0:
256,348,41644,1,0,0:0:0:0:
172,327,41825,2,0,L|186:282,1,30.3333324076335,2|0,0:2|0:0,0:0:0:0:
97,287,42186,1,0,0:0:0:0:
85,202,42367,2,0,L|56:211,1,30.3333324076335,2|0,0:2|0:0,0:0:0:0:
53,126,42729,1,0,0:0:0:0:
86,48,42910,2,0,L|149:60,1,60.666664815267,0|0,0:0|0:0,0:0:0:0:
242,136,43452,5,2,0:2:0:0:
316,91,43633,1,2,0:2:0:0:
348,124,43814,1,2,0:2:0:0:
435,66,43995,1,2,0:2:0:0:
512,118,44175,1,2,0:2:0:0:
500,161,44356,1,2,0:2:0:0:
353,29,44537,1,2,0:2:0:0:
371,170,44718,1,2,0:2:0:0:
271,194,44899,1,2,0:2:0:0:
258,235,45080,1,2,0:2:0:0:
32,312,45622,5,2,0:2:0:0:
194,289,45803,1,2,0:2:0:0:
89,247,45984,1,2,0:2:0:0:
89,247,46165,1,2,0:2:0:0:
49,162,46345,1,2,0:2:0:0:
89,247,46526,1,2,0:2:0:0:
142,365,46707,1,2,0:2:0:0:
89,247,46888,1,2,0:2:0:0:
32,312,47069,1,2,0:2:0:0:
234,344,47250,1,2,0:2:0:0:
420,278,47792,5,2,0:2:0:0:
259,192,47973,1,2,0:2:0:0:
214,210,48154,1,2,0:2:0:0:
327,316,48335,1,2,0:2:0:0:
342,234,48515,1,2,0:2:0:0:
359,148,48696,1,2,0:2:0:0:
320,344,48877,1,2,0:2:0:0:
190,315,49058,1,2,0:2:0:0:
447,350,49239,1,2,0:2:0:0:
315,366,49420,1,2,0:2:0:0:
106,166,49962,5,2,0:2:0:0:
231,89,50143,1,2,0:2:0:0:
261,119,50324,1,2,0:2:0:0:
376,59,50505,1,2,0:2:0:0:
365,106,50685,1,2,0:2:0:0:
413,173,50866,1,2,0:2:0:0:
230,228,51047,1,2,0:2:0:0:
153,169,51228,1,2,0:2:0:0:
132,75,51409,1,2,0:2:0:0:
155,120,51590,1,2,0:2:0:0:
0,203,51816,2,0,L|298:227,1,279.066657298584,0|2,0:0|0:2,0:0:0:0:
472,115,52675,6,0,B|460:169|490:162|478:212,1,99.6666685676575,2|0,0:2|0:0,0:0:0:0:
319,287,53061,2,0,B|307:341|337:334|325:384,1,99.6666685676575,2|0,0:0|0:0,0:0:0:0:
214,183,53502,2,0,B|202:237|232:230|220:280,1,99.6666685676575,2|0,0:2|0:0,0:0:0:0:
31,352,53938,1,2,0:2:0:0:
472,115,54844,6,0,B|460:169|490:162|478:212,1,99.6666685676575,2|0,0:2|0:0,0:0:0:0:
206,24,55230,2,0,B|217:78|187:71|199:121,1,99.6666685676575,2|0,0:0|0:0,0:0:0:0:
289,186,55657,2,0,B|300:240|270:233|282:283,1,99.6666685676575,2|0,0:2|0:0,0:0:0:0:
31,352,56066,1,0,0:0:0:0:
472,115,57014,6,0,B|460:169|490:162|478:212,1,99.6666685676575,2|0,0:2|0:0,0:0:0:0:
282,283,57376,2,0,B|270:233|300:240|288:185,1,99.6666685676575,2|0,0:2|0:0,0:0:0:0:
206,24,57807,1,2,0:0:0:0:
177,118,58022,1,0,0:0:0:0:
24,254,58238,2,0,B|12:308|42:301|30:351,1,99.6666685676575,2|0,0:0|0:2,0:0:0:0:
206,24,58985,5,0,0:0:0:0:
223,108,59165,2,0,B|191:212|272:204|235:300,1,199.333337135315,2|2,0:2|0:2,0:0:0:0:
153,348,59772,1,0,0:0:0:0:
327,237,59970,1,2,0:0:0:0:
503,277,60168,1,0,0:0:0:0:
390,350,60432,1,2,0:2:0:0:
472,115,61354,6,0,B|442:161|473:165|444:208,1,99.6666685676575,2|0,0:2|0:0,0:0:0:0:
282,283,61761,2,0,B|278:231|307:243|305:188,1,99.6666685676575,2|0,0:0|0:0,0:0:0:0:
252,15,62168,1,2,0:0:0:0:
44,227,62439,2,0,B|14:273|45:277|16:320,1,99.6666685676575,0|2,0:0|0:2,0:0:0:0:
40,115,63524,6,0,B|69:161|38:165|67:208,1,99.6666685676575,2|0,0:2|0:0,0:0:0:0:
252,15,63931,2,0,B|244:69|218:52|212:104,1,99.6666685676575,2|0,0:0|0:0,0:0:0:0:
342,296,64338,2,0,B|312:249|343:245|314:202,1,99.6666685676575,2|0,0:0|0:0,0:0:0:0:
481,352,64790,1,2,0:2:0:0:
435,87,65694,6,0,B|442:141|468:124|474:176,1,99.6666685676575,2|0,0:2|0:0,0:0:0:0:
252,15,66101,2,0,B|263:69|233:62|245:112,1,99.6666685676575,2|0,0:0|0:0,0:0:0:0:
40,115,66508,2,0,B|75:152|45:161|82:202,1,99.6666685676575,2|0,0:0|0:0,0:0:0:0:
31,352,66915,1,2,0:2:0:0:
372,281,67119,1,8,0:0:0:0:
375,288,67186,1,0,0:0:0:0:
379,296,67254,1,0,0:0:0:0:
414,332,67321,6,0,L|106:284,1,260.000009918213,4|0,0:0|0:0,0:0:0:0:
473,80,68407,1,4,0:0:0:0:
131,173,68579,1,4,0:0:0:0:
40,122,68748,1,4,0:0:0:0:
490,369,68921,1,12,0:0:0:0:
414,332,69491,6,0,B|397:299|321:273|268:289|288:316|271:329|286:350|145:326|119:295|253:318|223:289|166:242|125:257|174:287|209:311|206:370|-10:369|-116:288|-15:110|226:122|259:177|281:218|249:237|191:272,1,520.000019836427
475,255,69830,1,8,0:0:0:0:
478,262,69898,1,0,0:0:0:0:
482,270,69966,1,0,0:0:0:0:
486,278,70034,1,4,0:0:0:0:
98,346,70576,1,4,0:0:0:0:
82,357,71480,1,8,0:0:0:0:
508,108,71660,1,4,0:0:0:0:
143,216,72203,1,4,0:0:0:0:
248,265,72566,5,8,0:0:0:0:
384,19,72741,1,4,0:0:0:0:
78,40,72917,1,4,0:0:0:0:
291,352,73093,1,4,0:0:0:0:
467,81,73269,1,12,0:0:0:0:
91,151,73445,1,4,0:0:0:0:
372,289,73613,1,8,0:0:0:0:
380,290,73685,1,0,0:0:0:0:
387,291,73758,1,0,0:0:0:0:
424,256,73831,6,0,L|116:208,1,260,4|0,0:0|0:0,0:0:0:0:
83,200,75097,1,4,0:0:0:0:
475,153,75278,1,8,0:0:0:0:
11,353,75459,1,4,0:0:0:0:
79,304,76542,5,4,0:0:0:0:
355,97,76716,1,4,0:0:0:0:
398,18,76891,1,8,0:0:0:0:
243,305,77071,1,4,0:0:0:0:
160,342,77252,1,4,0:0:0:0:
466,203,77433,1,4,0:0:0:0:
39,132,77614,1,12,0:0:0:0:
331,351,77941,1,8,0:0:0:0:
337,347,78017,1,0,0:0:0:0:
344,345,78094,1,0,0:0:0:0:
351,342,78171,1,4,0:0:0:0:
469,83,79256,5,4,0:0:0:0:
152,166,79423,1,4,0:0:0:0:
212,85,79580,1,4,0:0:0:0:
14,346,79748,1,12,0:0:0:0:
296,271,80517,5,0,0:0:0:0:
0,194,80695,1,8,0:0:0:0:
89,118,80872,5,12,0:0:0:0:
282,350,81046,1,8,0:0:0:0:
204,368,81221,1,12,0:0:0:0:
487,299,81405,1,12,0:0:0:0:
0,194,81676,1,8,0:0:0:0:
414,108,81947,1,8,0:0:0:0:
512,143,82309,1,8,0:0:0:0:
127,6,82511,1,12,0:0:0:0:
45,362,82873,1,0,0:0:0:0:
318,215,83235,2,0,L|460:283,1,130.000004959107,12|0,0:0|0:0,0:0:0:0:
404,160,83415,2,0,L|389:303,1,130.000004959107,12|0,0:0|0:0,0:0:0:0:
311,376,83596,1,12,0:0:0:0:
0,161,84139,1,12,0:0:0:0:
436,0,84681,5,4,0:0:0:0:
225,384,85224,1,10,0:0:0:0:
389,162,85405,1,8,0:0:0:0:
68,38,85585,1,8,0:0:0:0:
0,329,85766,1,4,0:0:0:0:
508,203,86309,1,10,0:0:0:0:
371,356,86648,1,8,0:0:0:0:
367,350,86716,1,0,0:0:0:0:
362,344,86783,1,0,0:0:0:0:
322,296,86851,5,4,0:0:0:0:
108,229,87213,1,4,0:0:0:0:
485,135,87575,1,4,0:0:0:0:
469,37,87755,1,4,0:0:0:0:
512,321,87936,2,0,L|350:354,1,86.6666666666667,12|0,0:0|0:0,0:0:0:0:
273,283,88117,2,0,L|124:219,1,86.6666666666667,12|0,0:0|0:0,0:0:0:0:
20,371,88298,2,0,L|56:271,1,86.6666666666667,12|0,0:0|0:0,0:0:0:0:
343,365,88479,2,0,L|512:330,1,173.333333333333,12|0,0:0|0:0,0:0:0:0:
479,123,89021,5,4,0:0:0:0:
214,264,89564,1,10,0:0:0:0:
108,229,89745,1,8,0:0:0:0:
73,14,89925,1,8,0:0:0:0:
125,331,90106,1,4,0:0:0:0:
395,126,90649,1,10,0:0:0:0:
108,229,90988,1,8,0:0:0:0:
115,232,91056,1,0,0:0:0:0:
122,235,91123,1,0,0:0:0:0:
59,249,91191,5,4,0:0:0:0:
355,323,91372,1,8,0:0:0:0:
207,286,91553,1,8,0:0:0:0:
512,211,91734,1,10,0:0:0:0:
290,369,92276,2,0,L|128:402,1,86.6666666666667,12|0,0:0|0:0,0:0:0:0:
0,293,92457,2,0,L|79:327,1,86.6666666666667,12|0,0:0|0:0,0:0:0:0:
370,384,92638,2,0,L|406:284,1,86.6666666666667,12|0,0:0|0:0,0:0:0:0:
510,31,92819,2,0,L|448:202,2,173.333333333333,12|0|0,0:0|0:0|0:0,0:0:0:0:
37,150,93361,5,4,0:0:0:0:
70,48,93904,1,10,0:0:0:0:
125,333,94243,1,8,0:0:0:0:
131,329,94311,1,0,0:0:0:0:
138,326,94378,1,0,0:0:0:0:
109,361,94446,5,4,0:0:0:0:
375,244,94627,1,8,0:0:0:0:
435,319,94808,1,8,0:0:0:0:
282,130,94989,1,10,0:0:0:0:
108,229,95328,1,8,0:0:0:0:
115,232,95396,1,0,0:0:0:0:
122,235,95463,1,0,0:0:0:0:
58,249,95531,5,4,0:0:0:0:
330,346,95712,1,8,0:0:0:0:
207,328,95893,1,8,0:0:0:0:
482,369,96074,1,10,0:0:0:0:
453,236,96616,2,0,L|291:269,1,86.6666666666667,12|0,0:0|0:0,0:0:0:0:
223,384,96797,2,0,L|74:320,1,86.6666666666667,12|0,0:0|0:0,0:0:0:0:
0,246,96978,2,0,L|36:146,1,86.6666666666667,12|0,0:0|0:0,0:0:0:0:
165,25,97159,6,0,B|207:16|207:16|250:37,1,65,8|0,0:0|0:0,0:0:0:0:
254,76,97295,2,0,B|219:69|219:69|198:50,1,65
197,23,97430,2,0,B|229:24|229:24|260:36,1,65
291,97,97566,2,0,L|228:110,1,65
68,33,97701,1,4,0:0:0:0:
512,190,98244,5,10,0:0:0:0:
350,360,98583,1,8,0:0:0:0:
353,353,98651,1,0,0:0:0:0:
356,346,98718,1,0,0:0:0:0:
390,291,98786,5,4,0:0:0:0:
306,0,99165,1,8,0:0:0:0:
0,142,99483,1,8,0:0:0:0:
120,284,99872,1,4,0:0:0:0:
186,224,102042,6,0,B|226:167|135:183|109:182|75:125|55:41|93:-4|135:-5|251:71|328:-72|15:-73|45:27|-64:127|2:313|89:399|133:313|47:60|-23:-6,1,818.999975006104,4|0,0:0|0:0,0:0:0:0:
143,256,104212,2,0,B|168:220|183:258|196:318|204:345|302:358|456:348|404:273|343:223|324:234|301:249|288:256|348:280|393:287|459:239|455:187,1,454.999986114502,2|0,0:0|0:0,0:0:0:0:
368,168,105267,2,0,P|373:245|430:348,1,173.333333333333,2|0,0:0|0:0,0:0:0:0:
217,238,105863,2,0,P|263:313|299:383,1,155.999995239258,2|0,0:0|0:0,0:0:0:0:
80,322,106382,2,0,P|112:265|142:196,1,130.000004959107,2|0,0:0|0:0,0:0:0:0:
0,178,106978,2,0,P|61:163|129:122,1,114.399999650879,2|0,0:0|0:0,0:0:0:0:
36,208,107457,1,0,0:0:0:0:
418,111,108541,6,0,L|351:102,1,68.2499979171754,2|0,0:0|0:0,0:0:0:0:
286,167,108881,2,0,L|343:176,1,34.1249989585877,2|0,0:0|0:0,0:0:0:0:
219,227,109129,2,0,L|278:236,1,45.4999986114502,2|0,0:0|0:0,0:0:0:0:
418,238,109581,1,0,0:0:0:0:
433,234,109626,2,0,L|454:228,1,22.7499993057251,2|0,0:0|0:0,0:0:0:0:
456,289,109807,2,0,L|274:241,1,181.999994445801,2|0,0:0|0:0,0:0:0:0:
162,293,110472,1,0,0:0:0:0:
3,230,110710,6,0,B|73:205|160:225|236:268|324:324|375:333|432:329|473:309|493:290|542:278|563:260|578:227|563:198|531:187|505:187|484:194|456:210|420:241|398:268|364:307|343:331,1,818.999975006104,4|0,0:0|0:0,0:0:0:0:
38,316,112879,2,0,B|121:395|256:115|363:61|454:79,1,477.749985420228,2|0,0:0|0:0,0:0:0:0:
492,140,113964,1,2,0:0:0:0:
414,180,114291,1,0,0:0:0:0:
461,254,114562,1,2,0:0:0:0:
350,272,114855,1,2,0:0:0:0:
427,350,115051,1,2,0:0:0:0:
414,366,115200,2,0,L|342:380,1,73.1250027894975,2|0,0:0|0:0,0:0:0:0:
0,384,116134,1,0,0:0:0:0:
418,111,117218,6,0,L|351:102,1,68.2499979171754,2|0,0:0|0:0,0:0:0:0:
268,165,117558,2,0,L|237:150,1,34.1249989585877,2|0,0:0|0:0,0:0:0:0:
145,181,117806,2,0,L|111:150,1,45.4999986114502,2|0,0:0|0:0,0:0:0:0:
26,79,118258,1,0,0:0:0:0:
44,75,118303,2,0,L|65:69,1,22.7499993057251,2|0,0:0|0:0,0:0:0:0:
0,160,118530,2,0,L|35:28,2,136.499995834351
473,298,119388,1,4,0:0:0:0:
375,144,119931,6,0,P|360:219|419:276,2,86.6666666666667,2|0|0,0:2|0:0|0:0,0:0:0:0:
185,227,120473,2,0,B|228:220|293:264|328:316,1,173.333333333333,2|0,0:2|0:0,0:0:0:0:
94,353,121016,2,0,B|115:388|216:393|281:367,1,173.333333333333,2|0,0:2|0:0,0:0:0:0:
4,369,121558,6,0,L|92:350,1,77.999997619629,2|0,0:2|0:0,0:0:0:0:
221,338,122643,2,0,P|253:344|279:351,1,51.999998413086,2|0,0:2|0:0,0:0:0:0:
367,378,123186,2,0,P|392:371|418:368,1,51.999998413086,2|0,0:2|0:0,0:0:0:0:
512,384,123728,1,2,0:2:0:0:
391,161,124271,6,0,P|376:236|435:293,2,86.6666666666667,2|0|0,0:2|0:0|0:0,0:0:0:0:
274,181,124813,2,0,B|227:177|154:228|128:320,1,173.333333333333,2|0,0:2|0:0,0:0:0:0:
88,159,125356,2,0,B|53:173|21:247|40:335,1,173.333333333333,2|0,0:2|0:0,0:0:0:0:
4,369,125898,6,0,L|92:350,1,77.999997619629,2|0,0:2|0:0,0:0:0:0:
241,304,126983,2,0,L|259:253,1,51.999998413086,2|0,0:2|0:0,0:0:0:0:
258,254,127888,1,0,0:0:0:0:
215,67,128068,1,2,0:2:0:0:
391,161,128611,6,0,P|376:236|435:293,2,86.6666666666667
133,104,129153,2,0,P|269:170|316:208,1,173.333333333333,2|0,0:2|0:0,0:0:0:0:
0,70,129696,2,0,P|56:109|129:200,1,173.333333333333,2|0,0:2|0:0,0:0:0:0:
4,369,130238,6,0,L|92:350,1,77.999997619629
270,282,131323,2,0,L|202:303,1,64.9999980163575,2|0,0:2|0:0,0:0:0:0:
132,248,131866,2,0,L|70:242,1,51.999998413086,2|0,0:2|0:0,0:0:0:0:
34,165,132408,2,0,L|-14:140,1,51.999998413086,2|0,0:2|0:0,0:0:0:0:
356,41,133493,6,0,B|398:41|468:91|416:116|493:180,1,173.333333333333,2|0,0:2|0:0,0:0:0:0:
246,140,134036,2,0,B|219:172|212:257|264:234|264:334,1,173.333333333333,2|0,0:2|0:0,0:0:0:0:
485,335,134578,6,0,L|397:316,1,77.999997619629
512,116,136205,2,0,B|495:70|458:78|331:130|360:143|406:194|338:198|276:209|211:224|359:109|181:90|61:236,1,520.000019836427
316,314,136748,6,0,B|295:284|268:261|223:252|155:247|213:303,1,173.333333333333,10|0,0:2|0:0,0:0:0:0:
64,347,137291,2,0,B|97:302|258:325|136:378|221:423|375:390|476:337|501:229|475:158,1,485.333318522136,10|0,0:3|0:0,0:0:0:0:
432,91,137832,1,10,0:2:0:0:
34,237,138194,1,2,0:0:0:0:
186,1,138375,1,10,0:0:0:0:
275,243,138737,1,0,0:0:0:0:
268,222,138798,1,0,0:0:0:0:
261,204,138858,1,0,0:0:0:0:
254,185,138918,1,4,0:0:0:0:
188,313,139280,1,0,0:0:0:0:
184,291,139340,1,0,0:0:0:0:
181,272,139401,1,0,0:0:0:0:
177,252,139461,1,4,0:0:0:0:
0,354,140003,6,0,L|25:335,1,21.6666666666667,12|0,0:0|0:0,0:0:0:0:
90,175,140184,2,0,L|111:170,1,21.6666666666667,12|0,0:0|0:0,0:0:0:0:
253,50,140365,2,0,L|284:54,1,21.6666666666667,12|0,0:0|0:0,0:0:0:0:
512,15,140546,2,0,L|540:33,1,21.6666666666667,12|0,0:0|0:0,0:0:0:0:
427,346,141088,6,0,L|227:313,1,173.333333333333,4|0,0:2|0:0,0:0:0:0:
512,265,141631,2,0,P|284:341|0:386,1,485.333318522136,10|0,0:3|0:0,0:0:0:0:
421,190,142173,1,10,0:2:0:0:
188,373,142535,1,2,0:0:0:0:
0,88,142716,1,10,0:0:0:0:
289,306,143077,1,0,0:0:0:0:
310,301,143138,1,0,0:0:0:0:
329,298,143198,1,0,0:0:0:0:
349,295,143258,1,4,0:0:0:0:
509,198,143620,1,0,0:0:0:0:
489,209,143680,1,0,0:0:0:0:
472,218,143740,1,0,0:0:0:0:
455,229,143801,1,4,0:0:0:0:
348,379,144343,6,0,L|314:387,1,21.6666666666667,12|0,0:0|0:0,0:0:0:0:
159,342,144524,2,0,L|119:332,1,21.6666666666667,12|0,0:0|0:0,0:0:0:0:
13,218,144705,2,0,L|-10:186,1,21.6666666666667,12|0,0:0|0:0,0:0:0:0:
111,4,144886,2,0,L|132:0,1,21.6666666666667,12|0,0:0|0:0,0:0:0:0:
486,110,145428,6,0,B|435:162|473:214|409:273,1,173.333333333333,4|0,0:2|0:0,0:0:0:0:
456,370,145971,2,0,B|296:187|129:305|14:117,1,485.333318522136,10|0,0:3|0:0,0:0:0:0:
0,352,146513,1,10,0:2:0:0:
389,95,146875,1,2,0:0:0:0:
475,384,147056,1,10,0:0:0:0:
273,339,147417,1,0,0:0:0:0:
266,318,147478,1,0,0:0:0:0:
259,300,147538,1,0,0:0:0:0:
252,281,147598,1,4,0:0:0:0:
272,147,147960,1,0,0:0:0:0:
268,125,148020,1,0,0:0:0:0:
265,106,148080,1,0,0:0:0:0:
261,86,148141,1,4,0:0:0:0:
365,0,148683,6,0,L|331:8,1,21.6666666666667,12|0,0:0|0:0,0:0:0:0:
144,62,148864,2,0,L|116:84,1,21.6666666666667,12|0,0:0|0:0,0:0:0:0:
6,220,149045,2,0,L|-5:253,1,21.6666666666667,12|0,0:0|0:0,0:0:0:0:
213,384,149226,2,0,L|242:372,1,21.6666666666667,12|0,0:0|0:0,0:0:0:0:
512,276,149768,6,0,B|505:225|436:146|390:206,1,173.333333333333,4|0,0:2|0:0,0:0:0:0:
246,308,150311,2,0,B|116:373|-20:316|-83:179|43:85|140:189,1,485.333318522136,10|0,0:3|0:0,0:0:0:0:
321,376,150853,1,10,0:2:0:0:
488,113,151215,1,2,0:0:0:0:
109,222,151396,1,10,0:0:0:0:
377,295,151757,1,0,0:0:0:0:
388,276,151818,1,0,0:0:0:0:
397,259,151878,1,0,0:0:0:0:
407,241,151938,1,4,0:0:0:0:
374,28,152300,1,0,0:0:0:0:
378,50,152360,1,0,0:0:0:0:
381,69,152420,1,0,0:0:0:0:
385,89,152481,1,4,0:0:0:0:
416,324,153023,6,0,L|384:341,1,21.6666666666667,12|0,0:0|0:0,0:0:0:0:
202,384,153204,2,0,L|162:377,1,21.6666666666667,12|0,0:0|0:0,0:0:0:0:
12,288,153385,2,0,L|-10:257,1,21.6666666666667,12|0,0:0|0:0,0:0:0:0:
87,74,153566,2,0,L|125:63,1,21.6666666666667,12|0,0:0|0:0,0:0:0:0:
273,275,154108,6,0,P|198:267|107:215,1,173.333333333333,4|0,0:2|0:0,0:0:0:0:
274,29,154651,2,0,P|205:246|386:384,1,485.333318522136,10|0,0:3|0:0,0:0:0:0:
512,269,155193,1,10,0:2:0:0:
147,345,155555,1,2,0:0:0:0:
274,29,155736,1,10,0:0:0:0:
433,340,156278,2,0,P|320:285|257:273,1,173.333333333333,10|0,0:2|0:0,0:0:0:0:
5,354,156821,2,0,P|220:241|457:193,1,485.333318522136,10|0,0:3|0:0,0:0:0:0:
256,384,157363,6,0,L|246:348,1,21.6666666666667,12|0,0:0|0:0,0:0:0:0:
77,213,157544,2,0,L|86:175,1,21.6666666666667,12|0,0:0|0:0,0:0:0:0:
349,109,157725,2,0,L|336:80,1,21.6666666666667,12|0,0:0|0:0,0:0:0:0:
115,0,157906,2,0,L|94:-7,1,21.6666666666667,12|0,0:0|0:0,0:0:0:0:
408,162,158448,5,12,0:0:0:0:
175,310,158629,1,12,0:0:0:0:
0,99,158811,1,12,0:0:0:0:
389,254,158991,1,12,0:0:0:0:
137,229,159171,1,4,0:0:0:0:
58,175,159352,1,4,0:0:0:0:
359,384,159533,1,12,0:0:0:0:
58,175,160076,5,8,0:0:0:0:
286,70,160256,1,12,0:0:0:0:
492,314,160437,1,12,0:0:0:0:
227,0,160618,1,12,0:0:0:0:
143,255,161161,6,0,B|159:219|183:252|199:321|208:349|323:372|472:348|438:275|408:101|387:69|284:17|253:26|70:37|-53:125|113:182|153:220|289:255|434:374|475:392|548:444|643:62|469:-32|625:187|525:406|128:129|151:-7|210:69|508:-62|576:-76|524:-6|502:65|435:125,1,1358.50001295567,2|0,0:2|0:0,0:0:0:0:
88,153,162246,2,0,B|106:141|106:140|94:92|94:90|123:86|123:86|102:40|101:35|129:8|129:8|92:-58,1,185.250001766682,2|0,0:2|0:0,0:0:0:0:
0,55,162472,2,0,B|31:79|31:79|32:85|3:117|3:117|21:129|64:108|66:188|7:154|30:214|52:250|59:170|86:215|86:215|82:267|82:268|121:311|121:311|114:337|110:359|118:364|143:355|155:403,1,432.250004122257,2|0,0:2|0:0,0:0:0:0:
