osu file format v14

[General]
AudioFilename: audio.mp3
AudioLeadIn: 0
PreviewTime: 65501
Countdown: 0
SampleSet: Drum
StackLeniency: 0.2
Mode: 0
LetterboxInBreaks: 0
WidescreenStoryboard: 1

[Editor]
Bookmarks: 17932,27154,31313,40174,43429,52652,63105,67305,84666,118294,137285,162778
DistanceSpacing: 1.5
BeatDivisor: 6
GridSize: 32
TimelineZoom: 2.500001

[Metadata]
Title:Feel The Love
TitleUnicode:Feel The Love
Artist:KIDS SEE GHOSTS
ArtistUnicode:KIDS SEE GHOSTS
Creator:Smokeman
Version:hard
Source:
Tags:Kanye West Kid Cudi pusha T pushaT brah gun hip hop rap em0nky english
BeatmapID:2442120
BeatmapSetID:973844

[Difficulty]
HPDrainRate:4.5
CircleSize:3
OverallDifficulty:6
ApproachRate:7.3
SliderMultiplier:1.8
SliderTickRate:1

[Events]
//Background and Video events
0,0,"BG.jpg",0,0
//Break Periods
//Storyboard Layer 0 (Background)
//Storyboard Layer 1 (Fail)
//Storyboard Layer 2 (Pass)
//Storyboard Layer 3 (Foreground)
//Storyboard Layer 4 (Overlay)
//Storyboard Sound Samples

[TimingPoints]
53,542.49547920434,4,3,1,30,1,0
53,-142.857142857143,4,3,1,30,0,0
595,-142.857142857143,4,3,1,22,0,0
1680,-142.857142857143,4,3,1,30,0,0
2765,-142.857142857143,4,3,1,22,0,0
3307,-142.857142857143,4,3,1,30,0,0
4935,-142.857142857143,4,3,1,22,0,0
6020,-142.857142857143,4,3,1,30,0,0
7105,-142.857142857143,4,3,1,22,0,0
7647,-142.857142857143,4,3,1,30,0,0
9275,-100,4,3,1,30,0,0
10902,-142.857142857143,4,3,1,30,0,0
12349,-142.857142857143,4,3,1,22,0,0
12530,-142.857142857143,4,3,1,30,0,0
12892,-142.857142857143,4,3,1,22,0,0
13072,-142.857142857143,4,3,1,30,0,0
13615,-100,4,3,1,30,0,0
15242,-142.857142857143,4,3,1,30,0,0
16689,-142.857142857143,4,3,1,22,0,0
16870,-142.857142857143,4,3,1,30,0,0
17955,-100,4,3,1,30,0,0
19582,-142.857142857143,4,3,1,30,0,0
20125,-142.857142857143,4,3,1,22,0,0
20667,-142.857142857143,4,3,1,30,0,0
21571,-142.857142857143,4,3,1,22,0,0
21752,-142.857142857143,4,3,1,30,0,0
22837,-100,4,3,1,30,0,0
23922,-142.857142857143,4,3,1,30,0,0
24465,-142.857142857143,4,3,1,22,0,0
25007,-142.857142857143,4,3,1,30,0,0
26635,-142.857142857143,4,3,1,22,0,0
27177,-125,4,3,1,30,0,0
40147,593.471810089021,4,3,1,30,1,0
40147,-125,4,3,1,30,0,0
40740,542.49547920434,4,3,1,30,1,0
40740,-125,4,3,1,30,0,0
51770,-54.3478260869565,4,3,1,30,0,0
52132,-111.111111111111,4,3,1,30,0,0
52675,579.150579150579,4,3,1,30,1,0
53061,662.251655629139,4,3,1,30,1,0
53502,655.021834061135,4,3,1,30,1,0
53938,655.021834061135,4,3,1,30,1,0
53938,-95.2380952380952,4,3,1,30,0,0
54031,-95.2380952380952,4,3,1,10,0,0
54121,-95.2380952380952,4,3,1,30,0,0
54302,542.49547920434,4,3,1,30,1,0
54844,579.150579150579,4,3,1,30,1,0
55230,641.025641025641,4,3,1,30,1,0
55657,614.754098360656,4,3,1,30,1,0
56066,542.49547920434,4,3,1,30,1,0
56066,-95.2380952380952,4,3,1,30,0,0
56156,-95.2380952380952,4,3,1,10,0,0
56246,-95.2380952380952,4,3,1,30,0,0
56472,542.49547920434,4,3,1,30,1,0
57376,647.948164146868,4,3,1,30,1,0
57807,647.948164146868,4,3,1,30,1,0
58238,-95.2380952380952,4,3,1,30,0,0
58346,-95.2380952380952,4,3,1,10,0,0
58642,514.579759862779,4,3,1,30,1,0
58985,542.49547920434,4,3,1,30,1,0
59165,552.486187845304,4,3,1,30,1,0
59165,-95.2380952380952,4,3,1,30,0,0
59533,717.703349282297,4,3,1,30,1,0
59772,596.421471172962,4,3,1,30,1,0
60168,793.650793650794,4,3,1,30,1,0
60432,793.650793650794,4,3,1,30,1,0
60812,542.49547920434,4,3,1,30,1,0
60812,-95.2380952380952,4,3,1,30,0,0
67140,-95.2380952380952,4,3,1,33,0,0
67321,-50.0000000000002,4,3,1,63,0,1
67411,-50.0000000000002,4,3,1,33,0,1
68406,521.28583840139,4,3,1,63,1,1
68406,-50.0000000000002,4,3,1,63,0,1
68579,508.044030482642,4,3,1,63,1,1
68748,521.28583840139,4,3,1,63,1,1
68748,-25.9740259740259,4,3,1,63,0,1
68921,569.53013763645,4,3,1,63,1,1
69491,542.49547920434,4,3,1,63,1,1
69491,-62.5,4,3,1,63,0,1
69671,-50.0000000000002,4,3,1,33,0,1
69762,-50.0000000000002,4,3,1,43,0,1
69852,-50.0000000000002,4,3,1,53,0,1
69943,-50.0000000000002,4,3,1,63,0,1
70665,-50.0000000000002,4,3,1,33,0,1
71480,-50.0000000000002,4,3,1,63,0,1
72113,-50.0000000000002,4,3,1,33,0,1
72203,-50.0000000000002,4,3,1,63,0,1
72565,528.169014084507,4,3,1,63,1,1
73445,505.902192242833,4,3,1,63,1,1
73445,-50,4,3,1,63,0,1
73613,581.9592628516,4,3,1,63,1,1
73613,-50,4,3,1,63,0,1
73831,542.49547920434,4,3,1,63,1,1
73831,-38.4615384615386,4,3,1,63,0,1
73920,-35.7142857142858,4,3,1,23,0,1
75096,-50.0000000000002,4,3,1,63,0,1
75277,-24.0963855421686,4,3,1,63,0,1
76361,-50.0000000000002,4,3,1,63,0,1
76542,523.560209424084,4,3,1,63,1,1
76716,-27.3972602739726,4,3,1,63,0,1
76891,542.49547920434,4,3,1,63,1,1
77433,-27.3972602739726,4,3,1,63,0,1
77614,523.560209424084,4,3,1,63,1,1
77941,614.754098360656,4,3,1,63,1,1
77941,-50.0000000000002,4,3,1,63,0,1
78171,542.49547920434,4,3,1,63,1,1
78260,-50.0000000000002,4,3,1,63,0,1
79255,505.902192242833,4,3,1,63,1,1
79255,-33.3333333333334,4,3,1,63,0,1
79423,473.9336492891,4,3,1,63,1,1
79436,-50.0000000000002,4,3,1,63,0,1
79580,505.902192242833,4,3,1,63,1,1
80340,532.859680284192,4,3,1,63,1,1
80872,523.560209424084,4,3,1,63,1,1
80872,-50,4,3,1,63,0,1
81221,552.486187845304,4,3,1,63,1,1
81405,542.49547920434,4,3,1,63,1,0
81405,-50.0000000000002,4,3,1,63,0,0
82309,608.519269776876,4,3,1,63,1,0
82511,542.49547920434,4,3,1,63,1,0
83234,-71.4285714285714,4,3,1,63,0,0
84137,-100,4,3,1,53,0,0
84682,542.49547920434,4,3,1,63,1,1
84682,-76.9230769230769,4,3,1,63,0,1
85133,-76.9230769230769,4,3,1,33,0,1
85224,-76.9230769230769,4,3,1,63,0,1
87936,-50,4,3,1,63,0,1
88478,-76.9230769230769,4,3,1,63,0,1
92276,-50,4,3,1,63,0,1
92818,-76.9230769230769,4,3,1,63,0,1
96616,-50,4,3,1,63,0,1
97158,-76.9230769230769,4,3,1,63,0,1
97226,-76.9230769230769,4,3,1,43,0,1
97294,-76.9230769230769,4,3,1,53,0,1
97362,-76.9230769230769,4,3,1,43,0,1
97429,-76.9230769230769,4,3,1,53,0,1
97497,-76.9230769230769,4,3,1,43,0,1
97565,-76.9230769230769,4,3,1,53,0,1
97633,-76.9230769230769,4,3,1,43,0,1
97701,-76.9230769230769,4,3,1,63,0,1
98787,568.181818181818,4,3,1,63,1,1
99165,477.707006369427,4,3,1,63,1,1
99483,584.795321637427,4,3,1,63,1,1
99872,542.49547920434,4,3,1,43,1,0
99872,-100,4,3,1,43,0,0
99962,-100,4,3,1,13,0,0
102041,-95.2380952380952,4,2,1,33,0,0
105267,596.421471172962,4,2,1,33,1,0
105267,-100,4,2,1,33,0,0
105863,519.031141868512,4,2,1,33,1,0
105863,-111.111111111111,4,2,1,33,0,0
106382,596.421471172962,4,2,1,33,1,0
106382,-133.333333333333,4,2,1,33,0,0
106978,479.616306954436,4,2,1,33,1,0
106978,-151.515151515152,4,2,1,33,0,0
107457,542.49547920434,4,2,1,33,1,0
107457,-95.2380952380952,4,2,1,33,0,0
108541,542.49547920434,4,2,1,33,1,0
108541,-95.2380952380952,4,2,1,33,0,0
110168,608.519269776876,4,2,1,33,1,0
110168,-75.7575757575758,4,2,1,33,0,0
110472,477.707006369427,4,2,1,33,1,0
110710,542.49547920434,4,2,1,33,1,0
110710,-95.2380952380952,4,2,1,33,0,0
113964,655.021834061136,4,2,1,33,1,0
113966,-100,4,2,1,33,0,0
114291,542.49547920434,4,2,1,33,1,0
114562,587.659157688541,4,2,1,33,1,0
114562,-95.2380952380952,4,2,1,33,0,0
115051,596.421471172962,4,2,1,33,1,0
115051,-133.333333333333,4,2,1,33,0,0
115647,487.408610885459,4,2,1,33,1,0
115647,-151.515151515152,4,2,1,33,0,0
116134,542.49547920434,4,2,1,33,1,0
116134,-95.2380952380952,4,2,1,33,0,0
117218,-95.2380952380952,4,2,1,33,0,0
119388,-142.857142857143,4,3,1,43,0,0
119931,-100,4,3,1,43,0,0
121558,-142.857142857143,4,3,1,43,0,0
123005,-142.857142857143,4,3,1,23,0,0
123186,-142.857142857143,4,3,1,43,0,0
123548,-142.857142857143,4,3,1,23,0,0
123728,-142.857142857143,4,3,1,43,0,0
124270,-100,4,3,1,43,0,0
125898,-142.857142857143,4,3,1,43,0,0
126983,-222.222222222222,4,3,1,43,0,0
127345,-142.857142857143,4,3,1,43,0,0
128611,-100,4,3,1,43,0,0
128792,-100,4,3,1,13,0,0
129153,-100,4,3,1,43,0,0
130238,-142.857142857143,4,3,1,43,0,0
131775,-142.857142857143,4,3,1,5,0,0
131866,-142.857142857143,4,3,1,43,0,0
132408,-142.857142857143,4,3,1,43,0,0
133493,-100,4,3,1,43,0,0
134578,-153.846153846154,4,3,1,43,0,0
136206,-222.222222222222,4,3,1,43,0,0
136748,-100,4,3,1,53,0,0
137290,-47.6190476190476,4,3,1,53,0,0
137833,-55.5555555555556,4,3,1,53,0,0
138737,-66.6666666666667,4,3,1,53,0,0
140003,-38.4615384615385,4,3,1,63,0,0
140095,-38.4615384615385,4,3,1,5,0,0
140184,-38.4615384615385,4,3,1,63,0,0
140276,-38.4615384615385,4,3,1,5,0,0
140365,-38.4615384615385,4,3,1,63,0,0
140457,-38.4615384615385,4,3,1,5,0,0
140546,-38.4615384615385,4,3,1,63,0,0
140637,-100,4,3,1,5,0,0
140907,-100,4,3,1,53,0,0
141088,-100,4,3,1,53,0,0
141630,-47.6190476190476,4,3,1,53,0,0
142173,-55.5555555555556,4,3,1,53,0,0
143077,-66.6666666666667,4,3,1,53,0,0
144343,-38.4615384615385,4,3,1,63,0,0
144434,-38.4615384615385,4,3,1,5,0,0
144524,-38.4615384615385,4,3,1,63,0,0
144615,-38.4615384615385,4,3,1,5,0,0
144705,-38.4615384615385,4,3,1,63,0,0
144796,-38.4615384615385,4,3,1,5,0,0
144886,-38.4615384615385,4,3,1,63,0,0
144976,-100,4,3,1,5,0,0
145248,-100,4,3,1,53,0,0
145428,-100,4,3,1,53,0,0
145971,-47.6190476190476,4,3,1,53,0,0
146512,-55.5555555555556,4,3,1,53,0,0
147417,-66.6666666666667,4,3,1,53,0,0
148683,-38.4615384615385,4,3,1,63,0,0
148774,-38.4615384615385,4,3,1,5,0,0
148864,-38.4615384615385,4,3,1,63,0,0
148955,-38.4615384615385,4,3,1,5,0,0
149045,-38.4615384615385,4,3,1,63,0,0
149135,-38.4615384615385,4,3,1,5,0,0
149226,-38.4615384615385,4,3,1,63,0,0
149316,-38.4615384615385,4,3,1,5,0,0
149588,-100,4,3,1,53,0,0
149768,-100,4,3,1,53,0,0
150310,-47.6190476190476,4,3,1,53,0,0
150852,-55.5555555555556,4,3,1,53,0,0
151757,-66.6666666666667,4,3,1,53,0,0
153023,-38.4615384615385,4,3,1,63,0,0
153114,-38.4615384615385,4,3,1,5,0,0
153204,-38.4615384615385,4,3,1,63,0,0
153295,-38.4615384615385,4,3,1,5,0,0
153385,-38.4615384615385,4,3,1,63,0,0
153476,-38.4615384615385,4,3,1,5,0,0
153566,-38.4615384615385,4,3,1,63,0,0
153656,-100,4,3,1,5,0,0
153928,-100,4,3,1,53,0,0
154108,-100,4,3,1,53,0,0
154651,-47.6190476190476,4,3,1,53,0,0
155192,-55.5555555555556,4,3,1,53,0,0
156278,-100,4,3,1,53,0,0
156820,-47.6190476190476,4,3,1,53,0,0
157363,-38.4615384615385,4,3,1,63,0,0
157454,-38.4615384615385,4,3,1,5,0,0
157544,-38.4615384615385,4,3,1,63,0,0
157635,-38.4615384615385,4,3,1,5,0,0
157725,-38.4615384615385,4,3,1,63,0,0
157816,-38.4615384615385,4,3,1,5,0,0
157906,-38.4615384615385,4,3,1,63,0,0
157996,-100,4,3,1,5,0,0
158267,-100,4,3,1,53,0,0
158448,-41.6666666666667,4,3,1,63,0,1
160618,-100,4,3,1,63,0,1
161161,-35.0877192982456,4,3,1,43,0,0
161251,-35.0877192982456,4,3,1,33,0,0
162155,-35.0877192982456,4,3,1,13,0,0
162245,-35.0877192982456,4,3,1,23,0,0
162381,-35.0877192982456,4,3,1,8,0,0
162472,-35.0877192982456,4,3,1,23,0,0
162788,-35.0877192982456,4,3,1,13,0,0

[Colours]
Combo1 : 98,145,255
Combo2 : 255,98,160
Combo3 : 255,192,98
Combo4 : 208,98,255

[HitObjects]
111,109,53,6,0,P|100:154|41:251,1,125.999996154785,2|0,0:2|0:0,0:0:0:0:
104,61,1680,1,2,0:2:0:0:
63,224,2222,2,0,L|28:362,1,125.999996154785,2|0,0:2|0:0,0:0:0:0:
189,280,3307,1,0,0:0:0:0:
192,300,3850,1,0,0:0:0:0:
391,317,4392,6,0,P|454:265|510:257,1,125.999996154785,2|0,0:2|0:0,0:0:0:0:
280,279,6020,1,2,0:2:0:0:
411,163,6562,2,0,P|467:189|513:235,1,125.999996154785,2|0,0:2|0:0,0:0:0:0:
362,342,7647,1,0,0:0:0:0:
359,322,8190,1,0,0:0:0:0:
294,164,8732,5,2,0:2:0:0:
306,178,9275,2,0,L|353:98,2,60,2|0|0,0:2|0:0|0:0,0:0:0:0:
270,284,9817,2,0,L|226:-41,1,300,2|0,0:2|0:0,0:0:0:0:
182,79,10902,1,2,0:2:0:0:
357,341,11987,6,0,P|387:309|420:262,1,83.9999974365235,0|0,0:0|0:0,0:0:0:0:
359,251,12530,2,0,P|373:292|400:342,1,83.9999974365235,0|0,0:0|0:0,0:0:0:0:
273,363,13072,1,2,0:2:0:0:
46,223,13615,6,0,P|61:259|71:295,2,60,2|0|0,0:2|0:0|0:0,0:0:0:0:
0,323,14157,2,0,L|44:-2,1,300,2|0,0:2|0:0,0:0:0:0:
68,115,15242,1,2,0:2:0:0:
394,210,16327,2,0,B|374:188|328:166|315:183,1,83.9999974365235,0|0,0:0|0:0,0:0:0:0:
281,253,16870,1,0,0:0:0:0:
492,159,17412,1,2,0:2:0:0:
273,371,17955,6,0,B|263:347|246:320|234:324,2,60,2|0|0,0:2|0:0|0:0,0:0:0:0:
365,349,18497,2,0,L|340:165,1,180,2|2,0:2|0:2,0:0:0:0:
314,2,19582,2,0,B|334:128,1,125.999996154785,2|0,0:2|0:0,0:0:0:0:
174,175,20667,1,0,0:0:0:0:
28,86,21210,2,0,B|54:74|107:81|100:104,1,83.9999974365235,0|0,0:0|0:0,0:0:0:0:
156,170,21752,1,2,0:2:0:0:
129,209,22837,2,0,L|331:182,1,180,2|2,0:2|0:2,0:0:0:0:
404,43,23922,2,0,L|559:74,1,125.999996154785,2|0,0:2|0:0,0:0:0:0:
489,273,25007,1,2,0:2:0:0:
474,260,25550,1,2,0:2:0:0:
323,338,26092,2,0,P|257:349|168:377,1,125.999996154785,2|0,0:2|0:0,0:0:0:0:
15,300,27177,6,0,P|26:264|51:236,1,48,2|0,0:2|0:0,0:0:0:0:
79,249,27539,2,0,P|56:257|37:271,1,48,0|0,0:0|0:0,0:0:0:0:
68,265,27901,2,0,P|104:273|134:296,1,48,0|0,0:0|0:0,0:0:0:0:
246,310,28262,1,2,0:2:0:0:
494,311,29347,6,0,P|517:267|537:244,2,48,0|2|0,0:0|0:2|0:0,0:0:0:0:
470,342,29890,2,0,P|457:293|457:263,2,48,0|0|0,0:0|0:0|0:0,0:0:0:0:
367,289,30432,1,2,0:2:0:0:
149,328,31336,5,2,0:2:0:0:
141,349,31517,2,0,L|71:365,2,48,2|0|0,0:2|0:0|0:0,0:0:0:0:
167,271,32060,2,0,L|237:287,2,48,2|0|0,0:0|0:0|0:0,0:0:0:0:
57,236,32602,2,0,L|-18:185,1,48,2|0,0:2|0:0,0:0:0:0:
35,146,32964,1,0,0:0:0:0:
12,275,33145,1,2,0:0:0:0:
218,381,33687,5,0,0:0:0:0:
407,336,34230,1,0,0:0:0:0:
511,172,34772,1,2,0:2:0:0:
459,359,35857,6,0,P|435:326|411:305,2,48,2|0|0,0:2|0:0|0:0,0:0:0:0:
343,340,36400,2,0,P|347:299|344:267,2,48,2|0|0,0:2|0:0|0:0,0:0:0:0:
271,246,36942,2,0,P|236:227|162:216,1,96,2|0,0:2|0:0,0:0:0:0:
102,243,37485,1,2,0:2:0:0:
15,189,38027,5,0,0:0:0:0:
203,238,38570,1,0,0:0:0:0:
348,366,39112,1,2,0:2:0:0:
471,302,40147,6,0,P|491:258|511:231,2,48,2|0|0,0:2|0:0|0:0,0:0:0:0:
399,354,40740,2,0,L|353:315,1,48,2|0,0:2|0:0,0:0:0:0:
281,344,41101,1,0,0:0:0:0:
208,298,41282,2,0,L|189:237,1,48,2|0,0:2|0:0,0:0:0:0:
185,242,41644,1,0,0:0:0:0:
92,229,41825,2,0,L|32:200,1,48,2|0,0:2|0:0,0:0:0:0:
8,137,42186,1,0,0:0:0:0:
77,57,42367,2,0,L|39:209,1,144,2|0,0:2|0:0,0:0:0:0:
0,353,43452,5,2,0:2:0:0:
79,318,43633,2,0,L|156:352,3,48,2|2|2|2,0:2|0:2|0:2|0:2,0:0:0:0:
113,240,44356,1,2,0:2:0:0:
197,283,44537,2,0,L|280:264,2,48,2|2|2,0:2|0:2|0:2,0:0:0:0:
29,326,45080,1,2,0:2:0:0:
340,356,45622,5,2,0:2:0:0:
440,301,45803,2,0,L|456:239,3,48,2|2|2|2,0:2|0:2|0:2|0:2,0:0:0:0:
361,276,46526,1,2,0:2:0:0:
307,210,46707,2,0,L|296:152,2,48,2|2|2,0:2|0:2|0:2,0:0:0:0:
388,109,47250,1,2,0:2:0:0:
123,204,47792,5,2,0:2:0:0:
91,283,47973,2,0,P|99:316|123:353,1,48,2|2,0:2|0:2,0:0:0:0:
10,254,48335,2,0,P|-3:286|-6:316,2,48,2|2|2,0:2|0:2|0:2,0:0:0:0:
66,170,48877,1,2,0:2:0:0:
34,135,49058,2,0,P|59:192|69:204,1,48,2|2,0:2|0:2,0:0:0:0:
231,224,49420,1,2,0:2:0:0:
484,138,49962,5,2,0:2:0:0:
512,58,50143,2,0,P|505:17|492:-9,1,48,2|2,0:2|0:2,0:0:0:0:
408,100,50505,2,0,P|428:46|428:26,2,48,2|2|2,0:2|0:2|0:2,0:0:0:0:
368,177,51047,1,2,0:2:0:0:
393,232,51228,2,0,L|384:149,1,48,2|2,0:2|0:2,0:0:0:0:
349,29,51590,1,2,0:2:0:0:
294,340,52132,1,2,0:2:0:0:
193,310,52675,5,2,0:2:0:0:
274,177,53061,1,2,0:0:0:0:
121,146,53502,1,2,0:2:0:0:
4,17,53938,2,0,L|14:72,1,31.4999990386963,2|0,0:2|0:0,0:0:0:0:
193,310,54844,5,2,0:2:0:0:
279,180,55230,1,2,0:0:0:0:
371,272,55657,1,2,0:2:0:0:
331,99,56066,2,0,L|321:154,1,31.4999990386963
193,310,57015,5,2,0:2:0:0:
367,255,57376,1,2,0:2:0:0:
268,172,57807,1,2,0:0:0:0:
354,78,58238,2,0,L|364:133,1,31.4999990386963,2|0,0:3|0:0,0:0:0:0:
168,20,58985,5,0,0:0:0:0:
132,139,59165,2,0,B|99:103|51:64|29:64,1,125.999996154785,2|2,0:2|0:2,0:0:0:0:
50,211,59772,1,0,0:0:0:0:
134,193,59970,1,2,0:0:0:0:
200,248,60168,1,0,0:0:0:0:
276,287,60432,1,2,0:2:0:0:
193,310,61354,5,2,0:2:0:0:
134,121,61761,1,2,0:0:0:0:
231,221,62168,1,2,0:0:0:0:
322,170,62439,2,0,L|362:117,1,62.9999980773926,0|2,0:0|0:2,0:0:0:0:
168,20,63524,5,2,0:2:0:0:
94,182,63931,1,2,0:0:0:0:
235,115,64338,1,2,0:0:0:0:
360,146,64609,2,0,L|395:198,1,62.9999980773926,0|2,0:0|0:2,0:0:0:0:
160,342,66236,6,0,B|161:338|165:335|165:335|165:340|166:333|166:333|168:339|170:331|170:331|172:337|173:328|174:326|174:326|175:333|177:322|180:323|180:323|182:329|185:321|185:321|184:325|188:317|192:315|192:315|190:321|199:311|204:309|204:309|199:319|213:305|216:303|216:303|215:308|226:301|231:297|231:297|222:304|247:291|247:291|242:299|259:287|259:287|256:290|271:278|364:277|266:285|360:269|389:289|389:289|405:308|405:308|427:330,1,346.49998942566
300,242,67321,5,4,0:0:0:0:
258,40,68406,1,4,0:0:0:0:
407,117,68579,1,4,0:0:0:0:
433,80,68748,2,0,L|205:113,1,231.000002202988,4|12,0:0|0:0,0:0:0:0:
240,140,69491,6,0,L|114:124,1,96
183,176,69762,2,0,L|154:228,1,60
143,312,69943,1,0,0:0:0:0:
137,320,70033,2,0,P|124:279|126:245,1,60,4|0,0:0|0:0,0:0:0:0:
481,167,70575,2,0,P|470:125|475:91,1,60,4|0,0:0|0:0,0:0:0:0:
237,24,71480,5,8,0:0:0:0:
311,147,71660,2,0,L|23:36,1,300,4|0,0:0|0:0,0:0:0:0:
76,119,72203,1,4,0:0:0:0:
35,281,72565,1,8,0:0:0:0:
6,269,72741,5,4,0:0:0:0:
146,235,72917,1,4,0:0:0:0:
266,314,73093,1,4,0:0:0:0:
407,289,73269,1,12,0:0:0:0:
337,326,73445,2,0,L|262:349,1,60,4|0,0:0|0:0,0:0:0:0:
369,212,73613,2,0,L|422:166,1,60
289,126,73831,6,0,B|120:145|120:145|60:119,1,233.999989288331,4|0,0:0|0:0,0:0:0:0:
151,195,75096,1,4,0:0:0:0:
92,67,75277,2,0,L|15:414,1,248.999995725632,8|4,0:0|0:0,0:0:0:0:
306,361,76362,1,0,0:0:0:0:
294,343,76542,5,4,0:0:0:0:
373,278,76716,2,0,L|159:233,1,218.99999686718,4|8,0:0|0:0,0:0:0:0:
93,154,77071,1,4,0:0:0:0:
210,139,77252,1,4,0:0:0:0:
28,105,77433,2,0,L|277:36,1,218.99999686718,4|12,0:0|0:0,0:0:0:0:
331,351,77941,2,0,L|379:326,3,45,8|0|0|4,0:0|0:0|0:0|0:0,0:0:0:0:
491,218,79255,6,0,L|275:176,1,180.000006866455,4|4,0:0|0:0,0:0:0:0:
220,205,79580,1,4,0:0:0:0:
61,150,79748,1,12,0:0:0:0:
0,243,80517,5,0,0:0:0:0:
133,224,80695,1,8,0:0:0:0:
214,128,80872,6,0,L|146:263,1,120,12|8,0:0|0:0,0:0:0:0:
131,339,81221,1,12,0:0:0:0:
249,255,81405,1,12,0:0:0:0:
440,209,81676,1,8,0:0:0:0:
238,266,81947,1,8,0:0:0:0:
306,352,82309,5,8,0:0:0:0:
343,359,82511,1,12,0:0:0:0:
288,52,82872,5,0,0:0:0:0:
430,128,83234,2,0,L|412:176,1,41.9999987182618,12|0,0:0|0:0,0:0:0:0:
460,205,83415,2,0,L|454:276,1,41.9999987182618,12|0,0:0|0:0,0:0:0:0:
408,310,83595,1,12,0:0:0:0:
99,340,84138,1,12,0:0:0:0:
5,50,84682,6,0,P|109:28|233:21,1,194.999991073609,4|0,0:0|0:0,0:0:0:0:
166,67,85224,1,10,0:0:0:0:
265,87,85405,1,8,0:0:0:0:
350,141,85586,1,8,0:0:0:0:
495,176,85766,1,4,0:0:0:0:
152,339,86309,5,10,0:0:0:0:
68,211,86580,2,0,P|56:235|35:260,2,38.9999982147218
56,161,86851,5,4,0:0:0:0:
235,66,87213,2,0,P|192:33|176:0,1,77.9999964294435,4|0,0:0|0:0,0:0:0:0:
351,42,87575,1,4,0:0:0:0:
317,137,87756,1,4,0:0:0:0:
364,265,87936,5,12,0:0:0:0:
487,195,88117,2,0,L|372:229,1,120,12|12,0:0|0:0,0:0:0:0:
243,266,88479,1,12,0:0:0:0:
106,375,89021,5,4,0:0:0:0:
14,85,89564,1,10,0:0:0:0:
99,139,89745,1,8,0:0:0:0:
164,216,89926,1,8,0:0:0:0:
311,287,90106,1,4,0:0:0:0:
507,238,90468,6,0,L|414:222,1,77.9999964294435,0|10,0:0|0:0,0:0:0:0:
266,104,91011,6,0,L|293:151,2,38.9999982147218,0|0|4,0:0|0:0|0:0,0:0:0:0:
180,48,91372,1,8,0:0:0:0:
250,119,91553,2,0,L|259:171,1,38.9999982147218,8|0,0:0|0:0,0:0:0:0:
231,235,91734,1,10,0:0:0:0:
228,247,92276,5,12,0:0:0:0:
92,169,92457,2,0,P|133:240|145:294,1,120,12|12,0:0|0:0,0:0:0:0:
17,371,92819,1,12,0:0:0:0:
480,266,93361,5,4,0:0:0:0:
312,12,93904,2,0,P|370:49|438:141,1,155.999992858887,10|0,0:0|0:0,0:0:0:0:
336,135,94356,2,0,P|349:159|360:192,1,38.9999982147218,0|4,0:0|0:0,0:0:0:0:
277,237,94627,1,8,0:0:0:0:
230,326,94808,1,8,0:0:0:0:
114,382,94989,1,10,0:0:0:0:
352,279,95441,6,0,P|347:305|335:338,1,38.9999982147218,0|4,0:0|0:0,0:0:0:0:
248,354,95712,1,8,0:0:0:0:
147,370,95893,1,8,0:0:0:0:
17,331,96074,1,10,0:0:0:0:
256,219,96616,5,12,0:0:0:0:
105,179,96797,2,0,P|170:141|241:93,1,120,12|12,0:0|0:0,0:0:0:0:
320,7,97159,1,8,0:0:0:0:
377,342,97701,5,4,0:0:0:0:
511,109,98244,2,0,P|436:140|345:161,1,155.999992858887,10|0,0:0|0:0,0:0:0:0:
338,237,98696,1,0,0:0:0:0:
332,246,98787,1,4,0:0:0:0:
166,357,99165,1,8,0:0:0:0:
113,251,99483,1,8,0:0:0:0:
32,67,99872,2,0,L|23:17,1,30,4|0,0:0|0:0,0:0:0:0:
98,309,102041,6,0,B|108:309|108:309|89:327|22:328|-109:257|113:329|-125:295|125:284|-93:240|248:240|231:285|215:330|486:301|385:216,1,566.999982696534,4|0,0:0|0:0,0:0:0:0:
153,132,104211,2,0,B|159:119|159:119|168:154|160:196|131:170|140:208|120:170|111:225|110:171|92:224|154:89|176:83|198:75|172:30|144:3|117:34,1,314.999990386963,2|0,0:0|0:0,0:0:0:0:
38,163,105267,6,0,P|23:122|-29:61,1,120,2|0,0:0|0:0,0:0:0:0:
31,181,105863,1,2,0:0:0:0:
240,319,106382,2,0,P|183:339|149:368,1,90.0000034332277,2|0,0:0|0:0,0:0:0:0:
56,381,106978,1,2,0:0:0:0:
40,384,107457,5,0,0:0:0:0:
393,379,108541,5,2,0:0:0:0:
45,205,109625,2,0,L|57:266,1,62.9999980773926,2|2,0:0|0:0,0:0:0:0:
34,244,110168,2,0,P|42:223|46:119,1,118.799999637451
11,43,110710,2,0,B|22:69|59:121|144:115|234:89|224:76|214:62|398:-57|433:-41|512:14|530:69|451:58|436:37,1,566.999982696534,4|0,0:0|0:0,0:0:0:0:
331,200,112880,2,0,B|317:215|287:236|280:197|270:101|372:85|494:109|512:167|471:237|251:235|292:141|303:118|307:109|310:101,1,314.999990386963,2|0,0:0|0:0,0:0:0:0:
230,294,113964,2,0,B|207:291|170:252|166:214,1,90,2|0,0:0|0:0,0:0:0:0:
309,298,114562,2,0,B|287:311|249:316|205:315,1,94.499997116089,2|2,0:0|0:0,0:0:0:0:
138,360,115051,1,2,0:0:0:0:
162,384,115200,1,2,0:0:0:0:
2,327,116134,1,0,0:0:0:0:
435,347,117218,5,2,0:0:0:0:
354,168,118303,2,0,L|419:160,2,62.9999980773926,2|0|0,0:0|0:0|0:0,0:0:0:0:
386,153,118846,2,0,P|416:132|373:51,1,125.999996154785
431,244,119388,1,4,0:0:0:0:
295,364,119931,6,0,P|320:334|355:318,2,60,2|0|0,0:2|0:0|0:0,0:0:0:0:
310,241,120473,2,0,B|297:248|287:252|282:255|260:259|253:257|246:257|232:288|231:297|228:312|186:258|181:267|175:278|167:332|156:325|147:317|105:302|101:309|94:317|77:342|58:346|41:348|32:348,1,300,2|0,0:2|0:0,0:0:0:0:
125,373,121558,1,2,0:2:0:0:
141,378,122643,2,0,B|146:356|168:339|187:326|186:321|193:333|193:343,1,83.9999974365235,2|0,0:2|0:0,0:0:0:0:
107,276,123186,2,0,B|127:257|138:239|130:215|135:202|122:225|119:234,1,83.9999974365235,2|0,0:2|0:0,0:0:0:0:
269,259,123728,2,0,B|293:233|331:221|357:218|395:223,1,125.999996154785,2|2,0:2|0:2,0:0:0:0:
497,324,124813,6,0,B|476:323|451:314|433:305|446:286|445:255|421:277|393:296|385:291|342:282|381:238|438:182|387:227|326:273|326:230|313:212|367:200|360:193|346:191|337:169|283:176|293:157|325:166|298:130|287:88,1,300,2|0,0:2|0:0,0:0:0:0:
411,154,125898,1,2,0:2:0:0:
485,80,126983,2,0,P|475:101|465:152,1,53.9999983520508,2|0,0:2|0:0,0:0:0:0:
336,77,127888,1,0,0:0:0:0:
274,25,128068,6,0,B|250:34|218:44|129:27|97:-12,1,167.999994873047,2|0,0:2|0:0,0:0:0:0:
38,153,129153,2,0,B|21:175|13:159|12:165|9:160|5:162|6:157|-7:179|-6:187|-12:178|-11:182|-14:174|-16:181|-101:153|-33:129|61:93|116:101|99:116|93:123|84:134|69:159|76:164|73:170|74:179|78:172|102:142|124:120|135:122|143:129|132:141|121:154|115:164|118:165|121:166|130:162|138:159|162:152|168:159|170:165|189:179|187:190|198:192,1,300,2|0,0:2|0:0,0:0:0:0:
261,260,130238,1,0,0:0:0:0:
291,355,131323,2,0,B|331:353|346:327|334:361|395:325,1,104.999996795654,2|0,0:2|0:0,0:0:0:0:
453,222,131866,1,2,0:2:0:0:
458,245,132408,2,0,B|449:287|430:274|440:305|416:333,1,83.9999974365235,2|0,0:2|0:0,0:0:0:0:
511,326,133493,6,0,B|464:334|442:355|461:365|461:380|460:369|459:353|458:363|464:342|413:302|397:280|377:279|368:281|390:330|385:326|380:320|356:278|340:268|320:270|276:276|257:287|250:305,1,300,2|0,0:2|0:0,0:0:0:0:
162,340,134578,1,0,0:0:0:0:
24,190,136206,6,0,B|0:183|0:183|-23:160,1,53.9999983520508
47,270,136748,1,10,0:2:0:0:
155,57,137291,5,10,0:3:0:0:
173,145,137472,1,0,0:0:0:0:
166,158,137652,1,0,0:0:0:0:
184,37,137833,2,0,B|161:139|161:139|136:279,1,215.999993408203,10|2,0:2|0:0,0:0:0:0:
240,359,138376,2,0,B|224:251|224:251|197:147,1,215.999993408203,10|0,0:0|0:0,0:0:0:0:
206,135,138798,2,0,L|241:130,2,30.0000011444092,0|0|4,0:0|0:0|0:0,0:0:0:0:
352,173,139280,1,0,0:0:0:0:
378,181,139340,2,0,L|399:153,2,30,0|0|4,0:0|0:0|0:0,0:0:0:0:
473,307,140003,5,12,0:0:0:0:
425,196,140184,1,12,0:0:0:0:
330,122,140365,1,12,0:0:0:0:
254,29,140546,1,12,0:0:0:0:
0,336,141088,6,0,B|16:317|47:299|47:299|81:289|126:287,1,120,4|0,0:2|0:0,0:0:0:0:
212,370,141631,1,10,0:3:0:0:
304,317,141812,1,0,0:0:0:0:
298,335,141992,1,0,0:0:0:0:
417,368,142173,2,0,B|409:336|409:336|397:306|397:306|393:250|393:250|388:234|388:234|372:149,1,215.999993408203,10|2,0:2|0:0,0:0:0:0:
331,0,142716,2,0,B|322:44|322:44|307:73|307:73|299:123|299:123|290:134|290:134|257:210,1,215.999993408203,10|0,0:0|0:0,0:0:0:0:
218,217,143138,2,0,L|171:242,2,30,0|0|4,0:0|0:0|0:0,0:0:0:0:
80,189,143620,1,0,0:0:0:0:
55,200,143680,2,0,L|2:205,2,30,0|0|4,0:0|0:0|0:0,0:0:0:0:
94,62,144343,5,12,0:0:0:0:
206,98,144524,1,12,0:0:0:0:
323,83,144705,1,12,0:0:0:0:
440,68,144886,1,12,0:0:0:0:
508,309,145428,5,4,0:2:0:0:
306,357,145971,2,0,B|321:332|321:332|355:294|406:280|422:283,1,125.999996154785,10|0,0:3|0:0,0:0:0:0:
385,383,146332,1,0,0:0:0:0:
351,214,146513,2,0,B|356:181|401:134|401:134|448:120|509:127|509:127|487:157,1,215.999993408203,10|2,0:2|0:0,0:0:0:0:
293,275,147056,2,0,B|263:235|221:229|172:205|123:229|123:229|149:242,1,215.999993408203,10|0,0:0|0:0,0:0:0:0:
126,331,147478,2,0,L|80:351,2,30,0|0|4,0:0|0:0|0:0,0:0:0:0:
10,281,147960,1,0,0:0:0:0:
42,265,148020,2,0,L|19:305,2,30,0|0|4,0:0|0:0|0:0,0:0:0:0:
2,175,148683,5,12,0:0:0:0:
117,91,148864,1,12,0:0:0:0:
94,23,149045,1,12,0:0:0:0:
245,74,149226,1,12,0:0:0:0:
298,370,149768,6,0,L|379:262,1,120,4|0,0:2|0:0,0:0:0:0:
424,144,150311,1,10,0:3:0:0:
466,268,150492,2,0,L|340:213,1,125.999996154785
257,129,150853,2,0,L|36:73,1,215.999993408203,10|2,0:2|0:0,0:0:0:0:
0,224,151396,2,0,B|34:267|34:267|204:239,1,215.999993408203,10|0,0:0|0:0,0:0:0:0:
236,236,151818,2,0,L|229:207,2,30,0|0|4,0:0|0:0|0:0,0:0:0:0:
358,294,152300,1,0,0:0:0:0:
371,306,152360,2,0,L|380:334,2,30,0|0|4,0:0|0:0|0:0,0:0:0:0:
486,263,153023,5,12,0:0:0:0:
380,152,153204,1,12,0:0:0:0:
437,167,153385,1,12,0:0:0:0:
290,95,153566,1,12,0:0:0:0:
2,142,154108,5,4,0:2:0:0:
131,34,154651,2,0,L|84:178,2,125.999996154785,10|0|0,0:3|0:0|0:0,0:0:0:0:
205,157,155193,2,0,B|210:210|210:210|233:308|233:308|231:328|231:328|241:370,1,215.999993408203,10|2,0:2|0:0,0:0:0:0:
314,219,155736,2,0,B|265:225|265:225|165:256|165:256|135:250|135:250|104:260,1,215.999993408203,10|0,0:0|0:0,0:0:0:0:
255,383,156278,1,10,0:2:0:0:
486,307,156821,1,10,0:3:0:0:
377,378,157363,5,12,0:0:0:0:
328,269,157544,1,12,0:0:0:0:
299,153,157725,1,12,0:0:0:0:
331,39,157906,1,12,0:0:0:0:
285,367,158448,6,0,B|172:316|172:316|103:330,2,143.999995605469,12|12|12,0:0|0:0|0:0,0:0:0:0:
242,254,158991,2,0,B|173:322|173:322|128:337,2,143.999995605469,12|4|4,0:0|0:0|0:0,0:0:0:0:
170,111,159533,2,0,B|67:34|67:34|0:118|0:118|113:141,1,287.999991210938,12|0,0:0|0:0,0:0:0:0:
183,16,160076,5,8,0:0:0:0:
147,153,160256,1,12,0:0:0:0:
84,267,160437,1,12,0:0:0:0:
198,381,160618,1,12,0:0:0:0:
