osu file format v14

[General]
AudioFilename: audio.mp3
AudioLeadIn: 0
PreviewTime: 65501
Countdown: 0
SampleSet: Drum
StackLeniency: 0.3
Mode: 0
LetterboxInBreaks: 0
WidescreenStoryboard: 1

[Editor]
Bookmarks: 17932,27154,31313,40174,43429,52652,67305,84666,118294,162778
DistanceSpacing: 1.5
BeatDivisor: 8
GridSize: 32
TimelineZoom: 5.499998

[Metadata]
Title:Feel The Love
TitleUnicode:Feel The Love
Artist:KIDS SEE GHOSTS
ArtistUnicode:KIDS SEE GHOSTS
Creator:Smokeman
Version:em0nky's insane
Source:
Tags:Kanye West Kid Cudi pusha T pushaT brah gun hip hop rap em0nky english
BeatmapID:2442119
BeatmapSetID:973844

[Difficulty]
HPDrainRate:5
CircleSize:4
OverallDifficulty:8
ApproachRate:9.2
SliderMultiplier:1.6
SliderTickRate:1

[Events]
//Background and Video events
0,0,"BG.jpg",0,0
//Break Periods
2,134597,135636
//Storyboard Layer 0 (Background)
//Storyboard Layer 1 (Fail)
//Storyboard Layer 2 (Pass)
//Storyboard Layer 3 (Foreground)
//Storyboard Layer 4 (Overlay)
//Storyboard Sound Samples

[TimingPoints]
53,542.49547920434,4,3,1,30,1,0
595,-100,4,3,1,15,0,0
1680,-100,4,3,1,30,0,0
2087,-100,4,3,1,15,0,0
2222,-100,4,3,1,30,0,0
2765,-100,4,3,1,15,0,0
3307,-125,4,3,1,30,0,0
3669,-125,4,3,1,10,0,0
3850,-125,4,3,1,30,0,0
4212,-125,4,3,1,10,0,0
4392,-100,4,3,1,30,0,0
4935,-100,4,3,1,15,0,0
6020,-100,4,3,1,30,0,0
6427,-100,4,3,1,10,0,0
6562,-100,4,3,1,30,0,0
7105,-100,4,3,1,10,0,0
7647,-125,4,3,1,30,0,0
8009,-125,4,3,1,10,0,0
8190,-125,4,3,1,30,0,0
8552,-125,4,3,1,10,0,0
8732,-100,4,3,1,30,0,0
9139,-100,4,3,1,15,0,0
9275,-100,4,3,1,30,0,0
9817,-76.9230769230769,4,3,1,30,0,0
10360,-90.9090909090909,4,3,1,30,0,0
10722,-90.9090909090909,4,3,1,15,0,0
10902,-100,4,3,1,30,0,0
11309,-100,4,3,1,15,0,0
11987,-125,4,3,1,30,0,0
12349,-125,4,3,1,10,0,0
12530,-125,4,3,1,30,0,0
12892,-125,4,3,1,10,0,0
13072,-100,4,3,1,30,0,0
13479,-100,4,3,1,15,0,0
13615,-100,4,3,1,30,0,0
14157,-76.9230769230769,4,3,1,30,0,0
14700,-90.9090909090909,4,3,1,30,0,0
15062,-90.9090909090909,4,3,1,15,0,0
15242,-100,4,3,1,30,0,0
15785,-100,4,3,1,15,0,0
16327,-142.857142857143,4,3,1,30,0,0
16689,-142.857142857143,4,3,1,10,0,0
16870,-142.857142857143,4,3,1,30,0,0
17232,-142.857142857143,4,3,1,10,0,0
17412,-100,4,3,1,30,0,0
17819,-100,4,3,1,15,0,0
17955,-100,4,3,1,30,0,0
18497,-76.9230769230769,4,3,1,30,0,0
19040,-90.9090909090909,4,3,1,30,0,0
19402,-90.9090909090909,4,3,1,15,0,0
19582,-100,4,3,1,30,0,0
20125,-100,4,3,1,15,0,0
20667,-142.857142857143,4,3,1,30,0,0
21029,-142.857142857143,4,3,1,10,0,0
21210,-142.857142857143,4,3,1,30,0,0
21571,-142.857142857143,4,3,1,10,0,0
21752,-100,4,3,1,30,0,0
22159,-100,4,3,1,15,0,0
22837,-76.9230769230769,4,3,1,30,0,0
23380,-90.9090909090909,4,3,1,30,0,0
23741,-90.9090909090909,4,3,1,15,0,0
23922,-100,4,3,1,30,0,0
24465,-100,4,3,1,15,0,0
25007,-142.857142857143,4,3,1,30,0,0
25369,-142.857142857143,4,3,1,10,0,0
25550,-142.857142857143,4,3,1,30,0,0
25911,-142.857142857143,4,3,1,10,0,0
26092,-76.9230769230769,4,3,1,30,0,0
26635,-76.9230769230769,4,3,1,15,0,0
27177,-76.9230769230769,4,3,1,30,0,0
40147,593.471810089021,4,3,1,30,1,0
40147,-76.9230769230769,4,3,1,30,0,0
40740,542.49547920434,4,3,1,30,1,0
40740,-76.9230769230769,4,3,1,30,0,0
51951,-76.9230769230769,4,3,1,15,0,0
52675,579.150579150579,4,3,1,30,1,0
53061,662.251655629139,4,3,1,30,1,0
53061,-76.9230769230769,4,3,1,30,0,0
53502,655.021834061135,4,3,1,30,1,0
53502,-76.9230769230769,4,3,1,30,0,0
53938,655.021834061135,4,3,1,30,1,0
53938,-76.9230769230769,4,3,1,30,0,0
54156,-76.9230769230769,4,3,1,10,0,0
54302,542.49547920434,4,3,1,30,1,0
54844,579.150579150579,4,3,1,30,1,0
55230,641.025641025641,4,3,1,30,1,0
55230,-76.9230769230769,4,3,1,30,0,0
55657,614.754098360656,4,3,1,30,1,0
55657,-76.9230769230769,4,3,1,30,0,0
56066,542.49547920434,4,3,1,30,1,0
56066,-76.9230769230769,4,3,1,30,0,0
56246,-76.9230769230769,4,3,1,10,0,0
56472,542.49547920434,4,3,1,30,1,0
57376,647.948164146868,4,3,1,30,1,0
57376,-76.9230769230769,4,3,1,30,0,0
57807,647.948164146868,4,3,1,30,1,0
57807,-76.9230769230769,4,3,1,30,0,0
58238,-76.9230769230769,4,3,1,30,0,0
58454,-76.9230769230769,4,3,1,10,0,0
58642,514.579759862779,4,3,1,30,1,0
58985,542.49547920434,4,3,1,30,1,0
59165,552.486187845304,4,3,1,30,1,0
59533,717.703349282297,4,3,1,30,1,0
59533,-76.9230769230769,4,3,1,30,0,0
59772,596.421471172962,4,3,1,30,1,0
59970,-76.9230769230769,4,3,1,30,0,0
60168,793.650793650794,4,3,1,30,1,0
60432,793.650793650794,4,3,1,30,1,0
60432,-76.9230769230769,4,3,1,30,0,0
60696,-76.9230769230769,4,3,1,10,0,0
60812,542.49547920434,4,3,1,30,1,0
61354,-76.9230769230769,4,3,1,30,0,0
66236,-76.9230769230769,4,3,1,30,0,0
66778,-90.9090909090909,4,3,1,30,0,0
67050,-90.9090909090909,4,3,1,15,0,0
67118,-90.9090909090909,4,3,1,30,0,0
67321,-28.5714285714286,4,3,1,63,0,1
67502,-28.5714285714286,4,3,1,30,0,0
68406,521.28583840139,4,3,1,63,1,1
68406,-33.3333333333333,4,3,1,63,0,1
68494,-33.3333333333333,4,3,1,20,0,1
68579,508.044030482642,4,3,1,63,1,1
68579,-33.3333333333333,4,3,1,63,0,1
68663,-33.3333333333333,4,3,1,20,0,1
68748,521.28583840139,4,3,1,63,1,1
68748,-33.3333333333333,4,3,1,63,0,1
68834,-33.3333333333333,4,3,1,20,0,1
68921,569.53013763645,4,3,1,63,1,1
68921,-33.3333333333333,4,3,1,63,0,1
69015,-33.3333333333333,4,3,1,30,0,0
69490,-100,4,3,1,63,0,0
69491,542.49547920434,4,3,1,63,1,1
69671,-100,4,3,1,63,0,0
69672,-100,4,3,1,20,0,0
69762,-100,4,3,1,63,0,0
70033,-33.3333333333333,4,3,1,63,0,0
70214,-33.3333333333333,4,3,1,20,0,0
70304,-33.3333333333333,4,3,1,63,0,0
70756,-33.3333333333333,4,3,1,20,0,0
70847,-33.3333333333333,4,3,1,63,0,0
71118,-200,4,3,1,63,0,0
71389,-33.3333333333333,4,3,1,63,0,1
71570,-33.3333333333333,4,3,1,20,0,1
71660,-33.3333333333333,4,3,1,63,0,0
71751,-33.3333333333333,4,3,1,20,0,0
72203,-33.3333333333333,4,3,1,63,0,0
72293,-33.3333333333333,4,3,1,20,0,0
72474,-33.3333333333333,4,3,1,63,0,0
72565,528.169014084507,4,3,1,63,1,1
72655,-33.3333333333333,4,3,1,63,0,1
72829,-33.3333333333333,4,3,1,20,0,1
72917,-33.3333333333333,4,3,1,63,0,1
73005,-33.3333333333333,4,3,1,20,0,1
73093,-33.3333333333333,4,3,1,63,0,1
73181,-33.3333333333333,4,3,1,20,0,1
73269,-33.3333333333333,4,3,1,63,0,1
73357,-33.3333333333333,4,3,1,20,0,1
73445,505.902192242833,4,3,1,63,1,1
73445,-33.3333333333333,4,3,1,63,0,1
73529,-33.3333333333333,4,3,1,20,0,1
73613,581.9592628516,4,3,1,63,1,1
73613,-33.3333333333333,4,3,1,63,0,1
73831,542.49547920434,4,3,1,63,1,1
73831,-28.5714285714286,4,3,1,63,0,0
74011,-28.5714285714286,4,3,1,20,0,0
74373,-100,4,3,1,43,0,0
74915,-100,4,3,1,63,0,0
75006,-100,4,3,1,20,0,0
75096,-33.3333333333333,4,3,1,63,0,1
75187,-33.3333333333333,4,3,1,20,0,1
75277,-33.3333333333333,4,3,1,63,0,1
75367,-33.3333333333333,4,3,1,20,0,1
75458,-33.3333333333333,4,3,1,63,0,1
75548,-33.3333333333333,4,3,1,20,0,0
76542,523.560209424084,4,3,1,63,1,1
76542,-33.3333333333333,4,3,1,63,0,1
76629,-33.3333333333333,4,3,1,20,0,1
76716,-33.3333333333333,4,3,1,63,0,1
76803,-33.3333333333333,4,3,1,20,0,1
76891,542.49547920434,4,3,1,63,1,1
76891,-33.3333333333333,4,3,1,63,0,1
76981,-33.3333333333333,4,3,1,20,0,1
77071,-33.3333333333333,4,3,1,63,0,1
77162,-33.3333333333333,4,3,1,20,0,1
77252,-33.3333333333333,4,3,1,63,0,1
77343,-33.3333333333333,4,3,1,20,0,1
77433,-33.3333333333333,4,3,1,63,0,1
77523,-33.3333333333333,4,3,1,20,0,1
77614,523.560209424084,4,3,1,63,1,1
77614,-33.3333333333333,4,3,1,63,0,1
77701,-33.3333333333333,4,3,1,20,0,1
77941,614.754098360656,4,3,1,63,1,1
77941,-33.3333333333333,4,3,1,63,0,1
78171,542.49547920434,4,3,1,63,1,1
78171,-28.5714285714286,4,3,1,63,0,0
78351,-28.5714285714286,4,3,1,20,0,0
79255,505.902192242833,4,3,1,63,1,1
79255,-33.3333333333333,4,3,1,63,0,1
79339,-33.3333333333333,4,3,1,20,0,1
79423,473.9336492891,4,3,1,63,1,1
79423,-33.3333333333333,4,3,1,63,0,1
79501,-33.3333333333333,4,3,1,20,0,1
79580,505.902192242833,4,3,1,63,1,1
79580,-33.3333333333333,4,3,1,63,0,1
79664,-33.3333333333333,4,3,1,20,0,1
79748,-33.3333333333333,4,3,1,63,0,1
79832,-33.3333333333333,4,3,1,20,0,0
80340,532.859680284192,4,3,1,63,1,1
80517,-33.3333333333333,4,3,1,63,0,1
80695,-33.3333333333333,4,3,1,63,0,1
80784,-33.3333333333333,4,3,1,20,0,1
80872,523.560209424084,4,3,1,63,1,1
80872,-33.3333333333333,4,3,1,63,0,1
80959,-33.3333333333333,4,3,1,20,0,1
81046,-33.3333333333333,4,3,1,63,0,1
81133,-33.3333333333333,4,3,1,63,0,1
81221,552.486187845304,4,3,1,63,1,1
81221,-33.3333333333333,4,3,1,20,0,1
81405,542.49547920434,4,3,1,63,1,0
81405,-33.3333333333333,4,3,1,63,0,1
81495,-33.3333333333333,4,3,1,20,0,1
81676,-33.3333333333333,4,3,1,63,0,1
81766,-33.3333333333333,4,3,1,20,0,1
81947,-33.3333333333333,4,3,1,63,0,1
82037,-33.3333333333333,4,3,1,20,0,1
82309,608.519269776876,4,3,1,63,1,0
82309,-33.3333333333333,4,3,1,63,0,1
82410,-33.3333333333333,4,3,1,20,0,1
82511,542.49547920434,4,3,1,63,1,0
82511,-33.3333333333333,4,3,1,63,0,1
82601,-33.3333333333333,4,3,1,20,0,1
82872,-33.3333333333333,4,3,1,63,0,1
82963,-33.3333333333333,4,3,1,20,0,1
83234,-33.3333333333333,4,3,1,63,0,1
83324,-33.3333333333333,4,3,1,20,0,1
83414,-33.3333333333333,4,3,1,63,0,1
83505,-33.3333333333333,4,3,1,20,0,1
83595,-33.3333333333333,4,3,1,63,0,1
83686,-33.3333333333333,4,3,1,20,0,0
84138,-33.3333333333333,4,3,1,63,0,0
84364,-33.3333333333333,4,3,1,20,0,0
84409,-100,4,3,1,63,0,1
84635,-100,4,3,1,20,0,1
84682,542.49547920434,4,3,1,63,1,1
84682,-100,4,3,1,63,0,1
85179,-100,4,3,1,20,0,1
85222,-100,4,3,1,63,0,1
85766,-125,4,3,1,63,0,1
86173,-125,4,3,1,20,0,1
86309,-125,4,3,1,63,0,1
86535,-125,4,3,1,20,0,1
86580,-100,4,3,1,63,0,1
86851,-125,4,3,1,30,0,1
87168,-125,4,3,1,63,0,1
87213,-125,4,3,1,63,0,1
87936,-33.3333333333333,4,3,1,63,0,1
88072,-33.3333333333333,4,3,1,20,0,1
88117,-33.3333333333333,4,3,1,63,0,1
88253,-33.3333333333333,4,3,1,20,0,1
88298,-33.3333333333333,4,3,1,63,0,1
88434,-33.3333333333333,4,3,1,20,0,1
88479,-33.3333333333333,4,3,1,63,0,1
88660,-33.3333333333333,4,3,1,20,0,1
89021,-100,4,3,1,63,0,1
89519,-100,4,3,1,20,0,1
89564,-100,4,3,1,63,0,1
90106,-125,4,3,1,63,0,1
90513,-125,4,3,1,20,0,1
90649,-125,4,3,1,63,0,1
90875,-125,4,3,1,20,0,1
90919,-100,4,3,1,63,0,1
92276,-33.3333333333333,4,3,1,63,0,1
92412,-33.3333333333333,4,3,1,20,0,1
92457,-33.3333333333333,4,3,1,63,0,1
92593,-33.3333333333333,4,3,1,20,0,1
92638,-33.3333333333333,4,3,1,63,0,1
92774,-33.3333333333333,4,3,1,20,0,1
92819,-33.3333333333333,4,3,1,63,0,1
93000,-33.3333333333333,4,3,1,20,0,1
93361,-100,4,3,1,63,0,1
93859,-100,4,3,1,20,0,1
93904,-100,4,3,1,63,0,1
96616,-33.3333333333333,4,3,1,63,0,1
96752,-33.3333333333333,4,3,1,20,0,1
96797,-33.3333333333333,4,3,1,63,0,1
96933,-33.3333333333333,4,3,1,20,0,1
96978,-33.3333333333333,4,3,1,63,0,1
97113,-33.3333333333333,4,3,1,20,0,1
97159,-33.3333333333333,4,3,1,63,0,1
97294,-33.3333333333333,4,3,1,20,0,1
97339,-100,4,3,1,63,0,1
97701,-100,4,3,1,63,0,1
98198,-100,4,3,1,20,0,1
98244,-100,4,3,1,63,0,1
98787,568.181818181818,4,3,1,63,1,1
99071,-100,4,3,1,20,0,0
99165,477.707006369427,4,3,1,63,1,1
99403,-100,4,3,1,20,0,0
99483,584.795321637427,4,3,1,63,1,1
99824,-100,4,3,1,20,0,0
99872,542.49547920434,4,3,1,43,1,0
100640,-100,4,3,1,15,0,0
100685,-100,4,3,1,43,0,0
100911,-100,4,3,1,15,0,0
100956,-100,4,3,1,43,0,0
101092,-100,4,3,1,15,0,0
101228,-100,4,3,1,43,0,0
101363,-100,4,3,1,15,0,0
101499,-66.6666666666667,4,3,1,43,0,0
101996,-66.6666666666667,4,3,1,20,0,0
102042,-200,4,2,1,33,0,0
103940,-200,4,2,1,15,0,0
104211,-200,4,2,1,33,0,0
105116,-200,4,2,1,15,0,0
105267,596.421471172962,4,2,1,33,1,0
105664,-100,4,2,1,15,0,0
105863,519.031141868512,4,2,1,33,1,0
106209,-100,4,2,1,15,0,0
106382,596.421471172962,4,2,1,33,1,0
106779,-100,4,2,1,15,0,0
106978,479.616306954436,4,2,1,33,1,0
107297,-100,4,2,1,15,0,0
107457,542.49547920434,4,2,1,33,1,0
107457,-200,4,2,1,33,0,0
108451,-200,4,2,1,15,0,0
108541,542.49547920434,4,2,1,33,1,0
108541,-200,4,2,1,33,0,0
109535,-200,4,2,1,15,0,0
109625,-100,4,2,1,33,0,0
110078,-100,4,2,1,15,0,0
110168,608.519269776876,4,2,1,33,1,0
110168,-75.7575757575758,4,2,1,33,0,0
110320,-75.7575757575758,4,2,1,15,0,0
110472,477.707006369427,4,2,1,33,1,0
110710,542.49547920434,4,2,1,33,1,0
110710,-200,4,2,1,33,0,0
112834,-200,4,2,1,15,0,0
112879,-200,4,2,1,33,0,0
113874,-200,4,2,1,15,0,0
113964,655.021834061136,4,2,1,33,1,0
113966,-100,4,2,1,33,0,0
114182,-100,4,2,1,15,0,0
114291,542.49547920434,4,2,1,33,1,0
114471,-100,4,2,1,15,0,0
114562,587.659157688541,4,2,1,33,1,0
114725,-100,4,2,1,15,0,0
114806,-100,4,2,1,33,0,0
114969,-100,4,2,1,15,0,0
115051,596.421471172962,4,2,1,33,1,0
115051,-199.203187250996,4,2,1,33,0,0
115647,487.408610885459,4,2,1,33,1,0
116134,542.49547920434,4,2,1,33,1,0
117128,-100,4,2,1,15,0,0
117218,-200,4,2,1,33,0,0
118213,-200,4,2,1,15,0,0
118303,-100,4,2,1,33,0,0
118484,-100,4,2,1,15,0,0
118575,-100,4,2,1,33,0,0
119388,-100,4,3,1,30,0,0
120473,-76.9230769230769,4,3,1,30,0,0
121016,-90.9090909090909,4,3,1,30,0,0
121378,-90.9090909090909,4,3,1,15,0,0
121558,-200,4,3,1,30,0,0
122553,-200,4,3,1,15,0,0
122643,-100,4,3,1,30,0,0
123005,-100,4,3,1,15,0,0
123186,-100,4,3,1,30,0,0
123548,-100,4,3,1,15,0,0
123728,-100,4,3,1,30,0,0
123909,-100,4,3,1,15,0,0
124000,-100,4,3,1,30,0,0
124181,-100,4,3,1,15,0,0
124271,-100,4,3,1,30,0,0
124813,-76.9230769230769,4,3,1,30,0,0
125356,-90.9090909090909,4,3,1,30,0,0
125718,-90.9090909090909,4,3,1,15,0,0
125898,-200,4,3,1,30,0,0
126893,-200,4,3,1,15,0,0
126983,-100,4,3,1,30,0,0
127164,-100,4,3,1,15,0,0
127255,-100,4,3,1,30,0,0
127526,-100,4,3,1,15,0,0
127797,-100,4,3,1,30,0,0
127978,-100,4,3,1,15,0,0
128068,-100,4,3,1,30,0,0
128520,-100,4,3,1,15,0,0
128611,-100,4,3,1,30,0,0
129153,-76.9230769230769,4,3,1,30,0,0
129696,-90.9090909090909,4,3,1,30,0,0
130058,-90.9090909090909,4,3,1,15,0,0
130238,-200,4,3,1,30,0,0
131233,-200,4,3,1,15,0,0
131323,-100,4,3,1,30,0,0
131775,-100,4,3,1,15,0,0
131866,-111.111111111111,4,3,1,30,0,0
132318,-111.111111111111,4,3,1,15,0,0
132408,-90.9090909090909,4,3,1,30,0,0
133493,-76.9230769230769,4,3,1,30,0,0
134036,-90.9090909090909,4,3,1,30,0,0
134398,-90.9090909090909,4,3,1,15,0,0
136206,-33.3333333333333,4,3,1,30,0,0
136432,-33.3333333333333,4,3,1,20,0,0
136477,-100,4,3,1,30,0,0
136658,-100,4,3,1,20,0,0
136748,-100,4,3,1,30,0,0
137246,-100,4,3,1,20,0,0
137291,-100,4,3,1,30,0,0
137833,-66.6666666666667,4,3,1,53,0,0
138037,-66.6666666666667,4,3,1,20,0,0
138195,-66.6666666666667,4,3,1,53,0,0
138376,-76.9230769230769,4,3,1,53,0,0
138647,-76.9230769230769,4,3,1,20,0,0
138737,-66.6666666666667,4,3,1,53,0,0
139459,-100,4,3,1,53,0,0
139732,-100,4,3,1,20,0,0
140003,-35.7142857142857,4,3,1,63,0,0
140139,-35.7142857142857,4,3,1,20,0,0
140184,-35.7142857142857,4,3,1,63,0,0
140320,-35.7142857142857,4,3,1,20,0,0
140365,-35.7142857142857,4,3,1,63,0,0
140501,-35.7142857142857,4,3,1,20,0,0
140546,-35.7142857142857,4,3,1,63,0,0
140727,-35.7142857142857,4,3,1,20,0,0
141088,-100,4,3,1,53,0,0
141586,-100,4,3,1,20,0,0
141631,-100,4,3,1,53,0,0
142173,-66.6666666666667,4,3,1,53,0,0
142377,-66.6666666666667,4,3,1,20,0,0
142535,-66.6666666666667,4,3,1,53,0,0
142716,-76.9230769230769,4,3,1,53,0,0
142987,-76.9230769230769,4,3,1,20,0,0
143077,-66.6666666666667,4,3,1,53,0,0
143801,-76.9230769230769,4,3,1,53,0,0
144004,-76.9230769230769,4,3,1,20,0,0
144343,-35.7142857142857,4,3,1,63,0,0
144479,-35.7142857142857,4,3,1,20,0,0
144524,-35.7142857142857,4,3,1,63,0,0
144660,-35.7142857142857,4,3,1,20,0,0
144705,-35.7142857142857,4,3,1,63,0,0
144841,-35.7142857142857,4,3,1,20,0,0
144886,-35.7142857142857,4,3,1,63,0,0
145067,-35.7142857142857,4,3,1,20,0,0
145428,-100,4,3,1,53,0,0
145880,-100,4,3,1,20,0,0
145971,-100,4,3,1,53,0,0
146513,-66.6666666666667,4,3,1,53,0,0
146717,-66.6666666666667,4,3,1,20,0,0
146875,-66.6666666666667,4,3,1,53,0,0
147055,-76.9230769230769,4,3,1,53,0,0
147327,-76.9230769230769,4,3,1,20,0,0
147417,-66.6666666666667,4,3,1,53,0,0
148141,-100,4,3,1,53,0,0
148412,-100,4,3,1,20,0,0
148683,-35.7142857142857,4,3,1,63,0,0
148819,-35.7142857142857,4,3,1,20,0,0
148864,-35.7142857142857,4,3,1,63,0,0
149000,-35.7142857142857,4,3,1,20,0,0
149045,-35.7142857142857,4,3,1,63,0,0
149181,-35.7142857142857,4,3,1,20,0,0
149226,-35.7142857142857,4,3,1,63,0,0
149407,-35.7142857142857,4,3,1,20,0,0
149768,-100,4,3,1,53,0,0
150220,-100,4,3,1,20,0,0
150311,-100,4,3,1,53,0,0
150853,-66.6666666666667,4,3,1,53,0,0
151057,-66.6666666666667,4,3,1,20,0,0
151215,-66.6666666666667,4,3,1,53,0,0
151396,-76.9230769230769,4,3,1,53,0,0
151667,-76.9230769230769,4,3,1,20,0,0
151757,-66.6666666666667,4,3,1,53,0,0
152481,-100,4,3,1,53,0,0
152752,-100,4,3,1,20,0,0
153023,-35.7142857142857,4,3,1,63,0,0
153159,-35.7142857142857,4,3,1,20,0,0
153204,-35.7142857142857,4,3,1,63,0,0
153340,-35.7142857142857,4,3,1,20,0,0
153385,-35.7142857142857,4,3,1,63,0,0
153520,-35.7142857142857,4,3,1,20,0,0
153566,-35.7142857142857,4,3,1,63,0,0
153747,-35.7142857142857,4,3,1,20,0,0
154108,-100,4,3,1,53,0,0
154560,-100,4,3,1,20,0,0
154651,-100,4,3,1,53,0,0
155193,-66.6666666666667,4,3,1,53,0,0
155397,-66.6666666666667,4,3,1,20,0,0
155555,-66.6666666666667,4,3,1,53,0,0
155736,-76.9230769230769,4,3,1,53,0,0
156007,-76.9230769230769,4,3,1,20,0,0
156278,-100,4,3,1,53,0,0
156775,-100,4,3,1,20,0,0
156821,-100,4,3,1,53,0,0
157363,-35.7142857142857,4,3,1,63,0,0
157499,-35.7142857142857,4,3,1,20,0,0
157544,-35.7142857142857,4,3,1,63,0,0
157680,-35.7142857142857,4,3,1,20,0,0
157725,-35.7142857142857,4,3,1,63,0,0
157860,-35.7142857142857,4,3,1,20,0,0
157906,-35.7142857142857,4,3,1,63,0,0
158086,-35.7142857142857,4,3,1,20,0,0
158448,-33.3333333333333,4,3,1,63,0,0
158584,-33.3333333333333,4,3,1,20,0,0
158629,-33.3333333333333,4,3,1,63,0,0
158765,-33.3333333333333,4,3,1,20,0,0
158810,-33.3333333333333,4,3,1,63,0,0
158945,-33.3333333333333,4,3,1,20,0,0
158991,-33.3333333333333,4,3,1,63,0,0
159126,-33.3333333333333,4,3,1,20,0,0
159171,-33.3333333333333,4,3,1,63,0,0
160076,-31.25,4,3,1,63,0,0
160211,-31.25,4,3,1,20,0,0
160256,-29.4117647058824,4,3,1,63,0,0
160392,-29.4117647058824,4,3,1,20,0,0
160437,-27.7777777777778,4,3,1,63,0,0
160573,-27.7777777777778,4,3,1,20,0,0
160618,-25,4,3,1,63,0,0
160799,-25,4,3,1,53,0,0
161161,-100,4,3,1,43,0,0
161387,-100,4,3,1,20,0,0
161432,-100,4,3,1,43,0,0
161658,-100,4,3,1,20,0,0
161748,-100,4,3,1,33,0,0
161884,-100,4,3,1,20,0,0
161974,-100,4,3,1,33,0,0
162110,-100,4,3,1,20,0,0
162245,-58.8235294117647,4,3,1,33,0,0

[Colours]
Combo1 : 98,145,255
Combo2 : 255,98,160
Combo3 : 255,192,98
Combo4 : 208,98,255

[HitObjects]
22,263,53,6,0,P|71:232|53:136,1,160,2|0,0:2|0:0,0:0:0:0:
452,250,1680,6,0,P|403:219|413:143,1,120,2|0,0:2|0:0,0:0:0:0:
400,161,2222,2,0,P|403:219|496:235,1,160,2|0,0:2|0:0,0:0:0:0:
126,324,3307,6,0,L|211:338,1,85.3333333333333,0|0,0:0|0:0,0:0:0:0:
258,368,3850,2,0,L|203:298,1,85.3333333333333,0|0,0:0|0:0,0:0:0:0:
110,60,4392,6,0,P|159:91|136:183,1,160,2|0,0:2|0:0,0:0:0:0:
321,308,6020,6,0,P|370:277|360:201,1,120,2|0,0:2|0:0,0:0:0:0:
373,219,6562,2,0,P|370:276|274:295,1,160,2|0,0:2|0:0,0:0:0:0:
39,155,7647,6,0,L|65:67,1,85.3333333333333,0|0,0:0|0:0,0:0:0:0:
103,19,8190,2,0,L|26:66,1,85.3333333333333,0|0,0:0|0:0,0:0:0:0:
124,219,8732,2,0,P|121:143|166:91,1,120,2|0,0:2|0:0,0:0:0:0:
293,26,9275,6,0,L|292:89,2,53.3333333333333,2|0|0,0:2|0:0|0:0,0:0:0:0:
356,282,9817,2,0,L|386:140,1,138.666660319011,2|0,0:2|0:0,0:0:0:0:
108,384,10360,2,0,L|190:291,1,117.333336914063,2|0,0:2|0:0,0:0:0:0:
208,104,10902,6,0,P|134:107|103:71,1,120,2|0,0:2|0:0,0:0:0:0:
473,229,11987,6,0,L|446:317,1,85.3333333333333,0|0,0:0|0:0,0:0:0:0:
409,365,12530,2,0,L|487:317,1,85.3333333333333,0|0,0:0|0:0,0:0:0:0:
388,165,13072,2,0,P|391:241|346:293,1,120,2|0,0:2|0:0,0:0:0:0:
219,358,13615,6,0,L|221:293,2,53.3333333333333,2|0|0,0:2|0:0|0:0,0:0:0:0:
155,102,14157,2,0,L|126:241,1,138.666660319011,2|0,0:2|0:0,0:0:0:0:
404,0,14700,2,0,L|322:97,1,117.333336914063,2|0,0:2|0:0,0:0:0:0:
307,279,15242,6,0,P|381:276|428:344,1,160,2|0,0:2|0:0,0:0:0:0:
473,155,16327,6,0,L|452:80,1,74.6666643880209,0|0,0:0|0:0,0:0:0:0:
441,40,16870,2,0,L|508:80,1,74.6666643880209,0|0,0:0|0:0,0:0:0:0:
388,219,17412,2,0,P|391:143|361:106,1,120,2|0,0:2|0:0,0:0:0:0:
219,26,17955,6,0,L|220:90,2,53.3333333333333,2|0|0,0:2|0:0|0:0,0:0:0:0:
156,282,18497,2,0,L|129:145,1,138.666660319011,2|0,0:2|0:0,0:0:0:0:
404,384,19040,2,0,L|321:288,1,117.333336914063,2|0,0:2|0:0,0:0:0:0:
304,104,19582,6,0,P|378:107|414:33,1,160,2|0,0:2|0:0,0:0:0:0:
39,229,20667,6,0,L|57:305,1,74.6666643880209,0|0,0:0|0:0,0:0:0:0:
71,344,21210,2,0,L|3:304,1,74.6666643880209,0|0,0:0|0:0,0:0:0:0:
124,165,21752,2,0,P|121:241|166:293,1,120,2|0,0:2|0:0,0:0:0:0:
491,110,22837,6,0,L|521:248,1,138.666660319011,2|0,0:2|0:0,0:0:0:0:
243,8,23380,2,0,L|323:105,1,117.333336914063,2|0,0:2|0:0,0:0:0:0:
342,286,23922,6,0,P|268:283|235:356,1,160,2|0,0:2|0:0,0:0:0:0:
39,155,25007,6,0,L|57:77,1,74.6666643880209,2|0,0:2|0:0,0:0:0:0:
71,40,25550,2,0,L|6:78,1,74.6666643880209,2|0,0:2|0:0,0:0:0:0:
124,218,26092,2,0,P|121:142|235:78,1,207.999990478516,2|0,0:2|0:0,0:0:0:0:
487,119,27177,6,0,L|471:204,1,69.3333301595054,2|0,0:2|0:0,0:0:0:0:
434,228,27539,2,0,L|446:159,1,69.3333301595054,0|0,0:0|0:0,0:0:0:0:
425,108,27901,2,0,L|409:193,1,69.3333301595054,0|0,0:0|0:0,0:0:0:0:
383,330,28262,2,0,P|412:312|446:305,1,69.3333301595054,2|0,0:2|0:0,0:0:0:0:
512,360,28624,2,0,P|482:377|448:384,1,69.3333301595054,0|0,0:0|0:0,0:0:0:0:
87,108,29528,2,0,L|103:193,1,69.3333301595054,2|0,0:2|0:0,0:0:0:0:
129,327,29890,2,0,B|126:330|126:329|103:306|61:307,1,69.3333301595054,0|0,0:0|0:0,0:0:0:0:
0,360,30251,2,0,P|29:377|63:384,1,69.3333301595054,0|2,0:0|0:2,0:0:0:0:
42,62,31336,5,2,0:2:0:0:
42,62,31517,2,0,L|120:51,1,69.3333301595054,2|0,0:2|0:0,0:0:0:0:
217,114,31879,1,0,0:0:0:0:
217,114,32060,2,0,L|139:125,1,69.3333301595054,2|0,0:0|0:0,0:0:0:0:
42,62,32421,5,0,0:0:0:0:
42,62,32602,2,0,L|120:51,1,69.3333301595054,2|0,0:2|0:0,0:0:0:0:
217,114,32964,1,0,0:0:0:0:
217,114,33145,2,0,L|285:104,1,69.3333301595054,2|0,0:0|0:0,0:0:0:0:
4,354,33868,5,2,0:2:0:0:
4,354,34049,1,0,0:0:0:0:
13,285,34230,2,0,L|2:363,1,69.3333301595054,0|0,0:0|0:0,0:0:0:0:
120,267,34591,2,0,L|109:345,1,69.3333301595054,0|2,0:0|0:2,0:0:0:0:
439,328,35857,6,0,L|508:310,2,69.3333301595054,2|0|0,0:2|0:0|0:0,0:0:0:0:
360,270,36400,2,0,L|421:234,2,69.3333301595054,2|0|0,0:2|0:0|0:0,0:0:0:0:
268,234,36942,2,0,L|318:183,2,69.3333301595054,2|0|0,0:2|0:0|0:0,0:0:0:0:
170,223,37485,2,0,L|206:161,1,69.3333301595054,2|0,0:2|0:0,0:0:0:0:
463,17,38208,6,0,P|486:68|477:115,1,69.3333301595054,2|0,0:2|0:0,0:0:0:0:
348,97,38570,2,0,P|325:46|334:-1,1,69.3333301595054,0|0,0:0|0:0,0:0:0:0:
463,17,38931,2,0,P|486:68|477:115,1,69.3333301595054,0|2,0:0|0:2,0:0:0:0:
7,143,40147,6,0,P|40:131|74:128,2,69.3333301595054,2|0|0,0:2|0:0|0:0,0:0:0:0:
22,261,40740,2,0,P|56:258|88:246,1,69.3333301595054,2|0,0:2|0:0,0:0:0:0:
158,179,41101,1,0,0:0:0:0:
158,179,41282,2,0,P|190:167|224:164,1,69.3333301595054,2|0,0:2|0:0,0:0:0:0:
343,195,41644,2,0,P|377:193|410:181,2,69.3333301595054,0|2|0,0:0|0:2|0:0,0:0:0:0:
224,164,42186,2,0,P|189:166|157:178,2,69.3333301595054,0|2|0,0:0|0:2|0:0,0:0:0:0:
343,195,42729,2,0,P|377:193|410:181,1,69.3333301595054,0|0,0:0|0:0,0:0:0:0:
23,280,43452,6,0,L|10:361,1,69.3333301595054,2|2,0:2|0:2,0:0:0:0:
123,288,43814,2,0,L|133:219,2,69.3333301595054,2|2|2,0:2|0:2|0:2,0:0:0:0:
105,384,44356,1,2,0:2:0:0:
12,348,44537,2,0,L|23:280,1,69.3333301595054,2|2,0:2|0:2,0:0:0:0:
123,288,44899,2,0,L|133:219,1,69.3333301595054,2|2,0:2|0:2,0:0:0:0:
489,280,45622,6,0,L|502:361,1,69.3333301595054,2|2,0:2|0:2,0:0:0:0:
389,288,45984,2,0,L|378:219,2,69.3333301595054,2|2|2,0:2|0:2|0:2,0:0:0:0:
407,384,46526,1,2,0:2:0:0:
499,348,46707,2,0,L|489:280,1,69.3333301595054,2|2,0:2|0:2,0:0:0:0:
389,288,47069,2,0,L|378:219,1,69.3333301595054,2|2,0:2|0:2,0:0:0:0:
23,104,47792,6,0,L|10:23,1,69.3333301595054,2|2,0:2|0:2,0:0:0:0:
123,96,48154,2,0,L|133:164,2,69.3333301595054,2|2|2,0:2|0:2|0:2,0:0:0:0:
105,0,48696,1,2,0:2:0:0:
12,35,48877,2,0,L|23:104,1,69.3333301595054,2|2,0:2|0:2,0:0:0:0:
123,96,49239,2,0,L|133:164,1,69.3333301595054,2|2,0:2|0:2,0:0:0:0:
489,104,49962,6,0,L|502:23,1,69.3333301595054,2|2,0:2|0:2,0:0:0:0:
389,96,50324,2,0,L|378:164,2,69.3333301595054,2|2|2,0:2|0:2|0:2,0:0:0:0:
407,0,50866,1,2,0:2:0:0:
499,35,51047,2,0,L|489:104,1,69.3333301595054,2|2,0:2|0:2,0:0:0:0:
389,96,51409,2,0,L|378:164,1,69.3333301595054,2|2,0:2|0:2,0:0:0:0:
361,332,51770,6,0,P|373:312|403:337,1,69.3333301595054,0|0,0:0|0:0,0:0:0:0:
106,54,52675,5,2,0:2:0:0:
106,54,52868,1,0,0:0:0:0:
105,123,53061,2,0,L|106:42,1,69.3333301595054,2|0,0:0|0:0,0:0:0:0:
215,74,53502,2,0,L|215:143,1,69.3333301595054,2|0,0:2|0:0,0:0:0:0:
108,322,53938,2,0,L|107:252,1,69.3333301595054,2|0,0:2|0:0,0:0:0:0:
406,54,54844,5,2,0:2:0:0:
406,54,55037,1,0,0:0:0:0:
407,123,55230,2,0,L|406:42,1,69.3333301595054,2|0,0:0|0:0,0:0:0:0:
297,74,55657,2,0,L|296:143,1,69.3333301595054,2|0,0:2|0:0,0:0:0:0:
404,322,56066,2,0,L|404:252,1,69.3333301595054
36,352,57014,5,2,0:2:0:0:
36,352,57195,1,0,0:0:0:0:
105,353,57376,2,0,L|24:352,1,69.3333301595054,2|0,0:2|0:0,0:0:0:0:
56,243,57807,2,0,L|125:242,1,69.3333301595054,2|0,0:0|0:0,0:0:0:0:
304,350,58238,2,0,L|234:350,1,69.3333301595054,2|0,0:3|0:0,0:0:0:0:
304,350,58985,5,0,0:0:0:0:
304,350,59165,1,2,0:2:0:0:
407,353,59533,2,0,L|488:352,1,69.3333301595054,2|0,0:2|0:0,0:0:0:0:
456,243,59970,2,0,L|386:242,1,69.3333301595054,2|0,0:0|0:0,0:0:0:0:
208,350,60432,2,0,L|277:350,1,69.3333301595054,2|0,0:2|0:0,0:0:0:0:
512,42,61354,5,2,0:2:0:0:
512,42,61535,2,0,P|456:38|412:59,1,69.3333301595054
383,102,61896,1,0,0:0:0:0:
383,102,62077,2,0,P|327:106|283:85,1,69.3333301595054
254,42,62439,1,0,0:0:0:0:
254,42,62620,2,0,P|198:38|154:59,1,69.3333301595054,2|0,0:2|0:0,0:0:0:0:
0,162,63524,5,2,0:2:0:0:
0,162,63705,2,0,P|56:158|100:179,1,69.3333301595054
129,222,64067,1,0,0:0:0:0:
129,222,64247,2,0,P|185:226|229:205,1,69.3333301595054
258,162,64609,1,0,0:0:0:0:
258,162,64790,2,0,P|314:158|358:179,1,69.3333301595054,2|0,0:2|0:0,0:0:0:0:
425,369,65513,6,0,P|440:315|431:264,1,69.3333301595054,0|2,0:0|0:2,0:0:0:0:
417,223,65875,1,0,0:0:0:0:
417,223,66056,1,0,0:0:0:0:
395,121,66236,6,0,L|418:230,1,103.999995239258,0|2,0:0|0:0,0:0:0:0:
147,19,66779,2,0,L|215:102,1,88.000002685547
268,162,67118,2,0,L|293:165,2,22.0000006713867,8|0|0,0:0|0:0|0:0,0:0:0:0:
291,218,67321,6,0,P|208:210|121:297,1,186.666668446859,4|0,0:0|0:0,0:0:0:0:
507,61,68406,6,0,L|513:156,1,80.0000030517579,4|0,0:0|0:0,0:0:0:0:
418,121,68579,2,0,L|412:41,1,80.0000030517579,4|0,0:0|0:0,0:0:0:0:
317,23,68748,2,0,L|323:118,1,80.0000030517579,4|0,0:0|0:0,0:0:0:0:
228,82,68921,2,0,L|222:2,1,80.0000030517579,12|0,0:0|0:0,0:0:0:0:
27,294,69491,6,0,P|62:275|92:279,1,53.3333333333333
129,325,69762,2,0,L|142:346,3,20,0|8|0|0,0:0|0:0|0:0|0:0,0:0:0:0:
113,281,70033,6,0,P|173:301|271:274,1,160.000006103516,4|0,0:0|0:0,0:0:0:0:
291,256,70304,1,0,0:0:0:0:
512,57,70575,2,0,P|452:77|354:50,1,160.000006103516,4|0,0:0|0:0,0:0:0:0:
334,32,70847,1,0,0:0:0:0:
94,121,71480,6,0,L|99:41,1,80.0000030517579,8|0,0:0|0:0,0:0:0:0:
5,61,71660,2,0,L|0:140,1,80.0000030517579,4|0,0:0|0:0,0:0:0:0:
507,323,72203,2,0,L|512:243,1,80.0000030517579,4|0,0:0|0:0,0:0:0:0:
507,323,72565,5,8,0:0:0:0:
418,263,72741,2,0,L|412:342,1,80.0000030517579,4|0,0:0|0:0,0:0:0:0:
317,361,72917,2,0,L|323:266,1,80.0000030517579,4|0,0:0|0:0,0:0:0:0:
228,302,73093,2,0,L|221:384,1,80.0000030517579,4|0,0:0|0:0,0:0:0:0:
136,300,73269,2,0,L|121:222,1,80.0000030517579,12|0,0:0|0:0,0:0:0:0:
217,134,73445,2,0,L|211:213,1,80.0000030517579,4|0,0:0|0:0,0:0:0:0:
117,93,73613,2,0,L|102:31,2,60.0000022888184,8|0|0,0:0|0:0|0:0,0:0:0:0:
65,26,73831,6,0,P|150:41|249:20,1,186.666668446859,4|0,0:0|0:0,0:0:0:0:
219,26,74373,6,0,L|221:96,2,40
156,282,74915,2,0,L|146:233,1,26.6666666666667
114,214,75096,6,0,C|153:214|191:201,1,80.0000030517579,4|0,0:0|0:0,0:0:0:0:
316,39,75277,2,0,C|296:73|287:112,1,80.0000030517579,8|0,0:0|0:0,0:0:0:0:
400,308,75458,2,0,C|380:273|350:246,1,80.0000030517579,4|0,0:0|0:0,0:0:0:0:
114,214,76542,6,0,B|137:234|191:201,1,80.0000030517579,4|0,0:0|0:0,0:0:0:0:
332,62,76716,2,0,B|308:73|303:135,1,80.0000030517579,4|0,0:0|0:0,0:0:0:0:
377,313,76891,2,0,B|376:283|327:251,1,80.0000030517579,8|0,0:0|0:0,0:0:0:0:
80,139,77071,6,0,B|116:173|165:172,1,80.0000030517579,4|0,0:0|0:0,0:0:0:0:
433,109,77252,2,0,B|381:120|361:166,1,80.0000030517579,4|0,0:0|0:0,0:0:0:0:
250,378,77433,2,0,B|263:329|236:288,1,80.0000030517579,4|0,0:0|0:0,0:0:0:0:
169,45,77614,2,0,B|181:89|226:117,1,80.0000030517579,12|0,0:0|0:0,0:0:0:0:
511,357,77941,2,0,C|480:349|450:356,2,60.0000022888184,8|0|0,0:0|0:0|0:0,0:0:0:0:
428,377,78171,6,0,P|463:290|444:188,1,186.666668446859,4|0,0:0|0:0,0:0:0:0:
112,0,79255,6,0,C|98:44|117:86,1,80.0000030517579,4|0,0:0|0:0,0:0:0:0:
61,186,79423,2,0,C|26:166|16:125,1,80.0000030517579,4|0,0:0|0:0,0:0:0:0:
61,333,79580,2,0,C|99:307|106:259,1,80.0000030517579,4|0,0:0|0:0,0:0:0:0:
244,282,79748,2,0,C|269:313|264:354,1,80.0000030517579,12|0,0:0|0:0,0:0:0:0:
496,14,80517,5,0,0:0:0:0:
406,128,80695,2,0,C|361:146|303:150,1,80.0000030517579,8|0,0:0|0:0,0:0:0:0:
230,54,80872,2,0,C|265:37|307:31,1,80.0000030517579,12|0,0:0|0:0,0:0:0:0:
406,128,81046,1,8,0:0:0:0:
406,128,81133,2,0,C|361:146|303:150,1,80.0000030517579,0|12,0:0|0:0,0:0:0:0:
230,54,81405,2,0,C|265:37|305:38,1,80.0000030517579,12|0,0:0|0:0,0:0:0:0:
481,151,81676,2,0,C|446:134|403:127,1,80.0000030517579,8|0,0:0|0:0,0:0:0:0:
230,232,81947,2,0,C|270:222|313:220,1,80.0000030517579,8|0,0:0|0:0,0:0:0:0:
435,317,82309,2,0,C|394:327|351:326,1,80.0000030517579,8|0,0:0|0:0,0:0:0:0:
230,232,82511,6,0,C|265:215|305:216,1,80.0000030517579,12|0,0:0|0:0,0:0:0:0:
269,176,82872,2,0,C|231:185|201:211,1,80.0000030517579
230,232,83234,2,0,C|265:215|305:216,1,80.0000030517579,12|0,0:0|0:0,0:0:0:0:
269,176,83415,2,0,C|231:185|201:211,1,80.0000030517579,12|0,0:0|0:0,0:0:0:0:
166,196,83595,2,0,C|189:163|224:145,1,80.0000030517579,12|0,0:0|0:0,0:0:0:0:
12,375,84138,6,0,P|39:311|11:167,1,200.000007629395,12|0,0:0|0:0,0:0:0:0:
7,159,84409,2,0,P|7:108|17:87,1,66.6666666666667
89,26,84682,6,0,P|138:57|127:140,1,146.666666666667,4|0,0:0|0:0,0:0:0:0:
115,157,85224,1,10,0:0:0:0:
207,190,85405,1,8,0:0:0:0:
335,144,85586,1,8,0:0:0:0:
422,5,85766,6,0,L|461:107,1,95.9999999999999,4|0,0:0|0:0,0:0:0:0:
449,141,86309,2,0,L|472:86,1,53.3333333333333,10|0,0:0|0:0,0:0:0:0:
492,60,86648,2,0,L|507:85,2,20,8|0|0,0:0|0:0|0:0,0:0:0:0:
469,91,86851,6,0,L|442:166,1,74.6666666666667,4|0,0:0|0:0,0:0:0:0:
431,192,87213,1,4,0:0:0:0:
334,148,87575,1,4,0:0:0:0:
187,200,87756,1,4,0:0:0:0:
133,365,87936,6,0,B|95:370|95:370|-5:332,1,120.000004577637,12|0,0:0|0:0,0:0:0:0:
0,258,88117,2,0,B|38:263|38:263|138:225,1,120.000004577637,12|0,0:0|0:0,0:0:0:0:
133,141,88298,2,0,B|95:146|95:146|-5:108,1,120.000004577637,12|0,0:0|0:0,0:0:0:0:
0,0,88479,2,0,B|38:-5|38:-5|154:40,1,160.000006103516,12|0,0:0|0:0,0:0:0:0:
423,26,89021,6,0,P|374:57|385:140,1,146.666666666667,4|0,0:0|0:0,0:0:0:0:
397,157,89564,1,10,0:0:0:0:
305,190,89745,1,8,0:0:0:0:
177,144,89925,1,8,0:0:0:0:
90,5,90106,6,0,L|51:107,1,95.9999999999999,4|0,0:0|0:0,0:0:0:0:
63,141,90649,2,0,L|40:86,1,53.3333333333333,10|0,0:0|0:0,0:0:0:0:
22,48,90988,2,0,L|7:68,2,20,8|0|0,0:0|0:0|0:0,0:0:0:0:
43,91,91191,1,4,0:0:0:0:
63,141,91372,1,8,0:0:0:0:
90,187,91530,6,0,L|101:171,2,20
77,212,91734,1,10,0:0:0:0:
379,365,92276,6,0,B|417:370|417:370|517:332,1,120.000004577637,12|0,0:0|0:0,0:0:0:0:
512,258,92457,2,0,B|474:263|474:263|374:225,1,120.000004577637,12|0,0:0|0:0,0:0:0:0:
379,141,92638,2,0,B|417:146|417:146|517:108,1,120.000004577637,12|0,0:0|0:0,0:0:0:0:
512,0,92819,2,0,B|474:-5|474:-5|354:37,1,160.000006103516,12|0,0:0|0:0,0:0:0:0:
89,358,93361,6,0,P|138:327|127:244,1,146.666666666667,4|0,0:0|0:0,0:0:0:0:
115,227,93904,1,10,0:0:0:0:
487,48,94243,6,0,L|501:63,2,20,8|0|0,0:0|0:0|0:0,0:0:0:0:
469,91,94446,1,4,0:0:0:0:
449,141,94627,1,8,0:0:0:0:
429,191,94808,1,8,0:0:0:0:
487,48,94989,1,10,0:0:0:0:
25,336,95328,6,0,L|7:316,2,20,8|0|0,0:0|0:0|0:0,0:0:0:0:
43,293,95531,1,4,0:0:0:0:
63,243,95712,1,8,0:0:0:0:
83,193,95893,1,8,0:0:0:0:
25,336,96074,1,10,0:0:0:0:
362,384,96616,6,0,B|379:354|379:354|428:334|428:334|450:283,1,120.000004577637,12|0,0:0|0:0,0:0:0:0:
423,224,96797,2,0,B|388:223|388:223|346:256|346:256|291:249,1,120.000004577637,12|0,0:0|0:0,0:0:0:0:
250,190,96978,2,0,B|267:160|267:160|316:140|316:140|338:89,1,120.000004577637,12|0,0:0|0:0,0:0:0:0:
311,30,97159,2,0,B|276:29|276:29|234:62|234:62|179:55,1,120.000004577637,8|0,0:0|0:0,0:0:0:0:
160,39,97362,6,0,L|143:17,4,20
89,26,97701,6,0,P|138:57|127:140,1,146.666666666667,4|0,0:0|0:0,0:0:0:0:
115,157,98244,1,10,0:0:0:0:
349,342,98583,6,0,L|361:361,2,20,8|0|0,0:0|0:0|0:0,0:0:0:0:
328,305,98787,2,0,L|332:204,1,80,4|0,0:0|0:0,0:0:0:0:
310,161,99165,2,0,L|282:250,1,80,8|0,0:0|0:0,0:0:0:0:
235,298,99483,2,0,L|239:197,1,93.3333333333333,8|0,0:0|0:0,0:0:0:0:
233,327,99872,5,4,0:0:0:0:
8,88,100414,6,0,P|39:105|76:91,1,66.6666666666667,0|0,0:0|0:0,0:0:0:0:
93,70,100685,2,0,P|124:53|161:67,1,66.6666666666667,0|0,0:0|0:0,0:0:0:0:
181,77,100956,2,0,P|210:85|227:80,1,40,0|0,0:0|0:0,0:0:0:0:
286,24,101228,2,0,P|304:16|324:17,1,40,0|0,0:0|0:0,0:0:0:0:
421,55,101499,2,0,B|395:67|395:67|399:108|399:108|356:116|356:116|370:162|370:162|327:177|327:177|331:208,1,220.000008392334,0|0,0:0|0:0,0:0:0:0:
322,231,102042,6,0,P|348:222|325:354,1,280,4|0,0:0|0:0,0:0:0:0:
188,230,104211,6,0,P|161:221|85:282,1,133.333333333333,2|0,0:0|0:0,0:0:0:0:
86,336,105267,6,0,P|78:261|61:227,1,106.666666666667,2|0,0:0|0:0,0:0:0:0:
9,161,105863,2,0,P|84:153|119:135,1,106.666666666667,2|0,0:0|0:0,0:0:0:0:
186,30,106382,2,0,P|259:17|296:26,1,106.666666666667,2|0,0:0|0:0,0:0:0:0:
342,80,106978,2,0,P|281:124|261:158,1,106.666666666667,2|0,0:0|0:0,0:0:0:0:
235,231,107457,6,0,P|277:225|372:261,1,146.666666666667
405,293,108541,6,0,B|391:269|421:252|421:252|396:232|396:207|396:207|409:186|409:162|409:162,1,146.666666666667,2|0,0:0|0:0,0:0:0:0:
406,120,109625,6,0,P|375:127|273:93,1,133.333333333333,2|0,0:0|0:0,0:0:0:0:
243,71,110168,2,0,P|208:55|185:59,1,52.7999998388672
157,67,110472,1,0,0:0:0:0:
34,69,110710,6,0,P|119:151|48:313,1,313.333333333333,4|0,0:0|0:0,0:0:0:0:
19,315,112880,6,0,P|82:256|142:256,1,146.666666666667,2|0,0:0|0:0,0:0:0:0:
173,265,113964,6,0,P|210:275|234:267,1,53.3333333333333,2|0,0:0|0:0,0:0:0:0:
295,231,114291,2,0,P|267:258|261:282,1,53.3333333333333,0|0,0:0|0:0,0:0:0:0:
293,365,114562,2,0,P|320:337|344:332,1,53.3333333333333,2|0,0:0|0:0,0:0:0:0:
415,333,114855,2,0,P|398:333|379:325,1,26.6666666666667
342,280,115051,6,0,P|260:195|117:242,1,279.8,2|0,0:0|0:0,0:0:0:0:
112,295,117218,6,0,B|98:271|128:254|128:254|103:234|103:209|103:209|116:188|116:163|116:163,1,146.666666666667,2|0,0:0|0:0,0:0:0:0:
124,132,118303,6,0,P|141:100|164:87,1,53.3333333333333,2|0,0:0|0:0,0:0:0:0:
194,77,118575,1,0,0:0:0:0:
194,77,118665,1,0,0:0:0:0:
282,110,118846,2,0,P|335:117|372:95,1,80
415,62,119388,2,0,P|397:110|421:177,1,106.666666666667,4|0,0:0|0:0,0:0:0:0:
293,26,119931,6,0,L|290:88,2,53.3333333333333,2|0|0,0:2|0:0|0:0,0:0:0:0:
356,282,120473,2,0,L|386:143,1,138.666660319011,2|0,0:2|0:0,0:0:0:0:
108,384,121016,2,0,L|193:288,1,117.333336914063,2|0,0:2|0:0,0:0:0:0:
218,258,121558,6,0,P|197:197|117:204,1,146.666666666667,2|0,0:2|0:0,0:0:0:0:
91,236,122643,6,0,P|81:185|42:138,1,106.666666666667,2|0,0:2|0:0,0:0:0:0:
0,108,123186,2,0,P|51:116|109:91,1,106.666666666667,2|0,0:2|0:0,0:0:0:0:
135,66,123728,2,0,P|161:50|200:54,1,53.3333333333333,2|0,0:2|0:0,0:0:0:0:
214,62,124000,2,0,P|240:77|279:73,1,53.3333333333333
294,26,124271,6,0,L|293:89,2,53.3333333333333,2|0|0,0:2|0:0|0:0,0:0:0:0:
357,282,124813,2,0,L|389:145,1,138.666660319011,2|0,0:2|0:0,0:0:0:0:
109,384,125356,2,0,L|192:287,1,117.333336914063,2|0,0:2|0:0,0:0:0:0:
226,246,125898,6,0,P|262:299|337:272,1,146.666666666667,2|0,0:2|0:0,0:0:0:0:
356,241,126983,6,0,P|358:279|379:304,1,53.3333333333333,2|0,0:2|0:0,0:0:0:0:
396,356,127255,2,0,P|394:318|358:289,1,80
222,293,127797,6,0,P|204:259|210:226,1,53.3333333333333
199,173,128068,2,0,P|216:206|177:301,1,133.333333333333,2|0,0:2|0:0,0:0:0:0:
106,361,128611,6,0,L|108:297,2,53.3333333333333
43,105,129153,2,0,L|17:244,1,138.666660319011,2|0,0:2|0:0,0:0:0:0:
291,3,129696,2,0,L|206:100,1,117.333336914063,2|0,0:2|0:0,0:0:0:0:
173,150,130238,6,0,P|232:108|307:135,1,146.666666666667
339,170,131323,6,0,B|348:104|348:104|412:58,1,133.333333333333,2|0,0:2|0:0,0:0:0:0:
445,37,131866,2,0,B|439:72|439:72|463:173,1,119.999996337891,2|0,0:2|0:0,0:0:0:0:
468,200,132408,2,0,B|395:221|395:221|376:319|376:319|310:380,1,264.000008056641,2|0,0:2|0:0,0:0:0:0:
156,102,133493,6,0,L|127:237,1,138.666660319011,2|0,0:2|0:0,0:0:0:0:
404,0,134036,2,0,L|321:95,1,117.333336914063,2|0,0:2|0:0,0:0:0:0:
12,375,136206,6,0,P|39:311|11:167,1,200.000007629395
7,159,136477,2,0,P|7:108|10:95,1,53.3333333333333
89,26,136748,6,0,P|138:57|127:140,1,146.666666666667,10|0,0:2|0:0,0:0:0:0:
103,162,137291,1,10,0:3:0:0:
161,144,137472,1,0,0:0:0:0:
221,164,137652,1,0,0:0:0:0:
382,272,137833,2,0,L|408:182,1,90.0000034332277,10|0,0:2|0:0,0:0:0:0:
427,115,138195,1,2,0:0:0:0:
168,378,138376,2,0,L|131:279,1,103.999995239258,10|0,0:0|0:0,0:0:0:0:
110,236,138737,6,0,L|98:268,2,26.6666676839193
123,204,138918,1,4,0:0:0:0:
380,41,139280,6,0,L|392:9,2,26.6666676839193
367,73,139461,2,0,B|360:98|360:98|378:162,1,80,4|0,0:0|0:0,0:0:0:0:
193,361,140003,6,0,B|165:341|165:341|115:364|71:343,1,111.999996582031,12|0,0:0|0:0,0:0:0:0:
115,265,140184,2,0,B|149:252|168:200|168:200|199:192,1,111.999996582031,12|0,0:0|0:0,0:0:0:0:
76,183,140365,2,0,B|70:149|70:149|18:129|1:85,1,111.999996582031,12|0,0:0|0:0,0:0:0:0:
87,58,140546,2,0,B|120:73|170:50|170:50|206:59|229:80,1,149.333328776042,12|0,0:0|0:0,0:0:0:0:
423,358,141088,6,0,P|374:327|385:244,1,146.666666666667,4|0,0:2|0:0,0:0:0:0:
409,222,141631,1,10,0:3:0:0:
349,241,141812,1,0,0:0:0:0:
291,220,141992,1,0,0:0:0:0:
130,112,142173,2,0,L|104:202,1,90.0000034332277,10|0,0:2|0:0,0:0:0:0:
83,271,142535,1,2,0:0:0:0:
344,6,142716,2,0,L|381:105,1,103.999995239258,10|0,0:0|0:0,0:0:0:0:
402,148,143077,6,0,L|414:116,2,26.6666676839193
389,180,143258,1,4,0:0:0:0:
132,343,143620,6,0,L|120:375,2,26.6666676839193
145,311,143801,2,0,B|152:286|152:286|134:222,1,77.9999964294435,4|0,0:0|0:0,0:0:0:0:
318,23,144343,6,0,B|346:43|346:43|396:20|441:37,1,111.999996582031,12|0,0:0|0:0,0:0:0:0:
397,119,144524,2,0,B|362:131|343:183|343:183|312:187,1,111.999996582031,12|0,0:0|0:0,0:0:0:0:
436,201,144705,2,0,B|441:234|441:234|493:254|514:299,1,111.999996582031,12|0,0:0|0:0,0:0:0:0:
425,326,144886,2,0,B|391:310|341:333|341:333|311:327|287:302,1,149.333328776042,12|0,0:0|0:0,0:0:0:0:
427,12,145428,6,0,P|409:78|454:116,1,133.333333333333,4|0,0:2|0:0,0:0:0:0:
489,120,145970,1,10,0:3:0:0:
435,139,146151,1,0,0:0:0:0:
414,194,146332,1,0,0:0:0:0:
512,382,146513,2,0,L|398:361,1,90.0000034332277,10|0,0:2|0:0,0:0:0:0:
347,350,146875,1,2,0:0:0:0:
272,167,147056,2,0,L|157:217,1,103.999995239258,10|0,0:0|0:0,0:0:0:0:
133,223,147417,6,0,L|110:208,2,26.6666676839193
157,237,147598,1,4,0:0:0:0:
472,267,147960,6,0,L|500:247,2,26.6666666666667
446,290,148141,2,0,B|425:306|425:306|403:369,1,80,4|0,0:0|0:0,0:0:0:0:
0,384,148683,6,0,B|18:358|18:358|31:334|20:302|20:302|45:271,1,111.999996582031,12|0,0:0|0:0,0:0:0:0:
146,289,148864,2,0,B|128:263|128:263|119:238|126:207|126:207|105:175,1,111.999996582031,12|0,0:0|0:0,0:0:0:0:
0,202,149045,2,0,B|18:176|18:176|30:150|20:120|20:120|43:88,1,111.999996582031,12|0,0:0|0:0,0:0:0:0:
146,107,149226,2,0,B|128:81|128:81|119:55|126:25|126:25|101:-6|68:-9,1,149.333328776042,12|0,0:0|0:0,0:0:0:0:
85,372,149768,6,0,P|103:306|58:268,1,133.333333333333,4|0,0:2|0:0,0:0:0:0:
23,264,150311,1,10,0:3:0:0:
77,245,150492,1,0,0:0:0:0:
98,190,150672,1,0,0:0:0:0:
0,2,150853,2,0,L|114:23,1,90.0000034332277,10|0,0:2|0:0,0:0:0:0:
169,31,151215,1,2,0:0:0:0:
240,217,151396,2,0,L|355:167,1,103.999995239258,10|0,0:0|0:0,0:0:0:0:
379,161,151757,6,0,L|401:175,2,26.6666666666667
355,147,151938,1,4,0:0:0:0:
40,117,152300,6,0,L|11:136,2,26.6666666666667
66,94,152481,2,0,B|86:77|86:77|108:14,1,80,4|0,0:0|0:0,0:0:0:0:
512,0,153023,6,0,B|494:26|494:26|500:53|492:82|492:82|468:112,1,111.999996582031,12|0,0:0|0:0,0:0:0:0:
366,95,153204,2,0,B|384:121|384:121|378:148|386:177|386:177|409:206,1,111.999996582031,12|0,0:0|0:0,0:0:0:0:
512,182,153385,2,0,B|494:208|494:208|502:238|492:264|492:264|470:291,1,111.999996582031,12|0,0:0|0:0,0:0:0:0:
366,277,153566,2,0,B|384:303|384:303|376:330|386:359|386:359|418:382|451:380,1,149.333328776042,12|0,0:0|0:0,0:0:0:0:
85,12,154108,6,0,P|103:78|58:116,1,133.333333333333,4|0,0:2|0:0,0:0:0:0:
23,120,154651,1,10,0:3:0:0:
77,139,154832,1,0,0:0:0:0:
98,194,155012,1,0,0:0:0:0:
0,382,155193,2,0,L|114:361,1,90.0000034332277,10|0,0:2|0:0,0:0:0:0:
165,344,155555,1,2,0:0:0:0:
240,167,155736,2,0,L|355:217,1,103.999995239258,10|0,0:0|0:0,0:0:0:0:
0,95,156278,6,0,P|46:130|27:211,1,146.666666666667,10|0,0:2|0:0,0:0:0:0:
13,224,156821,1,10,0:3:0:0:
512,384,157363,6,0,B|494:358|494:358|485:330|492:302|492:302|469:273,1,111.999996582031,12|0,0:0|0:0,0:0:0:0:
366,289,157544,2,0,B|384:263|384:263|393:237|386:207|386:207|410:177,1,111.999996582031,12|0,0:0|0:0,0:0:0:0:
511,201,157725,2,0,B|493:175|493:175|483:146|491:119|491:119|466:90,1,111.999996582031,12|0,0:0|0:0,0:0:0:0:
366,106,157906,2,0,B|384:80|384:80|394:51|386:24|386:24|410:-7|441:-5,1,149.333328776042,12|0,0:0|0:0,0:0:0:0:
0,384,158448,6,0,B|18:358|18:358|27:331|20:302|20:302|45:270,1,120.000004577637,12|0,0:0|0:0,0:0:0:0:
106,181,158629,2,0,B|126:207|126:207|120:235|128:263|128:263|146:289,1,120.000004577637,12|0,0:0|0:0,0:0:0:0:
0,202,158810,2,0,B|18:176|18:176|24:146|20:120|20:120|39:94,1,120.000004577637,12|0,0:0|0:0,0:0:0:0:
106,0,158991,2,0,B|126:25|126:25|122:52|128:81|128:81|146:107,1,120.000004577637,12|0,0:0|0:0,0:0:0:0:
172,137,159171,1,4,0:0:0:0:
290,154,159352,1,4,0:0:0:0:
397,11,159533,5,12,0:0:0:0:
512,312,160076,6,0,B|479:324|479:324|417:312|417:312|386:326,1,128,8|0,0:0|0:0,0:0:0:0:
293,314,160256,2,0,B|330:319|330:319|378:360|378:360|413:367,1,136.000002593994,12|0,0:0|0:0,0:0:0:0:
299,369,160437,2,0,B|272:346|272:346|251:286|251:286|209:253,1,143.999995605469,12|0,0:0|0:0,0:0:0:0:
180,170,160618,2,0,B|199:220|199:220|187:282|187:282|237:380,1,213.333333333333,12|0,0:0|0:0,0:0:0:0:
504,88,161161,6,0,P|473:105|436:91,1,66.6666666666667,2|0,0:2|0:0,0:0:0:0:
415,67,161431,2,0,P|384:50|347:64,1,66.6666666666667,0|0,0:0|0:0,0:0:0:0:
326,75,161748,2,0,P|300:83|277:77,1,40,0|0,0:0|0:0,0:0:0:0:
219,15,161974,2,0,P|201:7|181:8,1,40,0|0,0:0|0:0,0:0:0:0:
185,209,162246,2,0,B|185:177|185:177|146:155|146:155|146:107|146:107|103:91|103:91|91:41|91:41|43:34,1,272.000005187988,2|0,0:2|0:0,0:0:0:0:
