osu file format v14

[General]
AudioFilename: audio.mp3
AudioLeadIn: 0
PreviewTime: 49318
Countdown: 0
SampleSet: None
StackLeniency: 0.7
Mode: 1
LetterboxInBreaks: 0
WidescreenStoryboard: 1

[Editor]
Bookmarks: 123580,164523
DistanceSpacing: 3.2
BeatDivisor: 4
GridSize: 32
TimelineZoom: 1.1

[Metadata]
Title:Spirit in the Sky
TitleUnicode:Spirit in the Sky
Artist:KEiiNO
ArtistUnicode:KEiiNO
Creator:zerth
Version:Futsuu
Source:Eurovision Song Contest 2019
Tags:pop electropop joik yoik folk dance disco sing vocal male female Norwegian Norway Sápmi Sámi Alexandra Rotan Fred Buljo Tom Hugo
BeatmapID:2208259
BeatmapSetID:1054717

[Difficulty]
HPDrainRate:6
CircleSize:2
OverallDifficulty:4
ApproachRate:10
SliderMultiplier:1.4
SliderTickRate:1

[Events]
//Background and Video events
0,0,"keiino.jpg",0,20
//Break Periods
//Storyboard Layer 0 (Background)
//Storyboard Layer 1 (Fail)
//Storyboard Layer 2 (Pass)
//Storyboard Layer 3 (Foreground)
//Storyboard Layer 4 (Overlay)
//Storyboard Sound Samples

[TimingPoints]
138,491.803278688525,4,1,0,30,1,0
3088,-105.263157894737,4,1,0,30,0,0
17842,-105.263157894737,4,1,0,35,0,0
19810,-100,4,1,0,50,0,0
27678,-100,4,1,0,60,0,0
49564,-90.9090909090909,4,1,0,70,0,0
51285,-90.9090909090909,4,1,0,70,0,1
66531,-90.9090909090909,4,1,0,70,0,0
68006,-105.263157894737,4,1,0,30,0,0
74892,-100,4,1,0,50,0,0
96777,-83.3333333333333,4,1,0,65,0,0
98498,-83.3333333333333,4,1,0,70,0,1
114236,-83.3333333333333,4,1,0,70,0,0
116203,-105.263157894737,4,1,0,30,0,0
123580,-100,4,1,0,50,0,0
131941,-100,4,1,0,60,0,0
139810,-95.2380952380952,4,1,0,65,0,0
147924,-90.9090909090909,4,1,0,65,0,0
149646,-90.9090909090909,4,1,0,70,0,1
164892,-86.9565217391304,4,1,0,70,0,1
178662,-86.9565217391304,4,1,0,70,0,0
179400,-90.9090909090909,4,1,0,70,0,0

[HitObjects]
256,192,138,12,0,2597,0:0:0:0:
256,192,3088,5,0,0:0:0:0:
256,192,3580,1,0,0:0:0:0:
256,192,4072,1,8,0:0:0:0:
256,192,6039,1,0,0:0:0:0:
256,192,8006,1,0,0:0:0:0:
256,192,8990,1,8,0:0:0:0:
256,192,9974,1,8,0:0:0:0:
256,192,11941,1,0,0:0:0:0:
256,192,12924,1,8,0:0:0:0:
256,192,13908,1,8,0:0:0:0:
256,192,14892,1,0,0:0:0:0:
256,192,15875,1,0,0:0:0:0:
256,192,16859,1,8,0:0:0:0:
256,192,17842,12,0,19318,0:0:0:0:
256,192,19810,5,0,0:0:0:0:
256,192,20301,1,8,0:0:0:0:
256,192,20793,1,8,0:0:0:0:
256,192,21039,1,0,0:0:0:0:
256,192,21777,1,0,0:0:0:0:
256,192,22023,1,8,0:0:0:0:
256,192,22269,1,0,0:0:0:0:
256,192,22760,1,8,0:0:0:0:
256,192,23252,1,0,0:0:0:0:
256,192,23744,1,0,0:0:0:0:
256,192,24236,1,8,0:0:0:0:
256,192,24728,1,0,0:0:0:0:
256,192,24974,1,8,0:0:0:0:
256,192,25465,1,0,0:0:0:0:
256,192,25711,1,8,0:0:0:0:
256,192,26203,1,8,0:0:0:0:
256,192,26695,1,8,0:0:0:0:
256,192,27678,1,0,0:0:0:0:
256,192,28170,1,0,0:0:0:0:
256,192,28416,1,8,0:0:0:0:
256,192,28661,1,0,0:0:0:0:
256,192,29154,1,0,0:0:0:0:
256,192,29646,1,0,0:0:0:0:
256,192,30138,1,0,0:0:0:0:
256,192,30383,1,0,0:0:0:0:
256,192,30629,1,8,0:0:0:0:
256,192,31121,1,0,0:0:0:0:
256,192,31367,1,8,0:0:0:0:
256,192,31612,1,0,0:0:0:0:
256,192,32105,1,0,0:0:0:0:
256,192,32597,1,0,0:0:0:0:
256,192,32842,1,8,0:0:0:0:
256,192,33088,1,0,0:0:0:0:
256,192,33334,1,8,0:0:0:0:
256,192,34563,1,0,0:0:0:0:
256,192,35056,1,0,0:0:0:0:
256,192,35547,1,8,0:0:0:0:
256,192,36285,1,8,0:0:0:0:
256,192,36531,1,0,0:0:0:0:
256,192,36777,1,8,0:0:0:0:
256,192,37023,1,0,0:0:0:0:
256,192,37515,1,0,0:0:0:0:
256,192,38006,1,0,0:0:0:0:
256,192,38252,1,8,0:0:0:0:
256,192,38498,1,0,0:0:0:0:
256,192,38990,1,0,0:0:0:0:
256,192,39482,1,0,0:0:0:0:
256,192,39728,1,8,0:0:0:0:
256,192,39974,1,0,0:0:0:0:
256,192,40219,1,8,0:0:0:0:
256,192,40711,1,8,0:0:0:0:
256,192,40957,1,0,0:0:0:0:
256,192,41203,1,8,0:0:0:0:
256,192,41695,1,8,0:0:0:0:
256,192,41941,1,8,0:0:0:0:
256,192,42187,1,0,0:0:0:0:
256,192,42433,1,8,0:0:0:0:
256,192,42924,1,0,0:0:0:0:
256,192,43416,1,8,0:0:0:0:
256,192,44646,1,0,0:0:0:0:
256,192,44892,1,0,0:0:0:0:
256,192,45138,1,0,0:0:0:0:
257,190,45383,1,8,0:0:0:0:
257,190,45875,1,8,0:0:0:0:
257,190,46367,1,8,0:0:0:0:
257,190,46859,1,8,0:0:0:0:
257,190,47597,1,8,0:0:0:0:
257,190,47842,1,0,0:0:0:0:
257,190,48088,1,8,0:0:0:0:
257,190,48334,1,0,0:0:0:0:
257,190,48826,1,0,0:0:0:0:
256,192,49564,1,8,0:0:0:0:
256,192,49810,1,8,0:0:0:0:
256,192,50056,1,0,0:0:0:0:
256,192,50302,1,8,0:0:0:0:
256,192,50793,1,0,0:0:0:0:
256,192,51285,1,4,0:0:0:0:
256,192,51777,1,8,0:0:0:0:
256,192,52023,1,8,0:0:0:0:
256,192,52269,1,0,0:0:0:0:
256,192,52760,1,0,0:0:0:0:
256,192,53252,1,8,0:0:0:0:
256,192,53744,1,8,0:0:0:0:
256,192,54236,1,8,0:0:0:0:
256,192,54728,1,8,0:0:0:0:
256,192,55465,1,8,0:0:0:0:
256,192,55711,1,0,0:0:0:0:
256,192,55957,1,8,0:0:0:0:
256,192,56203,1,0,0:0:0:0:
256,192,56695,1,0,0:0:0:0:
256,192,57187,1,8,0:0:0:0:
256,192,58170,1,8,0:0:0:0:
256,192,58416,1,8,0:0:0:0:
256,192,58662,1,0,0:0:0:0:
256,192,59154,1,4,0:0:0:0:
256,192,59646,1,8,0:0:0:0:
256,192,59892,1,8,0:0:0:0:
256,192,60138,1,0,0:0:0:0:
256,192,60629,1,0,0:0:0:0:
256,192,61121,1,8,0:0:0:0:
256,192,61613,1,8,0:0:0:0:
256,192,62105,1,8,0:0:0:0:
256,192,62597,1,8,0:0:0:0:
256,192,63334,1,8,0:0:0:0:
256,192,63580,1,0,0:0:0:0:
256,192,63826,1,8,0:0:0:0:
256,192,64072,1,0,0:0:0:0:
256,192,64564,1,0,0:0:0:0:
257,190,65301,1,8,0:0:0:0:
257,190,65547,1,8,0:0:0:0:
257,190,65793,1,0,0:0:0:0:
257,190,66039,1,8,0:0:0:0:
257,190,66531,1,0,0:0:0:0:
257,190,68006,1,8,0:0:0:0:
257,190,68990,1,8,0:0:0:0:
257,190,69974,1,0,0:0:0:0:
257,190,70957,1,0,0:0:0:0:
257,190,71941,1,8,0:0:0:0:
257,190,72924,1,8,0:0:0:0:
257,190,73908,1,0,0:0:0:0:
256,192,74892,1,0,0:0:0:0:
256,192,75384,1,8,0:0:0:0:
256,192,75875,1,0,0:0:0:0:
256,192,76121,1,8,0:0:0:0:
256,192,76367,1,0,0:0:0:0:
256,192,77105,1,8,0:0:0:0:
256,192,77352,1,0,0:0:0:0:
256,192,77597,1,0,0:0:0:0:
256,192,77843,1,8,0:0:0:0:
256,192,78826,1,0,0:0:0:0:
256,192,79072,1,8,0:0:0:0:
256,192,79319,1,0,0:0:0:0:
256,192,79810,1,8,0:0:0:0:
256,192,80056,1,8,0:0:0:0:
256,192,80547,1,8,0:0:0:0:
256,192,80793,1,0,0:0:0:0:
256,192,81285,1,0,0:0:0:0:
256,192,81777,1,0,0:0:0:0:
256,192,82760,1,12,0:0:0:0:
256,192,83252,1,8,0:0:0:0:
256,192,83743,1,0,0:0:0:0:
256,192,84236,1,8,0:0:0:0:
256,192,84727,1,0,0:0:0:0:
256,192,84974,1,0,0:0:0:0:
256,192,85220,1,8,0:0:0:0:
256,192,85711,1,0,0:0:0:0:
256,192,86203,1,8,0:0:0:0:
256,192,86694,1,0,0:0:0:0:
256,192,87187,1,8,0:0:0:0:
256,192,87678,1,0,0:0:0:0:
256,192,87924,1,8,0:0:0:0:
256,192,88170,1,8,0:0:0:0:
256,192,88416,1,0,0:0:0:0:
256,192,89154,1,0,0:0:0:0:
256,192,89645,1,8,0:0:0:0:
256,192,89892,1,8,0:0:0:0:
256,192,90138,1,0,0:0:0:0:
256,192,90629,1,4,0:0:0:0:
256,192,91121,1,8,0:0:0:0:
256,192,91613,1,0,0:0:0:0:
256,192,92597,1,8,0:0:0:0:
256,192,93088,1,0,0:0:0:0:
256,192,93334,1,8,0:0:0:0:
256,192,93826,1,8,0:0:0:0:
256,192,94072,1,0,0:0:0:0:
256,192,94564,1,8,0:0:0:0:
256,192,95056,1,0,0:0:0:0:
256,192,96039,1,8,0:0:0:0:
256,192,96285,1,0,0:0:0:0:
256,192,96777,1,8,0:0:0:0:
256,192,97023,1,8,0:0:0:0:
256,192,97269,1,0,0:0:0:0:
256,192,97515,1,8,0:0:0:0:
256,192,98006,1,0,0:0:0:0:
256,192,98498,1,4,0:0:0:0:
256,192,98990,1,8,0:0:0:0:
256,192,99236,1,8,0:0:0:0:
256,192,99482,1,0,0:0:0:0:
256,192,99973,1,0,0:0:0:0:
256,192,100465,1,8,0:0:0:0:
256,192,100957,1,8,0:0:0:0:
256,192,101449,1,8,0:0:0:0:
256,192,101941,1,8,0:0:0:0:
256,192,102678,1,8,0:0:0:0:
256,192,102924,1,0,0:0:0:0:
256,192,103170,1,8,0:0:0:0:
256,192,103416,1,0,0:0:0:0:
256,192,103908,1,0,0:0:0:0:
256,192,104400,1,8,0:0:0:0:
256,192,105383,1,8,0:0:0:0:
256,192,105629,1,8,0:0:0:0:
256,192,105875,1,0,0:0:0:0:
256,192,106367,1,4,0:0:0:0:
256,192,106859,1,8,0:0:0:0:
256,192,107105,1,8,0:0:0:0:
256,192,107351,1,0,0:0:0:0:
256,192,107842,1,0,0:0:0:0:
256,192,108088,1,0,0:0:0:0:
256,192,108334,1,8,0:0:0:0:
256,192,108826,1,8,0:0:0:0:
256,192,109318,1,8,0:0:0:0:
256,192,109810,1,8,0:0:0:0:
256,192,110547,1,8,0:0:0:0:
256,192,110793,1,0,0:0:0:0:
256,192,111039,1,8,0:0:0:0:
256,192,111285,1,0,0:0:0:0:
256,192,111777,1,0,0:0:0:0:
257,190,112514,1,8,0:0:0:0:
257,190,112760,1,8,0:0:0:0:
257,190,113006,1,0,0:0:0:0:
257,190,113252,1,8,0:0:0:0:
257,190,113744,1,0,0:0:0:0:
257,190,114236,1,4,0:0:0:0:
257,190,116203,1,0,0:0:0:0:
257,190,117187,1,0,0:0:0:0:
257,190,118170,1,8,0:0:0:0:
257,190,119154,1,8,0:0:0:0:
257,190,119646,1,8,0:0:0:0:
257,190,119892,1,0,0:0:0:0:
257,190,120138,1,8,0:0:0:0:
257,190,121122,1,8,0:0:0:0:
257,190,122105,1,8,0:0:0:0:
257,190,123088,1,8,0:0:0:0:
257,190,123580,1,0,0:0:0:0:
257,190,123826,1,0,0:0:0:0:
257,190,124072,1,0,0:0:0:0:
257,190,124810,1,8,0:0:0:0:
257,190,125056,1,0,0:0:0:0:
257,190,125547,1,8,0:0:0:0:
257,190,125793,1,0,0:0:0:0:
257,190,126039,1,8,0:0:0:0:
257,190,126777,1,8,0:0:0:0:
257,190,127023,1,0,0:0:0:0:
257,190,127515,1,0,0:0:0:0:
257,190,127760,1,8,0:0:0:0:
257,190,128252,1,8,0:0:0:0:
257,190,128498,1,8,0:0:0:0:
257,190,128744,1,0,0:0:0:0:
257,190,128990,1,8,0:0:0:0:
257,190,129482,1,0,0:0:0:0:
257,190,130219,1,8,0:0:0:0:
257,190,130465,1,8,0:0:0:0:
257,190,130711,1,0,0:0:0:0:
257,190,130957,1,8,0:0:0:0:
257,190,131941,1,4,0:0:0:0:
257,190,132433,1,8,0:0:0:0:
257,190,132678,1,8,0:0:0:0:
257,190,132924,1,0,0:0:0:0:
257,190,133416,1,8,0:0:0:0:
257,190,133908,1,8,0:0:0:0:
257,190,134400,1,8,0:0:0:0:
257,190,134645,1,8,0:0:0:0:
257,190,134891,1,0,0:0:0:0:
257,190,135383,1,8,0:0:0:0:
257,190,135875,1,8,0:0:0:0:
257,190,136367,1,8,0:0:0:0:
257,190,136612,1,8,0:0:0:0:
257,190,136858,1,0,0:0:0:0:
257,190,137350,1,8,0:0:0:0:
257,190,137842,1,8,0:0:0:0:
257,190,138334,1,0,0:0:0:0:
257,190,138579,1,8,0:0:0:0:
257,190,138826,1,8,0:0:0:0:
257,190,139810,1,4,0:0:0:0:
257,190,140301,1,0,0:0:0:0:
257,190,140547,1,8,0:0:0:0:
257,190,140793,1,0,0:0:0:0:
257,190,141285,1,0,0:0:0:0:
257,190,141531,1,8,0:0:0:0:
257,190,141777,1,0,0:0:0:0:
257,190,142269,1,0,0:0:0:0:
257,190,142515,1,8,0:0:0:0:
257,190,142760,1,0,0:0:0:0:
257,190,143252,1,0,0:0:0:0:
257,190,143498,1,8,0:0:0:0:
257,190,143744,1,0,0:0:0:0:
257,190,144236,1,0,0:0:0:0:
257,190,144482,1,0,0:0:0:0:
257,190,144728,1,12,0:0:0:0:
257,190,145219,1,4,0:0:0:0:
257,190,146203,1,0,0:0:0:0:
257,190,146449,1,0,0:0:0:0:
257,190,146695,1,12,0:0:0:0:
257,190,147187,1,4,0:0:0:0:
256,192,147924,1,8,0:0:0:0:
256,192,148170,1,8,0:0:0:0:
256,192,148416,1,0,0:0:0:0:
256,192,148662,1,8,0:0:0:0:
256,192,149153,1,0,0:0:0:0:
256,192,149645,1,4,0:0:0:0:
256,192,150137,1,8,0:0:0:0:
256,192,150383,1,8,0:0:0:0:
256,192,150629,1,0,0:0:0:0:
256,192,151120,1,0,0:0:0:0:
256,192,151367,1,0,0:0:0:0:
256,192,151612,1,8,0:0:0:0:
256,192,152104,1,8,0:0:0:0:
256,192,152596,1,8,0:0:0:0:
256,192,153088,1,8,0:0:0:0:
256,192,153825,1,8,0:0:0:0:
256,192,154071,1,0,0:0:0:0:
256,192,154317,1,8,0:0:0:0:
256,192,154563,1,0,0:0:0:0:
256,192,155055,1,0,0:0:0:0:
256,192,155547,1,8,0:0:0:0:
256,192,156530,1,8,0:0:0:0:
256,192,156776,1,8,0:0:0:0:
256,192,157022,1,0,0:0:0:0:
256,192,157269,1,8,0:0:0:0:
256,192,157514,1,4,0:0:0:0:
256,192,158006,1,8,0:0:0:0:
256,192,158252,1,8,0:0:0:0:
256,192,158498,1,0,0:0:0:0:
256,192,158989,1,0,0:0:0:0:
256,192,159235,1,0,0:0:0:0:
256,192,159481,1,8,0:0:0:0:
256,192,159973,1,8,0:0:0:0:
256,192,160465,1,8,0:0:0:0:
256,192,160957,1,8,0:0:0:0:
256,192,161694,1,8,0:0:0:0:
256,192,161940,1,0,0:0:0:0:
256,192,162186,1,8,0:0:0:0:
256,192,162433,1,0,0:0:0:0:
256,192,162924,1,0,0:0:0:0:
257,190,163661,1,8,0:0:0:0:
257,190,163907,1,8,0:0:0:0:
257,190,164153,1,0,0:0:0:0:
257,190,164399,1,8,0:0:0:0:
257,190,165383,1,4,0:0:0:0:
257,190,165875,1,0,0:0:0:0:
257,190,166121,1,8,0:0:0:0:
257,190,166367,1,0,0:0:0:0:
257,190,166859,1,0,0:0:0:0:
257,190,167105,1,8,0:0:0:0:
257,190,167351,1,0,0:0:0:0:
257,190,167843,1,0,0:0:0:0:
257,190,168089,1,8,0:0:0:0:
257,190,168334,1,0,0:0:0:0:
257,190,168826,1,0,0:0:0:0:
257,190,169072,1,8,0:0:0:0:
257,190,169318,1,0,0:0:0:0:
257,190,169810,1,0,0:0:0:0:
257,190,170056,1,0,0:0:0:0:
257,190,170302,1,12,0:0:0:0:
257,190,170793,1,4,0:0:0:0:
257,190,171777,1,8,0:0:0:0:
256,192,172269,1,8,0:0:0:0:
256,192,172515,1,8,0:0:0:0:
256,192,172760,1,0,0:0:0:0:
256,192,173006,1,8,0:0:0:0:
256,192,173252,1,4,0:0:0:0:
256,192,173745,1,8,0:0:0:0:
256,192,173991,1,8,0:0:0:0:
256,192,174237,1,0,0:0:0:0:
256,192,174728,1,0,0:0:0:0:
256,192,174974,1,0,0:0:0:0:
256,192,175220,1,8,0:0:0:0:
256,192,175712,1,8,0:0:0:0:
256,192,176204,1,8,0:0:0:0:
256,192,176696,1,8,0:0:0:0:
256,192,177433,1,8,0:0:0:0:
256,192,177679,1,0,0:0:0:0:
256,192,177925,1,8,0:0:0:0:
256,192,178171,1,0,0:0:0:0:
256,192,178663,1,0,0:0:0:0:
257,190,179400,1,8,0:0:0:0:
257,190,179647,1,8,0:0:0:0:
257,190,179892,1,0,0:0:0:0:
257,190,180138,1,8,0:0:0:0:
257,190,180629,1,0,0:0:0:0:
