osu file format v14

[General]
AudioFilename: audio.mp3
AudioLeadIn: 0
PreviewTime: -1
Countdown: 1
SampleSet: None
StackLeniency: 0.7
Mode: 0
LetterboxInBreaks: 0
WidescreenStoryboard: 0

[Editor]
Bookmarks: 19804,27672,35541,43410,51279,64066,67017
DistanceSpacing: 1
BeatDivisor: 4
GridSize: 16
TimelineZoom: 1

[Metadata]
Title:Spirit in the Sky
TitleUnicode:Spirit in the Sky
Artist:KEiiNO
ArtistUnicode:KEiiNO
Creator:nobbele
Version:The Light
Source:
Tags:
BeatmapID:2038780
BeatmapSetID:973949

[Difficulty]
HPDrainRate:8
CircleSize:4
OverallDifficulty:9
ApproachRate:9.6
SliderMultiplier:1.6
SliderTickRate:1

[Events]
//Background and Video events
//Break Periods
//Storyboard Layer 0 (Background)
//Storyboard Layer 1 (Fail)
//Storyboard Layer 2 (Pass)
//Storyboard Layer 3 (Foreground)
//Storyboard Sound Samples

[TimingPoints]
132,491.803278688525,4,1,0,100,1,0
43410,-133.333333333333,4,1,0,100,0,0
51279,-80,4,1,0,100,0,0
65050,-74.0740740740741,4,1,0,100,0,0
65541,-68.9655172413793,4,1,0,100,0,0
66033,-62.5,4,1,0,100,0,0
66525,-55.5555555555556,4,1,0,100,0,0

[HitObjects]
136,191,43410,6,0,B|196:180|235:249|235:249|271:242|288:206|291:176|259:149,1,240.000009155274
268,158,44640,1,0,0:0:0:0:
367,267,44886,1,0,0:0:0:0:
305,85,45132,1,0,0:0:0:0:
318,336,45377,6,0,P|361:360|410:341,1,90.0000034332277
423,337,45869,2,0,P|438:303|496:291,1,90.0000034332277
511,291,46361,2,0,P|507:242|461:209,1,90.0000034332277
459,203,46853,2,0,P|413:189|446:125,1,120.000004577637
261,162,47591,5,0,0:0:0:0:
318,336,47836,1,0,0:0:0:0:
191,110,48082,2,0,B|177:96|177:96|147:103,1,30.0000011444092
403,336,48328,2,0,B|431:349|431:349|463:319,1,60.0000022888184
95,60,48820,2,0,B|68:114|68:114|114:176,1,120.000004577637
258,272,49558,5,0,0:0:0:0:
33,193,49804,1,0,0:0:0:0:
326,213,50050,1,0,0:0:0:0:
31,281,50295,1,0,0:0:0:0:
393,148,50541,1,0,0:0:0:0:
32,365,50787,1,0,0:0:0:0:
456,91,51033,1,0,0:0:0:0:
30,104,51279,6,0,P|12:157|52:203,1,100
66,213,51648,1,0,0:0:0:0:
104,222,51771,1,0,0:0:0:0:
143,218,51894,1,0,0:0:0:0:
174,193,52017,1,0,0:0:0:0:
263,49,52263,1,0,0:0:0:0:
106,299,52509,1,0,0:0:0:0:
356,50,52754,1,0,0:0:0:0:
49,368,53000,1,0,0:0:0:0:
455,53,53246,6,0,P|443:107|482:113,1,100
455,53,53738,1,0,0:0:0:0:
356,139,53984,1,0,0:0:0:0:
475,329,54230,2,0,P|435:307|455:266,1,100
475,328,54722,1,0,0:0:0:0:
351,286,54968,1,0,0:0:0:0:
482,190,55213,1,0,0:0:0:0:
276,332,55459,6,0,B|252:340|252:340|240:313,1,50
356,139,55705,1,0,0:0:0:0:
170,353,55951,1,0,0:0:0:0:
389,52,56197,2,0,B|340:38|340:38|298:68,1,100
333,214,56689,2,0,B|380:226|380:226|421:195,1,100
178,142,57181,5,0,0:0:0:0:
404,311,57427,2,0,B|367:345|367:345|321:300,1,100
190,257,57918,1,0,0:0:0:0:
379,109,58164,1,0,0:0:0:0:
126,314,58410,1,0,0:0:0:0:
311,52,58656,1,0,0:0:0:0:
63,370,58902,1,0,0:0:0:0:
453,70,59148,6,0,P|467:117|447:162,1,100
375,211,59640,1,0,0:0:0:0:
311,52,59886,1,0,0:0:0:0:
375,211,60132,1,0,0:0:0:0:
228,55,60377,1,0,0:0:0:0:
353,294,60623,1,0,0:0:0:0:
142,58,60869,1,0,0:0:0:0:
425,338,61115,6,0,P|388:371|340:375,1,100
267,319,61607,1,0,0:0:0:0:
450,252,61853,1,0,0:0:0:0:
198,376,62099,2,0,P|173:334|187:288,1,100
253,234,62591,1,0,0:0:0:0:
425,338,62836,1,0,0:0:0:0:
187,287,63082,1,0,0:0:0:0:
332,211,63328,5,0,0:0:0:0:
157,267,63573,1,0,0:0:0:0:
415,237,63819,2,0,B|434:240|434:240|446:268,1,30.0000011444092
107,198,64065,2,0,B|80:182|80:182|85:139,1,60.0000022888184
87,130,64312,1,0,0:0:0:0:
120,93,64434,1,0,0:0:0:0:
163,67,64557,1,0,0:0:0:0:
211,54,64680,1,0,0:0:0:0:
261,55,64803,1,0,0:0:0:0:
309,69,64926,1,0,0:0:0:0:
350,105,65050,5,0,0:0:0:0:
386,144,65172,1,0,0:0:0:0:
406,194,65295,1,0,0:0:0:0:
406,248,65418,1,0,0:0:0:0:
376,298,65541,5,0,0:0:0:0:
328,329,65663,1,0,0:0:0:0:
272,326,65786,1,0,0:0:0:0:
228,288,65909,1,0,0:0:0:0:
202,228,66033,5,0,0:0:0:0:
175,213,66094,1,0,0:0:0:0:
142,212,66155,1,0,0:0:0:0:
114,226,66217,1,0,0:0:0:0:
94,250,66278,1,0,0:0:0:0:
87,281,66340,1,0,0:0:0:0:
94,312,66401,1,0,0:0:0:0:
116,336,66463,1,0,0:0:0:0:
149,349,66525,5,0,0:0:0:0:
185,344,66586,1,0,0:0:0:0:
217,330,66647,1,0,0:0:0:0:
246,309,66709,1,0,0:0:0:0:
270,282,66770,1,0,0:0:0:0:
284,248,66832,1,0,0:0:0:0:
290,214,66893,1,0,0:0:0:0:
288,177,66955,1,0,0:0:0:0:
276,143,67016,1,0,0:0:0:0:
