osu file format v14

[General]
AudioFilename: audio.mp3
AudioLeadIn: 0
PreviewTime: 58913
Countdown: 0
SampleSet: Soft
StackLeniency: 0.7
Mode: 0
LetterboxInBreaks: 0
WidescreenStoryboard: 0

[Editor]
DistanceSpacing: 1
BeatDivisor: 4
GridSize: 32
TimelineZoom: 1.5

[Metadata]
Title:Karen Setsugetsuka
TitleUnicode:可憐雪月花
Artist:KEiNA
ArtistUnicode:KEiNA
Creator:Daoski
Version:Normal
Source:絆きらめく恋いろは
Tags:めくいろ mekuiro crystalia game eroge
BeatmapID:1786305
BeatmapSetID:854863

[Difficulty]
HPDrainRate:4
CircleSize:3.5
OverallDifficulty:4
ApproachRate:5
SliderMultiplier:1.6
SliderTickRate:1

[Events]
//Background and Video events
0,0,"bg.jpg",0,0
Video,0,"video.mp4"
//Break Periods
2,15446,16713
2,83446,84713
//Storyboard Layer 0 (Background)
//Storyboard Layer 1 (Fail)
//Storyboard Layer 2 (Pass)
//Storyboard Layer 3 (Foreground)
//Storyboard Sound Samples

[TimingPoints]
580,333.333333333333,4,2,1,100,1,0
1579,-166.666666666667,4,2,1,100,0,0
59246,-166.666666666667,4,2,1,100,0,1
80579,-166.666666666667,4,2,1,100,0,0

[Colours]
Combo1 : 255,255,130
Combo2 : 136,255,255
Combo3 : 193,193,225
Combo4 : 136,217,255

[HitObjects]
118,178,1579,5,0,0:0:0:0:
199,231,1913,5,0,0:0:0:0:
199,231,2079,2,0,B|245:213|245:213|332:249|332:249|377:231,1,191.999994140625
407,139,3079,6,0,P|395:94|407:47,2,95.9999970703126
439,176,3913,1,0,0:0:0:0:
472,211,4079,1,0,0:0:0:0:
441,303,4413,5,0,0:0:0:0:
441,303,4579,2,0,B|384:325|384:325|298:272|216:325,1,239.999992675781
129,281,5746,6,0,P|117:326|129:373,2,95.9999970703126
205,222,6746,1,0,0:0:0:0:
171,132,7079,5,0,0:0:0:0:
171,132,7246,2,0,B|218:114|263:145|263:145|305:172|354:155,1,191.999994140625
404,72,8246,5,0,0:0:0:0:
437,107,8413,2,0,P|449:152|437:199,1,95.9999970703126
358,253,9079,2,0,P|346:298|358:345,1,95.9999970703126
395,374,9579,6,0,B|336:298|397:225|397:225|460:149|385:73|385:73|412:122|389:167,1,431.999986816407
303,123,11413,5,0,0:0:0:0:
303,123,11579,2,0,L|256:133,1,47.9999985351563
210,117,11913,1,0,0:0:0:0:
147,189,12246,6,0,L|100:179,1,47.9999985351563
55,195,12579,1,0,0:0:0:0:
256,192,12663,12,0,15246,0:0:0:0:
110,242,17913,5,0,0:0:0:0:
31,187,18246,2,0,P|18:113|40:42,1,143.999995605469
66,10,18913,1,0,0:0:0:0:
120,89,19246,5,0,0:0:0:0:
191,24,19579,2,0,L|335:57,1,143.999995605469
377,68,20246,1,0,0:0:0:0:
461,21,20579,6,0,P|473:66|457:121,1,95.9999970703126
430,149,21079,1,0,0:0:0:0:
303,218,21579,6,0,P|291:263|307:318,1,95.9999970703126
334,346,22079,1,0,0:0:0:0:
483,382,22579,5,0,0:0:0:0:
419,301,22913,1,0,0:0:0:0:
419,205,23246,5,0,0:0:0:0:
355,124,23579,2,0,P|432:101|488:129,1,143.999995605469
512,169,24246,1,0,0:0:0:0:
450,242,24579,6,0,L|458:289,2,47.9999985351563
419,205,25079,2,0,P|380:225|329:225,1,95.9999970703126
291,195,25579,1,0,0:0:0:0:
224,265,25913,5,0,0:0:0:0:
149,204,26246,2,0,P|137:132|148:61,1,143.999995605469
162,16,26913,1,0,0:0:0:0:
249,55,27246,6,0,L|260:3,2,47.9999985351563
271,97,27746,1,0,0:0:0:0:
354,48,28079,2,0,L|365:-4,2,47.9999985351563
376,90,28579,5,0,0:0:0:0:
412,178,28913,2,0,P|432:244|414:318,1,143.999995605469
395,359,29579,1,0,0:0:0:0:
320,298,29913,5,0,0:0:0:0:
240,350,30246,1,0,0:0:0:0:
168,285,30579,2,0,L|110:294,2,47.9999985351563
201,250,31079,1,0,0:0:0:0:
233,214,31246,6,0,P|275:202|328:211,1,95.9999970703126
370,230,31746,1,0,0:0:0:0:
458,343,32246,2,0,P|446:300|455:247,1,95.9999970703126
473,206,32746,1,0,0:0:0:0:
380,95,33246,5,0,0:0:0:0:
290,132,33579,1,0,0:0:0:0:
202,95,33913,5,0,0:0:0:0:
215,189,34246,2,0,L|236:331,1,143.999995605469
243,378,34913,1,0,0:0:0:0:
326,330,35246,6,0,P|365:308|414:314,1,95.9999970703126
458,333,35746,2,0,P|480:294|474:245,1,95.9999970703126
447,204,36246,1,0,0:0:0:0:
508,130,36579,5,0,0:0:0:0:
459,46,36913,2,0,P|386:30|308:42,1,143.999995605469
272,53,37579,1,0,0:0:0:0:
184,14,37913,6,0,P|175:54|191:105,1,95.9999970703126
225,139,38413,1,0,0:0:0:0:
184,225,38746,1,0,0:0:0:0:
184,225,38913,2,0,L|198:270,1,47.9999985351563
216,314,39246,6,0,P|178:330|142:328,2,71.9999978027344
328,224,40079,1,0,0:0:0:0:
328,224,40246,2,0,L|314:270,1,47.9999985351563
296,314,40579,6,0,P|334:330|370:328,2,71.9999978027344
184,225,41579,2,0,L|198:270,1,47.9999985351563
216,314,41913,6,0,P|180:330|110:309,1,95.9999970703126
83,297,42413,1,0,0:0:0:0:
96,202,42746,1,0,0:0:0:0:
21,141,43079,6,0,B|59:92|132:95|169:139|169:139|205:180|277:180|316:131,1,335.999989746094
382,61,44579,6,0,L|368:13,2,47.9999985351563
416,94,45079,1,0,0:0:0:0:
384,184,45413,5,0,0:0:0:0:
435,264,45746,2,0,P|386:279|336:264,1,95.9999970703126
253,235,46413,2,0,P|204:220|154:235,1,95.9999970703126
119,254,46913,1,0,0:0:0:0:
53,184,47246,6,0,L|0:174,2,47.9999985351563
88,151,47746,1,0,0:0:0:0:
75,55,48079,5,0,0:0:0:0:
164,91,48413,1,0,0:0:0:0:
227,19,48746,2,0,P|254:63|254:117,1,95.9999970703126
240,151,49246,1,0,0:0:0:0:
315,209,49579,1,0,0:0:0:0:
256,285,49913,5,0,0:0:0:0:
256,285,52579,6,0,P|205:271|174:275,1,71.9999978027344
117,299,53079,2,0,P|139:231|121:154,1,143.999995605469
97,69,53913,6,0,P|148:83|179:79,1,71.9999978027344
236,55,54413,2,0,P|214:123|232:200,1,143.999995605469
324,196,55246,6,0,P|375:182|406:186,2,71.9999978027344
298,237,55913,2,0,P|312:288|308:319,2,71.9999978027344
252,220,56579,6,0,P|201:234|170:230,1,71.9999978027344
113,206,57079,2,0,P|135:274|117:351,1,143.999995605469
95,384,57746,1,0,0:0:0:0:
347,162,58913,1,0,0:0:0:0:
256,192,59246,5,0,0:0:0:0:
325,257,59579,2,0,P|337:303|320:351,1,95.9999970703126
289,383,60079,1,0,0:0:0:0:
209,328,60413,6,0,L|114:338,1,95.9999970703126
76,306,60913,2,0,P|92:269|83:208,1,95.9999970703126
58,175,61413,1,0,0:0:0:0:
110,94,61746,6,0,B|149:81|180:102|180:102|212:122|250:110,1,143.999995605469
320,46,62579,2,0,L|310:0,2,47.9999985351563
352,81,63079,5,0,0:0:0:0:
325,173,63413,1,0,0:0:0:0:
418,152,63746,1,0,0:0:0:0:
391,244,64079,2,0,P|349:267|302:267,1,95.9999970703126
255,253,64579,5,0,0:0:0:0:
207,336,64913,1,0,0:0:0:0:
125,284,65246,2,0,L|78:294,2,47.9999985351563
160,252,65746,5,0,0:0:0:0:
113,168,66079,1,0,0:0:0:0:
172,92,66413,2,0,P|223:82|268:91,1,95.9999970703126
311,108,66913,1,0,0:0:0:0:
385,168,67246,6,0,L|370:268,1,95.9999970703126
387,307,67746,1,0,0:0:0:0:
262,379,68246,6,0,L|277:279,1,95.9999970703126
260,240,68746,1,0,0:0:0:0:
135,312,69246,5,0,0:0:0:0:
62,249,69579,1,0,0:0:0:0:
107,164,69913,5,0,0:0:0:0:
200,184,70246,2,0,P|247:187|290:165,1,95.9999970703126
320,128,70746,1,0,0:0:0:0:
365,43,71079,6,0,P|407:21|454:24,1,95.9999970703126
497,46,71579,2,0,L|474:144,1,95.9999970703126
502,179,72079,1,0,0:0:0:0:
421,232,72413,6,0,B|378:225|378:225|326:244|326:244|281:238,1,143.999995605469
210,303,73246,2,0,L|220:349,2,47.9999985351563
178,268,73746,5,0,0:0:0:0:
205,176,74079,1,0,0:0:0:0:
135,109,74413,1,0,0:0:0:0:
48,151,74746,2,0,P|38:101|52:55,1,95.9999970703126
83,23,75246,6,0,L|178:33,1,95.9999970703126
263,78,75913,2,0,L|273:26,2,47.9999985351563
287,119,76413,5,0,0:0:0:0:
226,193,76746,1,0,0:0:0:0:
280,272,77079,2,0,P|325:291|372:284,1,95.9999970703126
414,264,77579,1,0,0:0:0:0:
461,180,77913,6,0,L|442:79,1,95.9999970703126
466,43,78413,1,0,0:0:0:0:
362,143,78913,6,0,L|343:42,1,95.9999970703126
367,6,79413,1,0,0:0:0:0:
263,106,79913,5,0,0:0:0:0:
173,62,80246,1,0,0:0:0:0:
256,6,80579,5,0,0:0:0:0:
256,192,80663,12,0,83246,0:0:0:0:
198,114,85913,5,0,0:0:0:0:
253,35,86246,2,0,P|327:22|398:44,1,143.999995605469
430,69,86913,1,0,0:0:0:0:
351,124,87246,5,0,0:0:0:0:
416,194,87579,2,0,L|383:338,1,143.999995605469
372,380,88246,1,0,0:0:0:0:
292,325,88579,6,0,P|248:319|200:336,1,95.9999970703126
164,369,89079,2,0,P|169:325|152:277,1,95.9999970703126
120,241,89579,2,0,P|163:246|211:229,1,95.9999970703126
253,204,90079,2,0,P|247:247|264:295,1,95.9999970703126
303,324,90579,5,0,0:0:0:0:
344,237,90913,2,0,P|388:219|435:224,1,95.9999970703126
