osu file format v14

[General]
AudioFilename: audio.mp3
AudioLeadIn: 0
PreviewTime: 58913
Countdown: 0
SampleSet: Soft
StackLeniency: 0.7
Mode: 0
LetterboxInBreaks: 0
WidescreenStoryboard: 1

[Editor]
DistanceSpacing: 1.4
BeatDivisor: 4
GridSize: 32
TimelineZoom: 1.5

[Metadata]
Title:Karen Setsugetsuka
TitleUnicode:可憐雪月花
Artist:KEiNA
ArtistUnicode:KEiNA
Creator:Daoski
Version:Hard
Source:絆きらめく恋いろは
Tags:めくいろ mekuiro crystalia game eroge
BeatmapID:1786304
BeatmapSetID:854863

[Difficulty]
HPDrainRate:5
CircleSize:4
OverallDifficulty:6
ApproachRate:8
SliderMultiplier:1.8
SliderTickRate:1

[Events]
//Background and Video events
0,0,"bg.jpg",0,0
Video,0,"video.mp4"
//Break Periods
//Storyboard Layer 0 (Background)
//Storyboard Layer 1 (Fail)
//Storyboard Layer 2 (Pass)
//Storyboard Layer 3 (Foreground)
//Storyboard Sound Samples

[TimingPoints]
580,333.333333333333,4,2,1,100,1,0
1579,-125,4,2,1,100,0,0
59246,-125,4,2,1,100,0,1
80579,-125,4,2,1,100,0,0

[Colours]
Combo1 : 255,255,130
Combo2 : 136,255,255
Combo3 : 193,193,225
Combo4 : 136,217,255

[HitObjects]
72,296,1579,6,0,P|125:272|172:282,1,108
210,311,1913,5,0,0:0:0:0:
210,311,2079,1,0,0:0:0:0:
279,237,2246,2,0,L|258:165,1,72
327,93,2579,1,0,0:0:0:0:
228,70,2746,2,0,P|169:65|129:91,1,108
116,140,3079,6,0,L|91:-5,2,144
59,224,3913,1,0,0:0:0:0:
114,307,4079,2,0,P|160:322|218:293,1,108
245,259,4413,5,0,0:0:0:0:
324,320,4579,2,0,L|339:238,1,72
413,182,4913,2,0,P|450:191|486:180,2,72
335,117,5413,2,0,P|281:109|232:130,1,108
200,168,5746,6,0,L|181:59,1,108
144,27,6079,2,0,L|157:99,1,72
111,188,6413,6,0,L|130:297,1,108
167,329,6746,2,0,L|154:257,1,72
216,179,7079,5,0,0:0:0:0:
298,237,7246,2,0,B|368:219|368:219|438:250|438:250|503:232,1,216
446,147,7913,2,0,L|461:77,1,72
389,5,8246,1,0,0:0:0:0:
304,59,8413,6,0,P|255:74|198:62,1,108
155,40,8746,2,0,L|170:110,1,72
129,202,9079,6,0,P|178:187|235:199,1,108
278,221,9413,1,0,0:0:0:0:
364,169,9579,1,0,0:0:0:0:
364,169,9663,1,0,0:0:0:0:
364,169,9746,6,0,L|435:180,1,72
485,267,10079,2,0,L|414:256,1,72
330,314,10413,2,0,P|339:350|333:385,2,72
248,254,10913,2,0,L|102:275,1,144
8,244,11413,6,0,P|0:288|12:325,2,72
72,166,11913,2,0,L|61:95,1,72
3,13,12246,5,0,0:0:0:0:
103,4,12413,1,0,0:0:0:0:
61,95,12579,5,0,0:0:0:0:
256,192,12663,12,0,14913,0:0:0:0:
141,119,15246,6,0,P|130:167|151:221,1,108
195,244,15579,2,0,L|272:232,1,72
364,258,15913,1,0,0:0:0:0:
364,258,16079,2,0,P|369:221|357:187,1,72
275,129,16413,6,0,P|327:96|433:123,1,144
465,185,16913,1,0,0:0:0:0:
507,94,17079,1,0,0:0:0:0:
465,185,17246,6,0,L|478:258,1,72
406,327,17579,2,0,L|393:254,1,72
293,276,17913,6,0,P|224:301|145:291,1,144
97,211,18413,1,0,0:0:0:0:
158,132,18579,2,0,L|139:50,2,72
244,183,19079,6,0,P|293:188|388:151,1,144
454,87,19579,2,0,L|442:14,1,72
369,85,19913,2,0,L|381:158,1,72
469,204,20246,1,0,0:0:0:0:
426,295,20413,1,0,0:0:0:0:
333,255,20579,6,0,L|177:279,1,144
290,289,21079,6,0,L|134:313,1,144
247,323,21579,6,0,L|91:347,1,144
204,357,22079,6,0,L|48:381,1,144
11,291,22579,6,0,L|7:256,3,36
45,222,22913,2,0,L|41:187,3,36
79,153,23246,6,0,P|115:142|155:148,1,72
229,205,23579,2,0,P|313:205|367:171,1,144
420,92,24079,1,0,0:0:0:0:
510,136,24246,2,0,L|499:217,1,72
442,290,24579,6,0,P|481:282|512:290,2,72
359,348,25079,2,0,L|343:203,1,144
255,154,25579,2,0,P|211:177|154:173,1,108
110,147,25913,6,0,L|119:69,1,72
21,103,26246,2,0,L|43:250,1,144
57,345,26746,1,0,0:0:0:0:
136,283,26913,2,0,P|188:266|237:280,1,108
277,311,27246,6,0,L|267:386,2,72
360,253,27746,2,0,P|432:279|496:250,1,144
427,177,28246,1,0,0:0:0:0:
498,106,28413,1,0,0:0:0:0:
413,51,28579,6,0,L|337:60,1,72
253,8,28913,2,0,P|192:36|95:22,1,144
20,1,29413,1,0,0:0:0:0:
43,98,29579,2,0,L|27:172,1,72
105,233,29913,6,0,P|149:218|212:249,1,108
237,278,30246,2,0,L|308:267,1,72
397,314,30579,2,0,P|390:351|399:391,2,72
446,225,31079,1,0,0:0:0:0:
356,177,31246,6,0,L|204:200,1,144
124,151,31746,2,0,P|112:206|129:253,1,108
165,287,32079,2,0,L|145:369,1,72
246,332,32413,2,0,P|296:349|352:328,1,108
384,299,32746,6,0,B|372:252|372:252|384:206|384:206|373:158,1,144
443,87,33246,6,0,L|408:91,3,36
374,53,33579,2,0,L|339:57,3,36
300,24,33913,6,0,L|226:35,1,72
133,1,34246,2,0,P|123:60|155:111,1,108
179,137,34579,1,0,0:0:0:0:
104,205,34746,1,0,0:0:0:0:
104,205,34829,1,0,0:0:0:0:
104,205,34913,1,0,0:0:0:0:
169,280,35079,1,0,0:0:0:0:
246,214,35246,6,0,P|311:204|403:231,1,144
479,270,35746,2,0,L|457:128,1,144
484,28,36246,2,0,P|437:53|381:48,1,108
338,25,36579,6,0,L|352:97,1,72
270,157,36913,2,0,P|212:172|151:155,1,108
119,141,37246,1,0,0:0:0:0:
76,232,37413,1,0,0:0:0:0:
76,232,37496,1,0,0:0:0:0:
76,232,37579,2,0,L|86:314,1,72
176,346,37913,6,0,B|232:337|232:337|273:359|273:359|321:354,1,144
389,288,38413,2,0,P|397:238|365:177,1,108
334,156,38746,6,0,P|300:170|263:169,1,72
176,122,39079,1,0,0:0:0:0:
138,215,39246,6,0,L|154:335,2,108
377,29,40246,5,0,0:0:0:0:
336,122,40413,1,0,0:0:0:0:
374,215,40579,6,0,L|358:335,2,108
135,29,41579,5,0,0:0:0:0:
176,122,41746,1,0,0:0:0:0:
138,215,41913,6,0,L|154:335,1,108
187,357,42246,1,0,0:0:0:0:
248,276,42413,2,0,P|287:269|320:277,1,72
410,317,42746,2,0,L|401:243,1,72
439,151,43079,6,0,P|390:169|337:157,1,108
293,131,43413,1,0,0:0:0:0:
205,180,43579,2,0,L|222:96,1,72
142,43,43913,6,0,L|142:42|146:78,3,36
108,112,44246,2,0,L|112:147,3,36
79,186,44579,5,0,0:0:0:0:
156,250,44746,1,0,0:0:0:0:
94,330,44913,1,0,0:0:0:0:
16,266,45079,1,0,0:0:0:0:
16,266,45413,6,0,L|87:258,1,72
165,321,45746,1,0,0:0:0:0:
255,276,45913,2,0,P|274:224|254:163,1,108
232,133,46246,1,0,0:0:0:0:
270,39,46413,1,0,0:0:0:0:
370,43,46579,6,0,L|370:42|366:78,3,36
404,112,46913,2,0,L|400:147,3,36
433,186,47246,5,0,0:0:0:0:
356,250,47413,1,0,0:0:0:0:
418,330,47579,1,0,0:0:0:0:
496,266,47746,1,0,0:0:0:0:
496,266,48079,6,0,L|425:258,1,72
347,321,48413,1,0,0:0:0:0:
256,276,48579,2,0,P|238:224|258:163,1,108
280,133,48913,1,0,0:0:0:0:
242,39,49079,1,0,0:0:0:0:
142,43,49246,6,0,L|142:42|146:78,3,36
108,112,49579,2,0,L|112:147,3,36
79,186,49913,5,0,0:0:0:0:
256,192,49996,12,0,51579,0:0:0:0:
370,341,51913,6,0,L|370:342|366:306,3,36
404,272,52246,2,0,L|400:237,3,36
433,198,52579,6,0,L|420:126,1,72
437,79,52829,2,0,P|405:95|368:93,1,72
323,71,53079,2,0,P|277:57|186:95,1,144
137,176,53579,2,0,L|155:249,1,72
142,346,53913,6,0,P|172:329|210:326,1,72
258,336,54163,2,0,L|240:263,1,72
263,220,54413,2,0,L|298:360,1,144
374,294,54913,1,0,0:0:0:0:
446,363,55079,1,0,0:0:0:0:
374,294,55246,5,0,0:0:0:0:
448,225,55413,1,0,0:0:0:0:
448,225,55496,2,0,L|411:122,1,108
370,30,55913,5,0,0:0:0:0:
296,99,56079,1,0,0:0:0:0:
296,99,56163,2,0,L|333:202,1,108
374,294,56579,5,0,0:0:0:0:
273,282,56746,1,0,0:0:0:0:
273,282,56829,1,0,0:0:0:0:
144,361,57079,2,0,P|78:386|10:360,1,144
78,285,57579,1,0,0:0:0:0:
16,205,57746,1,0,0:0:0:0:
81,128,57913,6,0,L|116:135,3,36
147,174,58246,2,0,L|182:167,3,36
211,125,58579,2,0,L|246:132,3,36
278,171,58913,2,0,P|337:183|379:162,1,108
417,131,59246,6,0,L|407:53,1,72
313,24,59579,2,0,L|323:102,1,72
268,181,59913,1,0,0:0:0:0:
338,251,60079,2,0,P|341:291|332:324,1,72
242,282,60413,6,0,P|184:272|103:298,1,144
19,352,60913,2,0,L|30:275,1,72
90,200,61246,1,0,0:0:0:0:
169,262,61413,2,0,P|208:258|250:271,1,72
312,335,61746,6,0,B|361:326|361:326|403:349|403:349|448:341,1,144
488,248,62246,2,0,L|414:263,1,72
337,200,62579,1,0,0:0:0:0:
394,117,62746,2,0,P|395:81|383:45,1,72
296,95,63079,6,0,L|189:113,1,108
154,150,63413,2,0,L|226:138,1,72
281,221,63746,6,0,L|174:239,1,108
139,276,64079,2,0,L|211:264,1,72
281,335,64413,1,0,0:0:0:0:
372,292,64579,6,0,P|434:276|517:289,2,144
281,335,65413,1,0,0:0:0:0:
210,264,65579,1,0,0:0:0:0:
119,308,65746,6,0,L|46:300,1,72
1,210,66079,2,0,L|74:218,1,72
147,149,66413,2,0,P|138:110|146:75,1,72
207,0,66746,1,0,0:0:0:0:
298,42,66913,2,0,L|371:31,1,72
469,44,67246,6,0,L|313:68,1,144
426,78,67746,6,0,L|270:102,1,144
383,112,68246,6,0,L|227:136,1,144
340,146,68746,6,0,L|184:170,1,144
127,240,69246,5,0,0:0:0:0:
58,166,69413,1,0,0:0:0:0:
127,240,69579,2,0,L|118:317,1,72
201,370,69913,6,0,B|250:361|250:361|292:384|292:384|337:376,1,144
385,287,70413,1,0,0:0:0:0:
482,310,70579,2,0,L|496:382,2,72
454,212,71079,6,0,P|386:185|321:208,1,144
247,275,71579,1,0,0:0:0:0:
170,209,71746,1,0,0:0:0:0:
89,269,71913,2,0,P|99:309|90:345,2,72
17,197,72413,6,0,P|-11:135|19:55,1,144
89,127,72913,2,0,L|166:110,1,72
257,133,73246,2,0,P|262:95|249:58,2,72
181,199,73746,6,0,P|235:184|284:198,1,108
323,227,74079,2,0,L|309:304,1,72
364,383,74413,6,0,P|310:398|261:384,1,108
222,355,74746,2,0,L|236:278,1,72
181,199,75079,1,0,0:0:0:0:
272,155,75246,6,0,P|344:142|423:163,2,144
181,199,76079,1,0,0:0:0:0:
126,114,76246,1,0,0:0:0:0:
181,199,76413,6,0,L|167:276,1,72
233,346,76746,2,0,L|247:269,1,72
338,234,77079,2,0,P|395:250|472:214,1,144
491,118,77579,5,0,0:0:0:0:
395,149,77746,1,0,0:0:0:0:
307,98,77913,6,0,L|151:122,1,144
264,132,78413,6,0,L|108:156,1,144
221,166,78913,6,0,L|65:190,1,144
178,200,79413,6,0,L|22:224,1,144
79,312,79913,6,0,L|150:301,1,72
249,282,80246,5,0,0:0:0:0:
214,376,80413,1,0,0:0:0:0:
150,301,80579,5,0,0:0:0:0:
256,192,80663,12,0,82913,0:0:0:0:
371,119,83246,6,0,P|382:167|361:221,1,108
317,244,83579,2,0,L|240:232,1,72
148,258,83913,1,0,0:0:0:0:
148,258,84079,2,0,P|143:221|155:187,1,72
237,129,84413,6,0,P|185:96|79:123,1,144
47,185,84913,1,0,0:0:0:0:
5,94,85079,1,0,0:0:0:0:
47,185,85246,6,0,L|34:258,1,72
106,327,85579,2,0,L|119:254,1,72
219,276,85913,6,0,P|288:301|367:291,1,144
415,211,86413,1,0,0:0:0:0:
354,132,86579,2,0,L|373:50,2,72
268,183,87079,6,0,P|219:188|124:151,1,144
58,87,87579,2,0,L|70:14,1,72
143,85,87913,2,0,L|131:158,1,72
43,204,88246,1,0,0:0:0:0:
86,295,88413,1,0,0:0:0:0:
179,255,88579,6,0,L|335:279,1,144
222,289,89079,6,0,L|378:313,1,144
265,323,89579,6,0,L|421:347,1,144
308,357,90079,6,0,L|464:381,1,144
474,280,90579,6,0,L|390:269,1,72
350,183,90913,2,0,L|434:194,1,72
495,124,91246,5,0,0:0:0:0:
