osu file format v14

[General]
AudioFilename: audio.mp3
AudioLeadIn: 0
PreviewTime: 60742
Countdown: 0
SampleSet: Normal
StackLeniency: 0.7
Mode: 1
LetterboxInBreaks: 0
WidescreenStoryboard: 0

[Editor]
DistanceSpacing: 0.3
BeatDivisor: 12
GridSize: 32
TimelineZoom: 1.3

[Metadata]
Title:Karen Setsugetsuka (Artethia & Epsilon Remix)
TitleUnicode:可憐雪月花 (Artethia & Epsilon Remix)
Artist:KEiNA
ArtistUnicode:KEiNA
Creator:yassu-
Version:Muzukashii
Source:絆きらめく恋いろは
Tags:kizuna kirameku koi iroha eroge visual novel opening remix dnb drum and bass drumstep crystalia namaniku
BeatmapID:2009868
BeatmapSetID:953713

[Difficulty]
HPDrainRate:5
CircleSize:5
OverallDifficulty:5
ApproachRate:5
SliderMultiplier:1.4
SliderTickRate:1

[Events]
//Background and Video events
0,0,"bg.jpg",0,75
//Break Periods
2,3004,7028
2,104699,111435
//Storyboard Layer 0 (Background)
//Storyboard Layer 1 (Fail)
//Storyboard Layer 2 (Pass)
//Storyboard Layer 3 (Foreground)
//Storyboard Layer 4 (Overlay)
//Storyboard Sound Samples

[TimingPoints]
93,338.983050847458,4,1,0,70,1,0
8228,-100,4,1,0,85,0,0
61109,-100,4,1,0,100,0,1
82804,-100,4,1,0,85,0,0
101957,-100,4,1,0,70,0,0
121025,-100,4,1,0,85,0,0
124923,-100,4,1,0,20,0,0
125770,-100,4,1,0,70,0,0
126194,-100,4,1,0,100,0,1
147889,-100,4,1,0,90,0,0

[HitObjects]
256,192,2804,5,4,0:0:0:0:
256,192,8228,5,4,0:0:0:0:
256,192,8567,1,2,0:0:0:0:
256,192,9076,1,0,0:0:0:0:
256,192,9245,1,2,0:0:0:0:
256,192,9415,1,0,0:0:0:0:
256,192,9754,1,0,0:0:0:0:
256,192,9923,1,2,0:0:0:0:
256,192,10431,1,0,0:0:0:0:
256,192,10601,1,2,0:0:0:0:
256,192,10940,1,4,0:0:0:0:
256,192,11279,1,2,0:0:0:0:
256,192,11448,1,0,0:0:0:0:
256,192,11787,1,0,0:0:0:0:
256,192,11957,1,2,0:0:0:0:
256,192,12296,1,2,0:0:0:0:
256,192,12635,1,0,0:0:0:0:
256,192,12804,1,2,0:0:0:0:
256,192,12974,1,0,0:0:0:0:
256,192,13059,1,0,0:0:0:0:
256,192,13143,1,0,0:0:0:0:
256,192,13313,1,6,0:0:0:0:
256,192,13652,1,4,0:0:0:0:
256,192,13991,1,2,0:0:0:0:
256,192,14499,1,0,0:0:0:0:
256,192,14669,1,2,0:0:0:0:
256,192,15008,1,0,0:0:0:0:
256,192,15347,1,2,0:0:0:0:
256,192,15855,1,0,0:0:0:0:
288,192,16025,1,2,0:0:0:0:
256,192,16364,1,0,0:0:0:0:
256,192,16703,1,2,0:0:0:0:
256,192,16872,1,0,0:0:0:0:
256,192,17211,1,0,0:0:0:0:
256,192,17381,1,2,0:0:0:0:
256,192,17550,1,0,0:0:0:0:
256,192,17889,1,0,0:0:0:0:
256,192,18059,1,2,0:0:0:0:
256,192,18398,1,0,0:0:0:0:
256,160,18567,1,0,0:0:0:0:
256,192,18737,1,2,0:0:0:0:
256,160,19076,1,4,0:0:0:0:
256,160,19415,1,2,0:0:0:0:
256,192,19754,1,0,0:0:0:0:
256,192,20093,1,2,0:0:0:0:
256,192,20262,1,0,0:0:0:0:
224,192,20601,1,0,0:0:0:0:
256,192,20770,1,2,0:0:0:0:
256,192,20940,1,2,0:0:0:0:
256,192,21109,1,0,0:0:0:0:
256,192,21448,1,2,0:0:0:0:
256,192,21787,1,0,0:0:0:0:
256,192,22126,1,2,0:0:0:0:
256,192,22296,1,0,0:0:0:0:
256,192,22635,1,0,0:0:0:0:
256,192,22804,1,2,0:0:0:0:
256,192,23313,1,0,0:0:0:0:
256,192,23482,1,2,0:0:0:0:
256,192,23821,1,0,0:0:0:0:
256,192,24160,1,2,0:0:0:0:
256,192,24499,1,4,0:0:0:0:
256,192,24838,1,2,0:0:0:0:
256,192,25347,1,0,0:0:0:0:
256,192,25516,1,2,0:0:0:0:
256,192,25855,1,0,0:0:0:0:
256,192,26194,1,2,0:0:0:0:
256,192,26364,1,0,0:0:0:0:
256,192,26703,1,0,0:0:0:0:
256,192,27042,1,2,0:0:0:0:
256,192,27211,1,0,0:0:0:0:
256,192,27550,1,2,0:0:0:0:
256,192,28059,1,0,0:0:0:0:
256,192,28228,1,2,0:0:0:0:
256,192,28567,1,0,0:0:0:0:
256,192,28906,1,2,0:0:0:0:
256,192,29076,1,0,0:0:0:0:
256,192,29415,1,0,0:0:0:0:
256,192,29584,1,0,0:0:0:0:
256,192,29754,1,2,0:0:0:0:
256,192,29923,1,0,0:0:0:0:
256,192,30262,1,2,0:0:0:0:
256,192,30770,1,0,0:0:0:0:
256,192,30940,1,2,0:0:0:0:
256,192,31279,1,0,0:0:0:0:
256,192,31618,1,2,0:0:0:0:
256,192,31957,1,0,0:0:0:0:
256,192,32126,1,0,0:0:0:0:
256,192,32296,1,2,0:0:0:0:
224,160,32465,1,2,0:0:0:0:
256,192,32635,1,4,0:0:0:0:
256,192,32974,1,2,0:0:0:0:
320,128,33143,1,4,0:0:0:0:
256,192,33652,1,2,0:0:0:0:
256,192,33821,1,0,0:0:0:0:
288,192,34160,1,4,0:0:0:0:
256,192,34330,1,2,0:0:0:0:
256,192,34669,1,0,0:0:0:0:
256,192,34838,1,0,0:0:0:0:
256,192,35008,1,2,0:0:0:0:
256,192,35347,1,4,0:0:0:0:
256,192,35686,1,2,0:0:0:0:
256,192,36194,1,0,0:0:0:0:
256,192,36364,1,2,0:0:0:0:
256,192,36703,1,0,0:0:0:0:
256,192,37042,1,2,0:0:0:0:
256,192,37211,1,0,0:0:0:0:
256,192,37550,1,0,0:0:0:0:
256,192,37720,1,2,0:0:0:0:
256,192,38059,1,0,0:0:0:0:
256,192,38398,1,2,0:0:0:0:
256,192,38737,1,2,0:0:0:0:
256,192,38906,1,0,0:0:0:0:
256,192,39076,1,2,0:0:0:0:
256,192,39415,1,0,0:0:0:0:
256,192,39754,1,2,0:0:0:0:
256,192,39923,1,0,0:0:0:0:
256,192,40262,1,0,0:0:0:0:
256,192,40431,1,2,0:0:0:0:
256,192,40601,1,2,0:0:0:0:
256,192,40770,1,0,0:0:0:0:
256,192,41109,1,2,0:0:0:0:
256,192,41618,1,0,0:0:0:0:
256,192,41787,1,2,0:0:0:0:
256,192,41957,1,0,0:0:0:0:
256,192,42126,1,0,0:0:0:0:
256,192,42465,1,2,0:0:0:0:
256,192,42635,1,0,0:0:0:0:
256,192,42974,1,0,0:0:0:0:
256,192,43143,1,2,0:0:0:0:
256,192,43313,1,2,0:0:0:0:
256,192,43482,1,0,0:0:0:0:
256,192,43821,1,2,0:0:0:0:
256,192,44160,1,0,0:0:0:0:
256,192,44330,1,0,0:0:0:0:
256,192,44669,1,6,0:0:0:0:
256,192,45008,1,0,0:0:0:0:
256,192,45177,1,2,0:0:0:0:
256,192,45347,1,0,0:0:0:0:
256,192,45516,1,0,0:0:0:0:
256,192,45601,1,0,0:0:0:0:
256,192,45686,1,0,0:0:0:0:
256,192,45855,1,6,0:0:0:0:
256,192,46194,1,4,0:0:0:0:
288,192,46533,5,2,0:0:0:0:
256,192,47211,1,2,0:0:0:0:
256,192,47550,1,0,0:0:0:0:
256,192,47889,1,2,0:0:0:0:
256,192,48059,1,0,0:0:0:0:
256,192,48567,1,2,0:0:0:0:
256,192,48906,1,4,0:0:0:0:
256,192,49245,1,2,0:0:0:0:
256,192,49923,1,2,0:0:0:0:
256,192,50262,1,0,0:0:0:0:
256,192,50770,1,0,0:0:0:0:
256,192,50940,1,0,0:0:0:0:
256,192,51279,1,2,0:0:0:0:
256,192,51618,1,4,0:0:0:0:
256,192,51872,1,0,0:0:0:0:
256,192,52126,1,0,0:0:0:0:
256,192,52296,1,2,0:0:0:0:
256,192,52635,1,2,0:0:0:0:
256,192,52974,1,4,0:0:0:0:
256,192,53313,1,0,0:0:0:0:
256,192,53652,1,2,0:0:0:0:
256,192,53991,1,2,0:0:0:0:
256,192,54076,1,2,0:0:0:0:
256,192,54160,1,2,0:0:0:0:
256,192,54330,1,4,0:0:0:0:
256,192,54584,1,2,0:0:0:0:
256,192,54838,1,2,0:0:0:0:
256,192,55008,1,0,0:0:0:0:
256,192,55347,1,0,0:0:0:0:
288,192,55686,1,6,0:0:0:0:
256,192,55940,1,0,0:0:0:0:
288,192,56194,1,0,0:0:0:0:
288,192,56364,1,2,0:0:0:0:
256,192,56703,1,0,0:0:0:0:
256,192,57042,1,6,0:0:0:0:
256,192,57296,1,0,0:0:0:0:
256,192,57550,1,0,0:0:0:0:
256,192,57720,1,2,0:0:0:0:
256,192,57974,1,0,0:0:0:0:
256,192,58228,1,0,0:0:0:0:
256,192,58398,1,2,0:0:0:0:
256,192,58652,1,0,0:0:0:0:
256,192,58906,1,0,0:0:0:0:
256,224,59076,1,2,0:0:0:0:
256,192,59245,1,0,0:0:0:0:
256,192,59415,1,2,0:0:0:0:
256,192,59584,1,2,0:0:0:0:
256,192,59754,1,0,0:0:0:0:
256,192,59923,12,0,60601,0:0:0:0:
256,192,60770,5,6,0:0:0:0:
256,192,61109,5,4,0:0:0:0:
256,192,61448,1,2,0:0:0:0:
256,192,61618,1,0,0:0:0:0:
256,192,61787,1,0,0:0:0:0:
256,192,61872,1,0,0:0:0:0:
256,192,61957,1,0,0:0:0:0:
256,192,62126,1,2,0:0:0:0:
256,192,62296,1,0,0:0:0:0:
256,192,62635,1,0,0:0:0:0:
256,192,62804,1,2,0:0:0:0:
256,192,63143,1,0,0:0:0:0:
256,192,63313,1,0,0:0:0:0:
256,192,63482,1,2,0:0:0:0:
256,192,63821,1,0,0:0:0:0:
256,192,64160,5,2,0:0:0:0:
256,192,64330,1,0,0:0:0:0:
256,192,64499,1,2,0:0:0:0:
256,192,64584,1,2,0:0:0:0:
256,192,64669,1,2,0:0:0:0:
256,192,64838,1,2,0:0:0:0:
256,160,65008,1,0,0:0:0:0:
256,192,65347,1,0,0:0:0:0:
256,192,65516,1,2,0:0:0:0:
256,192,65686,1,0,0:0:0:0:
256,192,66025,1,0,0:0:0:0:
256,192,66194,1,2,0:0:0:0:
256,192,66533,1,0,0:0:0:0:
256,192,67211,1,0,0:0:0:0:
256,192,67296,1,0,0:0:0:0:
256,192,67381,1,0,0:0:0:0:
256,192,67550,1,2,0:0:0:0:
256,192,67720,1,0,0:0:0:0:
256,192,68059,1,0,0:0:0:0:
256,192,68228,1,0,0:0:0:0:
256,192,68398,1,2,0:0:0:0:
256,192,68737,1,0,0:0:0:0:
256,192,68906,1,2,0:0:0:0:
256,192,69245,1,4,0:0:0:0:
256,192,69754,1,0,0:0:0:0:
256,192,70262,1,2,0:0:0:0:
256,192,70601,1,0,0:0:0:0:
256,192,70940,1,2,0:0:0:0:
256,192,71109,1,0,0:0:0:0:
256,192,71364,1,0,0:0:0:0:
256,192,71448,1,0,0:0:0:0:
256,192,71618,1,2,0:0:0:0:
256,192,71957,1,4,0:0:0:0:
256,192,72296,1,2,0:0:0:0:
276,182,72465,1,0,0:0:0:0:
256,192,72635,1,2,0:0:0:0:
256,192,72720,1,2,0:0:0:0:
256,192,72804,1,2,0:0:0:0:
256,192,72974,1,2,0:0:0:0:
256,224,73143,1,0,0:0:0:0:
256,192,73482,1,0,0:0:0:0:
256,192,73652,1,2,0:0:0:0:
256,192,73821,1,2,0:0:0:0:
256,192,73991,1,0,0:0:0:0:
256,192,74160,1,0,0:0:0:0:
256,192,74330,1,2,0:0:0:0:
256,192,74669,1,4,0:0:0:0:
288,192,75008,1,2,0:0:0:0:
273,179,75177,1,0,0:0:0:0:
256,192,75347,1,0,0:0:0:0:
256,192,75431,1,0,0:0:0:0:
256,192,75516,1,0,0:0:0:0:
256,192,75686,1,2,0:0:0:0:
256,192,75855,1,0,0:0:0:0:
256,192,76194,1,0,0:0:0:0:
288,192,76364,1,2,0:0:0:0:
256,192,76533,1,0,0:0:0:0:
256,192,76872,1,0,0:0:0:0:
256,192,77042,1,2,0:0:0:0:
224,192,77211,1,2,0:0:0:0:
256,192,77381,1,4,0:0:0:0:
256,192,78059,1,2,0:0:0:0:
224,192,78143,1,2,0:0:0:0:
256,192,78228,1,2,0:0:0:0:
256,192,78398,1,2,0:0:0:0:
256,192,78567,1,0,0:0:0:0:
256,192,78906,1,2,0:0:0:0:
256,192,79245,1,0,0:0:0:0:
224,192,79415,1,0,0:0:0:0:
256,192,79584,1,0,0:0:0:0:
256,192,79754,1,2,0:0:0:0:
256,192,80093,1,4,0:0:0:0:
256,192,80431,1,2,0:0:0:0:
256,192,80601,1,0,0:0:0:0:
256,192,80940,1,0,0:0:0:0:
256,192,81109,1,2,0:0:0:0:
256,192,81618,1,0,0:0:0:0:
256,192,81787,1,2,0:0:0:0:
256,192,82126,1,2,0:0:0:0:
256,192,82296,1,0,0:0:0:0:
256,192,82465,1,2,0:0:0:0:
256,192,82635,1,2,0:0:0:0:
256,192,82804,1,4,0:0:0:0:
256,192,83143,1,2,0:0:0:0:
256,192,83652,1,0,0:0:0:0:
256,192,83821,1,2,0:0:0:0:
256,192,84160,1,0,0:0:0:0:
256,192,84499,1,2,0:0:0:0:
256,192,85008,1,0,0:0:0:0:
256,192,85177,1,2,0:0:0:0:
256,192,85516,1,0,0:0:0:0:
256,192,85855,1,2,0:0:0:0:
256,192,86194,1,0,0:0:0:0:
256,192,86364,1,2,0:0:0:0:
256,192,86703,1,2,0:0:0:0:
256,192,86872,1,0,0:0:0:0:
256,192,87211,1,2,0:0:0:0:
256,192,87550,1,2,0:0:0:0:
256,192,87720,1,0,0:0:0:0:
256,192,87889,1,2,0:0:0:0:
256,192,88228,1,0,0:0:0:0:
256,192,88567,1,2,0:0:0:0:
256,192,89076,1,0,0:0:0:0:
256,192,89245,1,2,0:0:0:0:
256,192,89584,1,0,0:0:0:0:
256,192,89923,1,2,0:0:0:0:
256,192,90262,1,0,0:0:0:0:
256,192,90431,1,0,0:0:0:0:
256,192,90601,1,2,0:0:0:0:
256,192,90940,1,4,0:0:0:0:
256,192,91279,1,2,0:0:0:0:
256,192,91618,1,0,0:0:0:0:
256,192,91787,1,0,0:0:0:0:
256,192,91957,1,2,0:0:0:0:
256,192,92126,1,0,0:0:0:0:
256,192,92465,1,0,0:0:0:0:
256,192,92635,1,2,0:0:0:0:
256,192,92974,1,0,0:0:0:0:
256,192,93313,1,2,0:0:0:0:
256,192,93482,1,2,0:0:0:0:
256,192,93652,1,0,0:0:0:0:
256,192,93991,1,2,0:0:0:0:
256,192,94499,1,0,0:0:0:0:
256,192,94669,1,2,0:0:0:0:
256,192,95008,1,0,0:0:0:0:
256,192,95347,1,2,0:0:0:0:
224,192,95686,1,0,0:0:0:0:
224,192,95855,1,0,0:0:0:0:
256,192,96025,1,2,0:0:0:0:
256,224,96364,1,0,0:0:0:0:
224,192,96703,1,2,0:0:0:0:
224,192,97042,1,0,0:0:0:0:
256,192,97211,1,2,0:0:0:0:
256,192,97550,1,2,0:0:0:0:
256,192,97720,1,0,0:0:0:0:
256,192,98059,1,2,0:0:0:0:
256,160,98398,1,0,0:0:0:0:
288,192,98567,1,0,0:0:0:0:
256,192,98737,1,2,0:0:0:0:
256,192,98906,1,2,0:0:0:0:
256,192,99076,1,0,0:0:0:0:
256,192,99415,1,2,0:0:0:0:
256,192,99923,1,0,0:0:0:0:
256,192,100093,1,2,0:0:0:0:
288,192,100431,1,0,0:0:0:0:
256,192,100770,1,2,0:0:0:0:
288,192,100940,1,0,0:0:0:0:
288,192,101279,1,0,0:0:0:0:
288,192,101448,1,2,0:0:0:0:
256,192,101787,1,4,0:0:0:0:
256,192,102126,12,0,103821,0:0:0:0:
256,192,104160,5,2,0:0:0:0:
256,192,104499,5,4,0:0:0:0:
256,192,112635,5,4,0:0:0:0:
256,192,113143,1,0,0:0:0:0:
256,192,113313,1,2,0:0:0:0:
256,192,113652,1,0,0:0:0:0:
256,192,113991,1,2,0:0:0:0:
256,192,114160,1,0,0:0:0:0:
256,192,114330,1,2,0:0:0:0:
256,192,114499,1,2,0:0:0:0:
288,192,114669,1,0,0:0:0:0:
256,192,115008,1,2,0:0:0:0:
256,192,115347,1,4,0:0:0:0:
263,197,115855,1,0,0:0:0:0:
288,192,116025,1,2,0:0:0:0:
288,192,116364,1,2,0:0:0:0:
256,192,116703,1,0,0:0:0:0:
256,192,117042,1,0,0:0:0:0:
256,192,117211,5,0,0:0:0:0:
256,192,117381,1,2,0:0:0:0:
256,192,117720,1,2,0:0:0:0:
256,192,117889,1,2,0:0:0:0:
256,192,118059,1,0,0:0:0:0:
262,196,118567,1,0,0:0:0:0:
288,256,118737,1,2,0:0:0:0:
288,192,119076,1,2,0:0:0:0:
256,192,119415,1,0,0:0:0:0:
256,192,119754,1,0,0:0:0:0:
256,160,119923,1,0,0:0:0:0:
256,192,120093,1,2,0:0:0:0:
256,160,120431,1,2,0:0:0:0:
261,189,120601,1,2,0:0:0:0:
288,192,120770,1,0,0:0:0:0:
263,197,120940,1,2,0:0:0:0:
288,224,121109,1,0,0:0:0:0:
263,197,121279,1,0,0:0:0:0:
256,192,121448,1,2,0:0:0:0:
288,224,121787,1,2,0:0:0:0:
288,224,121957,1,2,0:0:0:0:
256,192,122126,1,0,0:0:0:0:
256,192,122296,1,2,0:0:0:0:
256,192,122465,1,0,0:0:0:0:
256,192,122635,1,0,0:0:0:0:
256,192,122804,1,2,0:0:0:0:
256,192,122974,1,2,0:0:0:0:
256,192,123143,1,0,0:0:0:0:
256,192,123482,5,2,0:0:0:0:
256,192,123652,5,2,0:0:0:0:
256,192,123737,1,2,0:0:0:0:
256,192,123821,1,2,0:0:0:0:
256,192,124160,1,2,0:0:0:0:
256,192,124330,1,2,0:0:0:0:
256,192,124415,1,2,0:0:0:0:
256,192,124499,1,2,0:0:0:0:
256,192,124838,1,4,0:0:0:0:
256,192,125008,12,4,125516,0:0:0:0:
256,192,125855,5,2,0:0:0:0:
256,192,126194,5,4,0:0:0:0:
288,192,126533,1,0,0:0:0:0:
256,192,126703,1,0,0:0:0:0:
256,192,126872,1,2,0:0:0:0:
256,192,127042,1,0,0:0:0:0:
256,192,127381,1,2,0:0:0:0:
256,192,127720,1,0,0:0:0:0:
288,192,127804,1,0,0:0:0:0:
288,192,127889,1,0,0:0:0:0:
256,192,128059,1,0,0:0:0:0:
256,192,128228,1,2,0:0:0:0:
256,192,128398,5,0,0:0:0:0:
256,192,128567,1,2,0:0:0:0:
256,192,128737,1,2,0:0:0:0:
256,192,128906,1,0,0:0:0:0:
256,192,129245,1,0,0:0:0:0:
256,224,129415,1,0,0:0:0:0:
256,192,129584,1,2,0:0:0:0:
256,192,129754,1,0,0:0:0:0:
256,192,130093,1,4,0:0:0:0:
256,192,130431,1,0,0:0:0:0:
256,192,130770,1,4,0:0:0:0:
256,192,130940,1,2,0:0:0:0:
256,192,131109,1,0,0:0:0:0:
256,192,131448,1,2,0:0:0:0:
256,192,131618,1,4,0:0:0:0:
256,192,132126,1,0,0:0:0:0:
256,192,132296,1,2,0:0:0:0:
256,192,132465,1,0,0:0:0:0:
256,192,132804,1,0,0:0:0:0:
256,192,133143,1,2,0:0:0:0:
256,192,133228,1,2,0:0:0:0:
256,192,133313,1,2,0:0:0:0:
256,192,133482,1,0,0:0:0:0:
256,192,133652,1,2,0:0:0:0:
256,192,133821,1,0,0:0:0:0:
256,192,133991,1,2,0:0:0:0:
256,192,134160,1,2,0:0:0:0:
256,192,134330,1,4,0:0:0:0:
256,192,134838,1,0,0:0:0:0:
256,192,135008,1,2,0:0:0:0:
256,192,135347,1,0,0:0:0:0:
256,192,135686,1,2,0:0:0:0:
256,192,135855,1,0,0:0:0:0:
256,192,136194,1,0,0:0:0:0:
256,192,136364,1,2,0:0:0:0:
256,192,136533,1,2,0:0:0:0:
256,192,136618,1,2,0:0:0:0:
256,192,136703,1,2,0:0:0:0:
256,192,137042,1,4,0:0:0:0:
256,192,137381,1,0,0:0:0:0:
256,192,137550,1,0,0:0:0:0:
256,192,137720,1,2,0:0:0:0:
256,192,137889,1,0,0:0:0:0:
256,192,137974,1,0,0:0:0:0:
256,192,138059,1,0,0:0:0:0:
256,192,138228,1,0,0:0:0:0:
256,192,138567,1,0,0:0:0:0:
256,192,138737,1,0,0:0:0:0:
256,192,138906,1,2,0:0:0:0:
256,192,138991,1,2,0:0:0:0:
256,192,139076,1,2,0:0:0:0:
256,192,139245,1,0,0:0:0:0:
256,192,139415,1,2,0:0:0:0:
288,192,139584,1,2,0:0:0:0:
256,192,139754,1,0,0:0:0:0:
256,192,140093,1,0,0:0:0:0:
256,192,140262,1,0,0:0:0:0:
256,192,140431,1,2,0:0:0:0:
256,192,140601,1,0,0:0:0:0:
256,192,140940,1,4,0:0:0:0:
288,192,141279,1,0,0:0:0:0:
256,192,141364,1,0,0:0:0:0:
256,192,141448,1,0,0:0:0:0:
256,192,141618,1,0,0:0:0:0:
256,192,141787,1,2,0:0:0:0:
256,192,142126,1,0,0:0:0:0:
256,192,142296,1,2,0:0:0:0:
256,192,142465,1,4,0:0:0:0:
256,192,142804,1,0,0:0:0:0:
256,192,142974,1,0,0:0:0:0:
256,192,143143,1,2,0:0:0:0:
256,192,143313,1,0,0:0:0:0:
256,192,143398,1,0,0:0:0:0:
256,192,143482,1,0,0:0:0:0:
256,192,143652,1,0,0:0:0:0:
288,192,143991,1,0,0:0:0:0:
256,192,144160,1,0,0:0:0:0:
256,192,144330,1,2,0:0:0:0:
256,192,144415,1,2,0:0:0:0:
288,192,144499,1,2,0:0:0:0:
256,192,144669,1,0,0:0:0:0:
256,192,144838,1,2,0:0:0:0:
256,192,145008,1,2,0:0:0:0:
288,192,145177,1,4,0:0:0:0:
256,192,145516,1,2,0:0:0:0:
256,192,145686,1,0,0:0:0:0:
256,192,146025,1,2,0:0:0:0:
288,192,146194,1,0,0:0:0:0:
256,192,146533,1,2,0:0:0:0:
256,192,146703,1,0,0:0:0:0:
288,192,147211,1,2,0:0:0:0:
256,192,147381,1,0,0:0:0:0:
256,192,147550,1,2,0:0:0:0:
256,192,147720,1,2,0:0:0:0:
256,192,147889,1,0,0:0:0:0:
256,192,148228,1,6,0:0:0:0:
256,192,148737,1,0,0:0:0:0:
256,192,148906,1,2,0:0:0:0:
256,192,149076,1,0,0:0:0:0:
256,192,149415,5,0,0:0:0:0:
256,192,149584,1,2,0:0:0:0:
256,192,149754,5,2,0:0:0:0:
256,192,149923,1,0,0:0:0:0:
256,192,150262,1,2,0:0:0:0:
256,192,150601,5,0,0:0:0:0:
256,192,150940,1,2,0:0:0:0:
256,192,151109,1,0,0:0:0:0:
256,192,151448,1,0,0:0:0:0:
256,192,151618,1,2,0:0:0:0:
256,192,151787,1,0,0:0:0:0:
256,192,151957,1,0,0:0:0:0:
256,192,152296,1,2,0:0:0:0:
256,192,152465,1,2,0:0:0:0:
256,192,152635,1,0,0:0:0:0:
256,192,152804,1,0,0:0:0:0:
256,192,152974,1,2,0:0:0:0:
256,192,153313,5,0,0:0:0:0:
256,192,153652,1,6,0:0:0:0:
256,192,154160,1,0,0:0:0:0:
256,192,154330,1,2,0:0:0:0:
256,192,154669,1,0,0:0:0:0:
256,192,155008,1,2,0:0:0:0:
256,192,155177,1,2,0:0:0:0:
256,192,155347,1,0,0:0:0:0:
256,192,155686,1,2,0:0:0:0:
256,192,156025,1,4,0:0:0:0:
256,192,156533,1,0,0:0:0:0:
256,192,156872,1,0,0:0:0:0:
256,192,157042,1,2,0:0:0:0:
256,192,157211,1,0,0:0:0:0:
256,192,157550,1,0,0:0:0:0:
256,192,157720,1,2,0:0:0:0:
256,192,157889,1,2,0:0:0:0:
256,192,158059,1,0,0:0:0:0:
256,192,158398,1,2,0:0:0:0:
256,192,158567,1,2,0:0:0:0:
256,192,158737,1,4,0:0:0:0:
256,192,159076,5,2,0:0:0:0:
256,192,159415,5,0,0:0:0:0:
256,192,159584,1,0,0:0:0:0:
256,192,159754,1,2,0:0:0:0:
256,192,159923,1,0,0:0:0:0:
256,192,160262,1,0,0:0:0:0:
256,192,160431,1,2,0:0:0:0:
256,192,160601,1,2,0:0:0:0:
256,192,160770,1,0,0:0:0:0:
256,192,161109,1,2,0:0:0:0:
256,192,161448,1,0,0:0:0:0:
256,192,161787,1,2,0:0:0:0:
256,192,161957,1,0,0:0:0:0:
256,192,162296,1,0,0:0:0:0:
256,192,162465,1,2,0:0:0:0:
256,192,162804,1,0,0:0:0:0:
256,192,162974,1,2,0:0:0:0:
256,192,163059,1,2,0:0:0:0:
256,192,163143,1,2,0:0:0:0:
256,192,163313,1,2,0:0:0:0:
256,192,163482,1,0,0:0:0:0:
256,192,163821,1,6,0:0:0:0:
256,192,163991,1,0,0:0:0:0:
256,192,164076,1,0,0:0:0:0:
256,192,164160,1,0,0:0:0:0:
256,192,164499,1,0,0:0:0:0:
256,192,164669,1,0,0:0:0:0:
256,192,164838,1,2,0:0:0:0:
256,192,165177,1,2,0:0:0:0:
256,192,165347,1,0,0:0:0:0:
256,192,165516,1,2,0:0:0:0:
256,192,165686,1,0,0:0:0:0:
256,192,165855,1,0,0:0:0:0:
256,192,166025,1,0,0:0:0:0:
256,192,166194,1,2,0:0:0:0:
256,192,166533,1,0,0:0:0:0:
256,192,166703,1,2,0:0:0:0:
256,192,166872,1,4,0:0:0:0:
256,192,167042,12,0,169245,0:0:0:0:
256,192,169584,5,4,0:0:0:0:
